osu file format v14

[General]
AudioFilename: audio.mp3
AudioLeadIn: 0
PreviewTime: 55310
Countdown: 0
SampleSet: Soft
StackLeniency: 0.6
Mode: 0
LetterboxInBreaks: 0
WidescreenStoryboard: 1

[Editor]
DistanceSpacing: 0.4
BeatDivisor: 4
GridSize: 16
TimelineZoom: 2.2

[Metadata]
Title:Ashiato (TV Size)
TitleUnicode:足跡 (TV Size)
Artist:the peggies
ArtistUnicode:the peggies
Creator:My Angel Nino
Version:Plus Ultra
Source:僕のヒーローアカデミア
Tags:hakashii imaginative 1 miss 1_miss boku no my hero academia 5th season 5 ed ending theme song j-pop jpop anime 2021 short jrock japanese alternative pop pop-rock j-rock altrock alt-rock rock poprock footprints
BeatmapID:2939383
BeatmapSetID:1422944

[Difficulty]
HPDrainRate:6
CircleSize:4
OverallDifficulty:8.5
ApproachRate:9
SliderMultiplier:2
SliderTickRate:1

[Events]
//Background and Video events
0,0,"man.jpg",0,0
Video,0,"osump4.mp4"
//Break Periods
//Storyboard Layer 0 (Background)
//Storyboard Layer 1 (Fail)
//Storyboard Layer 2 (Pass)
//Storyboard Layer 3 (Foreground)
//Storyboard Layer 4 (Overlay)
//Storyboard Sound Samples

[TimingPoints]
347,365.853658536585,4,2,1,30,1,0
347,-181.818181818181,4,2,1,30,0,0
6200,-133.333333333333,4,2,1,45,0,0
8670,-133.333333333333,4,2,1,5,0,0
8761,-133.333333333333,4,2,1,45,0,0
9036,-133.333333333333,4,2,1,5,0,0
9127,-133.333333333333,4,2,1,45,0,0
11962,-133.333333333333,4,2,1,5,0,0
12054,-100,4,2,1,72,0,0
15621,-100,4,2,1,5,0,0
15895,-100,4,2,1,72,0,0
15987,-100,4,2,1,5,0,0
16078,-100,4,2,1,72,0,0
17907,-153.846153846153,4,2,1,45,0,0
18090,-153.846153846153,4,2,1,5,0,0
18182,-153.846153846153,4,2,1,45,0,0
18456,-153.846153846153,4,2,1,52,0,0
18639,-153.846153846153,4,2,1,60,0,0
19371,-153.846153846153,4,2,1,45,0,0
26596,-153.846153846153,4,2,1,5,0,0
26688,-153.846153846153,4,2,1,45,0,0
28060,-153.846153846153,4,2,1,5,0,0
28151,-153.846153846153,4,2,1,45,0,0
28792,-153.846153846153,4,2,1,5,0,0
28883,-153.846153846153,4,2,1,45,0,0
31078,-133.333333333333,4,2,1,54,0,0
31353,-133.333333333333,4,2,1,5,0,0
31444,-133.333333333333,4,2,1,54,0,0
37389,-133.333333333333,4,2,1,5,0,0
37481,-133.333333333333,4,2,1,54,0,0
37755,-133.333333333333,4,2,1,5,0,0
37846,-133.333333333333,4,2,1,54,0,0
38121,-133.333333333333,4,2,1,5,0,0
38212,-133.333333333333,4,2,1,54,0,0
38670,-133.333333333333,4,2,1,5,0,0
38761,-133.333333333333,4,2,1,54,0,0
39127,-105.263157894736,4,2,1,72,0,0
39310,-105.263157894736,4,2,1,5,0,0
39401,-105.263157894736,4,2,1,72,0,0
39584,-105.263157894736,4,2,1,5,0,0
39676,-105.263157894736,4,2,1,72,0,0
39767,-105.263157894736,4,2,1,5,0,0
39859,-117.647058823529,4,2,1,54,0,0
40590,-117.647058823529,4,2,1,72,0,0
42786,-153.846153846153,4,2,1,45,0,0
44432,-153.846153846153,4,2,1,5,0,0
44523,-153.846153846153,4,2,1,45,0,0
44706,-153.846153846153,4,2,1,5,0,0
44798,-153.846153846153,4,2,1,45,0,0
46718,-153.846153846153,4,2,1,5,0,0
46810,-153.846153846153,4,2,1,45,0,0
50377,-153.846153846153,4,2,1,45,0,0
52938,-153.846153846153,4,2,1,5,0,0
53029,-153.846153846153,4,2,1,45,0,0
53304,-153.846153846153,4,2,1,5,0,0
53395,-153.846153846153,4,2,1,45,0,0
53761,-117.647058823529,4,2,1,62,0,0
54127,-117.647058823529,4,2,1,62,0,0
54483,-95.2380952380949,4,2,1,72,0,0
55956,-80,4,2,1,84,0,1
56779,-80,4,2,1,5,0,1
56871,-80,4,2,1,84,0,1
62633,-80,4,2,1,5,0,1
62725,-80,4,2,1,84,0,1
68487,-80,4,2,1,5,0,1
68578,-80,4,2,1,84,0,1
74340,-80,4,2,1,5,0,1
74432,-80,4,2,1,84,0,1
79371,-90.9090909090909,4,2,1,84,0,1
83578,-90.9090909090909,4,2,1,84,0,0
83670,-90.9090909090909,4,2,1,5,0,0
83944,-90.9090909090909,4,2,1,84,0,0
84036,-90.9090909090909,4,2,1,5,0,0
84676,-90.9090909090909,4,2,1,84,0,0
85131,-90.9090909090909,4,2,1,5,0,0
85225,375,4,2,1,72,1,0
85225,-100,4,2,1,72,0,0
85693,-100,4,2,1,5,0,0
85787,-100,4,2,1,72,0,0
86443,-100,4,2,1,5,0,0
86537,-100,4,2,1,72,0,0
86912,-100,4,2,1,5,0,0
87006,-100,4,2,1,72,0,0
87193,-100,4,2,1,5,0,0
87287,-100,4,2,1,72,0,0
87475,-100,4,2,1,72,0,0
87756,-100,4,2,1,5,0,0

[Colours]
Combo1 : 128,0,255
Combo2 : 128,128,192
Combo3 : 255,128,192

[HitObjects]
224,349,347,6,0,P|197:344|169:340,1,55.0000016784669,2|2,0:0|0:0,0:0:0:0:
115,259,712,1,2,0:0:0:0:
0,293,895,2,0,P|27:288|117:268,1,110.000003356934,2|2,0:0|0:0,0:0:0:0:
169,181,1444,1,2,0:0:0:0:
49,159,1627,2,0,P|74:168|162:196,1,110.000003356934,2|2,0:0|0:0,0:0:0:0:
202,111,2176,1,2,0:0:0:0:
133,44,2359,2,0,P|105:48|78:53,1,55.0000016784669,2|0,0:0|0:0,0:0:0:0:
223,124,2725,5,2,0:0:0:0:
223,124,2907,1,2,0:0:0:0:
306,57,3090,2,0,P|310:84|327:174,1,110.000003356934,2|2,0:0|0:0,0:0:0:0:
402,92,3639,1,2,0:0:0:0:
322,202,3822,6,0,P|283:226|220:215,1,110.000003356934,2|2,0:0|0:0,0:0:0:0:
287,310,4371,1,2,0:0:0:0:
402,295,4554,6,0,B|465:289|452:315|510:309,1,110.000003356934,2|2,0:0|0:0,0:0:0:0:
411,210,5103,1,2,0:0:0:0:
382,322,5286,6,0,P|350:330|272:352,1,110.000003356934,2|2,0:0|0:0,0:0:0:0:
403,230,5834,2,0,P|396:187|389:145,1,82.5000025177003,2|0,1:2|0:0,0:0:0:0:
383,119,6200,5,6,1:2:0:0:
304,58,6383,1,2,0:0:0:0:
304,58,6566,1,2,1:2:0:0:
246,148,6749,2,0,P|212:117|187:91,1,75.0000028610231,2|0,0:0|1:2,0:0:0:0:
144,16,7115,5,2,0:0:0:0:
144,16,7298,1,2,1:2:0:0:
76,89,7481,2,0,P|66:125|58:161,1,75.0000028610231,2|0,0:0|1:2,0:0:0:0:
189,115,7846,5,2,0:0:0:0:
189,115,8029,1,2,1:2:0:0:
193,206,8212,1,2,0:0:0:0:
188,220,8304,1,0,0:0:0:0:
183,234,8395,6,0,P|247:222|327:213,1,112.500004291535,0|0,1:2|0:0,0:0:0:0:
185,248,8761,2,0,P|249:236|329:227,1,112.500004291535,2|0,1:2|0:0,0:0:0:0:
319,242,9127,6,0,P|357:258|423:311,1,112.500004291535,6|2,1:2|0:0,0:0:0:0:
429,331,9493,1,8,0:0:0:0:
493,169,9676,1,8,0:0:0:0:
306,251,9859,5,8,0:0:0:0:
451,342,10042,1,8,0:0:0:0:
363,115,10225,1,10,0:0:0:0:
291,267,10407,1,10,0:0:0:0:
278,268,11505,1,2,1:2:0:0:
114,201,11688,2,0,P|130:248|160:338,1,112.500004291535,8|0,0:0|0:0,0:0:0:0:
162,333,12054,6,0,P|182:287|208:241,1,100,6|2,1:2|0:0,0:0:0:0:
99,248,12420,1,10,0:0:0:0:
271,331,12603,2,0,P|375:318|471:301,1,200,2|2,1:2|1:2,0:0:0:0:
331,242,13151,1,10,0:0:0:0:
242,324,13334,6,0,B|199:299|136:322|164:353|101:378|47:339,1,200,2|2,1:2|1:2,0:0:0:0:
214,200,13883,1,10,0:0:0:0:
23,327,14066,6,0,P|37:234|130:216,1,200,2|2,1:2|1:2,0:0:0:0:
38,111,14615,1,10,0:0:0:0:
206,63,14798,6,0,P|264:48|306:39,1,100,2|0,1:2|0:0,0:0:0:0:
474,78,15164,1,2,1:2:0:0:
357,146,15346,1,10,0:0:0:0:
193,42,15529,6,0,P|137:57|106:61,1,50,2|0,1:2|0:0,0:0:0:0:
365,165,15895,6,0,P|375:202|380:236,1,50,2|0,1:2|0:0,0:0:0:0:
440,81,16078,1,10,0:0:0:0:
309,24,16261,6,0,P|237:21|216:149,1,200,6|0,1:2|1:2,0:0:0:0:
344,169,16810,1,8,0:0:0:0:
393,55,16993,6,0,P|465:52|486:180,1,200,4|0,1:2|1:2,0:0:0:0:
358,200,17542,1,8,0:0:0:0:
318,203,17633,1,8,0:0:0:0:
278,207,17724,1,8,0:0:0:0:
238,210,17816,1,8,0:0:0:0:
199,211,17908,6,0,P|158:200|112:193,1,64.9999970245363,2|0,0:2|0:0,0:0:0:0:
125,195,18182,1,2,0:0:0:0:
115,196,18273,1,2,1:2:0:0:
37,132,18456,2,0,L|7:148,1,32.4999985122681,2|2,0:0|0:0,0:0:0:0:
81,33,18639,6,0,L|88:93,1,32.4999985122681,10|2,0:0|0:0,0:0:0:0:
99,205,18822,1,2,1:2:0:0:
119,230,19371,6,0,P|172:221|252:203,1,129.999994049073,6|2,1:2|1:2,0:0:0:0:
277,327,19920,1,0,0:0:0:0:
277,327,20103,2,0,P|224:336|144:354,1,129.999994049073,2|0,1:2|1:2,0:0:0:0:
258,196,20834,5,2,1:2:0:0:
258,196,21018,2,0,P|312:208|341:212,1,64.9999970245363,8|0,0:0|1:2,0:0:0:0:
281,277,21383,1,0,0:0:0:0:
311,126,21566,2,0,P|319:86|325:56,2,64.9999970245363,2|2|2,1:2|0:0|1:2,0:0:0:0:
284,257,22115,1,2,0:0:0:0:
272,263,22206,1,0,0:0:0:0:
260,269,22298,6,0,P|212:260|171:255,1,64.9999970245363,2|0,1:2|0:0,0:0:0:0:
133,149,22664,1,2,1:2:0:0:
133,149,22847,2,0,P|124:197|119:238,1,64.9999970245363,2|0,0:0|1:2,0:0:0:0:
15,272,23212,1,2,0:0:0:0:
15,272,23396,2,0,P|63:281|104:286,1,64.9999970245363,2|2,1:2|0:0,0:0:0:0:
175,350,23761,6,0,P|167:298|150:216,1,129.999994049073,2|0,1:2|1:2,0:0:0:0:
151,222,24493,2,0,P|103:271|28:274,1,129.999994049073,2|2,1:2|1:2,0:0:0:0:
68,184,25042,1,0,0:0:0:0:
59,174,25133,1,0,0:0:0:0:
48,165,25225,6,0,P|104:173|190:184,1,129.999994049073,2|2,1:2|1:2,0:0:0:0:
289,162,25774,2,0,P|298:124|305:95,1,64.9999970245363,2|0,0:0|1:2,0:0:0:0:
406,216,26139,1,2,0:0:0:0:
406,216,26322,2,0,P|392:263|375:330,1,97.4999955368044,0|0,1:2|0:0,0:0:0:0:
376,322,26688,5,2,1:2:0:0:
244,337,26871,2,0,P|283:319|310:308,1,64.9999970245363,8|2,0:0|1:2,0:0:0:0:
255,222,27237,1,2,0:0:0:0:
255,222,27420,2,0,P|216:240|189:251,1,64.9999970245363,2|0,1:2|0:0,0:0:0:0:
85,293,27786,2,0,P|97:245|108:198,1,97.4999955368044,2|0,1:2|0:0,0:0:0:0:
112,186,28152,6,0,P|58:174|29:168,1,64.9999970245363,2|0,1:2|0:0,0:0:0:0:
143,23,28517,2,0,P|167:96|184:148,1,129.999994049073,2|0,1:2|0:0,0:0:0:0:
258,193,29066,2,0,P|210:180|188:172,2,64.9999970245363,2|2|2,0:0|1:2|0:0,0:0:0:0:
361,258,29615,5,0,1:2:0:0:
361,258,29798,1,0,1:2:0:0:
345,174,29981,1,0,1:2:0:0:
330,90,30164,1,0,1:2:0:0:
457,306,30346,5,0,1:2:0:0:
465,315,30438,1,0,1:2:0:0:
474,323,30529,1,8,0:0:0:0:
467,290,30621,1,8,0:0:0:0:
461,258,30712,1,8,0:0:0:0:
454,225,30804,1,8,0:0:0:0:
448,193,30895,2,0,L|439:147,1,32.4999985122681,0|0,1:2|0:0,0:0:0:0:
360,125,31078,6,0,P|297:146|220:163,1,112.500004291535,6|0,0:0|0:0,0:0:0:0:
237,156,31444,2,0,P|220:120|204:71,1,75.0000028610231,10|0,0:0|0:0,0:0:0:0:
117,184,31810,1,2,1:2:0:0:
117,184,31993,2,0,P|134:220|150:269,1,75.0000028610231,0|0,1:2|0:0,0:0:0:0:
250,330,32359,1,10,0:0:0:0:
250,330,32542,5,2,1:2:0:0:
317,241,32725,2,0,P|359:229|406:220,1,75.0000028610231,8|0,0:0|0:0,0:0:0:0:
487,113,33091,1,0,1:2:0:0:
482,127,33182,1,0,1:2:0:0:
477,141,33274,1,2,1:2:0:0:
402,237,33457,1,0,1:2:0:0:
327,137,33640,2,0,P|285:125|238:116,1,75.0000028610231,8|2,0:0|0:0,0:0:0:0:
110,139,34005,5,2,1:2:0:0:
165,33,34188,1,2,0:0:0:0:
197,195,34371,1,10,0:0:0:0:
242,90,34554,1,2,1:2:0:0:
253,99,34645,1,0,1:2:0:0:
265,107,34737,2,0,P|300:96|337:88,1,75.0000028610231,2|0,1:2|1:2,0:0:0:0:
153,24,35103,2,0,P|117:34|80:42,1,75.0000028610231,2|8,0:0|0:0,0:0:0:0:
214,186,35468,5,2,1:2:0:0:
214,186,35652,2,0,P|221:122|236:20,1,150.000005722046,8|0,0:0|0:0,0:0:0:0:
65,140,36201,2,0,P|107:127|154:114,1,75.0000028610231,2|0,1:2|1:2,0:0:0:0:
232,205,36566,1,10,0:0:0:0:
309,106,36749,1,8,0:0:0:0:
318,117,36840,1,8,0:0:0:0:
327,128,36932,6,0,P|369:107|471:206,1,187.500007152558,6|0,1:2|0:0,0:0:0:0:
466,193,37481,2,0,P|442:240|418:317,1,112.500004291535,10|0,0:0|0:0,0:0:0:0:
423,311,37846,2,0,P|377:301|289:287,1,112.500004291535,10|0,0:0|0:0,0:0:0:0:
297,291,38212,1,0,1:2:0:0:
283,298,38304,1,0,1:2:0:0:
270,305,38395,6,0,P|201:299|151:335,1,112.500004291535,6|0,1:2|0:0,0:0:0:0:
155,331,38761,1,2,1:2:0:0:
52,358,38944,1,2,1:2:0:0:
58,344,39036,1,0,1:2:0:0:
64,330,39127,6,0,P|46:268|25:203,1,94.9999974632264,14|2,0:0|0:0,0:0:0:0:
84,179,39402,2,0,P|102:117|123:52,1,94.9999974632264,12|0,0:0|0:0,0:0:0:0:
43,50,39676,2,0,P|32:19|27:2,1,47.4999987316132,14|0,0:0|0:0,0:0:0:0:
159,191,39859,6,0,P|207:177|248:168,1,85.0000016212464,6|0,1:2|0:0,0:0:0:0:
390,225,40225,1,2,1:2:0:0:
372,60,40407,1,2,1:2:0:0:
254,269,40590,5,8,0:0:0:0:
454,120,40774,1,10,0:0:0:0:
150,162,40956,1,8,0:0:0:0:
379,260,41140,1,10,0:0:0:0:
222,33,41322,6,0,P|232:100|241:157,1,113.333335494995,4|0,0:0|0:0,0:0:0:0:
259,267,41688,6,0,L|331:255,1,56.6666677474976,8|8,0:0|0:0,0:0:0:0:
412,240,41932,5,8,0:0:0:0:
509,150,42054,6,0,L|437:162,1,56.6666677474976,0|8,1:2|0:0,0:0:0:0:
353,177,42298,5,8,0:0:0:0:
245,193,42420,6,0,L|181:204,2,56.6666677474976,0|0|0,1:2|1:2|1:2,0:0:0:0:
360,155,42786,6,0,P|411:163|453:168,1,86.6666626993817,6|2,0:0|0:0,0:0:0:0:
492,154,43152,2,0,P|481:199|471:236,1,64.9999970245363,2|2,0:0|1:2,0:0:0:0:
407,304,43518,2,0,P|418:349|428:386,1,64.9999970245363,10|0,0:0|0:0,0:0:0:0:
307,247,43884,1,2,0:0:0:0:
307,247,44066,1,2,1:2:0:0:
237,321,44249,6,0,P|193:309|147:299,1,64.9999970245363,2|0,1:2|0:0,0:0:0:0:
161,308,44524,2,0,P|136:329|102:342,1,64.9999970245363,2|0,1:2|0:0,0:0:0:0:
93,340,44798,1,2,1:2:0:0:
18,258,44981,2,0,P|28:216|43:125,1,129.999994049073,10|0,0:0|0:0,0:0:0:0:
208,133,45530,5,2,0:0:0:0:
130,181,45713,2,0,P|123:212|119:244,1,64.9999970245363,2|2,1:2|0:0,0:0:0:0:
219,123,46079,2,0,P|259:132|289:135,1,64.9999970245363,2|0,0:0|1:2,0:0:0:0:
384,93,46444,2,0,P|380:133|374:199,1,97.4999955368044,10|0,0:0|0:0,0:0:0:0:
381,201,46810,2,0,P|375:248|371:286,1,64.9999970245363,10|0,0:0|0:0,0:0:0:0:
300,121,47176,5,2,1:2:0:0:
300,121,47359,2,0,P|253:115|215:111,1,64.9999970245363,10|2,0:0|0:0,0:0:0:0:
104,259,47908,2,0,P|115:218|134:130,1,129.999994049073,10|2,0:0|0:0,0:0:0:0:
204,213,48456,1,0,1:2:0:0:
37,178,48639,6,0,P|26:219|7:307,1,129.999994049073,6|2,1:2|0:0,0:0:0:0:
100,372,49188,1,2,1:2:0:0:
100,372,49371,2,0,P|106:335|112:306,2,64.9999970245363,10|2|0,0:0|0:0|0:0,0:0:0:0:
197,273,49920,1,2,1:2:0:0:
197,273,50103,6,0,P|261:257|290:242,1,97.4999955368044,0|0,1:2|1:2,0:0:0:0:
296,232,50469,2,0,P|345:244|380:256,1,64.9999970245363,2|0,0:0|1:2,0:0:0:0:
435,156,50835,2,0,P|386:144|351:132,1,64.9999970245363,10|0,0:0|0:0,0:0:0:0:
482,235,51200,6,0,P|474:190|467:102,1,129.999994049073,2|0,1:2|0:0,0:0:0:0:
378,40,51749,2,0,P|339:48|290:53,1,64.9999970245363,0|8,1:2|0:0,0:0:0:0:
257,144,52115,1,2,0:0:0:0:
257,144,52298,1,10,0:0:0:0:
167,65,52481,1,2,0:0:0:0:
167,65,52664,2,0,P|150:119|138:164,1,97.4999955368044,2|0,1:2|0:0,0:0:0:0:
136,174,53029,6,0,P|171:200|175:260,1,97.4999955368044,2|0,1:2|0:0,0:0:0:0:
173,266,53395,1,0,1:2:0:0:
200,249,53486,1,0,1:2:0:0:
232,246,53579,1,0,1:2:0:0:
262,259,53669,1,0,1:2:0:0:
282,284,53761,1,0,1:2:0:0:
308,317,53853,1,0,1:2:0:0:
346,335,53944,1,0,1:2:0:0:
388,336,54036,1,0,1:2:0:0:
426,318,54127,2,0,L|437:267,3,42.5000008106232,0|0|0|0,1:2|1:2|1:2|1:2,0:0:0:0:
367,198,54493,5,10,0:0:0:0:
317,183,54584,1,8,0:0:0:0:
266,193,54675,1,8,0:0:0:0:
226,227,54767,1,8,0:0:0:0:
207,275,54859,1,8,0:0:0:0:
187,323,54950,1,8,0:0:0:0:
148,356,55042,1,8,0:0:0:0:
97,367,55133,1,8,0:0:0:0:
47,352,55224,1,12,0:0:0:0:
33,365,55957,6,0,P|43:311|58:222,1,125,6|2,1:2|0:0,0:0:0:0:
117,24,56322,1,10,0:0:0:0:
41,136,56505,2,0,P|98:118|224:73,1,187.5,2|0,1:2|0:0,0:0:0:0:
235,38,56871,5,2,1:2:0:0:
319,166,57054,1,10,0:0:0:0:
389,35,57237,2,0,P|464:21|514:16,1,125,2|0,1:2|0:0,0:0:0:0:
321,183,57603,5,2,1:2:0:0:
221,30,57786,1,10,0:0:0:0:
143,213,57969,2,0,P|68:227|18:232,1,125,2|0,1:2|0:0,0:0:0:0:
268,343,58334,5,2,1:2:0:0:
164,222,58517,1,10,0:0:0:0:
244,96,58700,2,0,P|329:105|504:129,1,250,6|2,1:2|1:2,0:0:0:0:
385,27,59249,1,10,0:0:0:0:
339,260,59432,6,0,B|278:293|211:251|255:211|194:163|115:202,1,250,6|2,1:2|1:2,0:0:0:0:
238,77,59981,1,10,0:0:0:0:
359,247,60164,6,0,P|367:168|393:-12,1,250,6|2,1:2|1:2,0:0:0:0:
472,145,60712,1,10,0:0:0:0:
242,53,60896,6,0,P|180:32|102:175,1,250,6|2,1:2|1:2,0:0:0:0:
232,322,61444,1,10,0:0:0:0:
365,199,61627,1,10,0:0:0:0:
375,214,61718,1,10,0:0:0:0:
385,229,61810,6,0,P|451:242|511:249,1,125,6|2,1:2|0:0,0:0:0:0:
432,333,62176,1,10,0:0:0:0:
498,134,62359,2,0,P|412:117|371:213,1,187.5,2|0,1:2|0:0,0:0:0:0:
372,219,62725,5,2,1:2:0:0:
298,77,62907,1,10,0:0:0:0:
208,212,63091,2,0,P|143:225|77:233,1,125,2|0,1:2|0:0,0:0:0:0:
291,63,63456,5,2,1:2:0:0:
379,233,63640,1,10,0:0:0:0:
477,23,63822,2,0,P|464:84|453:145,2,125,2|0|0,1:2|0:0|1:0,0:0:0:0:
498,241,64371,1,10,0:0:0:0:
365,67,64554,6,0,P|289:86|117:122,1,250,6|2,1:2|1:2,0:0:0:0:
16,312,65103,5,8,0:0:0:0:
106,116,65286,1,0,1:2:0:0:
155,362,65468,5,8,0:0:0:0:
129,103,65651,1,0,1:2:0:0:
332,345,65834,1,10,0:0:0:0:
149,111,66018,6,0,P|158:190|172:377,1,250,6|2,1:2|1:2,0:0:0:0:
59,249,66566,1,10,0:0:0:0:
240,125,66749,6,0,P|326:101|402:246,1,250,6|2,1:2|1:2,0:0:0:0:
323,359,67298,1,10,0:0:0:0:
273,352,67389,1,8,0:0:0:0:
223,346,67481,1,10,0:0:0:0:
174,340,67572,1,8,0:0:0:0:
124,334,67664,6,0,P|107:261|96:204,1,125,6|2,1:2|0:0,0:0:0:0:
306,109,68029,1,10,0:0:0:0:
199,57,68212,2,0,P|215:140|243:276,1,187.5,2|0,1:2|0:0,0:0:0:0:
243,274,68578,5,2,1:2:0:0:
327,143,68761,1,10,0:0:0:0:
449,261,68944,2,0,P|435:322|423:383,1,125,2|0,1:2|0:0,0:0:0:0:
335,129,69310,5,2,1:2:0:0:
234,287,69493,1,10,0:0:0:0:
136,126,69676,2,0,P|74:139|13:151,1,125,2|0,1:2|0:0,0:0:0:0:
189,4,70042,5,2,1:2:0:0:
251,142,70225,1,10,0:0:0:0:
136,272,70407,2,0,P|206:292|398:330,1,250,6|2,1:2|1:2,0:0:0:0:
406,133,70956,1,8,0:0:0:0:
512,212,71139,6,0,B|449:180|373:229|413:262|350:311|272:280,1,250,6|2,1:2|1:2,0:0:0:0:
145,93,71688,1,10,0:0:0:0:
0,148,71871,6,0,P|71:168|254:206,1,250,6|0,1:2|1:2,0:0:0:0:
0,384,72420,1,10,0:0:0:0:
121,262,72603,6,0,P|190:237|260:380,1,250,6|2,1:2|1:2,0:0:0:0:
186,326,73151,1,10,0:0:0:0:
157,76,73334,1,10,0:0:0:0:
173,85,73426,1,10,0:0:0:0:
188,94,73518,6,0,P|259:80|329:64,1,125,6|2,1:2|0:0,0:0:0:0:
502,190,73883,1,10,0:0:0:0:
369,122,74066,2,0,P|357:165|312:335,1,187.5,2|0,1:2|0:0,0:0:0:0:
304,321,74432,5,2,1:2:0:0:
205,198,74615,1,10,0:0:0:0:
120,332,74798,2,0,P|69:346|-2:364,1,125,2|0,1:2|0:0,0:0:0:0:
195,185,75164,5,2,1:2:0:0:
313,333,75347,1,10,0:0:0:0:
389,161,75530,2,0,P|440:147|511:129,2,125,2|0|0,1:2|0:0|1:2,0:0:0:0:
295,337,76078,1,10,0:0:0:0:
180,168,76261,6,0,P|117:146|58:296,1,250,6|2,1:2|1:2,0:0:0:0:
203,383,76810,5,8,0:0:0:0:
303,168,76993,1,0,1:2:0:0:
72,292,77176,5,8,0:0:0:0:
355,266,77359,1,0,1:2:0:0:
161,101,77542,1,10,0:0:0:0:
211,374,77725,6,0,P|220:301|243:110,1,250,6|2,1:2|1:2,0:0:0:0:
339,308,78273,1,14,0:0:0:0:
121,216,78456,1,2,1:2:0:0:
275,32,78639,5,8,0:0:0:0:
320,69,78730,1,8,0:0:0:0:
334,128,78823,1,8,0:0:0:0:
307,182,78913,1,8,0:0:0:0:
252,207,79005,1,8,0:0:0:0:
198,231,79096,1,8,0:0:0:0:
170,284,79188,1,10,0:0:0:0:
183,344,79279,1,8,0:0:0:0:
231,383,79371,6,0,P|299:364|356:356,1,110.000003356934,6|2,1:2|0:0,0:0:0:0:
421,164,79737,1,10,0:0:0:0:
505,274,79920,2,0,P|399:243|290:226,1,220.000006713867,2|2,1:2|1:2,0:0:0:0:
278,86,80468,1,10,0:0:0:0:
196,223,80651,6,0,B|246:245|303:210|277:174|341:143|400:170,1,220.000006713867,2|2,1:2|1:2,0:0:0:0:
325,281,81200,1,10,0:0:0:0:
180,185,81383,6,0,P|75:174|12:258,1,220.000006713867,2|2,1:2|1:2,0:0:0:0:
164,285,81932,1,10,0:0:0:0:
230,78,82115,6,0,P|246:152|285:294,1,220.000006713867,6|2,1:2|1:2,0:0:0:0:
489,152,82664,2,0,P|423:138|366:119,1,110.000003356934,12|0,0:0|0:0,0:0:0:0:
304,313,83030,2,0,P|370:327|427:346,1,110.000003356934,0|0,1:2|1:2,0:0:0:0:
251,124,83395,1,10,0:0:0:0:
149,302,83579,6,0,P|129:359|118:391,1,55.0000016784668,2|0,1:2|0:0,0:0:0:0:
59,144,83944,6,0,P|27:134|2:125,1,55.0000016784668,2|0,1:2|0:0,0:0:0:0:
161,86,84676,5,2,1:2:0:0:
231,206,84859,2,0,P|167:194|48:182,1,165.000005035401,8|0,0:0|0:0,0:0:0:0:
53,177,85225,6,0,P|27:137|172:86,1,250,4|0,0:0|0:0,0:0:0:0:
160,76,85787,2,0,P|153:110|142:155,1,50,0|0,1:2|1:2,1:2:0:0:
219,236,85975,6,0,P|282:149|424:164,1,250,8|0,0:0|0:0,0:0:0:0:
423,167,86537,1,8,0:0:0:0:
324,279,86725,6,0,P|275:271|201:248,1,100,2|0,1:2|0:0,0:0:0:0:
214,266,87006,2,0,P|165:274|91:297,1,100,2|0,1:2|0:0,0:0:0:0:
103,279,87287,2,2,P|69:270|43:260,1,50,2|2,1:2|0:0,0:0:0:0:
193,121,87475,5,10,0:0:0:0:
196,135,87568,1,10,0:0:0:0:
200,149,87662,2,0,P|208:190|224:276,1,100,2|0,1:2|0:0,0:0:0:0:
