osu file format v14

[General]
AudioFilename: audio.mp3
AudioLeadIn: 0
PreviewTime: 55310
Countdown: 0
SampleSet: Soft
StackLeniency: 0.4
Mode: 0
LetterboxInBreaks: 0
WidescreenStoryboard: 1

[Editor]
DistanceSpacing: 0.5
BeatDivisor: 4
GridSize: 16
TimelineZoom: 1.5

[Metadata]
Title:Ashiato (TV Size)
TitleUnicode:足跡 (TV Size)
Artist:the peggies
ArtistUnicode:the peggies
Creator:My Angel Nino
Version:1 miss' Insane
Source:僕のヒーローアカデミア
Tags:hakashii imaginative 1 miss 1_miss boku no my hero academia 5th season 5 ed ending theme song j-pop jpop anime 2021 short jrock japanese alternative pop pop-rock j-rock altrock alt-rock rock poprock footprints
BeatmapID:2933755
BeatmapSetID:1422944

[Difficulty]
HPDrainRate:5
CircleSize:4
OverallDifficulty:8
ApproachRate:9
SliderMultiplier:2.2
SliderTickRate:1

[Events]
//Background and Video events
0,0,"man.jpg",0,0
Video,0,"osump4.mp4"
//Break Periods
//Storyboard Layer 0 (Background)
//Storyboard Layer 1 (Fail)
//Storyboard Layer 2 (Pass)
//Storyboard Layer 3 (Foreground)
//Storyboard Layer 4 (Overlay)
//Storyboard Sound Samples

[TimingPoints]
347,365.853658536585,4,2,1,30,1,0
347,-142.857142857143,4,2,1,30,0,0
5834,-200,4,2,1,30,0,0
6109,-200,4,2,1,30,0,0
6200,-111.111111111111,4,2,1,45,0,0
8395,-142.857142857143,4,2,1,45,0,0
8670,-142.857142857143,4,2,1,5,0,0
8761,-142.857142857143,4,2,1,45,0,0
9036,-142.857142857143,4,2,1,5,0,0
9127,-100,4,2,1,45,0,0
11688,-83.3333333333333,4,2,1,45,0,0
11962,-83.3333333333333,4,2,1,5,0,0
12054,-111.111111111111,4,2,1,72,0,0
15712,-111.111111111111,4,2,1,5,0,0
15895,-111.111111111111,4,2,1,72,0,0
15987,-111.111111111111,4,2,1,5,0,0
16078,-111.111111111111,4,2,1,72,0,0
17907,-125,4,2,1,45,0,0
18456,-125,4,2,1,52,0,0
18639,-125,4,2,1,60,0,0
19005,-125,4,2,1,30,0,0
19371,-142.857142857143,4,2,1,45,0,0
26596,-142.857142857143,4,2,1,5,0,0
26688,-142.857142857143,4,2,1,45,0,0
28060,-142.857142857143,4,2,1,5,0,0
28151,-142.857142857143,4,2,1,45,0,0
28792,-142.857142857143,4,2,1,5,0,0
28883,-142.857142857143,4,2,1,45,0,0
31078,-125,4,2,1,54,0,0
31353,-125,4,2,1,5,0,0
31444,-125,4,2,1,54,0,0
37389,-125,4,2,1,5,0,0
37481,-125,4,2,1,54,0,0
37755,-125,4,2,1,5,0,0
37846,-125,4,2,1,54,0,0
38121,-125,4,2,1,5,0,0
38212,-125,4,2,1,54,0,0
38670,-125,4,2,1,5,0,0
38761,-125,4,2,1,54,0,0
39127,-125,4,2,1,72,0,0
39310,-125,4,2,1,5,0,0
39401,-125,4,2,1,72,0,0
39584,-125,4,2,1,5,0,0
39676,-125,4,2,1,72,0,0
39767,-125,4,2,1,5,0,0
39859,-111.111111111111,4,2,1,54,0,0
40133,-111.111111111111,4,2,1,5,0,0
40225,-111.111111111111,4,2,1,54,0,0
40590,-111.111111111111,4,2,1,72,0,0
42786,-125,4,2,1,45,0,0
44432,-125,4,2,1,5,0,0
44523,-125,4,2,1,45,0,0
44706,-125,4,2,1,5,0,0
44798,-125,4,2,1,45,0,0
46718,-125,4,2,1,5,0,0
46810,-125,4,2,1,45,0,0
47816,-125,4,2,1,5,0,0
47907,-125,4,2,1,45,0,0
49462,-125,4,2,1,5,0,0
49554,-125,4,2,1,45,0,0
52938,-125,4,2,1,5,0,0
53029,-125,4,2,1,45,0,0
53395,-125,4,2,1,45,0,0
53761,-125,4,2,1,62,0,0
54483,-125,4,2,1,72,0,0
54493,-125,4,2,1,72,0,0
55225,-111.111111111111,4,2,1,72,0,0
55590,-111.111111111111,4,2,1,5,0,0
55956,-100,4,2,1,84,0,1
56779,-100,4,2,1,5,0,1
56871,-100,4,2,1,84,0,1
62633,-100,4,2,1,5,0,1
62725,-100,4,2,1,84,0,1
68487,-100,4,2,1,5,0,1
68578,-100,4,2,1,84,0,1
74340,-100,4,2,1,5,0,1
74432,-100,4,2,1,84,0,1
76536,-100,4,2,1,5,0,1
76627,-100,4,2,1,84,0,1
79371,-111.111111111111,4,2,1,84,0,1
81657,-111.111111111111,4,2,1,5,0,1
81749,-111.111111111111,4,2,1,84,0,1
83578,-111.111111111111,4,2,1,84,0,0
83670,-111.111111111111,4,2,1,5,0,0
83944,-111.111111111111,4,2,1,84,0,0
84036,-111.111111111111,4,2,1,5,0,0
84127,-111.111111111111,4,2,1,5,0,0
84676,-111.111111111111,4,2,1,84,0,0
85131,-111.111111111111,4,2,1,5,0,0
85225,375,4,2,1,72,1,0
85225,-125,4,2,1,72,0,0
85693,-125,4,2,1,5,0,0
85787,-125,4,2,1,72,0,0
86443,-125,4,2,1,5,0,0
86537,-125,4,2,1,72,0,0
86912,-125,4,2,1,5,0,0
87006,-125,4,2,1,72,0,0
87193,-125,4,2,1,5,0,0
87287,-125,4,2,1,72,0,0
87756,-125,4,2,1,5,0,0

[Colours]
Combo1 : 128,0,255
Combo2 : 128,128,192
Combo3 : 255,128,192

[HitObjects]
13,313,347,6,0,B|104:334,1,76.9999976501466,2|2,0:0|0:0,0:0:0:0:
199,270,712,1,2,0:0:0:0:
199,270,895,2,0,P|148:216|56:228,1,153.999995300293,2|2,0:0|0:0,0:0:0:0:
2,111,1444,1,2,0:0:0:0:
2,111,1627,6,0,P|76:112|128:58,1,153.999995300293,2|2,0:0|0:0,0:0:0:0:
216,138,2176,1,2,0:0:0:0:
301,218,2359,2,0,P|320:182|292:138,1,76.9999976501466,2|0,0:0|0:0,0:0:0:0:
199,270,2725,1,2,0:0:0:0:
199,270,2907,1,2,0:0:0:0:
261,373,3090,6,0,P|341:357|431:343,1,153.999995300293,2|2,0:0|0:0,0:0:0:0:
512,253,3639,1,2,0:0:0:0:
512,253,3822,2,0,B|477:251|445:218|445:218|418:256|385:263,1,153.999995300293,2|2,0:0|0:0,0:0:0:0:
490,379,4371,1,2,0:0:0:0:
301,218,4554,6,0,P|226:201|167:251,1,153.999995300293,2|2,0:0|0:0,0:0:0:0:
261,373,5103,1,2,0:0:0:0:
385,263,5286,2,0,B|376:211|362:159|362:159|390:146|417:122,1,153.999995300293,2|2,0:0|0:0,0:0:0:0:
430,56,5834,6,0,B|412:37|414:19|414:19|412:37|392:52,1,82.5,2|0,1:2|0:0,0:0:0:0:
327,90,6200,5,6,1:2:0:0:
301,218,6383,1,2,0:0:0:0:
182,42,6566,1,2,1:2:0:0:
156,170,6749,2,0,B|113:175|77:155|63:134|63:134|110:164|136:125|153:160,1,197.99999395752,2|2,0:0|0:0,0:0:0:0:
219,242,7298,1,2,1:2:0:0:
90,341,7481,2,0,P|59:296|85:250,1,98.9999969787599,2|0,0:0|1:2,0:0:0:0:
190,380,7846,5,2,0:0:0:0:
301,218,8029,1,2,1:2:0:0:
150,282,8212,1,2,0:0:0:0:
281,338,8395,6,0,B|322:333|322:333|352:346|352:346|402:339,1,115.49999647522,0|0,1:2|0:0,0:0:0:0:
481,259,8761,6,0,B|440:254|440:254|410:267|410:267|360:260,1,115.49999647522,2|0,1:2|0:0,0:0:0:0:
301,218,9127,6,0,B|249:205|226:260|239:245|214:302|164:285,1,165,6|2,1:2|0:0,0:0:0:0:
87,250,9493,5,8,0:0:0:0:
281,338,9676,1,8,0:0:0:0:
44,378,9859,5,8,0:0:0:0:
167,205,10042,1,8,0:0:0:0:
122,346,10225,5,10,0:0:0:0:
38,109,10407,1,10,0:0:0:0:
23,90,11505,5,2,1:2:0:0:
229,0,11688,6,0,B|249:32|292:36|292:36|270:102|253:160,1,197.99999395752,8|0,0:0|0:0,0:0:0:0:
234,234,12054,5,6,1:2:0:0:
112,140,12237,1,2,0:0:0:0:
196,82,12420,1,10,0:0:0:0:
95,256,12603,2,0,P|48:241|-13:228,1,98.9999969787599,2|0,1:2|0:0,0:0:0:0:
122,54,12968,1,2,1:2:0:0:
255,152,13151,1,10,0:0:0:0:
201,339,13334,6,0,B|254:376|299:316|282:327|329:265|378:301,1,197.99999395752,2|2,1:2|1:2,0:0:0:0:
447,384,13883,1,10,0:0:0:0:
321,214,14066,2,0,P|270:207|229:240,1,98.9999969787599,2|0,1:2|0:0,0:0:0:0:
354,372,14432,1,2,1:2:0:0:
438,250,14615,1,10,0:0:0:0:
310,88,14798,6,0,B|378:100|438:117|438:117|464:93|500:66,1,197.99999395752,2|2,1:2|1:2,0:0:0:0:
358,0,15346,1,10,0:0:0:0:
321,214,15529,5,2,1:2:0:0:
317,242,15895,5,2,1:2:0:0:
112,140,16078,1,10,0:0:0:0:
160,335,16261,6,0,B|205:329|205:329|215:334|215:334|268:327,1,98.9999969787599,6|0,1:2|0:0,0:0:0:0:
97,251,16627,6,0,B|52:245|52:245|42:250|42:250|-11:243,1,98.9999969787599,0|8,1:2|0:0,0:0:0:0:
170,71,16993,6,0,P|228:105|216:241,1,197.99999395752,4|0,1:2|1:2,0:0:0:0:
22,52,17542,5,8,0:0:0:0:
34,50,17633,1,8,0:0:0:0:
46,48,17724,1,8,0:0:0:0:
58,47,17816,1,8,0:0:0:0:
71,45,17907,6,0,P|58:105|42:180,1,132,2|2,0:2|0:0,0:0:0:0:
97,251,18273,1,2,1:2:0:0:
55,349,18456,5,2,0:0:0:0:
69,345,18548,1,2,0:0:0:0:
92,363,18639,5,10,0:0:0:0:
106,367,18731,1,2,0:0:0:0:
128,355,18822,5,2,1:2:0:0:
356,40,19371,6,0,L|276:57,1,76.9999976501466,6|0,1:2|0:0,0:0:0:0:
391,156,19737,2,0,L|471:173,1,76.9999976501466,2|0,1:2|0:0,0:0:0:0:
292,304,20103,2,0,P|249:263|279:162,1,153.999995300293,2|0,1:2|1:2,0:0:0:0:
413,266,20651,1,0,0:0:0:0:
270,377,20834,6,0,P|285:329|296:282,1,76.9999976501466,2|8,1:2|0:0,0:0:0:0:
388,346,21200,1,0,1:2:0:0:
329,230,21383,1,0,0:0:0:0:
201,330,21566,6,0,P|160:318|123:309,1,76.9999976501466,2|2,1:2|0:0,0:0:0:0:
9,252,21932,2,0,P|50:240|87:231,1,76.9999976501466,2|2,1:2|0:0,0:0:0:0:
162,87,22298,6,0,P|187:123|181:158,1,76.9999976501466,2|0,1:2|0:0,0:0:0:0:
43,67,22664,1,2,1:2:0:0:
183,13,22846,2,0,P|171:49|161:86,1,76.9999976501466,2|0,0:0|1:2,0:0:0:0:
68,154,23212,1,2,0:0:0:0:
204,236,23395,1,2,1:2:0:0:
204,236,23578,1,2,0:0:0:0:
99,334,23761,6,0,B|66:329|66:329|53:334|53:334|23:330,3,76.9999976501466,2|0|0|0,1:2|0:0|1:2|0:0,0:0:0:0:
204,236,24493,6,0,P|192:272|182:309,1,76.9999976501466,2|0,1:2|0:0,0:0:0:0:
68,154,24859,1,2,1:2:0:0:
254,74,25042,1,0,0:0:0:0:
254,74,25133,1,0,0:0:0:0:
254,74,25225,6,0,B|293:50|330:98|317:88|352:135|398:107,1,153.999995300293,2|2,1:2|1:2,0:0:0:0:
454,30,25773,2,0,P|417:6|370:17,1,76.9999976501466,2|0,0:0|1:2,0:0:0:0:
345,209,26139,2,0,P|430:194|510:184,1,153.999995300293,2|0,0:0|0:0,0:0:0:0:
360,289,26688,5,2,1:2:0:0:
392,110,26871,1,8,0:0:0:0:
512,267,27054,5,2,1:2:0:0:
345,209,27237,1,2,0:0:0:0:
453,384,27420,2,0,P|457:346|428:308,1,76.9999976501466,2|0,1:2|0:0,0:0:0:0:
264,347,27786,2,0,P|294:369|342:363,1,76.9999976501466,2|0,1:2|0:0,0:0:0:0:
345,209,28151,6,0,P|309:215|269:224,1,76.9999976501466,2|0,1:2|0:0,0:0:0:0:
71,358,28517,2,0,P|107:364|147:373,1,76.9999976501466,2|0,1:2|0:0,0:0:0:0:
42,247,28883,1,0,0:0:0:0:
189,147,29066,5,2,0:0:0:0:
124,285,29249,1,2,1:2:0:0:
81,175,29432,1,2,0:0:0:0:
201,239,29615,6,0,P|241:244|273:215,1,76.9999976501466,0|0,1:2|1:2,0:0:0:0:
108,103,29981,2,0,P|77:81|40:87,1,76.9999976501466,0|0,1:2|1:2,0:0:0:0:
309,56,30346,5,0,1:2:0:0:
309,56,30438,1,0,1:2:0:0:
309,56,30529,2,0,L|300:112,1,38.4999988250733,8|8,0:0|0:0,0:0:0:0:
189,147,30712,2,0,L|180:91,1,38.4999988250733,8|8,0:0|0:0,0:0:0:0:
167,0,30895,1,0,1:2:0:0:
270,220,31078,6,0,B|321:215|358:205|358:205|376:223|394:232,1,132,6|0,0:0|0:0,0:0:0:0:
426,306,31444,2,0,B|468:300|468:300|474:303|474:303|520:297,1,88,10|0,0:0|0:0,0:0:0:0:
401,132,31810,1,2,1:2:0:0:
334,295,31993,2,0,P|350:341|364:389,1,88,0|0,1:2|0:0,0:0:0:0:
472,214,32359,1,10,0:0:0:0:
326,167,32542,5,2,1:2:0:0:
426,306,32725,1,8,0:0:0:0:
210,342,33090,5,0,1:2:0:0:
210,342,33182,1,0,1:2:0:0:
210,342,33273,1,2,1:2:0:0:
262,219,33456,2,0,B|223:198|223:198|179:210,1,88,0|8,1:2|0:0,0:0:0:0:
100,284,33822,1,2,0:0:0:0:
39,149,34005,5,2,1:2:0:0:
111,301,34188,1,2,0:0:0:0:
169,123,34371,1,10,0:0:0:0:
169,123,34554,1,2,1:2:0:0:
0,248,34737,2,0,P|47:235|94:226,1,88,2|0,1:2|1:2,0:0:0:0:
210,342,35103,1,2,0:0:0:0:
111,301,35286,1,8,0:0:0:0:
326,167,35468,5,2,1:2:0:0:
358,281,35651,2,0,P|280:264|180:247,1,176,8|0,0:0|0:0,0:0:0:0:
408,143,36200,6,0,P|433:184|417:227,1,88,2|0,1:2|1:2,0:0:0:0:
260,104,36566,1,10,0:0:0:0:
395,48,36749,1,8,0:0:0:0:
395,48,36840,1,8,0:0:0:0:
395,48,36932,6,0,B|347:80|307:30|322:39|282:-12|235:22,1,176,6|0,1:2|0:0,0:0:0:0:
134,166,37481,6,0,B|82:196|25:179|20:131|53:88|90:112,2,176,10|10|0,0:0|0:0|1:2,0:0:0:0:
217,144,38304,1,0,1:2:0:0:
217,144,38395,6,0,P|301:122|367:187,1,176,6|2,1:2|1:2,0:0:0:0:
396,343,38944,1,2,1:2:0:0:
396,343,39036,1,0,1:2:0:0:
396,343,39127,6,0,B|347:337|347:337|318:356|318:356|256:347,2,132,14|12|14,0:0|0:0|0:0,0:0:0:0:
293,256,39859,6,0,B|265:248|234:266|234:266|209:255|209:255|177:273|148:262,1,148.49999546814,6|0,1:2|0:0,0:0:0:0:
75,232,40225,5,2,1:2:0:0:
196,379,40407,1,2,1:2:0:0:
243,177,40590,5,8,0:0:0:0:
103,328,40773,1,10,0:0:0:0:
54,102,40956,5,8,0:0:0:0:
152,263,41139,1,10,0:0:0:0:
280,108,41322,5,4,0:0:0:0:
241,37,41444,2,0,P|212:20|165:29,1,65.9999979858399
294,121,41688,5,8,0:0:0:0:
331,58,41810,2,0,P|331:27|303:-4,1,65.9999979858399,8|8,0:0|0:0,0:0:0:0:
196,105,42054,6,0,P|168:97|122:87,2,65.9999979858399,0|8|8,1:2|0:0|0:0,0:0:0:0:
243,177,42420,5,0,1:2:0:0:
327,189,42542,1,0,1:2:0:0:
381,122,42664,1,0,1:2:0:0:
356,39,42786,6,0,L|491:20,1,117.333333333333,6|2,0:0|0:0,0:0:0:0:
512,98,43151,1,2,0:0:0:0:
465,232,43334,2,0,P|387:252|325:176,1,176,2|0,1:2|0:0,0:0:0:0:
455,155,43883,1,2,0:0:0:0:
455,155,44066,1,2,1:2:0:0:
498,364,44249,6,0,B|462:384|431:344|444:354|410:314|375:336,2,132,2|2|2,1:2|1:2|1:2,0:0:0:0:
265,261,44981,2,0,P|279:304|293:361,1,88,10|0,0:0|0:0,0:0:0:0:
389,237,45346,1,0,0:0:0:0:
199,150,45529,1,2,0:0:0:0:
314,197,45712,6,0,P|328:159|304:121,1,88,2|2,1:2|0:0,0:0:0:0:
184,237,46078,1,2,0:0:0:0:
184,237,46261,1,0,1:2:0:0:
125,112,46444,6,0,B|76:106|76:106|47:125|47:125|-20:118,1,132,10|0,0:0|0:0,0:0:0:0:
20,38,46810,6,0,P|51:15|104:22,1,88,10|0,0:0|0:0,0:0:0:0:
199,150,47176,1,2,1:2:0:0:
62,210,47359,1,10,0:0:0:0:
220,136,47542,2,0,P|207:201|194:279,1,132,2|0,0:0|0:0,0:0:0:0:
133,320,47907,6,0,B|181:290|222:340|209:331|251:380|292:351,1,176,10|2,0:0|0:0,0:0:0:0:
433,264,48456,1,0,1:2:0:0:
433,264,48639,6,0,B|378:259|322:240|322:240|300:265|264:283,1,176,6|2,1:2|0:0,0:0:0:0:
336,36,49188,2,0,P|380:78|370:147,1,132,2|0,1:2|0:0,0:0:0:0:
297,168,49554,1,2,0:0:0:0:
297,168,49737,2,0,P|254:158|193:147,1,88,0|2,0:0|1:2,0:0:0:0:
133,320,50103,6,0,B|128:272|128:272|148:240|148:240|142:185,2,132,0|0|0,1:2|1:2|1:2,0:0:0:0:
14,219,50834,1,10,0:0:0:0:
14,219,51017,1,0,0:0:0:0:
211,150,51200,6,0,B|238:170|271:180|271:180|253:233|236:308,1,176,2|0,1:2|0:0,0:0:0:0:
53,384,51749,2,0,P|26:342|51:300,1,88,0|8,1:2|0:0,0:0:0:0:
143,194,52115,5,2,0:0:0:0:
133,320,52298,1,10,0:0:0:0:
133,320,52481,1,2,0:0:0:0:
0,136,52664,6,0,B|34:157|66:120|53:128|87:91|120:115,1,132,2|0,1:2|0:0,0:0:0:0:
187,71,53029,6,0,P|215:63|236:59,3,44,2|0|0|0,1:2|0:0|0:0|0:0,0:0:0:0:
266,135,53395,6,0,P|286:114|302:100,3,44,0|0|0|0,1:2|1:2|1:2|1:2,0:0:0:0:
374,186,53761,6,0,P|381:157|388:137,3,44,0|0|0|0,1:2|1:2|1:2|1:2,0:0:0:0:
512,209,54127,6,0,P|504:181|499:160,3,44,0|0|0|0,1:2|1:2|1:2|1:2,0:0:0:0:
277,333,54493,5,10,0:0:0:0:
277,333,54584,1,8,0:0:0:0:
277,333,54676,2,0,L|329:323,1,44,8|8,0:0|0:0,0:0:0:0:
440,273,54859,5,8,0:0:0:0:
440,273,54950,1,8,0:0:0:0:
440,273,55042,2,0,L|388:263,1,44,8|8,0:0|0:0,0:0:0:0:
189,216,55225,6,0,B|171:277|149:333|149:333|185:357|215:381,1,197.99999395752,12|0,0:0|0:0,0:0:0:0:
229,60,55956,6,0,B|168:20|122:93|139:78|94:152|37:114,1,220,6|10,1:2|0:0,0:0:0:0:
263,248,56505,2,0,P|281:212|243:157,1,110,2|0,1:2|0:0,0:0:0:0:
87,346,56871,1,2,1:2:0:0:
189,216,57054,1,10,0:0:0:0:
312,363,57237,6,0,P|365:347|424:335,1,110,2|0,1:2|0:0,0:0:0:0:
359,185,57603,1,2,1:2:0:0:
345,270,57786,1,10,0:0:0:0:
280,88,57968,2,0,P|325:53|389:68,1,110,2|0,1:2|0:0,0:0:0:0:
454,216,58334,5,2,1:2:0:0:
454,216,58517,1,10,0:0:0:0:
267,301,58700,2,0,B|194:286|128:260|128:260|100:296|55:319,1,220,6|2,1:2|1:2,0:0:0:0:
153,384,59249,1,10,0:0:0:0:
15,197,59432,6,0,B|51:157|43:93|43:93|51:157|99:189,1,220,6|2,1:2|1:2,0:0:0:0:
202,41,59981,1,10,0:0:0:0:
359,185,60164,6,0,B|323:162|282:179|282:179|233:142|233:142|190:158|154:132,1,220,6|2,1:2|1:2,0:0:0:0:
306,73,60712,1,10,0:0:0:0:
406,279,60895,6,0,B|464:314|551:296|533:203|477:181|445:224,1,220,6|2,1:2|1:2,0:0:0:0:
329,364,61444,1,10,0:0:0:0:
202,248,61627,1,10,0:0:0:0:
202,248,61718,1,10,0:0:0:0:
202,248,61810,6,0,P|177:297|208:336,1,110,6|2,1:2|0:0,0:0:0:0:
359,185,62176,1,10,0:0:0:0:
236,110,62359,2,0,P|185:124|122:138,1,110,2|0,1:2|0:0,0:0:0:0:
283,286,62725,1,2,1:2:0:0:
257,199,62907,1,10,0:0:0:0:
121,378,63090,6,0,B|161:317|88:271|103:288|29:243|67:186,1,220,2|2,1:2|1:2,0:0:0:0:
182,43,63639,1,10,0:0:0:0:
257,199,63822,2,0,P|206:185|143:171,1,110,2|0,1:2|0:0,0:0:0:0:
327,106,64188,1,0,1:0:0:0:
187,265,64371,1,10,0:0:0:0:
18,52,64554,6,0,B|19:10|66:-9|66:-9|120:35|94:98|71:122,1,220,6|2,1:2|1:2,0:0:0:0:
0,233,65103,5,8,0:0:0:0:
238,109,65286,1,0,1:2:0:0:
187,265,65468,5,8,0:0:0:0:
66,187,65651,1,0,1:2:0:0:
171,58,65834,5,10,0:0:0:0:
126,326,66017,2,0,B|100:351|45:326|42:242|132:228|190:267,1,220,6|2,1:2|1:2,0:0:0:0:
330,361,66566,1,10,0:0:0:0:
466,190,66749,6,0,B|423:184|393:217|393:217|333:204|333:204|301:236|257:228,1,220,6|2,1:2|1:2,0:0:0:0:
323,2,67298,5,10,0:0:0:0:
361,15,67389,1,8,0:0:0:0:
384,49,67480,1,10,0:0:0:0:
385,89,67572,1,8,0:0:0:0:
362,123,67664,6,0,P|306:109|249:98,1,110,6|2,1:2|0:0,0:0:0:0:
350,286,68029,1,10,0:0:0:0:
466,190,68212,2,0,B|445:210|423:221|423:221|442:273|456:329,1,165,2|0,1:2|0:0,0:0:0:0:
387,365,68578,2,0,P|346:378|291:343,1,110,2|10,1:2|0:0,0:0:0:0:
156,159,68944,6,0,P|173:213|188:273,1,110,2|0,1:2|0:0,0:0:0:0:
362,123,69310,1,2,1:2:0:0:
334,204,69493,1,10,0:0:0:0:
186,70,69676,2,0,P|145:57|90:92,1,110,2|0,1:2|0:0,0:0:0:0:
21,253,70042,5,2,1:2:0:0:
21,253,70225,1,10,0:0:0:0:
235,164,70407,6,0,B|249:109|323:110|358:172|313:229|259:271,1,220,6|2,1:2|1:2,0:0:0:0:
154,345,70956,1,8,0:0:0:0:
0,173,71139,6,0,B|61:133|107:206|90:191|135:265|192:227,1,220,6|2,1:2|1:2,0:0:0:0:
315,54,71688,1,10,0:0:0:0:
511,229,71871,6,0,B|471:280|404:269|404:269|378:218|312:197,1,220,6|0,1:2|1:2,0:0:0:0:
165,149,72420,1,10,0:0:0:0:
461,7,72603,6,0,B|432:37|394:46|394:46|425:115|448:194,1,220,6|2,1:2|1:2,0:0:0:0:
502,340,73151,1,10,0:0:0:0:
321,289,73334,1,10,0:0:0:0:
321,289,73426,1,10,0:0:0:0:
321,289,73517,6,0,P|298:239|337:202,1,110,6|2,1:2|0:0,0:0:0:0:
436,296,73883,1,10,0:0:0:0:
294,384,74066,2,0,P|241:370|183:358,1,110,2|0,1:2|0:0,0:0:0:0:
59,325,74432,1,2,1:2:0:0:
123,267,74615,1,10,0:0:0:0:
7,158,74798,6,0,B|92:174|156:192|156:192|180:163|217:129,1,220,2|2,1:2|1:2,0:0:0:0:
275,64,75346,1,10,0:0:0:0:
80,11,75529,6,0,B|123:40|131:104|131:104|123:40|159:0,1,220,2|0,1:2|1:2,0:0:0:0:
293,142,76078,1,10,0:0:0:0:
498,7,76261,6,0,B|451:-20|417:27|429:18|394:66|349:38,1,165,6|0,1:2|0:0,0:0:0:0:
275,64,76627,1,2,1:2:0:0:
423,240,76810,2,0,P|445:196|409:150,1,110,8|0,0:0|1:2,0:0:0:0:
219,295,77176,1,8,0:0:0:0:
347,204,77359,1,0,1:2:0:0:
382,379,77542,1,10,0:0:0:0:
240,212,77725,6,0,P|126:180|48:253,1,220,6|2,1:2|1:2,0:0:0:0:
85,363,78273,6,0,B|125:357|125:357|150:374|150:374|209:365,1,110,14|2,0:0|1:2,0:0:0:0:
329,317,78639,5,8,0:0:0:0:
250,125,78822,1,8,0:0:0:0:
248,141,78914,1,8,0:0:0:0:
246,157,79005,6,0,L|239:213,1,55,8|8,0:0|0:0,0:0:0:0:
429,294,79188,2,0,L|422:238,1,55,10|8,0:0|0:0,0:0:0:0:
395,40,79371,6,0,L|290:57,1,98.9999969787599,6|2,1:2|0:0,0:0:0:0:
152,77,79737,1,10,0:0:0:0:
239,211,79920,2,0,B|268:232|313:202|318:131|231:114|180:157,1,197.99999395752,2|2,1:2|1:2,0:0:0:0:
50,246,80468,1,10,0:0:0:0:
188,368,80651,6,0,B|262:357|324:341|324:341|349:372|378:392,1,197.99999395752,2|2,1:2|1:2,0:0:0:0:
429,294,81200,1,10,0:0:0:0:
503,165,81383,6,0,B|470:159|444:180|444:180|422:172|422:172|393:194|362:187,1,148.49999546814,2|0,1:2|0:0,0:0:0:0:
300,137,81749,5,2,1:2:0:0:
453,54,81932,1,10,0:0:0:0:
240,0,82115,6,0,B|217:14|217:14|232:103,1,98.9999969787599,6|0,1:2|0:0,0:0:0:0:
255,234,82481,1,2,1:2:0:0:
81,97,82664,2,0,B|104:111|104:111|89:200,1,98.9999969787599,12|0,0:0|0:0,0:0:0:0:
66,331,83030,5,0,1:2:0:0:
151,244,83212,1,0,1:2:0:0:
281,377,83395,1,10,0:0:0:0:
363,187,83578,6,0,L|355:246,1,49.4999984893799,2|0,1:2|0:0,0:0:0:0:
203,360,83944,2,0,L|195:301,1,49.4999984893799,2|0,1:2|0:0,0:0:0:0:
156,57,84676,5,2,1:2:0:0:
363,187,84859,1,8,0:0:0:0:
372,203,85225,6,0,B|326:174|286:226|301:216|259:269|215:241,1,176,4|0,0:0|0:0,0:0:0:0:
95,63,85787,1,0,1:2:0:0:
95,63,85881,1,0,1:2:0:0:
95,63,85975,6,0,B|130:86|136:139|136:139|130:86|159:53,1,176,8|0,0:0|0:0,0:0:0:0:
303,111,86537,1,8,0:0:0:0:
320,108,86631,1,0,0:0:0:0:
337,106,86725,6,0,B|385:100|385:100|416:121|416:121|473:115,1,132,2|2,1:2|1:2,0:0:0:0:
512,54,87100,1,0,0:0:0:0:
453,269,87287,5,2,1:2:0:0:
432,264,87381,1,2,0:0:0:0:
400,290,87475,5,10,0:0:0:0:
379,295,87569,1,10,0:0:0:0:
348,279,87662,5,2,1:2:0:0:
