osu file format v14

[General]
AudioFilename: audio.mp3
AudioLeadIn: 0
PreviewTime: 55376
Countdown: 0
SampleSet: Soft
StackLeniency: 0.5
Mode: 0
LetterboxInBreaks: 0
WidescreenStoryboard: 1

[Editor]
DistanceSpacing: 1
BeatDivisor: 4
GridSize: 32
TimelineZoom: 3.299999

[Metadata]
Title:Ashiato (TV Size)
TitleUnicode:足跡 (TV Size)
Artist:the peggies
ArtistUnicode:the peggies
Creator:Bakugo-
Version:GRR SNARL GROWL's Hard
Source:僕のヒーローアカデミア
Tags:rock my hero academia boku no mha ed ending 8 footprints season 5 gnf5 jpop jrock j-rock j-pop japanese anime bakugo deku baku kirishima kiri izuku katsuki eijirou squilly kirishima- revolver gouhin seolv lukas [_l_u_k_a_s_] GRR SNARL GROWL
BeatmapID:3465898
BeatmapSetID:1694381

[Difficulty]
HPDrainRate:5.7
CircleSize:4.5
OverallDifficulty:7
ApproachRate:7.7
SliderMultiplier:0.999999999999999
SliderTickRate:1

[Events]
//Background and Video events
0,0,"interactions.jpg",0,0
//Break Periods
//Storyboard Layer 0 (Background)
//Storyboard Layer 1 (Fail)
//Storyboard Layer 2 (Pass)
//Storyboard Layer 3 (Foreground)
//Storyboard Layer 4 (Overlay)
//Storyboard Sound Samples

[TimingPoints]
340,365.853658536585,4,2,2,60,1,0
5827,-133.333333333333,4,2,2,75,0,0
6193,-80,4,2,2,75,0,0
9120,-66.6666666666667,4,2,2,75,0,0
9486,-66.6666666666667,4,2,2,80,0,0
11681,-100,4,2,2,80,0,0
12047,-66.6666666666667,4,2,2,80,0,0
17900,-100,4,2,2,80,0,0
18175,-100,4,2,2,60,0,0
18632,-100,4,2,2,70,0,0
18670,365.853658536585,4,2,2,70,1,0
18670,-66.6666666666667,4,2,2,70,0,0
19379,365.853658536585,4,2,2,60,1,0
19379,-80,4,2,2,60,0,0
31086,-66.6666666666667,4,2,2,70,0,0
36939,-100,4,2,2,70,0,0
39866,-66.6666666666667,4,2,2,70,0,0
41330,-66.6666666666667,4,2,2,70,0,0
41696,-71.4285714285714,4,2,2,70,0,0
42061,-76.9230769230769,4,2,2,70,0,0
42427,-83.3333333333333,4,2,2,70,0,0
42793,-100,4,2,2,60,0,0
53036,361.44578313253,4,2,2,70,1,0
54481,-100,4,2,2,75,0,0
55204,365.853658536585,4,2,2,75,1,0
55952,365.853658536585,4,2,2,85,1,0
56500,-57.1428571428571,4,2,2,85,0,0
79366,-66.6666666666667,4,2,2,85,0,0
85230,413.793103448276,4,2,2,70,1,0
85230,-80,4,2,2,70,0,0
85980,375,4,2,2,75,1,0
85980,-133.333333333333,4,2,2,75,0,0
86730,-66.6666666666667,4,2,2,75,0,0

[Colours]
Combo1 : 218,143,143
Combo2 : 198,150,121
Combo3 : 247,214,157
Combo4 : 143,48,48

[HitObjects]
97,179,340,6,0,L|90:114,2,50,2|2|2,2:2|2:2|2:2,0:0:0:0:
57,236,888,2,0,P|102:218|156:252,1,99.9999999999999,2|2,2:2|2:2,0:0:0:0:
195,299,1437,1,2,2:2:0:0:
195,299,1620,2,0,P|239:319|284:301,1,99.9999999999999,2|2,2:2|2:2,0:0:0:0:
325,239,2169,1,2,2:2:0:0:
325,239,2352,1,2,2:2:0:0:
174,104,2718,5,0,0:0:0:0:
245,108,2900,1,2,2:2:0:0:
316,112,3083,2,0,L|419:99,1,99.9999999999999,2|2,2:2|2:2,0:0:0:0:
484,143,3632,1,2,2:2:0:0:
484,143,3815,2,0,L|384:130,1,99.9999999999999,2|2,2:2|2:2,0:0:0:0:
337,190,4364,1,2,2:2:0:0:
337,190,4547,2,0,P|318:232|345:287,1,99.9999999999999,2|2,2:2|2:2,0:0:0:0:
404,307,5096,1,2,2:2:0:0:
470,277,5279,1,2,2:2:0:0:
115,103,5827,6,0,B|89:91|89:91|46:101,1,56.2500021457673,4|0,3:3|1:2,0:0:0:0:
40,110,6193,6,0,L|53:196,1,62.5,6|2,1:2|0:0,0:0:0:0:
102,270,6559,2,0,L|111:208,2,62.5,2|2|2,3:0|0:0|3:2,0:0:0:0:
32,320,7108,1,2,0:0:0:0:
102,270,7291,1,2,3:0:0:0:
178,337,7474,2,0,P|235:339|307:328,1,125,2|2,0:0|0:0,0:0:0:0:
354,274,8022,1,2,3:0:0:0:
354,274,8205,1,2,0:0:0:0:
289,219,8388,2,0,L|283:99,1,93.7499999999999,2|0,3:2|0:0,0:0:0:0:
304,132,8754,2,0,L|299:38,1,93.7499999999999,2|0,3:0|0:0,0:0:0:0:
286,26,9120,6,0,P|348:25|449:70,1,150.000005722046,2|8,3:0|3:2,0:0:0:0:
427,130,9669,1,8,3:2:0:0:
390,196,9852,1,8,3:2:0:0:
388,271,10035,1,8,3:2:0:0:
425,337,10218,1,10,3:2:0:0:
487,233,10400,5,14,3:2:0:0:
500,114,11498,5,2,3:2:0:0:
447,59,11681,2,0,L|373:74,1,74.9999999999999,8|2,3:2|0:0,0:0:0:0:
357,65,12047,6,0,P|300:68|277:99,1,75.000002861023,6|2,3:2|3:2,0:0:0:0:
335,135,12413,1,10,0:0:0:0:
382,192,12596,2,0,L|378:351,1,150.000005722046,2|2,3:2|3:2,0:0:0:0:
444,384,13144,1,10,0:0:0:0:
378,341,13327,6,0,B|281:311|330:358|226:328,1,150.000005722046,2|2,3:2|3:2,0:0:0:0:
142,356,13876,1,10,0:0:0:0:
62,321,14059,2,0,P|39:270|103:209,1,150.000005722046,2|2,3:2|3:2,0:0:0:0:
187,220,14608,1,10,0:0:0:0:
235,146,14791,1,2,0:0:0:0:
235,146,14882,1,2,3:2:0:0:
235,146,14974,6,0,L|220:66,1,75.000002861023,0|2,3:2|3:2,0:0:0:0:
152,19,15339,1,10,0:0:0:0:
76,93,15522,1,2,3:2:0:0:
235,146,15888,1,2,3:2:0:0:
394,199,16254,6,0,B|368:158|368:158|372:54,1,150.000005722046,6|2,3:2|3:2,0:0:0:0:
441,6,16803,1,8,0:0:0:0:
371,56,16986,2,0,P|305:62|212:46,1,150.000005722046,6|0,3:2|3:2,0:0:0:0:
138,19,17535,1,8,0:0:0:0:
140,37,17626,1,8,0:0:0:0:
143,56,17718,1,8,0:0:0:0:
146,74,17809,1,8,0:0:0:0:
148,93,17900,6,0,L|125:189,1,74.9999999999999,2|2,3:2|0:0,0:0:0:0:
130,165,18266,1,2,3:2:0:0:
52,194,18449,2,0,L|59:238,1,25,2|2,0:0|3:2,0:0:0:0:
60,238,18670,2,0,L|139:248,1,74.9999999999999,10|6,0:0|3:2,0:0:0:0:
281,355,19379,6,0,P|284:294|276:219,1,125,6|0,3:2|3:2,0:0:0:0:
398,72,20110,2,0,P|395:133|403:208,1,125,2|0,3:2|3:2,0:0:0:0:
444,280,20659,1,0,0:0:0:0:
444,280,20842,2,0,L|367:275,1,62.4999999999999,2|8,3:2|0:0,0:0:0:0:
311,299,21208,1,0,3:2:0:0:
206,166,21574,2,0,P|196:123|202:96,1,62.4999999999999,2|2,3:2|3:2,0:0:0:0:
286,92,21939,2,0,P|296:135|290:162,1,62.4999999999999,2|2,3:2|0:0,0:0:0:0:
206,166,22305,6,0,L|65:152,1,125,2|2,3:2|3:2,0:0:0:0:
46,61,22854,2,0,L|170:73,1,125,2|2,0:0|0:0,0:0:0:0:
238,19,23403,1,2,3:2:0:0:
238,19,23586,1,2,0:0:0:0:
310,61,23769,1,2,3:2:0:0:
260,223,24135,1,0,3:2:0:0:
310,61,24500,2,0,L|392:55,1,62.4999999999999,2|0,3:2|0:0,0:0:0:0:
303,142,24866,2,0,L|221:136,1,62.4999999999999,2|2,3:2|2:2,0:0:0:0:
113,62,25232,6,0,P|156:101|137:187,1,125,6|2,3:2|3:2,0:0:0:0:
88,245,25781,2,0,L|77:182,1,62.4999999999999,2|0,0:0|0:0,0:0:0:0:
8,144,26147,2,0,L|27:15,1,125,2|0,0:0|0:0,0:0:0:0:
100,50,26696,1,2,3:2:0:0:
202,18,26878,1,8,0:0:0:0:
202,18,27061,2,0,L|284:30,1,62.4999999999999,2|2,3:2|0:0,0:0:0:0:
317,82,27427,2,0,B|349:88|374:66|374:66|399:44|432:51,1,125,2|2,3:2|3:2,0:0:0:0:
490,214,28159,6,0,P|405:195|339:199,1,125,2|2,3:2|3:2,0:0:0:0:
299,249,28708,1,0,0:0:0:0:
299,249,28891,2,0,L|231:255,1,62.4999999999999,2|2,3:2|0:0,0:0:0:0:
168,214,29257,2,0,L|105:208,1,62.4999999999999,2|2,3:2|0:0,0:0:0:0:
41,263,29622,5,2,3:2:0:0:
105,208,29805,1,2,3:2:0:0:
49,123,29988,1,2,3:2:0:0:
113,68,30171,1,2,3:2:0:0:
217,117,30354,2,0,L|263:112,3,31.25,8|0|8|8,3:2|3:2|3:2|3:2,0:0:0:0:
285,111,30720,1,0,3:2:0:0:
301,77,30811,1,0,3:2:0:0:
315,42,30903,1,0,3:2:0:0:
401,22,31086,6,0,L|388:173,1,150.000005722046,6|8,0:0|0:0,0:0:0:0:
435,238,31635,1,0,0:0:0:0:
403,312,31818,1,2,3:2:0:0:
403,312,32000,2,0,B|360:337|360:337|249:322,1,150.000005722046,2|8,3:2|0:0,0:0:0:0:
186,357,32549,1,2,0:0:0:0:
107,303,32732,2,0,L|101:223,1,75.000002861023,10|0,0:0|0:0,0:0:0:0:
49,164,33098,1,2,0:0:0:0:
49,164,33189,1,2,0:0:0:0:
49,164,33281,2,0,L|54:83,1,75.000002861023,2|0,3:2|3:2,0:0:0:0:
122,36,33647,2,0,L|203:30,1,75.000002861023,8|2,0:0|0:0,0:0:0:0:
280,88,34013,5,2,3:2:0:0:
280,88,34196,1,2,0:0:0:0:
363,45,34378,1,10,0:0:0:0:
363,45,34561,1,0,0:0:0:0:
447,100,34744,1,2,3:2:0:0:
447,100,34927,2,0,L|444:204,1,75.000002861023,0|2,3:2|0:0,0:0:0:0:
382,226,35293,2,0,L|379:330,1,75.000002861023,8|2,0:0|0:0,0:0:0:0:
454,351,35659,2,0,P|387:329|305:349,1,150.000005722046,8|0,0:0|3:2,0:0:0:0:
236,307,36208,2,0,L|138:314,1,75.000002861023,10|0,2:2|3:2,0:0:0:0:
87,360,36574,1,10,0:0:0:0:
14,273,36757,1,8,0:0:0:0:
14,273,36848,1,8,0:0:0:0:
14,273,36939,6,0,P|26:209|17:170,1,99.9999999999999,14|0,0:0|0:0,0:0:0:0:
8,102,37488,2,0,P|56:143|95:156,1,99.9999999999999,2|2,3:2|3:2,0:0:0:0:
154,120,38037,1,0,0:0:0:0:
232,192,38220,1,0,3:2:0:0:
232,192,38311,1,0,3:2:0:0:
232,192,38403,6,0,B|284:202|284:202|342:177,1,99.9999999999999,6|2,3:2|0:0,0:0:0:0:
370,122,38952,1,2,3:2:0:0:
249,69,39135,2,0,L|248:134,1,50,10|0,3:2|0:0,0:0:0:0:
237,130,39409,1,8,0:2:0:0:
226,142,39500,2,0,L|234:211,1,50,0|10,0:0|0:2,0:0:0:0:
135,275,39866,6,0,B|193:259|193:259|217:273|217:273|276:257,1,150.000005722046,6|2,0:2|3:2,0:0:0:0:
309,323,40415,1,2,3:2:0:0:
375,291,40598,1,0,3:2:0:0:
343,225,40781,1,2,3:2:0:0:
409,193,40964,1,0,3:2:0:0:
441,259,41147,1,2,3:2:0:0:
494,141,41330,6,0,L|508:61,2,50.0000019073487,6|0|8,3:2|3:2|3:2,0:0:0:0:
428,110,41696,6,0,L|442:30,2,46.666665242513,8|8|8,3:2|3:2|3:2,0:0:0:0:
361,77,42061,6,0,L|371:14,2,43.3333313496908,0|8|8,3:2|3:2|3:2,0:0:0:0:
294,45,42427,6,0,L|300:3,2,39.9999987792969,0|0|0,3:2|3:2|3:2,0:0:0:0:
239,92,42793,6,0,P|192:108|144:82,1,99.9999999999999,6|0,0:2|0:0,0:0:0:0:
91,37,43342,1,2,3:2:0:0:
148,87,43525,2,0,L|140:197,1,99.9999999999999,10|0,0:2|0:0,0:0:0:0:
90,242,44074,1,2,3:2:0:0:
133,345,44257,6,0,B|169:356|169:356|208:345,2,74.9999999999999,2|2|2,3:2|3:2|3:2,0:0:0:0:
85,291,44988,2,0,L|91:222,1,50,8|0,0:0|0:0,0:0:0:0:
17,310,45354,2,0,L|12:359,1,50,0|2,0:0|3:2,0:0:0:0:
0,214,45720,6,0,L|113:205,1,99.9999999999999,2|2,3:2|0:0,0:0:0:0:
125,129,46269,1,0,3:2:0:0:
99,206,46452,2,0,L|186:199,1,74.9999999999999,8|0,0:0|0:0,0:0:0:0:
195,208,46818,2,0,L|259:202,1,50,10|0,0:0|0:0,0:0:0:0:
336,191,47183,5,2,0:0:0:0:
357,278,47366,1,8,0:0:0:0:
378,365,47549,1,0,3:2:0:0:
466,167,47915,2,0,L|442:68,1,99.9999999999999,10|2,0:0|3:2,0:0:0:0:
362,13,48464,1,0,3:2:0:0:
362,13,48555,1,0,3:2:0:0:
362,13,48647,6,0,P|325:54|267:42,1,99.9999999999999,6|2,0:0|0:0,0:0:0:0:
206,60,49196,2,0,P|260:71|278:127,1,99.9999999999999,2|0,3:2|0:0,0:0:0:0:
224,158,49744,1,0,0:0:0:0:
224,158,49927,1,2,3:2:0:0:
290,214,50110,6,0,L|283:300,2,74.9999999999999,2|0|0,3:2|3:2|3:2,0:0:0:0:
212,285,50842,2,0,L|207:346,1,50,10|0,0:0|0:0,0:0:0:0:
121,348,51208,2,0,L|229:365,1,99.9999999999999,2|0,3:2|0:0,0:0:0:0:
290,375,51757,1,2,3:2:0:0:
423,308,52122,1,2,3:2:0:0:
384,246,52305,1,10,0:0:0:0:
414,182,52488,1,2,0:0:0:0:
372,120,52671,2,0,P|328:107|277:107,1,74.9999999999999,2|0,3:2|0:0,0:0:0:0:
299,105,53036,5,6,3:2:0:0:
130,54,53397,2,0,L|96:47,3,25,0|0|0|0,3:2|3:2|3:2|3:2,0:0:0:0:
80,29,53758,2,0,L|51:48,3,25,0|0|0|0,3:2|3:2|3:2|3:2,0:0:0:0:
26,46,54120,2,0,L|19:80,3,25,0|0|0|0,3:2|3:2|3:2|3:2,0:0:0:0:
82,116,54481,5,10,3:2:0:0:
92,122,54572,1,8,3:2:0:0:
102,128,54662,2,0,L|113:172,1,25,8|8,3:2|3:2,3:2:0:0:
33,173,54843,1,10,3:2:0:0:
23,179,54934,1,8,3:2:0:0:
13,185,55024,2,0,L|2:229,1,25,8|8,3:2|3:2,3:2:0:0:
91,232,55204,6,0,L|98:334,1,99.9999999999999,14|0,3:2|0:0,0:0:0:0:
371,342,55952,5,6,0:0:0:0:
302,298,56134,1,2,3:2:0:0:
239,353,56317,1,10,0:0:0:0:
302,298,56500,2,0,L|309:185,1,87.5000008344649,2|0,3:2|0:0,0:0:0:0:
238,166,56866,5,2,3:2:0:0:
307,210,57048,1,10,0:0:0:0:
370,155,57232,2,0,L|377:42,1,87.5000008344649,2|0,3:2|0:0,0:0:0:0:
438,12,57598,5,2,3:2:0:0:
375,67,57781,1,10,0:0:0:0:
306,23,57963,1,2,3:2:0:0:
110,47,58330,5,2,3:2:0:0:
94,128,58512,1,10,0:0:0:0:
78,209,58695,2,0,L|88:305,1,87.5000008344649,2|0,3:2|0:0,0:0:0:0:
7,281,59061,5,2,3:2:0:0:
88,297,59243,1,10,0:0:0:0:
169,313,59427,2,0,L|265:303,1,87.5000008344649,2|0,3:2|0:0,0:0:0:0:
240,384,59793,5,2,3:2:0:0:
256,303,59975,1,10,0:0:0:0:
272,222,60159,2,0,L|262:126,1,87.5000008344649,2|0,3:2|0:0,0:0:0:0:
181,118,60525,5,2,3:2:0:0:
262,134,60707,1,10,0:0:0:0:
343,150,60891,2,0,B|380:131|380:131|370:283,1,175.00000166893,2|0,3:2|3:2,0:0:0:0:
432,313,61439,1,8,0:0:0:0:
357,372,61622,1,8,0:0:0:0:
357,372,61714,1,8,0:0:0:0:
357,372,61805,6,0,L|260:360,1,87.5000008344649,6|2,0:0|3:2,0:0:0:0:
170,348,62171,1,10,0:0:0:0:
78,384,62354,2,0,P|51:303|76:210,1,175.00000166893,2|2,3:2|3:2,0:0:0:0:
24,148,62903,1,10,0:0:0:0:
92,75,63086,6,0,L|285:48,1,175.00000166893,2|2,3:2|3:2,0:0:0:0:
351,86,63634,1,10,0:0:0:0:
351,86,63817,2,0,L|341:187,2,87.5000008344649,2|0|0,3:2|3:2|3:2,0:0:0:0:
438,63,64366,1,10,0:0:0:0:
512,167,64549,6,0,P|428:151|326:184,1,175.00000166893,6|2,3:2|3:2,0:0:0:0:
385,276,65098,2,0,L|374:174,1,87.5000008344649,10|2,0:0|3:2,0:0:0:0:
298,251,65464,2,0,L|307:337,1,87.5000008344649,10|2,0:0|3:2,0:0:0:0:
230,372,65830,1,10,0:0:0:0:
149,326,66012,6,0,B|184:288|184:288|174:166,1,175.00000166893,6|2,3:2|3:2,0:0:0:0:
115,116,66561,1,10,0:0:0:0:
115,116,66744,1,6,3:2:0:0:
279,33,67110,1,0,3:2:0:0:
349,67,67293,1,8,0:0:0:0:
348,80,67384,1,8,0:0:0:0:
347,93,67476,1,8,0:0:0:0:
346,106,67567,1,8,0:0:0:0:
345,119,67659,6,0,L|356:217,2,87.5000008344649,6|2|10,0:0|3:2|0:0,0:0:0:0:
431,79,68208,2,0,L|450:255,1,175.00000166893,2|2,3:2|3:2,0:0:0:0:
406,342,68756,1,10,0:0:0:0:
317,303,68939,6,0,B|271:293|235:324|235:324|200:355|154:346,1,175.00000166893,2|2,3:2|3:2,0:0:0:0:
58,302,69488,1,10,0:0:0:0:
0,384,69671,1,2,3:2:0:0:
26,123,70037,5,2,3:2:0:0:
34,213,70220,1,10,0:0:0:0:
121,237,70403,2,0,L|198:177,1,87.5000008344649,2|0,3:2|0:0,0:0:0:0:
203,37,70769,5,2,3:2:0:0:
146,107,70952,1,10,0:0:0:0:
191,185,71135,2,0,L|287:198,1,87.5000008344649,2|0,3:2|0:0,0:0:0:0:
392,102,71500,5,2,3:2:0:0:
301,110,71683,1,10,0:0:0:0:
277,198,71866,2,0,L|336:275,1,87.5000008344649,2|0,3:2|0:0,0:0:0:0:
479,282,72232,5,2,3:2:0:0:
409,224,72415,1,10,0:0:0:0:
330,268,72598,2,0,L|316:364,1,87.5000008344649,2|0,3:2|0:0,0:0:0:0:
240,371,72964,1,0,3:2:0:0:
174,324,73147,1,8,0:0:0:0:
50,354,73330,1,8,0:0:0:0:
50,354,73421,1,8,0:0:0:0:
50,354,73512,6,0,L|59:245,2,87.5000008344649,6|2|10,0:0|3:2|0:0,0:0:0:0:
139,383,74061,2,0,B|172:352|172:352|184:207,1,175.00000166893,2|2,3:2|3:2,0:0:0:0:
121,144,74610,1,10,0:0:0:0:
172,60,74793,6,0,P|247:55|303:137,1,175.00000166893,2|2,3:2|3:2,0:0:0:0:
273,200,75342,1,10,0:0:0:0:
362,255,75525,1,2,3:2:0:0:
362,255,75708,2,0,L|356:359,1,87.5000008344649,0|0,3:2|3:2,0:0:0:0:
447,384,76073,1,10,0:0:0:0:
505,268,76256,6,0,L|490:84,1,175.00000166893,6|2,3:2|3:2,0:0:0:0:
434,38,76805,1,10,0:0:0:0:
259,137,77171,1,10,0:0:0:0:
177,175,77354,1,2,3:2:0:0:
93,133,77537,1,10,0:0:0:0:
177,175,77720,6,0,B|196:258|196:258|169:346,1,175.00000166893,6|2,3:2|3:2,0:0:0:0:
78,358,78269,2,0,L|225:376,1,131.250001251697,10|0,0:0|0:0,0:0:0:0:
208,373,78634,1,6,3:2:0:0:
307,334,78817,1,8,0:0:0:0:
307,334,78909,1,8,0:0:0:0:
307,334,79000,2,0,L|294:272,3,43.7500004172325,8|8|8|8,0:0|0:0|0:0|0:0,0:0:0:0:
308,262,79366,6,0,P|355:247|390:258,1,75.000002861023,6|2,3:2|3:2,0:0:0:0:
421,324,79732,1,10,2:2:0:0:
379,252,79915,2,0,L|390:90,1,150.000005722046,2|2,3:2|3:2,0:0:0:0:
444,50,80464,1,10,0:0:0:0:
345,14,80647,2,0,P|286:37|203:2,1,150.000005722046,2|2,3:2|3:2,0:0:0:0:
145,46,81195,1,10,0:0:0:0:
68,202,81561,2,0,L|73:292,1,75.000002861023,0|2,3:2|3:2,0:0:0:0:
15,335,81927,1,10,0:0:0:0:
132,372,82110,6,0,B|177:351|177:351|280:362,1,150.000005722046,6|2,3:2|3:2,0:0:0:0:
359,384,82659,2,0,L|443:370,1,75.000002861023,10|0,0:0|0:0,0:0:0:0:
512,384,83025,1,0,3:2:0:0:
481,309,83208,1,0,3:2:0:0:
512,233,83391,1,10,0:0:0:0:
441,146,83573,5,6,3:2:0:0:
336,255,83939,1,6,3:2:0:0:
166,52,84671,5,0,3:2:0:0:
166,52,84854,2,0,P|227:47|284:82,1,112.500004291534,8|0,2:2|0:0,0:0:0:0:
271,69,85230,6,0,B|364:108|332:56|421:92,1,156.25,6|0,0:0|3:2,0:0:0:0:
429,100,85850,1,0,3:2:0:0:
429,100,85980,2,0,P|420:131|431:212,1,112.500004291534,8|8,0:0|0:0,0:0:0:0:
441,222,86636,1,8,0:0:0:0:
452,234,86730,6,0,P|410:244|338:221,1,112.500004291534,10|2,3:2|3:2,0:0:0:0:
344,225,87105,1,2,0:0:0:0:
237,275,87292,5,2,3:2:0:0:
247,273,87386,1,2,0:0:0:0:
257,271,87480,2,0,L|325:299,2,37.5000014305115,8|10|6,0:0|0:0|3:2,0:0:0:0:
