osu file format v14

[General]
AudioFilename: audio.mp3
AudioLeadIn: 0
PreviewTime: 50349
Countdown: 0
SampleSet: Soft
StackLeniency: 0.3
Mode: 0
LetterboxInBreaks: 0
WidescreenStoryboard: 1

[Editor]
Bookmarks: 45349,82849,102849
DistanceSpacing: 1
BeatDivisor: 4
GridSize: 32
TimelineZoom: 2.1

[Metadata]
Title:Aosugiru Sora (Cut Ver.)
TitleUnicode:青すぎる空 (Cut Ver.)
Artist:the peggies
ArtistUnicode:the peggies
Creator:Rosiie
Version:Wanpachi's Normal
Source:
Tags:ザ ペギーズ アネモネEP アネモネ ANEMONOEP EP Yuuho Kitazawa Makiko Ishiwatari Miku Onuki Short Version Female Vocals Vocalist Wanpachi Cycopton Guanineso My Angel Ram My_Angel_Ram Japanese rock jrock j-rock ザ・ペギーズ 北澤ゆうほ 石渡マキコ 大貫みく
BeatmapID:2622798
BeatmapSetID:1261801

[Difficulty]
HPDrainRate:4
CircleSize:3
OverallDifficulty:4.5
ApproachRate:5
SliderMultiplier:1
SliderTickRate:1

[Events]
//Background and Video events
0,0,"Centi2.jpg",0,0
//Break Periods
//Storyboard Layer 0 (Background)
//Storyboard Layer 1 (Fail)
//Storyboard Layer 2 (Pass)
//Storyboard Layer 3 (Foreground)
//Storyboard Layer 4 (Overlay)
//Storyboard Sound Samples

[TimingPoints]
506,312.5,4,2,22,75,1,0
506,-100,4,2,22,75,0,0
5349,312.5,4,2,22,80,1,0
5349,-100,4,2,22,80,0,0
15349,-100,4,2,22,70,0,0
35349,-100,4,2,22,65,0,0
45349,-100,4,2,22,70,0,0
50349,-100,4,2,22,75,0,0
51599,-100,4,2,22,75,0,0
52224,-100,4,2,22,80,0,0
52849,-100,4,2,22,85,0,1
82849,-100,4,2,22,80,0,0
102849,-100,4,2,22,40,0,0

[Colours]
Combo1 : 167,235,137
Combo2 : 254,132,118
Combo3 : 132,235,240

[HitObjects]
323,48,506,6,0,L|372:42,2,50,8|8|8,0:2|0:2|0:2,0:0:0:0:
252,119,1131,2,0,L|202:112,2,50,8|8|8,0:2|0:2|0:2,0:0:0:0:
322,189,1756,2,0,L|371:182,2,50,8|8|8,0:2|0:2|0:2,0:0:0:0:
286,224,2224,1,8,0:2:0:0:
286,224,2381,2,0,L|236:217,2,50,8|8|8,0:3|0:3|0:2,0:2:0:0:
270,323,3006,6,0,L|220:316,1,50,8|8,0:2|0:2,0:0:0:0:
170,310,3318,1,8,0:2:0:0:
99,239,3631,2,0,L|92:189,1,50,8|8,0:2|0:2,0:0:0:0:
86,139,3943,1,8,0:2:0:0:
156,68,4256,2,0,L|205:74,1,50,8|8,0:2|0:2,0:0:0:0:
256,81,4568,1,8,0:2:0:0:
414,274,5349,6,0,P|361:296|301:284,1,100,6|8,1:2|0:2,0:2:0:0:
259,211,5974,2,0,L|264:157,1,50,0|8,1:2|1:3,0:0:0:0:
267,111,6286,1,8,0:2:0:0:
193,43,6599,2,0,P|141:78|88:72,1,100,2|8,1:2|0:2,0:2:0:0:
57,62,7068,2,0,L|67:181,1,100,2|8,0:2|0:3,0:0:0:0:
47,208,7536,1,10,0:2:0:0:
104,289,7849,6,0,L|218:300,1,100,2|8,1:2|0:2,0:2:0:0:
297,334,8474,2,0,L|290:383,2,50,0|8|8,1:2|1:3|0:2,0:0:0:0:
378,275,9099,2,0,P|394:225|370:173,1,100,2|8,1:2|0:2,0:2:0:0:
330,166,9567,2,0,L|343:63,1,100,2|8,0:2|1:3,0:0:0:0:
350,17,10036,1,10,0:2:0:0:
250,8,10349,6,0,P|202:44|154:44,1,100,6|8,1:2|0:2,0:2:0:0:
87,111,10974,2,0,L|93:160,1,50,0|8,1:2|1:3,0:0:0:0:
72,206,11286,1,8,0:2:0:0:
144,275,11599,2,0,L|246:291,1,100,2|8,1:2|0:2,0:2:0:0:
286,314,12067,2,0,P|334:280|389:280,1,100,2|8,0:2|1:3,0:0:0:0:
419,298,12536,1,10,0:2:0:0:
487,224,12849,6,0,L|474:117,1,100,2|8,1:2|0:2,0:2:0:0:
404,53,13474,2,0,L|297:40,1,100,2|8,1:2|0:2,0:0:0:0:
233,111,14099,2,0,P|177:142|129:129,1,100,2|8,1:2|0:2,0:2:0:0:
69,203,14724,2,0,L|75:256,1,50,10|8,0:2|0:2,0:0:0:0:
110,287,15036,2,0,L|116:340,1,50,8|8,0:2|0:2,0:0:0:0:
151,372,15349,6,0,P|212:375|248:352,1,100,4|8,1:2|0:2,0:2:0:0:
290,267,15974,2,0,L|353:274,2,50,2|10|10,1:2|1:3|0:2,0:0:0:0:
210,205,16599,2,0,P|202:156|224:112,1,100,2|10,1:2|0:2,0:2:0:0:
271,93,17067,2,0,L|421:80,1,150,2|10,0:2|0:2,0:2:0:0:
494,147,17849,6,0,L|471:266,1,100,2|10,1:2|0:2,0:2:0:0:
458,292,18317,2,0,P|398:273|338:334,1,150,2|10,0:2|0:2,0:2:0:0:
244,361,19099,2,0,L|178:350,1,50,2|2,1:2|0:2,0:0:0:0:
108,300,19567,2,0,P|89:252|107:185,1,100,2|10,0:2|1:3,0:2:0:0:
126,165,20036,1,10,0:2:0:0:
99,68,20349,6,0,L|220:59,1,100,2|8,1:2|0:2,0:2:0:0:
298,49,20974,2,0,L|302:-11,2,50,2|10|10,1:2|1:3|0:2,0:0:0:0:
382,102,21599,2,0,P|395:162|363:210,1,100,2|10,1:2|0:2,0:2:0:0:
332,211,22067,2,0,L|344:330,1,100,2|10,0:2|1:3,0:2:0:0:
332,359,22536,1,10,0:2:0:0:
233,341,22849,6,0,L|113:354,1,100,2|10,1:2|0:2,0:2:0:0:
90,327,23317,2,0,P|70:282|98:188,1,150,2|10,0:2|0:2,0:2:0:0:
136,96,24099,2,0,L|267:78,1,100,2|8,1:2|0:2,0:2:0:0:
313,143,24724,2,0,L|295:274,1,100,2|8,1:2|0:2,0:0:0:0:
353,326,25349,6,0,P|400:338|446:320,1,100,6|8,1:2|0:2,0:2:0:0:
460,220,25974,2,0,L|514:225,2,50,2|10|10,1:2|1:3|0:2,0:0:0:0:
396,142,26599,2,0,L|406:25,1,100,2|10,1:2|0:2,0:2:0:0:
364,12,27067,2,0,P|297:1|214:40,1,150,2|10,0:2|0:2,0:2:0:0:
190,127,27849,6,0,L|83:137,1,100,2|10,1:2|0:2,0:2:0:0:
58,174,28317,2,0,P|40:239|76:311,1,150,2|10,0:2|0:2,0:2:0:0:
165,353,29099,2,0,L|235:347,1,50,2|2,1:2|0:2,0:0:0:0:
310,319,29567,2,0,P|331:274|332:224,1,100,2|10,0:2|1:3,0:2:0:0:
313,178,30036,1,10,0:2:0:0:
234,115,30349,6,0,L|129:130,1,100,2|8,1:2|0:2,0:2:0:0:
82,214,30974,2,0,L|29:205,2,50,2|10|10,1:2|1:3|0:2,0:0:0:0:
105,311,31599,2,0,P|164:334|232:308,1,100,2|10,1:2|0:2,0:2:0:0:
234,293,32067,2,0,P|293:270|361:296,1,100,2|10,0:2|1:3,0:2:0:0:
363,311,32536,1,10,0:2:0:0:
453,267,32849,6,0,L|437:151,1,100,2|10,1:2|0:2,0:2:0:0:
461,123,33317,2,0,P|470:74|395:25,1,150,2|10,0:2|0:2,0:2:0:0:
295,36,34099,2,0,L|174:26,1,100,2|8,1:2|0:2,0:2:0:0:
126,100,34724,2,0,P|113:153|134:205,1,100,2|8,1:2|0:2,0:0:0:0:
227,217,35349,5,4,1:2:0:0:
326,209,35661,2,0,L|356:95,2,100,6|6|10,1:3|1:3|0:2,0:2:0:0:
365,248,36442,1,0,0:2:0:0:
365,248,36599,2,0,P|375:296|358:342,1,100,6|4,1:3|1:3,0:2:0:0:
259,322,37224,2,0,L|255:272,2,50,6|2|8,1:3|0:2|0:2,0:0:0:0:
169,367,37849,5,4,1:3:0:0:
93,299,38161,2,0,L|86:236,1,50,6|2,1:3|0:2,0:0:0:0:
24,171,38630,2,0,L|34:101,1,50,2|10,0:2|0:2,0:0:0:0:
99,48,39099,2,0,P|158:59|214:73,1,100,6|6,1:3|1:3,0:0:0:0:
294,48,39724,2,0,L|280:-5,2,50,6|2|8,1:3|0:2|0:2,0:0:0:0:
378,101,40349,5,4,1:3:0:0:
358,199,40661,2,0,L|349:253,1,50,6|2,1:3|0:2,0:0:0:0:
344,298,40974,2,0,P|285:327|216:299,1,100,6|10,1:3|0:2,0:0:0:0:
169,378,41599,1,6,1:3:0:0:
125,287,41911,2,0,L|63:279,1,50,6|2,1:3|0:2,0:0:0:0:
48,237,42224,2,0,L|-14:229,2,50,6|2|10,1:3|0:2|0:2,0:0:0:0:
91,146,42849,6,0,P|103:95|75:39,1,100,6|6,1:3|1:3,0:2:0:0:
173,1,43474,2,0,L|280:15,1,100,6|10,1:3|0:2,0:2:0:0:
371,14,44099,2,0,P|431:61|406:139,1,150,6|10,1:3|1:3,0:2:0:0:
383,161,44724,2,0,L|399:280,1,100,6|8,1:3|0:2,0:2:0:0:
327,332,45349,6,0,P|276:311|210:311,1,100,6|8,1:2|1:3,0:2:0:0:
191,337,45817,2,0,L|183:211,1,100,2|0,0:2|0:2,0:2:0:0:
219,201,46286,1,10,0:2:0:0:
242,103,46599,1,4,1:2:0:0:
163,41,46911,1,10,1:3:0:0:
65,61,47224,2,0,P|47:107|53:156,1,100,10|10,1:3|0:2,0:2:0:0:
8,246,47849,5,4,1:2:0:0:
65,327,48161,1,10,1:3:0:0:
157,289,48474,2,0,L|256:300,1,100,10|10,1:3|0:2,0:2:0:0:
349,337,49099,1,4,1:2:0:0:
418,267,49411,2,0,L|426:205,1,50,2|2,1:2|0:2,0:0:0:0:
408,169,49724,2,0,L|416:107,2,50,8|8|8,0:2|0:2|0:2,0:0:0:0:
256,192,50349,12,10,52224,0:2:0:0:
74,281,52849,6,0,P|55:221|73:179,1,100,6|10,1:2|0:2,0:2:0:0:
137,118,53474,2,0,P|197:99|239:117,1,100,2|10,1:2|0:2,0:0:0:0:
327,78,54099,1,2,1:2:0:0:
409,135,54411,1,10,0:2:0:0:
409,235,54724,2,0,L|422:296,1,50,2|8,1:2|1:3,0:0:0:0:
394,326,55036,2,0,P|326:306|272:322,1,100,10|6,0:2|1:2,0:2:0:0:
204,342,55661,5,8,0:2:0:0:
127,278,55974,2,0,L|136:223,1,50,0|8,1:2|1:3,0:0:0:0:
102,191,56286,1,8,0:2:0:0:
155,105,56599,2,0,P|208:91|269:112,1,100,0|8,1:2|0:2,0:2:0:0:
333,158,57224,2,0,L|382:154,1,50,2|10,1:2|1:3,0:0:0:0:
419,190,57536,2,0,L|415:239,1,50,10|2,0:2|0:2,0:0:0:0:
381,275,57849,6,0,L|271:281,1,100,4|10,1:2|0:2,0:2:0:0:
238,307,58317,2,0,P|198:283|136:285,1,100,2|10,0:2|1:3,0:2:0:0:
100,302,58786,1,10,0:2:0:0:
30,229,59099,2,0,L|39:117,1,100,0|8,1:2|0:2,0:2:0:0:
116,67,59724,1,2,1:2:0:0:
209,101,60036,2,0,L|273:92,1,50,10|0,0:2|0:2,0:2:0:0:
305,77,60349,6,0,P|362:120|362:167,1,100,2|10,1:2|0:2,0:2:0:0:
395,184,60817,2,0,L|373:301,1,100,2|10,0:2|1:3,0:2:0:0:
341,318,61286,2,0,P|274:282|229:309,1,100,10|0,0:2|1:2,0:2:0:0:
174,345,61911,1,8,0:2:0:0:
87,295,62224,2,0,L|97:225,1,50,2|10,1:2|1:3,0:0:0:0:
48,156,62692,6,0,L|-11:162,2,50,2|6|2,0:2|1:2|0:2,0:0:0:0:
49,55,63317,2,0,L|-10:61,2,50,2|2|10,0:2|1:2|1:3,0:0:0:0:
143,22,63942,2,0,L|202:28,1,50,2|2,0:2|1:2,0:0:0:0:
236,2,64255,1,2,0:2:0:0:
332,28,64567,1,2,0:2:0:0:
332,28,64724,2,0,P|341:91|326:130,1,100,2|8,1:2|0:2,0:0:0:0:
296,161,65192,1,2,0:2:0:0:
296,161,65349,6,0,L|315:276,1,100,2|8,1:2|0:2,0:2:0:0:
232,320,65974,2,0,L|182:311,1,50,0|8,1:2|1:3,0:0:0:0:
133,318,66286,1,8,0:2:0:0:
45,270,66599,2,0,L|33:211,1,50,2|0,1:2|1:2,0:0:0:0:
70,185,66911,2,0,L|58:126,1,50,10|0,0:2|0:2,0:2:0:0:
95,100,67224,2,0,P|149:76|205:103,1,100,10|10,0:2|0:2,0:0:0:0:
256,158,67849,6,0,L|366:146,1,100,6|10,1:2|0:2,0:2:0:0:
365,246,68474,2,0,L|265:256,1,100,2|10,1:2|0:2,0:0:0:0:
172,220,69099,1,2,1:2:0:0:
156,121,69411,1,10,0:2:0:0:
55,119,69724,2,0,L|42:180,1,50,2|8,1:2|1:3,0:0:0:0:
6,200,70036,2,0,P|26:268|10:322,1,100,10|6,0:2|1:2,0:2:0:0:
96,361,70661,5,8,0:2:0:0:
178,304,70974,2,0,L|238:300,1,50,0|8,1:2|1:3,0:0:0:0:
275,314,71286,1,8,0:2:0:0:
351,378,71599,2,0,L|471:370,1,100,0|8,1:2|0:2,0:2:0:0:
507,288,72224,2,0,L|503:228,1,50,2|10,1:2|1:3,0:0:0:0:
483,192,72536,2,0,L|479:132,1,50,10|2,0:2|0:2,0:0:0:0:
466,93,72849,6,0,P|415:84|360:113,1,100,6|10,1:2|0:2,0:2:0:0:
334,135,73317,2,0,L|220:117,1,100,2|10,0:2|1:3,0:2:0:0:
202,81,73786,1,10,0:2:0:0:
126,146,74099,2,0,P|107:204|130:247,1,100,0|8,1:2|0:2,0:2:0:0:
201,297,74724,2,0,L|265:288,1,50,2|10,1:2|1:3,0:0:0:0:
295,269,75036,2,0,L|359:278,1,50,10|2,0:2|0:2,0:0:0:0:
392,260,75349,6,0,L|374:132,1,100,2|10,1:2|0:2,0:2:0:0:
359,114,75817,2,0,P|308:102|252:130,1,100,2|10,0:2|1:3,0:2:0:0:
229,153,76286,2,0,P|178:165|122:137,1,100,10|0,0:2|1:2,0:2:0:0:
45,103,76911,1,8,0:2:0:0:
22,200,77224,2,0,L|32:270,1,50,2|10,1:2|1:3,0:0:0:0:
49,347,77692,6,0,L|-10:341,2,50,2|6|2,0:2|1:2|0:2,0:0:0:0:
148,333,78317,2,0,L|154:392,2,50,2|2|10,0:2|1:2|1:3,0:0:0:0:
247,317,78942,2,0,L|306:323,1,50,2|2,0:2|1:2,0:0:0:0:
336,353,79255,1,10,1:3:0:0:
434,337,79567,1,2,0:2:0:0:
434,337,79724,2,0,L|443:231,1,100,2|8,3:2|0:2,0:0:0:0:
483,208,80192,1,10,0:2:0:0:
483,208,80349,6,0,P|494:156|478:108,1,100,2|8,1:2|0:2,0:0:0:0:
437,87,80817,1,8,0:2:0:0:
437,87,80974,2,0,L|432:28,1,50,8|8,0:2|0:2,0:0:0:0:
391,9,81286,1,10,0:3:0:0:
310,68,81599,1,8,0:2:0:0:
215,36,81911,1,8,0:2:0:0:
65,340,82849,6,0,L|38:234,1,100,6|8,1:2|0:2,0:2:0:0:
1,150,83474,2,0,L|14:97,1,50,0|8,1:2|1:3,0:0:0:0:
37,58,83786,1,8,0:2:0:0:
129,18,84099,2,0,P|174:37|222:29,1,100,2|8,1:2|0:2,0:2:0:0:
272,21,84568,2,0,L|262:140,1,100,2|8,0:2|0:3,0:0:0:0:
300,153,85036,1,10,0:2:0:0:
398,132,85349,6,0,P|449:143|491:191,1,100,2|8,1:2|0:2,0:2:0:0:
458,272,85974,2,0,L|507:279,2,50,0|8|8,1:2|1:3|0:2,0:0:0:0:
385,340,86599,2,0,L|286:325,1,100,2|8,1:2|0:2,0:2:0:0:
246,295,87067,2,0,P|204:344|155:351,1,100,2|8,0:2|1:3,0:0:0:0:
127,328,87536,1,10,0:2:0:0:
47,267,87849,6,0,L|57:156,1,100,6|8,1:2|0:2,0:2:0:0:
28,71,88474,2,0,L|83:66,1,50,0|8,1:2|1:3,0:0:0:0:
123,45,88786,1,8,0:2:0:0:
206,99,89099,2,0,P|245:132|308:115,1,100,2|8,1:2|0:2,0:2:0:0:
326,92,89567,2,0,P|365:59|428:76,1,100,2|8,0:2|1:3,0:0:0:0:
446,99,90036,1,10,0:2:0:0:
417,194,90349,6,0,L|430:301,1,100,2|8,1:2|0:2,0:2:0:0:
356,362,90974,2,0,L|249:349,1,100,2|8,1:2|0:2,0:0:0:0:
171,297,91599,2,0,L|64:310,1,100,2|8,1:2|0:2,0:2:0:0:
0,238,92224,2,0,L|6:184,1,50,10|8,0:2|0:2,0:0:0:0:
41,153,92536,2,0,L|94:146,1,50,8|8,0:2|0:2,0:0:0:0:
126,111,92849,6,0,L|239:101,1,100,6|8,1:2|0:2,0:2:0:0:
271,179,93474,2,0,L|266:233,1,50,0|8,1:2|1:3,0:0:0:0:
245,273,93786,1,8,0:2:0:0:
319,341,94099,2,0,L|424:312,1,100,2|8,1:2|0:2,0:2:0:0:
464,322,94568,2,0,P|479:262|454:203,1,100,2|8,0:2|0:3,0:0:0:0:
493,182,95036,1,10,0:2:0:0:
421,111,95349,6,0,P|375:94|307:100,1,100,2|8,1:2|0:2,0:2:0:0:
231,58,95974,2,0,L|238:9,2,50,0|8|8,1:2|1:3|0:2,0:0:0:0:
134,109,96599,2,0,L|142:211,1,100,2|8,1:2|0:2,0:2:0:0:
105,242,97067,2,0,P|102:291|120:337,1,100,2|8,0:2|1:3,0:0:0:0:
162,367,97536,1,10,0:2:0:0:
262,376,97849,6,0,L|358:340,1,100,6|8,1:2|0:2,0:2:0:0:
425,273,98474,2,0,L|419:224,1,50,0|8,1:2|1:3,0:0:0:0:
440,178,98786,1,8,0:2:0:0:
368,109,99099,2,0,P|321:88|266:93,1,100,2|8,1:2|0:2,0:2:0:0:
227,109,99567,2,0,L|120:96,1,100,2|8,0:2|1:3,0:0:0:0:
78,86,100036,1,10,0:2:0:0:
23,169,100349,6,0,P|6:213|36:276,1,100,2|8,1:2|0:2,0:2:0:0:
108,331,100974,2,0,P|158:320|215:344,1,100,2|8,1:2|0:2,0:0:0:0:
294,375,101599,2,0,L|398:357,1,100,2|8,1:2|0:2,0:2:0:0:
456,280,102224,2,0,L|450:227,1,50,10|8,0:2|0:2,0:0:0:0:
415,195,102536,2,0,L|421:142,1,50,8|8,0:2|0:2,0:0:0:0:
456,109,102849,5,6,1:2:0:0:
