osu file format v14

[General]
AudioFilename: audio.mp3
AudioLeadIn: 0
PreviewTime: 49014
Countdown: 0
SampleSet: Soft
StackLeniency: 0.7
Mode: 0
LetterboxInBreaks: 0
WidescreenStoryboard: 1

[Editor]
DistanceSpacing: 1.2
BeatDivisor: 4
GridSize: 8
TimelineZoom: 1.9

[Metadata]
Title:Ash Like Snow (TV Size)
TitleUnicode:Ash Like Snow (TV Size)
Artist:the brilliant green
ArtistUnicode:the brilliant green
Creator:sainoo
Version:Hard
Source:Mobile Suit Gundam 00
Tags:japanese j-rock jrock science fiction mecha alternative rock 機動戦士ガンダム00 tommy february6 heavenly6 anime op opening
BeatmapID:3815498
BeatmapSetID:1856519

[Difficulty]
HPDrainRate:5
CircleSize:3.8
OverallDifficulty:6.5
ApproachRate:7
SliderMultiplier:1.4
SliderTickRate:1

[Events]
//Background and Video events
0,0,"gundam.jpg",0,0
//Break Periods
//Storyboard Layer 0 (Background)
//Storyboard Layer 1 (Fail)
//Storyboard Layer 2 (Pass)
//Storyboard Layer 3 (Foreground)
//Storyboard Layer 4 (Overlay)
//Storyboard Sound Samples

[TimingPoints]
0,361.0651421694,4,2,0,60,1,0
2888,-100,4,2,0,65,0,0
14442,-111.111111111111,4,2,0,50,0,0
25996,-111.111111111111,4,2,0,55,0,0
37550,-105.263157894737,4,2,0,60,0,0
49104,-95.2380952380952,4,2,0,75,0,0
72213,-100,4,2,0,75,0,0
89544,-95.2380952380952,4,2,0,5,0,0

[Colours]
Combo1 : 17,254,176
Combo2 : 173,255,95
Combo3 : 255,88,100
Combo4 : 255,94,55

[HitObjects]
350,296,2888,5,4,1:0:0:0:
309,229,3069,1,0,1:0:0:0:
395,218,3249,2,0,P|398:182|390:137,1,70,0|0,1:0|0:0,0:0:0:0:
280,57,3610,2,0,B|202:41|223:78|137:62,1,140,8|0,0:1|1:0,0:0:0:0:
6,57,4152,1,8,0:1:0:0:
55,112,4332,2,0,P|58:160|60:186,1,70,2|4,3:0|1:0,0:0:0:0:
210,242,4693,2,0,P|211:185|125:152,1,140,4|8,1:2|0:1,0:0:0:0:
145,146,5415,6,0,P|138:193|128:228,1,70,0|8,1:0|0:1,0:0:0:0:
1,293,5777,1,4,1:2:0:0:
83,284,5957,1,0,1:0:0:0:
93,366,6138,2,0,P|124:373|169:379,1,70,0|0,1:0|0:0,0:0:0:0:
275,282,6499,6,0,P|319:264|418:273,1,140,8|0,0:1|1:0,0:0:0:0:
468,335,7040,1,8,0:1:0:0:
393,369,7221,2,0,P|355:376|324:379,1,70,0|4,1:0|1:0,0:0:0:0:
223,215,7582,6,0,P|218:153|224:51,1,140,4|8,1:2|0:1,0:0:0:0:
296,34,8123,1,8,0:3:0:0:
296,34,8214,1,8,0:3:0:0:
296,34,8304,2,0,L|291:93,3,35,8|4|4|4,0:3|0:3|0:3|0:3,0:0:0:0:
312,106,8665,5,4,1:0:0:0:
395,95,8846,1,0,1:0:0:0:
374,176,9026,2,0,P|371:235|366:268,1,70,0|0,1:0|0:0,0:0:0:0:
510,206,9387,2,0,P|514:159|511:47,1,140,8|0,0:1|1:0,0:0:0:0:
352,18,9929,1,8,0:1:0:0:
429,15,10109,2,0,P|428:50|429:85,1,70,2|4,3:0|1:0,0:0:0:0:
442,252,10470,6,0,B|386:208|386:208|292:233,1,140,4|8,1:2|0:1,0:0:0:0:
319,225,11193,1,0,1:0:0:0:
309,313,11373,1,8,0:1:0:0:
227,300,11554,2,0,L|138:319,1,70,0|0,1:0|1:0,0:0:0:0:
81,254,11915,2,0,P|34:243|-15:235,1,70,0|0,1:0|0:0,0:0:0:0:
211,178,12276,6,0,P|225:113|209:18,1,140,8|0,0:1|1:0,0:0:0:0:
25,0,12817,1,8,0:1:0:0:
78,60,12998,2,0,L|161:78,1,70,0|4,1:0|1:0,0:0:0:0:
0,112,13359,2,0,P|55:136|152:154,1,140,4|8,1:2|0:1,0:0:0:0:
231,104,13901,1,8,0:3:0:0:
298,190,14081,1,4,0:3:0:0:
379,72,14262,5,4,0:3:0:0:
379,72,14352,1,4,0:3:0:0:
379,72,14442,2,0,P|384:135|382:333,1,251.999992309571,4|0,1:0|1:0,0:0:0:0:
382,323,15525,1,2,1:2:0:0:
297,384,15886,2,0,P|290:321|292:247,1,125.999996154785,2|0,1:2|1:0,0:0:0:0:
322,188,16428,2,0,L|315:115,1,62.9999980773926,2|0,0:0|1:0,0:0:0:0:
374,72,16789,2,0,P|403:67|445:55,2,62.9999980773926,2|0|0,0:0|1:0|0:0,0:0:0:0:
260,27,17331,6,0,P|221:16|136:168,1,251.999992309571,2|0,1:2|1:0,0:0:0:0:
132,163,18414,1,2,1:2:0:0:
73,230,18775,1,2,1:2:0:0:
6,304,19136,2,0,P|80:314|153:306,1,125.999996154785,0|2,1:2|1:2,0:0:0:0:
210,331,19678,1,0,0:0:0:0:
210,331,19858,2,0,L|278:350,1,62.9999980773926,2|0,1:2|3:0,0:0:0:0:
354,384,20219,6,0,P|348:341|353:247,2,125.999996154785,2|2|0,1:2|1:2|1:0,0:0:0:0:
468,257,21302,1,0,1:0:0:0:
483,172,21663,1,2,1:2:0:0:
507,82,22024,2,0,P|471:58|385:49,2,125.999996154785,0|2|2,1:0|1:2|1:2,0:0:0:0:
365,201,23108,6,0,B|221:174|256:247|110:230,1,251.999992309571,2|0,1:2|1:0,0:0:0:0:
119,231,24191,1,0,1:0:0:0:
22,241,24552,2,0,P|24:303|35:365,1,125.999996154785,2|2,1:2|1:2,0:0:0:0:
113,371,25094,2,0,P|144:376|174:384,1,62.9999980773926,2|0,0:0|1:0,0:0:0:0:
243,342,25455,1,2,0:0:0:0:
318,368,25635,2,0,L|369:376,2,31.4999990386963,8|8|4,0:3|0:3|0:3,0:0:0:0:
175,272,25996,6,0,P|166:231|186:19,1,251.999992309571,4|0,1:0|1:0,0:0:0:0:
184,24,27079,1,0,1:0:0:0:
245,135,27440,2,0,B|356:98|356:98|454:199,1,251.999992309571,2|0,1:2|1:0,0:0:0:0:
495,131,28343,2,0,P|502:101|508:70,1,62.9999980773926,2|0,0:0|1:0,0:0:0:0:
448,21,28704,1,2,0:0:0:0:
448,21,28885,2,0,P|380:19|312:14,2,125.999996154785,0|0|0,1:0|1:0|1:0,0:0:0:0:
448,21,29968,1,2,1:2:0:0:
331,91,30329,6,0,P|296:102|253:112,1,62.9999980773926,0|0,1:0|0:0,0:0:0:0:
217,187,30690,2,0,P|158:163|97:148,1,125.999996154785,2|2,1:2|1:2,0:0:0:0:
20,176,31232,1,0,3:0:0:0:
20,176,31412,2,0,L|28:238,1,62.9999980773926,2|0,1:2|0:0,0:0:0:0:
47,356,31773,2,0,P|138:376|233:372,1,188.999994232178,2|0,1:2|0:0,0:0:0:0:
341,336,32495,2,0,B|339:268|372:290|377:190,1,125.999996154785,2|0,1:2|1:0,0:0:0:0:
448,185,33037,1,0,0:0:0:0:
448,185,33217,2,0,P|454:150|453:122,1,62.9999980773926,2|0,1:2|0:0,0:0:0:0:
358,14,33579,2,0,P|340:71|352:138,1,125.999996154785,0|2,1:0|1:2,0:0:0:0:
351,135,34301,1,0,1:2:0:0:
420,282,34662,6,0,P|355:269|272:259,1,125.999996154785,0|0,1:0|1:0,0:0:0:0:
251,195,35203,1,0,0:0:0:0:
251,195,35384,2,0,L|258:118,1,62.9999980773926,0|0,1:0|0:0,0:0:0:0:
219,67,35745,2,0,P|188:63|157:62,1,62.9999980773926,2|0,1:2|3:0,0:0:0:0:
54,84,36106,2,0,P|50:134|61:282,1,188.999994232178,2|0,1:2|3:0,0:0:0:0:
127,348,36828,1,0,1:0:0:0:
127,348,36918,1,0,1:0:0:0:
127,348,37009,1,0,1:0:0:0:
127,348,37099,1,0,1:0:0:0:
127,348,37189,2,0,L|133:303,3,31.4999990386963,0|0|0|0,1:0|1:0|1:0|1:0,0:0:0:0:
164,294,37550,5,6,1:2:0:0:
210,226,37731,1,0,1:0:0:0:
288,267,37911,2,0,L|374:277,1,66.4999982242585,8|0,0:1|0:0,0:0:0:0:
427,315,38272,1,0,1:0:0:0:
427,315,38453,1,2,1:2:0:0:
468,233,38633,1,8,0:1:0:0:
510,343,38814,6,0,B|430:349|465:368|363:388,1,132.999996448517,6|0,1:2|1:0,0:0:0:0:
313,314,39356,2,0,P|311:347|306:380,1,66.4999982242585,8|0,0:1|0:0,0:0:0:0:
228,304,39717,2,0,P|232:255|233:221,1,66.4999982242585,0|2,1:0|1:2,0:0:0:0:
142,378,40078,2,0,P|142:339|154:232,1,132.999996448517,8|2,0:1|1:2,0:0:0:0:
92,188,40619,1,0,1:0:0:0:
10,232,40800,2,0,L|11:165,1,66.4999982242585,8|0,0:1|0:0,0:0:0:0:
5,72,41161,1,0,1:0:0:0:
5,72,41341,1,0,1:0:0:0:
86,32,41522,1,8,0:1:0:0:
125,105,41703,6,0,P|176:130|271:131,1,132.999996448517,6|0,1:2|1:0,0:0:0:0:
278,50,42244,2,0,P|224:53|198:61,1,66.4999982242585,8|0,0:1|0:0,0:0:0:0:
337,116,42605,2,0,L|402:131,1,66.4999982242585,0|0,1:0|1:0,0:0:0:0:
499,163,42966,1,8,0:1:0:0:
499,163,43327,2,0,L|513:97,1,66.4999982242585,2|0,1:2|1:0,0:0:0:0:
413,223,43688,2,0,P|376:243|261:255,1,132.999996448517,8|0,0:1|1:0,0:0:0:0:
219,187,44230,2,0,P|204:222|199:256,1,66.4999982242585,2|8,1:2|0:1,0:0:0:0:
136,347,44591,6,0,L|3:361,1,132.999996448517,4|0,1:0|0:0,0:0:0:0:
63,272,45133,2,0,P|71:239|75:206,1,66.4999982242585,8|0,0:1|0:0,0:0:0:0:
130,150,45494,1,0,1:0:0:0:
130,150,45674,1,2,1:2:0:0:
65,77,45855,2,0,P|98:70|131:63,1,66.4999982242585,8|0,0:1|1:0,0:0:0:0:
216,102,46216,1,2,1:2:0:0:
278,50,46396,1,0,1:0:0:0:
284,149,46577,6,0,B|354:130|342:170|427:161,1,132.999996448517,8|0,0:1|1:0,0:0:0:0:
421,84,47119,1,0,1:0:0:0:
384,14,47299,1,8,0:1:0:0:
495,33,47480,2,0,P|502:66|502:122,1,66.4999982242585,4|0,1:2|0:0,0:0:0:0:
452,180,47841,1,0,1:0:0:0:
479,255,48021,1,8,0:1:0:0:
402,280,48202,1,0,1:0:0:0:
326,304,48382,2,0,P|318:271|315:237,1,66.4999982242585,8|0,0:1|1:0,0:0:0:0:
248,179,48743,5,0,1:0:0:0:
248,179,48834,1,0,1:0:0:0:
248,179,48924,1,0,1:0:0:0:
248,179,49014,1,0,1:0:0:0:
248,179,49104,2,0,L|160:196,1,73.4999977569581,4|0,1:0|1:0,0:0:0:0:
39,233,49465,2,0,P|94:278|166:276,1,146.999995513916,2|8,1:0|0:1,0:0:0:0:
166,276,50188,1,0,1:0:0:0:
175,192,50368,1,8,0:1:0:0:
181,105,50549,2,0,P|218:98|274:96,1,73.4999977569581,4|0,1:2|1:0,0:0:0:0:
366,42,50910,2,0,P|298:24|284:18,1,73.4999977569581,2|0,1:0|1:0,0:0:0:0:
138,29,51271,6,0,P|90:17|27:99,1,146.999995513916,8|2,0:1|1:0,0:0:0:0:
78,161,51812,1,8,0:1:0:0:
25,234,51993,1,2,1:0:0:0:
60,302,52173,1,0,1:0:0:0:
115,359,52354,2,0,P|165:367|267:361,2,146.999995513916,0|8|2,1:0|0:1|1:0,0:0:0:0:
60,302,53257,1,8,0:1:0:0:
144,269,53437,5,4,1:2:0:0:
151,190,53618,1,0,1:0:0:0:
164,114,53798,2,0,P|237:120|324:149,2,146.999995513916,0|8|0,1:0|0:1|1:0,0:0:0:0:
90,54,54701,1,8,0:1:0:0:
10,89,54881,2,0,L|11:16,1,73.4999977569581,4|0,1:0|1:0,0:0:0:0:
136,132,55242,2,0,L|139:218,1,73.4999977569581,2|0,1:0|0:0,0:0:0:0:
41,233,55604,6,0,P|40:306|40:379,1,146.999995513916,8|2,0:1|1:0,0:0:0:0:
116,316,56145,1,8,0:1:0:0:
197,348,56326,1,4,1:2:0:0:
197,348,56506,1,0,1:0:0:0:
280,362,56687,2,0,P|322:369|367:367,1,73.4999977569581,0|0,1:0|1:0,0:0:0:0:
472,300,57048,2,0,P|474:248|457:131,1,146.999995513916,8|0,0:1|1:0,0:0:0:0:
385,115,57589,1,8,0:1:0:0:
463,72,57770,2,0,P|462:35|455:0,1,73.4999977569581,4|0,1:0|0:0,0:0:0:0:
309,81,58131,2,0,P|308:137|312:170,1,73.4999977569581,0|0,1:0|0:0,0:0:0:0:
231,211,58492,5,8,0:1:0:0:
144,160,58673,1,0,1:0:0:0:
219,109,58853,1,0,1:0:0:0:
219,109,59034,1,8,0:1:0:0:
148,38,59214,2,0,B|64:12|88:61|-14:33,2,146.999995513916,4|0|8,1:2|1:0|0:1,0:0:0:0:
219,109,60117,1,8,0:3:0:0:
219,109,60207,1,8,0:3:0:0:
219,109,60297,2,0,L|269:127,3,36.749998878479,8|4|4|4,0:3|0:3|0:3|0:3,0:0:0:0:
261,165,60658,5,4,1:0:0:0:
248,254,60839,1,0,1:0:0:0:
226,339,61020,2,0,P|270:351|312:353,1,73.4999977569581,2|0,1:0|0:0,0:0:0:0:
163,236,61381,2,0,P|99:225|13:212,1,146.999995513916,8|0,0:1|1:0,0:0:0:0:
29,125,61922,1,8,0:1:0:0:
17,35,62103,2,0,P|72:52|116:57,1,73.4999977569581,4|0,1:2|1:0,0:0:0:0:
174,122,62464,2,0,P|132:131|94:141,1,73.4999977569581,2|0,1:0|1:0,0:0:0:0:
265,48,62825,6,0,B|352:22|320:68|436:47,1,146.999995513916,8|2,0:1|1:0,0:0:0:0:
471,116,63366,1,8,0:1:0:0:
406,188,63547,1,4,1:2:0:0:
457,248,63727,1,0,1:0:0:0:
507,311,63908,2,0,P|471:321|421:342,1,73.4999977569581,2|0,1:0|1:0,0:0:0:0:
317,293,64269,2,0,P|268:286|158:257,1,146.999995513916,8|2,0:1|1:0,0:0:0:0:
68,285,64811,1,8,0:1:0:0:
154,349,64991,5,4,1:2:0:0:
173,262,65172,1,4,1:0:0:0:
195,183,65352,1,0,1:0:0:0:
131,115,65533,1,0,1:0:0:0:
190,44,65713,1,0,1:0:0:0:
190,44,65804,1,0,1:0:0:0:
190,44,65894,1,0,1:0:0:0:
190,44,65984,1,0,1:0:0:0:
190,44,66074,2,0,L|242:56,3,36.749998878479,0|0|0|0,1:0|1:0|1:0|1:0,0:0:0:0:
245,91,66435,6,0,P|290:118|404:127,1,146.999995513916,4|0,1:0|1:0,0:0:0:0:
382,130,67158,2,0,L|392:31,1,73.4999977569581,8|0,0:1|0:0,0:0:0:0:
466,102,67519,1,2,1:0:0:0:
466,102,67699,1,8,0:1:0:0:
449,188,67880,2,0,P|442:226|439:274,1,73.4999977569581,0|8,1:0|0:1,0:0:0:0:
303,286,68241,6,0,P|231:265|157:264,2,146.999995513916,2|8|2,1:0|0:1|1:0,0:0:0:0:
385,342,69143,1,8,0:1:0:0:
264,372,69324,1,4,1:0:0:0:
264,372,69685,1,0,1:0:0:0:
264,372,70046,2,0,P|200:365|118:336,1,146.999995513916,8|0,0:1|1:0,0:0:0:0:
65,269,70588,1,8,0:1:0:0:
59,186,70768,2,0,L|53:103,1,73.4999977569581,2|8,1:0|0:1,0:0:0:0:
152,164,71129,2,0,P|148:201|146:238,1,73.4999977569581,4|0,1:2|1:0,0:0:0:0:
248,267,71490,1,8,0:3:0:0:
248,267,71581,1,8,0:3:0:0:
248,267,71671,1,8,0:3:0:0:
248,267,71761,1,8,0:3:0:0:
248,267,71851,2,0,L|234:204,3,36.749998878479,8|4|4|4,0:3|0:3|0:3|0:3,0:0:0:0:
270,187,72213,6,0,L|357:179,1,70,4|0,1:0|1:0,0:0:0:0:
341,285,72574,2,0,P|356:240|466:229,1,140,0|8,1:0|0:1,0:0:0:0:
437,213,73296,1,0,1:0:0:0:
484,147,73476,1,8,0:1:0:0:
435,84,73657,2,0,P|436:47|444:7,1,70,0|4,1:0|1:0,0:0:0:0:
320,126,74018,6,0,P|276:145|175:140,1,140,0|8,1:0|0:1,0:0:0:0:
185,143,74740,2,0,L|197:221,1,70,0|8,1:0|0:1,0:0:0:0:
98,186,75101,1,4,1:2:0:0:
21,133,75282,1,0,1:0:0:0:
100,104,75462,2,0,P|97:71|88:33,1,70,0|0,1:0|0:0,0:0:0:0:
21,207,75823,2,0,P|32:287|29:371,1,140,8|0,0:1|1:0,0:0:0:0:
120,351,76365,1,8,0:1:0:0:
120,351,76545,1,0,1:0:0:0:
133,262,76726,1,4,1:2:0:0:
232,307,76906,6,0,P|282:327|389:326,1,140,4|8,1:0|0:1,0:0:0:0:
438,271,77448,1,8,0:3:0:0:
438,271,77538,1,8,0:3:0:0:
438,271,77629,2,0,L|450:236,3,35,8|8|8|8,0:3|0:3|0:3|0:3,0:0:0:0:
430,199,77990,5,4,1:0:0:0:
477,136,78170,1,0,1:0:0:0:
420,76,78351,2,0,P|378:65|333:57,1,70,0|0,1:0|0:0,0:0:0:0:
253,125,78712,2,0,P|316:138|411:161,1,140,8|0,0:1|1:0,0:0:0:0:
384,241,79253,1,8,0:1:0:0:
285,249,79434,2,0,P|241:232|212:226,1,70,0|4,1:0|1:2,0:0:0:0:
62,275,79795,6,0,B|62:202|22:215|19:133,1,140,4|8,1:0|0:1,0:0:0:0:
19,143,80517,2,0,P|26:108|28:73,1,70,0|8,1:0|0:1,0:0:0:0:
133,28,80878,1,4,1:2:0:0:
103,104,81059,1,0,1:0:0:0:
183,130,81239,2,0,L|261:124,1,70,4|0,1:0|0:0,0:0:0:0:
117,197,81600,2,0,P|125:264|134:352,1,140,8|0,0:1|1:0,0:0:0:0:
0,256,82142,1,8,0:1:0:0:
48,313,82322,2,0,L|63:385,1,70,4|8,1:2|0:1,0:0:0:0:
230,298,82683,6,0,B|315:270|289:322|395:291,1,140,0|0,1:0|1:0,0:0:0:0:
445,237,83225,1,0,1:0:0:0:
388,164,83406,1,8,0:3:0:0:
399,86,83586,1,4,0:3:0:0:
399,86,83676,1,4,0:3:0:0:
399,86,83767,1,4,1:0:0:0:
256,192,83857,12,0,89544,0:0:0:0:
