osu file format v14

[General]
AudioFilename: audio.mp3
AudioLeadIn: 0
PreviewTime: -1
Countdown: 1
SampleSet: Normal
StackLeniency: 0.7
Mode: 0
LetterboxInBreaks: 0
WidescreenStoryboard: 0

[Editor]
DistanceSpacing: 1
BeatDivisor: 2
GridSize: 4
TimelineZoom: 1.1

[Metadata]
Title:i hate every thing (f bombs and other things)
TitleUnicode:i hate every thing (f bombs and other things)
Artist:the aproxmet truth
ArtistUnicode:the aproxmet truth
Creator:memecena
Version:i hate everthing
Source:i hate youtube channel tralers
Tags:ihe i hate everthing
BeatmapID:1039877
BeatmapSetID:487780

[Difficulty]
HPDrainRate:5
CircleSize:4
OverallDifficulty:6
ApproachRate:6
SliderMultiplier:2.4
SliderTickRate:1

[Events]
//Background and Video events
0,0,"ihe.png",0,0
//Break Periods
2,14595,17549
2,22755,24226
2,38830,39806
2,44024,48559
2,83344,84073
2,101644,102373
2,103623,104351
2,109558,111770
2,133052,133780
//Storyboard Layer 0 (Background)
//Storyboard Layer 1 (Fail)
//Storyboard Layer 2 (Pass)
//Storyboard Layer 3 (Foreground)
//Storyboard Sound Samples

[TimingPoints]
52,494.599999999999,4,1,0,100,1,0

[Colours]
Combo1 : 255,192,0
Combo2 : 0,202,0
Combo3 : 18,124,255
Combo4 : 97,169,158

[HitObjects]
136,144,2277,5,0,0:0:0:0:
280,148,3266,1,0,0:0:0:0:
124,228,4256,1,0,0:0:0:0:
368,288,5245,1,0,0:0:0:0:
172,156,6976,1,0,0:0:0:0:
456,132,7470,1,0,0:0:0:0:
148,168,8212,1,0,0:0:0:0:
372,140,8707,1,0,0:0:0:0:
92,172,9202,1,0,0:0:0:0:
448,132,9943,1,0,0:0:0:0:
244,156,10438,1,0,0:0:0:0:
128,120,11922,5,0,0:0:0:0:
304,136,12416,1,0,0:0:0:0:
152,212,12664,1,0,0:0:0:0:
400,92,13406,1,0,0:0:0:0:
172,204,13900,1,0,0:0:0:0:
368,104,14395,1,0,0:0:0:0:
224,224,18599,6,0,L|376:240,16,120
24,112,25276,6,0,B|252:116|-76:116,4,240
148,128,28738,1,0,0:0:0:0:
460,140,29480,1,0,0:0:0:0:
340,144,29727,1,0,0:0:0:0:
244,148,29975,1,0,0:0:0:0:
52,160,30469,1,0,0:0:0:0:
88,160,31706,1,0,0:0:0:0:
336,156,33437,5,0,0:0:0:0:
240,160,34179,1,0,0:0:0:0:
240,160,34426,1,0,0:0:0:0:
240,160,34673,1,0,0:0:0:0:
176,148,35415,1,0,0:0:0:0:
176,148,35663,1,0,0:0:0:0:
384,116,36157,1,0,0:0:0:0:
116,172,37394,2,0,L|252:184,5,120
120,100,40856,5,0,0:0:0:0:
488,112,41598,1,0,0:0:0:0:
72,136,42834,1,0,0:0:0:0:
312,92,43329,1,0,0:0:0:0:
56,172,43824,1,0,0:0:0:0:
16,168,49759,6,0,B|-176:148|-92:140,8,120
156,64,52974,1,0,0:0:0:0:
284,80,53221,1,0,0:0:0:0:
80,124,54705,6,0,L|264:124,8,120
120,108,58414,5,0,0:0:0:0:
240,112,58662,1,0,0:0:0:0:
376,92,58909,1,0,0:0:0:0:
88,124,59403,1,0,0:0:0:0:
204,112,59651,1,0,0:0:0:0:
204,112,59898,1,0,0:0:0:0:
204,112,60145,1,0,0:0:0:0:
204,112,60393,1,0,0:0:0:0:
272,116,61382,1,0,0:0:0:0:
60,116,61876,1,0,0:0:0:0:
176,116,62124,1,0,0:0:0:0:
20,128,62371,1,0,0:0:0:0:
300,108,62866,1,0,0:0:0:0:
48,96,63360,1,0,0:0:0:0:
248,116,63855,1,0,0:0:0:0:
64,136,65091,2,0,L|288:140,6,120
88,144,67812,1,0,0:0:0:0:
124,144,69295,5,0,0:0:0:0:
124,144,69543,1,0,0:0:0:0:
404,148,70285,1,0,0:0:0:0:
124,140,70779,1,0,0:0:0:0:
160,136,72510,5,0,0:0:0:0:
160,136,72758,1,0,0:0:0:0:
160,136,73005,1,0,0:0:0:0:
260,156,74489,5,0,0:0:0:0:
124,144,75231,1,0,0:0:0:0:
124,144,75725,1,0,0:0:0:0:
124,144,75973,1,0,0:0:0:0:
124,144,76467,1,0,0:0:0:0:
256,128,77951,5,0,0:0:0:0:
148,116,78693,1,0,0:0:0:0:
148,116,79187,1,0,0:0:0:0:
148,116,79682,1,0,0:0:0:0:
148,116,81166,5,0,0:0:0:0:
280,136,81908,1,0,0:0:0:0:
280,136,82155,1,0,0:0:0:0:
280,136,82650,1,0,0:0:0:0:
100,124,83144,1,0,0:0:0:0:
20,152,85123,6,0,L|168:156,9,120
112,208,88338,2,0,L|-4:176,6,120
76,136,91058,1,0,0:0:0:0:
388,140,91800,1,0,0:0:0:0:
216,136,92047,1,0,0:0:0:0:
100,136,92294,1,0,0:0:0:0:
360,140,92789,1,0,0:0:0:0:
156,136,94025,1,0,0:0:0:0:
156,136,94767,1,0,0:0:0:0:
156,136,95509,1,0,0:0:0:0:
156,136,96004,1,0,0:0:0:0:
156,136,96498,1,0,0:0:0:0:
156,136,96746,1,0,0:0:0:0:
156,136,97240,1,0,0:0:0:0:
68,180,98724,6,0,L|228:184,4,120
92,168,101444,5,0,0:0:0:0:
104,108,103423,5,0,0:0:0:0:
20,120,105401,6,0,L|192:92,3,120
160,128,107874,5,0,0:0:0:0:
424,140,108369,1,0,0:0:0:0:
316,136,108616,1,0,0:0:0:0:
0,160,109358,1,0,0:0:0:0:
176,160,112820,6,0,L|-72:192,15,240
36,128,121723,5,0,0:0:0:0:
272,124,122218,1,0,0:0:0:0:
204,124,123454,1,0,0:0:0:0:
204,124,123701,1,0,0:0:0:0:
204,124,123949,1,0,0:0:0:0:
56,132,124691,1,0,0:0:0:0:
56,132,124938,1,0,0:0:0:0:
256,120,125433,1,0,0:0:0:0:
184,192,126422,1,0,0:0:0:0:
252,120,126916,1,0,0:0:0:0:
252,120,127164,1,0,0:0:0:0:
120,156,127906,1,0,0:0:0:0:
120,156,128153,1,0,0:0:0:0:
336,132,128647,1,0,0:0:0:0:
56,200,129389,1,0,0:0:0:0:
168,172,129637,1,0,0:0:0:0:
344,124,130379,1,0,0:0:0:0:
64,176,131120,1,0,0:0:0:0:
480,116,132110,1,0,0:0:0:0:
92,172,132852,1,0,0:0:0:0:
144,100,134830,5,0,0:0:0:0:
104,172,136561,5,0,0:0:0:0:
12,148,137798,2,0,L|200:132,5,120
280,112,140518,5,0,0:0:0:0:
128,144,141012,1,0,0:0:0:0:
264,116,141260,1,0,0:0:0:0:
64,156,141754,1,0,0:0:0:0:
148,140,142991,1,0,0:0:0:0:
488,96,143733,1,0,0:0:0:0:
232,128,144227,1,0,0:0:0:0:
232,128,144475,1,0,0:0:0:0:
232,128,144969,1,0,0:0:0:0:
48,144,145958,2,0,L|204:136,16,120
92,160,151646,5,0,0:0:0:0:
212,136,152883,1,0,0:0:0:0:
104,212,153625,1,0,0:0:0:0:
104,212,154119,1,0,0:0:0:0:
104,212,154367,1,0,0:0:0:0:
104,212,154614,1,0,0:0:0:0:
232,160,155850,1,0,0:0:0:0:
120,148,156840,5,0,0:0:0:0:
120,148,157334,1,0,0:0:0:0:
120,148,157582,1,0,0:0:0:0:
120,148,157829,1,0,0:0:0:0:
456,156,158571,1,0,0:0:0:0:
372,156,158818,1,0,0:0:0:0:
112,148,159313,1,0,0:0:0:0:
400,156,159807,1,0,0:0:0:0:
240,152,160055,1,0,0:0:0:0:
240,152,160549,1,0,0:0:0:0:
240,152,161291,1,0,0:0:0:0:
152,176,162775,6,0,L|280:172,5,120
271,172,164753,2,0,L|-8:216,4,240
472,232,168463,2,0,P|256:132|416:112,1,600
200,244,171678,2,0,B|496:96|400:304|500:200,1,240
