osu file format v14

[General]
AudioFilename: audio.mp3
AudioLeadIn: 0
PreviewTime: 85608
Countdown: 0
SampleSet: Normal
StackLeniency: 0.2
Mode: 1
LetterboxInBreaks: 0
EpilepsyWarning: 1
WidescreenStoryboard: 1

[Editor]
Bookmarks: 4378,11762,13608,26531,43147,57916,72685,87454,94839,102224,116993,131762,146531,161301,164993,179762,181608,188993,203762,219454,234223,248992,263761,267454,282223,296992,299761,307145,314414
DistanceSpacing: 0.6
BeatDivisor: 4
GridSize: 32
TimelineZoom: 1

[Metadata]
Title:MALFORMED BOX / INSIDE BEAST
TitleUnicode:MALFORMED BOX / INSIDE BEAST
Artist:the GazettE
ArtistUnicode:the GazettE
Creator:Vell
Version:Green's Malformed Oni
Source:
Tags:visual kei ruki uruha aoi reita kai beautiful deformity greenshell darky1
BeatmapID:1393861
BeatmapSetID:627671

[Difficulty]
HPDrainRate:5
CircleSize:2
OverallDifficulty:5.5
ApproachRate:10
SliderMultiplier:1.4
SliderTickRate:1

[Events]
//Background and Video events
0,0,"bg.jpg",0,0
//Break Periods
//Storyboard Layer 0 (Background)
//Storyboard Layer 1 (Fail)
//Storyboard Layer 2 (Pass)
//Storyboard Layer 3 (Foreground)
Sprite,Foreground,Centre,"sb\focus_overlay.png",320,240 F,0,41301,43147,0,0.2 S,0,41301,61301,1,1.072624 P,0,41301,299760,A S,0,61301,81301,1.072624,1.081733 S,0,81301,101301,1.081733,1.076802 S,0,101301,121301,1.076802,1.055816 S,0,121301,141301,1.055816,1.020603 S,0,141301,161301,1.020603,1.055889 S,0,161301,181301,1.055889,1.090603 S,0,181301,201301,1.090603,1.044218 S,0,201301,221301,1.044218,1.097755 S,0,221301,241301,1.097755,1.02737 S,0,241301,261301,1.02737,1.029191 S,0,261301,281301,1.029191,1.046731 S,0,281301,299760,1.046731,1.063266
//Storyboard Sound Samples

[TimingPoints]
4378,461.538461538462,4,1,0,75,1,0
4378,-111.111111111111,4,1,0,75,0,0
11301,-107.142857142857,4,1,0,75,0,0
11531,-103.448275862069,4,1,0,75,0,0
11762,-100,4,1,0,75,0,0
43147,-100,4,1,0,70,0,0
72685,-100,4,1,0,80,0,0
76378,-95.2380952380952,4,1,0,80,0,0
80070,-90.9090909090909,4,1,0,80,0,0
83762,-86.9565217391304,4,1,0,80,0,0
87454,-83.3333333333333,4,1,0,90,0,0
94839,-80,4,1,0,90,0,0
100378,-50,4,1,0,90,0,0
102224,-90.9090909090909,4,1,0,90,0,1
116070,-100,4,1,0,90,0,0
116993,-95.2380952380952,4,1,0,90,0,0
124378,-90.9090909090909,4,1,0,90,0,0
128070,-86.9565217391304,4,1,0,90,0,0
130839,-117.647058823529,4,1,0,75,0,0
131762,-86.9565217391304,4,1,0,100,0,1
146531,-86.9565217391304,4,1,0,90,0,0
146878,-95.2380952380952,4,1,0,90,0,0
164993,-50,4,1,0,100,0,0
165454,-86.9565217391304,4,1,0,90,0,0
166839,-50,4,1,0,100,0,0
167185,-86.9565217391304,4,1,0,90,0,0
168685,-50,4,1,0,100,0,0
169031,-86.9565217391304,4,1,0,90,0,0
172378,-50,4,1,0,100,0,0
172839,-86.9565217391304,4,1,0,90,0,0
174224,-50,4,1,0,100,0,0
174570,-86.9565217391304,4,1,0,90,0,0
176070,-50,4,1,0,100,0,0
176301,-86.9565217391304,4,1,0,90,0,0
179762,-50,4,1,0,100,0,0
180224,-57.1428571428571,4,1,0,100,0,0
180685,-66.6666666666667,4,1,0,100,0,0
181147,-80,4,1,0,100,0,0
181378,-88.8888888888889,4,1,0,100,0,0
181608,-100,4,1,0,75,0,0
188993,-95.2380952380952,4,1,0,80,0,0
192685,-90.9090909090909,4,1,0,80,0,0
196262,-86.9565217391304,4,1,0,80,0,0
200070,-83.3333333333333,4,1,0,80,0,0
201685,-80,4,1,0,80,0,0
203301,-50,4,1,0,80,0,0
203762,-100,4,1,0,80,0,0
219454,461.538461538462,4,1,0,90,1,0
219454,-95.2380952380952,4,1,0,90,0,0
223146,-90.9090909090909,4,1,0,90,0,0
226838,-86.9565217391304,4,1,0,90,0,0
230530,-83.3333333333333,4,1,0,90,0,0
234223,-80,4,1,0,100,0,1
248992,-80,4,1,0,100,0,0
249338,-95.2380952380952,4,1,0,90,0,0
267454,-50,4,1,0,100,0,0
267915,-86.9565217391304,4,1,0,90,0,0
269300,-50,4,1,0,100,0,0
269646,-86.9565217391304,4,1,0,90,0,0
271146,-50,4,1,0,100,0,0
271492,-86.9565217391304,4,1,0,90,0,0
274838,-50,4,1,0,100,0,0
275300,-86.9565217391304,4,1,0,90,0,0
276684,-50,4,1,0,100,0,0
277030,-86.9565217391304,4,1,0,90,0,0
278530,-50,4,1,0,100,0,0
278761,-86.9565217391304,4,1,0,90,0,0
282223,-50,4,1,0,100,0,1
282684,-80,4,1,0,100,0,1
284069,-50,4,1,0,100,0,1
284300,-80,4,1,0,100,0,1
285915,-50,4,1,0,100,0,1
286146,-80,4,1,0,100,0,1
289607,-50,4,1,0,100,0,1
289838,-80,4,1,0,100,0,1
291454,-50,4,1,0,100,0,1
291684,-80,4,1,0,100,0,1
293300,-50,4,1,0,100,0,1
293530,-80,4,1,0,100,0,1
296992,461.538461538462,6,1,0,100,1,0
296992,-50,4,1,0,100,0,0
299761,461.538461538462,4,1,0,100,1,0
299761,-50,4,1,0,100,0,0
299991,-50,4,1,0,80,0,0
307145,-100,4,1,0,75,0,0

[Colours]
Combo1 : 193,193,193
Combo2 : 220,123,116
Combo3 : 141,128,196
Combo4 : 126,189,194
Combo5 : 255,15,21
Combo6 : 45,169,230
Combo7 : 152,173,201

[HitObjects]
224,224,4378,5,4,0:0:0:0:
224,160,5070,1,0,0:0:0:0:
288,160,5301,1,8,0:0:0:0:
224,160,5531,1,0,0:0:0:0:
224,160,5878,1,0,0:0:0:0:
224,160,6224,1,0,0:0:0:0:
224,160,6570,1,0,0:0:0:0:
224,160,6916,1,0,0:0:0:0:
288,160,7147,1,8,0:0:0:0:
224,160,7378,1,0,0:0:0:0:
288,224,8070,1,12,0:0:0:0:
224,160,8762,1,0,0:0:0:0:
288,160,8993,1,8,0:0:0:0:
224,160,9224,1,0,0:0:0:0:
224,160,9570,1,0,0:0:0:0:
224,160,9916,1,0,0:0:0:0:
224,160,10147,1,0,0:0:0:0:
224,160,10378,1,0,0:0:0:0:
288,160,10839,1,8,0:0:0:0:
288,160,11301,1,8,0:0:0:0:
288,160,11531,1,8,0:0:0:0:
224,224,11762,1,4,0:0:0:0:
288,160,11993,1,8,0:0:0:0:
224,160,12224,1,0,0:0:0:0:
224,160,12339,1,0,0:0:0:0:
288,160,12454,1,8,0:0:0:0:
288,160,12685,1,8,0:0:0:0:
224,160,12916,1,0,0:0:0:0:
288,160,13031,1,8,0:0:0:0:
288,160,13262,1,8,0:0:0:0:
224,160,13378,1,0,0:0:0:0:
224,224,13608,1,4,0:0:0:0:
224,160,13954,1,0,0:0:0:0:
224,160,14301,1,0,0:0:0:0:
288,160,14531,1,8,0:0:0:0:
224,160,14762,1,0,0:0:0:0:
288,160,15224,1,8,0:0:0:0:
224,224,15454,1,4,0:0:0:0:
288,160,15685,1,8,0:0:0:0:
224,160,15916,1,0,0:0:0:0:
224,160,16031,1,0,0:0:0:0:
288,160,16147,1,8,0:0:0:0:
288,160,16378,1,8,0:0:0:0:
288,160,16608,1,0,0:0:0:0:
288,160,16724,1,8,0:0:0:0:
224,160,16839,1,0,0:0:0:0:
224,160,16954,1,0,0:0:0:0:
288,160,17070,1,8,0:0:0:0:
224,160,17301,1,0,0:0:0:0:
224,160,17531,1,0,0:0:0:0:
224,160,17762,1,0,0:0:0:0:
288,160,18224,1,8,0:0:0:0:
224,160,18454,1,0,0:0:0:0:
288,160,18570,1,8,0:0:0:0:
224,160,18801,1,0,0:0:0:0:
288,160,18916,1,8,0:0:0:0:
224,224,19147,1,4,0:0:0:0:
288,160,19378,1,8,0:0:0:0:
224,160,19493,1,0,0:0:0:0:
224,160,19608,1,0,0:0:0:0:
224,160,19724,1,0,0:0:0:0:
288,160,19839,1,8,0:0:0:0:
288,160,20070,1,8,0:0:0:0:
224,160,20301,1,0,0:0:0:0:
288,160,20531,1,8,0:0:0:0:
224,160,20647,1,0,0:0:0:0:
288,160,20762,1,8,0:0:0:0:
224,224,20993,1,4,0:0:0:0:
224,160,21339,1,0,0:0:0:0:
224,160,21685,1,0,0:0:0:0:
288,160,21916,1,8,0:0:0:0:
224,160,22147,1,0,0:0:0:0:
288,160,22608,1,8,0:0:0:0:
224,224,22839,1,4,0:0:0:0:
288,160,23070,1,8,0:0:0:0:
224,160,23301,1,0,0:0:0:0:
224,160,23416,1,0,0:0:0:0:
288,160,23531,1,8,0:0:0:0:
288,160,23762,1,8,0:0:0:0:
224,160,23993,1,0,0:0:0:0:
288,160,24108,1,8,0:0:0:0:
288,160,24224,1,8,0:0:0:0:
224,160,24339,1,0,0:0:0:0:
288,160,24454,1,8,0:0:0:0:
224,160,24685,1,0,0:0:0:0:
224,160,24916,1,0,0:0:0:0:
224,160,25147,1,0,0:0:0:0:
224,160,25378,1,0,0:0:0:0:
288,160,25608,1,8,0:0:0:0:
288,160,25724,1,8,0:0:0:0:
288,160,25839,1,8,0:0:0:0:
288,160,25954,1,8,0:0:0:0:
288,160,26070,1,8,0:0:0:0:
288,160,26185,1,8,0:0:0:0:
288,160,26301,1,8,0:0:0:0:
288,160,26416,1,8,0:0:0:0:
224,224,26531,1,4,0:0:0:0:
224,160,26878,1,0,0:0:0:0:
288,160,26993,1,8,0:0:0:0:
224,160,27224,1,0,0:0:0:0:
288,160,27454,1,8,0:0:0:0:
224,160,27685,1,0,0:0:0:0:
288,160,27916,1,8,0:0:0:0:
224,160,28031,1,0,0:0:0:0:
288,160,28262,1,8,0:0:0:0:
224,160,28378,1,0,0:0:0:0:
224,160,28724,1,0,0:0:0:0:
288,160,28839,1,8,0:0:0:0:
224,160,29070,1,0,0:0:0:0:
224,160,29301,1,0,0:0:0:0:
288,160,29416,1,8,0:0:0:0:
224,160,29531,1,0,0:0:0:0:
224,160,29647,1,0,0:0:0:0:
288,160,29762,1,8,0:0:0:0:
224,160,29993,1,0,0:0:0:0:
224,224,30224,1,4,0:0:0:0:
224,160,30570,1,0,0:0:0:0:
288,160,30685,1,8,0:0:0:0:
224,160,30916,1,0,0:0:0:0:
288,160,31147,1,8,0:0:0:0:
224,160,31378,1,0,0:0:0:0:
224,160,31493,1,0,0:0:0:0:
288,160,31608,1,8,0:0:0:0:
224,160,31724,1,0,0:0:0:0:
288,160,31954,1,8,0:0:0:0:
224,160,32070,1,0,0:0:0:0:
224,160,32301,1,0,0:0:0:0:
288,160,32531,1,8,0:0:0:0:
224,160,32762,1,0,0:0:0:0:
288,160,32993,1,8,0:0:0:0:
224,160,33108,1,0,0:0:0:0:
224,160,33224,1,0,0:0:0:0:
288,160,33339,1,8,0:0:0:0:
224,160,33570,1,0,0:0:0:0:
288,160,33685,1,8,0:0:0:0:
224,224,33916,1,4,0:0:0:0:
224,160,34262,1,0,0:0:0:0:
288,160,34378,1,8,0:0:0:0:
224,160,34608,1,0,0:0:0:0:
288,160,34839,1,8,0:0:0:0:
288,160,34954,1,8,0:0:0:0:
224,160,35070,1,0,0:0:0:0:
224,160,35185,1,0,0:0:0:0:
288,160,35301,1,8,0:0:0:0:
224,160,35416,1,0,0:0:0:0:
288,160,35647,1,8,0:0:0:0:
224,160,35762,1,0,0:0:0:0:
224,160,36108,1,0,0:0:0:0:
288,160,36224,1,8,0:0:0:0:
224,160,36454,1,0,0:0:0:0:
224,160,36685,1,0,0:0:0:0:
288,160,36801,1,8,0:0:0:0:
288,160,36916,1,8,0:0:0:0:
224,160,37031,1,0,0:0:0:0:
288,160,37147,1,8,0:0:0:0:
288,160,37378,1,8,0:0:0:0:
224,224,37608,1,4,0:0:0:0:
224,160,37954,1,0,0:0:0:0:
288,160,38070,1,8,0:0:0:0:
224,160,38301,1,0,0:0:0:0:
288,160,38531,1,8,0:0:0:0:
224,160,38762,1,0,0:0:0:0:
288,160,38878,1,8,0:0:0:0:
224,160,38993,1,0,0:0:0:0:
224,160,39108,1,0,0:0:0:0:
288,160,39224,1,8,0:0:0:0:
224,160,39454,1,0,0:0:0:0:
224,160,39570,1,0,0:0:0:0:
224,160,39801,1,0,0:0:0:0:
288,160,39916,1,8,0:0:0:0:
224,160,40147,1,0,0:0:0:0:
288,160,40378,1,8,0:0:0:0:
224,160,40608,1,0,0:0:0:0:
288,160,40839,1,8,0:0:0:0:
288,160,40954,1,8,0:0:0:0:
288,160,41070,1,8,0:0:0:0:
288,160,41185,1,8,0:0:0:0:
142,259,42454,2,0,P|190:307|284:289,1,140
224,224,43147,1,4,0:0:0:0:
224,160,43378,1,0,0:0:0:0:
224,160,43493,1,0,0:0:0:0:
224,160,43724,1,0,0:0:0:0:
224,160,43954,1,0,0:0:0:0:
288,160,44070,1,8,0:0:0:0:
224,160,44185,1,0,0:0:0:0:
224,160,44301,1,0,0:0:0:0:
288,160,44531,1,8,0:0:0:0:
224,160,44762,1,0,0:0:0:0:
224,160,44993,1,0,0:0:0:0:
224,160,45224,1,0,0:0:0:0:
224,160,45339,1,0,0:0:0:0:
224,160,45570,1,0,0:0:0:0:
224,160,45801,1,0,0:0:0:0:
288,160,45916,1,8,0:0:0:0:
224,160,46031,1,0,0:0:0:0:
224,160,46147,1,0,0:0:0:0:
288,160,46378,1,8,0:0:0:0:
288,160,46608,1,8,0:0:0:0:
224,224,46839,1,4,0:0:0:0:
224,160,47070,1,0,0:0:0:0:
224,160,47185,1,0,0:0:0:0:
224,160,47416,1,0,0:0:0:0:
224,160,47647,1,0,0:0:0:0:
288,160,47762,1,8,0:0:0:0:
224,160,47878,1,0,0:0:0:0:
224,160,47993,1,0,0:0:0:0:
288,160,48224,1,8,0:0:0:0:
224,160,48454,1,0,0:0:0:0:
224,160,48570,1,0,0:0:0:0:
224,160,48685,1,0,0:0:0:0:
224,160,48916,1,0,0:0:0:0:
224,160,49031,1,0,0:0:0:0:
224,160,49262,1,0,0:0:0:0:
224,160,49493,1,0,0:0:0:0:
288,160,49608,1,8,0:0:0:0:
224,160,49724,1,0,0:0:0:0:
224,160,49839,1,0,0:0:0:0:
288,160,49954,1,8,0:0:0:0:
224,160,50185,1,0,0:0:0:0:
288,160,50301,1,8,0:0:0:0:
224,224,50531,1,4,0:0:0:0:
224,160,50762,1,0,0:0:0:0:
224,160,50878,1,0,0:0:0:0:
224,160,51108,1,0,0:0:0:0:
224,160,51339,1,0,0:0:0:0:
288,160,51454,1,8,0:0:0:0:
288,160,51570,1,8,0:0:0:0:
224,160,51685,1,0,0:0:0:0:
288,160,51916,1,8,0:0:0:0:
224,160,52147,1,0,0:0:0:0:
224,160,52262,1,0,0:0:0:0:
224,160,52378,1,0,0:0:0:0:
224,160,52608,1,0,0:0:0:0:
224,160,52724,1,0,0:0:0:0:
224,160,52954,1,0,0:0:0:0:
224,160,53185,1,0,0:0:0:0:
288,160,53301,1,8,0:0:0:0:
288,160,53416,1,8,0:0:0:0:
224,160,53531,1,0,0:0:0:0:
288,160,53762,1,8,0:0:0:0:
224,160,53878,1,0,0:0:0:0:
288,160,53993,1,8,0:0:0:0:
224,224,54224,1,4,0:0:0:0:
224,160,54454,1,0,0:0:0:0:
224,160,54570,1,0,0:0:0:0:
224,160,54801,1,0,0:0:0:0:
224,160,55031,1,0,0:0:0:0:
288,160,55147,1,8,0:0:0:0:
288,160,55262,1,8,0:0:0:0:
224,160,55378,1,0,0:0:0:0:
288,160,55608,1,8,0:0:0:0:
288,160,55839,1,8,0:0:0:0:
288,160,55954,1,8,0:0:0:0:
224,160,56070,1,0,0:0:0:0:
224,160,56301,1,0,0:0:0:0:
224,160,56416,1,0,0:0:0:0:
224,160,56647,1,0,0:0:0:0:
224,160,56878,1,0,0:0:0:0:
288,160,56993,1,8,0:0:0:0:
288,160,57108,1,8,0:0:0:0:
224,160,57224,1,0,0:0:0:0:
288,160,57454,1,8,0:0:0:0:
288,160,57570,1,8,0:0:0:0:
224,160,57685,1,0,0:0:0:0:
224,224,57916,5,4,0:0:0:0:
224,160,58262,1,0,0:0:0:0:
288,160,58378,1,8,0:0:0:0:
224,160,58608,1,0,0:0:0:0:
288,160,58839,1,8,0:0:0:0:
288,160,58954,1,8,0:0:0:0:
224,160,59070,1,0,0:0:0:0:
224,160,59185,1,0,0:0:0:0:
288,160,59300,1,8,0:0:0:0:
224,160,59531,1,0,0:0:0:0:
224,160,59647,1,0,0:0:0:0:
288,160,59762,1,8,0:0:0:0:
224,160,59993,1,0,0:0:0:0:
288,160,60108,1,8,0:0:0:0:
224,160,60339,1,0,0:0:0:0:
224,160,60570,1,0,0:0:0:0:
288,160,60685,1,8,0:0:0:0:
224,160,60801,1,8,0:0:0:0:
224,160,60916,1,0,0:0:0:0:
288,160,61147,1,8,0:0:0:0:
224,160,61377,1,0,0:0:0:0:
224,224,61608,1,4,0:0:0:0:
224,160,61954,1,0,0:0:0:0:
288,160,62070,1,8,0:0:0:0:
224,160,62301,1,0,0:0:0:0:
288,160,62416,1,8,0:0:0:0:
288,160,62531,1,8,0:0:0:0:
224,160,62647,1,0,0:0:0:0:
288,160,62762,1,8,0:0:0:0:
288,160,62993,1,8,0:0:0:0:
288,160,63224,1,8,0:0:0:0:
288,160,63339,1,8,0:0:0:0:
224,160,63454,1,0,0:0:0:0:
224,160,63685,1,0,0:0:0:0:
288,160,63800,1,8,0:0:0:0:
224,160,64031,1,0,0:0:0:0:
224,160,64262,1,0,0:0:0:0:
288,160,64377,1,8,0:0:0:0:
224,160,64493,1,0,0:0:0:0:
224,160,64608,1,0,0:0:0:0:
288,160,64723,1,8,0:0:0:0:
224,160,64839,1,0,0:0:0:0:
224,160,64954,1,0,0:0:0:0:
288,160,65070,1,8,0:0:0:0:
224,224,65301,1,4,0:0:0:0:
224,160,65647,1,0,0:0:0:0:
288,160,65762,1,8,0:0:0:0:
224,160,65993,1,0,0:0:0:0:
288,160,66108,1,8,0:0:0:0:
224,160,66223,1,0,0:0:0:0:
288,160,66339,1,8,0:0:0:0:
224,160,66454,1,0,0:0:0:0:
224,160,66570,1,0,0:0:0:0:
288,160,66685,1,8,0:0:0:0:
224,160,66916,1,0,0:0:0:0:
288,160,67031,1,8,0:0:0:0:
224,160,67147,1,0,0:0:0:0:
224,160,67377,1,0,0:0:0:0:
288,160,67493,1,8,0:0:0:0:
224,160,67723,1,0,0:0:0:0:
288,160,67954,1,8,0:0:0:0:
224,160,68070,1,0,0:0:0:0:
224,160,68185,1,0,0:0:0:0:
288,160,68300,1,8,0:0:0:0:
224,160,68416,1,0,0:0:0:0:
288,160,68531,1,8,0:0:0:0:
288,160,68762,1,8,0:0:0:0:
224,224,68993,1,4,0:0:0:0:
224,160,69339,1,0,0:0:0:0:
288,160,69454,1,8,0:0:0:0:
224,160,69685,1,0,0:0:0:0:
224,160,69801,1,0,0:0:0:0:
288,160,69916,1,8,0:0:0:0:
288,160,70031,1,8,0:0:0:0:
224,160,70147,1,0,0:0:0:0:
288,160,70262,1,8,0:0:0:0:
224,160,70378,1,0,0:0:0:0:
224,160,70493,1,0,0:0:0:0:
288,160,70608,1,8,0:0:0:0:
224,160,70724,1,0,0:0:0:0:
224,224,72685,1,4,0:0:0:0:
288,160,72916,1,8,0:0:0:0:
288,160,73031,1,8,0:0:0:0:
224,160,73147,1,0,0:0:0:0:
288,160,73378,1,8,0:0:0:0:
224,160,73608,1,0,0:0:0:0:
288,160,73839,1,8,0:0:0:0:
224,160,74070,1,0,0:0:0:0:
288,160,74301,1,8,0:0:0:0:
288,160,74416,1,8,0:0:0:0:
224,160,74531,1,0,0:0:0:0:
288,160,74762,1,8,0:0:0:0:
224,160,74993,1,0,0:0:0:0:
288,160,75108,1,8,0:0:0:0:
288,160,75339,1,8,0:0:0:0:
224,160,75454,1,0,0:0:0:0:
288,160,75685,1,8,0:0:0:0:
224,160,75916,1,0,0:0:0:0:
288,160,76147,1,8,0:0:0:0:
224,224,76378,1,4,0:0:0:0:
288,160,76608,1,8,0:0:0:0:
224,160,76839,1,0,0:0:0:0:
288,160,77070,1,8,0:0:0:0:
288,160,77185,1,8,0:0:0:0:
224,160,77301,1,0,0:0:0:0:
288,160,77531,1,8,0:0:0:0:
224,160,77762,1,0,0:0:0:0:
288,160,77993,1,8,0:0:0:0:
288,160,78108,1,8,0:0:0:0:
224,160,78224,1,0,0:0:0:0:
288,160,78454,1,8,0:0:0:0:
224,160,78685,1,0,0:0:0:0:
288,160,78801,1,8,0:0:0:0:
288,160,79031,1,8,0:0:0:0:
224,160,79147,1,0,0:0:0:0:
224,160,79262,1,0,0:0:0:0:
288,160,79378,1,8,0:0:0:0:
224,160,79608,1,0,0:0:0:0:
288,160,79839,1,8,0:0:0:0:
224,224,80070,1,4,0:0:0:0:
288,160,80301,1,8,0:0:0:0:
288,160,80416,1,8,0:0:0:0:
224,160,80531,1,0,0:0:0:0:
288,160,80762,1,8,0:0:0:0:
288,160,80878,1,8,0:0:0:0:
224,160,80993,1,0,0:0:0:0:
288,160,81224,1,8,0:0:0:0:
224,160,81454,1,0,0:0:0:0:
224,160,81570,1,0,0:0:0:0:
288,160,81685,1,8,0:0:0:0:
288,160,81801,1,8,0:0:0:0:
224,160,81916,1,0,0:0:0:0:
288,160,82147,1,8,0:0:0:0:
224,160,82378,1,0,0:0:0:0:
288,160,82493,1,8,0:0:0:0:
288,160,82724,1,8,0:0:0:0:
224,160,82839,1,0,0:0:0:0:
224,160,82954,1,0,0:0:0:0:
288,160,83070,1,8,0:0:0:0:
224,160,83301,1,0,0:0:0:0:
288,160,83531,1,8,0:0:0:0:
224,224,83762,1,4,0:0:0:0:
288,160,83993,1,8,0:0:0:0:
224,160,84224,1,0,0:0:0:0:
288,160,84454,1,8,0:0:0:0:
288,160,84570,1,8,0:0:0:0:
224,160,84685,1,0,0:0:0:0:
224,160,84801,1,0,0:0:0:0:
288,160,84916,1,8,0:0:0:0:
224,160,85031,1,0,0:0:0:0:
224,160,85147,1,0,0:0:0:0:
288,160,85378,1,8,0:0:0:0:
288,160,85493,1,8,0:0:0:0:
224,224,87454,5,4,0:0:0:0:
224,160,87685,1,0,0:0:0:0:
224,160,87801,1,0,0:0:0:0:
288,160,87916,1,8,0:0:0:0:
224,160,88147,1,0,0:0:0:0:
288,160,88378,1,8,0:0:0:0:
288,160,88493,1,8,0:0:0:0:
224,160,88608,1,0,0:0:0:0:
288,160,88839,1,8,0:0:0:0:
224,160,89070,1,0,0:0:0:0:
288,160,89185,1,8,0:0:0:0:
224,160,89301,1,0,0:0:0:0:
224,160,89416,1,0,0:0:0:0:
288,160,89647,1,8,0:0:0:0:
224,160,89878,1,0,0:0:0:0:
288,160,89993,1,8,0:0:0:0:
288,160,90224,1,8,0:0:0:0:
224,160,90454,1,0,0:0:0:0:
224,160,90570,1,0,0:0:0:0:
288,160,90685,1,8,0:0:0:0:
288,160,90916,1,8,0:0:0:0:
224,224,91147,1,4,0:0:0:0:
288,160,91378,1,8,0:0:0:0:
288,160,91493,1,8,0:0:0:0:
224,160,91608,1,0,0:0:0:0:
224,160,91839,1,0,0:0:0:0:
288,160,92070,1,8,0:0:0:0:
288,160,92185,1,8,0:0:0:0:
224,160,92301,1,0,0:0:0:0:
288,160,92531,1,8,0:0:0:0:
224,160,92762,1,0,0:0:0:0:
288,160,92878,1,8,0:0:0:0:
224,160,92993,1,0,0:0:0:0:
224,160,93108,1,0,0:0:0:0:
288,160,93339,1,8,0:0:0:0:
224,160,93570,1,0,0:0:0:0:
288,160,93685,1,8,0:0:0:0:
288,160,93916,1,8,0:0:0:0:
288,160,94031,1,8,0:0:0:0:
224,160,94147,1,0,0:0:0:0:
288,160,94378,1,8,0:0:0:0:
288,160,94608,1,8,0:0:0:0:
224,224,94839,5,4,0:0:0:0:
224,160,95070,1,0,0:0:0:0:
224,160,95185,1,0,0:0:0:0:
288,160,95301,1,8,0:0:0:0:
288,160,95531,1,8,0:0:0:0:
224,160,95647,1,0,0:0:0:0:
288,160,95762,1,8,0:0:0:0:
288,160,95878,1,8,0:0:0:0:
224,160,95993,1,0,0:0:0:0:
288,160,96224,1,8,0:0:0:0:
224,160,96454,1,0,0:0:0:0:
288,160,96570,1,8,0:0:0:0:
224,160,96685,1,0,0:0:0:0:
224,160,96801,1,0,0:0:0:0:
288,160,97031,1,8,0:0:0:0:
224,160,97147,1,0,0:0:0:0:
224,160,97262,1,0,0:0:0:0:
288,160,97378,1,8,0:0:0:0:
288,160,97608,1,8,0:0:0:0:
288,160,97724,1,8,0:0:0:0:
224,160,97839,1,0,0:0:0:0:
224,160,97954,1,0,0:0:0:0:
288,160,98070,1,8,0:0:0:0:
288,160,98301,1,8,0:0:0:0:
224,224,98531,1,4,0:0:0:0:
288,160,98762,1,8,0:0:0:0:
288,160,98878,1,8,0:0:0:0:
224,160,98993,1,0,0:0:0:0:
224,160,99224,1,0,0:0:0:0:
224,160,99339,1,0,0:0:0:0:
288,160,99454,1,8,0:0:0:0:
288,160,99570,1,8,0:0:0:0:
288,160,99685,1,8,0:0:0:0:
224,160,99801,1,0,0:0:0:0:
288,160,99916,1,8,0:0:0:0:
224,160,100031,1,0,0:0:0:0:
288,160,100147,1,8,0:0:0:0:
288,224,100378,1,12,0:0:0:0:
224,224,102224,5,4,0:0:0:0:
224,160,102454,1,0,0:0:0:0:
224,160,102570,1,0,0:0:0:0:
288,160,102685,1,8,0:0:0:0:
224,160,102916,1,0,0:0:0:0:
224,160,103031,1,0,0:0:0:0:
224,160,103147,1,0,0:0:0:0:
288,160,103262,1,8,0:0:0:0:
224,160,103378,1,0,0:0:0:0:
288,160,103608,1,8,0:0:0:0:
224,160,103839,1,0,0:0:0:0:
288,160,104070,1,8,0:0:0:0:
288,160,104185,1,8,0:0:0:0:
224,160,104301,1,0,0:0:0:0:
288,160,104531,1,8,0:0:0:0:
224,160,104762,1,0,0:0:0:0:
288,160,104878,1,8,0:0:0:0:
224,160,104993,1,0,0:0:0:0:
288,160,105108,1,8,0:0:0:0:
224,160,105224,1,0,0:0:0:0:
288,160,105454,1,8,0:0:0:0:
224,160,105570,1,0,0:0:0:0:
224,160,105685,1,0,0:0:0:0:
288,224,105916,1,12,0:0:0:0:
224,160,106147,1,0,0:0:0:0:
224,160,106262,1,0,0:0:0:0:
288,160,106378,1,8,0:0:0:0:
288,160,106608,1,8,0:0:0:0:
224,160,106724,1,0,0:0:0:0:
224,160,106839,1,0,0:0:0:0:
288,160,106954,1,8,0:0:0:0:
224,160,107070,1,0,0:0:0:0:
288,160,107301,1,8,0:0:0:0:
224,160,107531,1,0,0:0:0:0:
288,160,107647,1,0,0:0:0:0:
288,160,107762,1,8,0:0:0:0:
224,160,107993,1,0,0:0:0:0:
288,160,108224,1,8,0:0:0:0:
224,160,108454,1,0,0:0:0:0:
288,160,108570,1,8,0:0:0:0:
224,160,108685,1,0,0:0:0:0:
288,160,108801,1,8,0:0:0:0:
224,160,108916,1,0,0:0:0:0:
288,160,109147,1,8,0:0:0:0:
288,160,109262,1,8,0:0:0:0:
288,160,109378,1,8,0:0:0:0:
224,224,109608,1,4,0:0:0:0:
224,160,109839,1,0,0:0:0:0:
224,160,109954,1,0,0:0:0:0:
288,160,110070,1,8,0:0:0:0:
224,160,110301,1,0,0:0:0:0:
224,160,110416,1,0,0:0:0:0:
224,160,110531,1,0,0:0:0:0:
288,160,110647,1,8,0:0:0:0:
224,160,110762,1,0,0:0:0:0:
224,160,110878,1,0,0:0:0:0:
288,160,110993,1,8,0:0:0:0:
224,160,111224,1,0,0:0:0:0:
288,160,111454,1,8,0:0:0:0:
288,160,111570,1,8,0:0:0:0:
224,160,111685,1,0,0:0:0:0:
288,160,111916,1,8,0:0:0:0:
224,160,112147,1,0,0:0:0:0:
288,160,112262,1,8,0:0:0:0:
224,160,112378,1,0,0:0:0:0:
224,160,112493,1,0,0:0:0:0:
224,160,112608,1,0,0:0:0:0:
288,160,112839,1,8,0:0:0:0:
224,160,112954,1,0,0:0:0:0:
224,160,113070,1,0,0:0:0:0:
288,224,113301,1,12,0:0:0:0:
224,160,113531,1,0,0:0:0:0:
224,160,113647,1,0,0:0:0:0:
288,160,113762,1,8,0:0:0:0:
288,160,113993,1,8,0:0:0:0:
224,160,114108,1,0,0:0:0:0:
224,160,114224,1,0,0:0:0:0:
288,160,114339,1,8,0:0:0:0:
224,160,114454,1,0,0:0:0:0:
224,160,114570,1,0,0:0:0:0:
288,160,114685,1,8,0:0:0:0:
224,160,114916,1,0,0:0:0:0:
224,160,115031,1,0,0:0:0:0:
288,160,115147,1,8,0:0:0:0:
288,160,115262,1,8,0:0:0:0:
224,160,115378,1,0,0:0:0:0:
224,160,115608,1,0,0:0:0:0:
288,160,115724,1,8,0:0:0:0:
288,160,115839,1,8,0:0:0:0:
224,224,116993,1,4,0:0:0:0:
224,160,117224,1,0,0:0:0:0:
224,160,117339,1,0,0:0:0:0:
288,160,117454,1,8,0:0:0:0:
224,160,117685,1,0,0:0:0:0:
288,160,117801,1,8,0:0:0:0:
288,160,118031,1,8,0:0:0:0:
224,160,118262,1,0,0:0:0:0:
288,160,118378,1,8,0:0:0:0:
224,160,118608,1,0,0:0:0:0:
288,160,118724,1,8,0:0:0:0:
224,160,118839,1,0,0:0:0:0:
224,160,118954,1,0,0:0:0:0:
288,160,119185,1,8,0:0:0:0:
224,160,119416,1,0,0:0:0:0:
288,160,119531,1,8,0:0:0:0:
288,160,119762,1,8,0:0:0:0:
224,160,119993,1,0,0:0:0:0:
224,160,120108,1,0,0:0:0:0:
288,160,120224,1,8,0:0:0:0:
288,160,120454,1,8,0:0:0:0:
224,224,120685,1,4,0:0:0:0:
288,160,120916,1,8,0:0:0:0:
288,160,121031,1,8,0:0:0:0:
224,160,121147,1,0,0:0:0:0:
288,160,121378,1,8,0:0:0:0:
224,160,121493,1,0,0:0:0:0:
288,160,121724,1,8,0:0:0:0:
224,160,121954,1,0,0:0:0:0:
288,160,122070,1,8,0:0:0:0:
288,160,122301,1,8,0:0:0:0:
288,160,122416,1,8,0:0:0:0:
224,160,122531,1,0,0:0:0:0:
224,160,122647,1,0,0:0:0:0:
288,160,122762,1,8,0:0:0:0:
224,160,122993,1,0,0:0:0:0:
288,160,123108,1,8,0:0:0:0:
224,160,123224,1,0,0:0:0:0:
224,160,123339,1,0,0:0:0:0:
288,160,123454,1,8,0:0:0:0:
224,160,123685,1,0,0:0:0:0:
288,160,123801,1,8,0:0:0:0:
224,160,123916,1,0,0:0:0:0:
288,160,124147,1,8,0:0:0:0:
224,224,124378,1,4,0:0:0:0:
224,160,124608,1,0,0:0:0:0:
224,160,124724,1,0,0:0:0:0:
288,160,124839,1,8,0:0:0:0:
224,160,125070,1,0,0:0:0:0:
288,160,125301,1,8,0:0:0:0:
224,160,125416,1,0,0:0:0:0:
288,160,125647,1,8,0:0:0:0:
224,160,125878,1,0,0:0:0:0:
288,160,125993,1,8,0:0:0:0:
288,160,126108,1,8,0:0:0:0:
224,160,126224,1,0,0:0:0:0:
224,160,126339,1,0,0:0:0:0:
288,160,126570,1,8,0:0:0:0:
224,160,126801,1,0,0:0:0:0:
288,160,126916,1,8,0:0:0:0:
288,160,127147,1,8,0:0:0:0:
224,160,127262,1,0,0:0:0:0:
224,160,127378,1,0,0:0:0:0:
288,160,127493,1,8,0:0:0:0:
224,160,127724,1,0,0:0:0:0:
288,160,127839,1,8,0:0:0:0:
224,224,128070,1,4,0:0:0:0:
224,160,128301,1,0,0:0:0:0:
288,160,128416,1,8,0:0:0:0:
224,160,128647,1,0,0:0:0:0:
224,160,128878,1,0,0:0:0:0:
288,160,128993,1,8,0:0:0:0:
224,160,129108,1,0,0:0:0:0:
224,160,129224,1,0,0:0:0:0:
288,160,129339,1,8,0:0:0:0:
224,160,129570,1,0,0:0:0:0:
288,160,129685,1,8,0:0:0:0:
288,160,129801,1,8,0:0:0:0:
224,160,129916,1,0,0:0:0:0:
288,224,130839,1,12,0:0:0:0:
288,224,130993,1,12,0:0:0:0:
288,224,131147,1,12,0:0:0:0:
224,224,131301,1,4,0:0:0:0:
288,224,131762,5,12,0:0:0:0:
224,160,131993,1,0,0:0:0:0:
224,160,132108,1,0,0:0:0:0:
288,160,132224,1,8,0:0:0:0:
224,160,132454,1,0,0:0:0:0:
224,160,132570,1,0,0:0:0:0:
224,160,132685,1,0,0:0:0:0:
288,160,132801,1,8,0:0:0:0:
224,160,132916,1,0,0:0:0:0:
288,160,133147,1,8,0:0:0:0:
224,160,133378,1,0,0:0:0:0:
224,160,133493,1,0,0:0:0:0:
288,160,133608,1,8,0:0:0:0:
288,160,133839,1,8,0:0:0:0:
288,160,134070,1,8,0:0:0:0:
288,160,134185,1,8,0:0:0:0:
288,160,134301,1,8,0:0:0:0:
224,160,134416,1,0,0:0:0:0:
288,160,134531,1,8,0:0:0:0:
224,160,134762,1,0,0:0:0:0:
224,160,134878,1,0,0:0:0:0:
288,160,134993,1,8,0:0:0:0:
288,160,135224,1,8,0:0:0:0:
224,224,135454,1,4,0:0:0:0:
224,160,135685,1,0,0:0:0:0:
224,160,135801,1,0,0:0:0:0:
288,160,135916,1,8,0:0:0:0:
224,160,136147,1,0,0:0:0:0:
224,160,136262,1,0,0:0:0:0:
224,160,136378,1,0,0:0:0:0:
288,160,136493,1,8,0:0:0:0:
224,160,136608,1,0,0:0:0:0:
288,160,136839,1,8,0:0:0:0:
224,160,137070,1,0,0:0:0:0:
288,160,137301,1,8,0:0:0:0:
288,160,137416,1,8,0:0:0:0:
224,160,137531,1,0,0:0:0:0:
288,160,137762,1,8,0:0:0:0:
224,160,137993,1,0,0:0:0:0:
288,160,138108,1,8,0:0:0:0:
288,160,138339,1,8,0:0:0:0:
224,160,138454,1,0,0:0:0:0:
288,160,138685,1,8,0:0:0:0:
224,160,138801,1,0,0:0:0:0:
288,160,138916,1,8,0:0:0:0:
288,224,139147,1,12,0:0:0:0:
224,160,139378,1,0,0:0:0:0:
224,160,139493,1,0,0:0:0:0:
288,160,139608,1,8,0:0:0:0:
288,160,139839,1,8,0:0:0:0:
224,160,139954,1,0,0:0:0:0:
224,160,140070,1,0,0:0:0:0:
288,160,140185,1,8,0:0:0:0:
224,160,140301,1,0,0:0:0:0:
288,160,140531,1,8,0:0:0:0:
288,160,140647,1,8,0:0:0:0:
224,160,140762,1,0,0:0:0:0:
288,160,140993,1,8,0:0:0:0:
288,160,141224,1,8,0:0:0:0:
224,160,141454,1,0,0:0:0:0:
288,160,141570,1,8,0:0:0:0:
288,160,141685,1,8,0:0:0:0:
224,160,141801,1,0,0:0:0:0:
288,160,141916,1,8,0:0:0:0:
224,160,142147,1,0,0:0:0:0:
288,160,142378,1,8,0:0:0:0:
224,160,142493,1,0,0:0:0:0:
288,160,142608,1,8,0:0:0:0:
224,224,142839,1,4,0:0:0:0:
224,160,143070,1,0,0:0:0:0:
224,160,143185,1,0,0:0:0:0:
288,160,143301,1,8,0:0:0:0:
288,160,143531,1,8,0:0:0:0:
288,160,143647,1,8,0:0:0:0:
224,160,143762,1,0,0:0:0:0:
288,160,143878,1,8,0:0:0:0:
224,160,143993,1,0,0:0:0:0:
288,160,144224,1,8,0:0:0:0:
224,160,144454,1,0,0:0:0:0:
224,160,144570,1,0,0:0:0:0:
288,160,144685,1,8,0:0:0:0:
288,160,144916,1,8,0:0:0:0:
288,160,145147,1,8,0:0:0:0:
288,160,145378,1,8,0:0:0:0:
224,160,145493,1,0,0:0:0:0:
288,160,145608,1,8,0:0:0:0:
288,160,145724,1,8,0:0:0:0:
224,160,145839,1,0,0:0:0:0:
224,160,145954,1,0,0:0:0:0:
288,160,146070,1,8,0:0:0:0:
224,160,146185,1,0,0:0:0:0:
288,160,146301,1,8,0:0:0:0:
288,224,146531,1,12,0:0:0:0:
224,160,146878,1,0,0:0:0:0:
224,160,146993,1,0,0:0:0:0:
288,160,147224,1,8,0:0:0:0:
224,160,147454,1,0,0:0:0:0:
288,160,147685,1,8,0:0:0:0:
288,160,147916,1,8,0:0:0:0:
224,160,148147,1,0,0:0:0:0:
288,160,148262,1,8,0:0:0:0:
224,160,148378,1,0,0:0:0:0:
224,160,148724,1,0,0:0:0:0:
288,160,148839,1,8,0:0:0:0:
224,160,149070,1,0,0:0:0:0:
288,160,149301,1,8,0:0:0:0:
288,160,149416,1,8,0:0:0:0:
224,160,149531,1,0,0:0:0:0:
288,160,149762,1,8,0:0:0:0:
224,160,149993,1,0,0:0:0:0:
224,224,150224,1,4,0:0:0:0:
224,160,150570,1,0,0:0:0:0:
288,160,150685,1,8,0:0:0:0:
224,160,150916,1,0,0:0:0:0:
288,160,151147,1,8,0:0:0:0:
224,160,151378,1,0,0:0:0:0:
224,160,151493,1,0,0:0:0:0:
288,160,151608,1,8,0:0:0:0:
224,160,151839,1,0,0:0:0:0:
288,160,151954,1,8,0:0:0:0:
224,160,152070,1,0,0:0:0:0:
288,160,152416,1,8,0:0:0:0:
224,160,152531,1,0,0:0:0:0:
288,160,152762,1,8,0:0:0:0:
224,160,152993,1,0,0:0:0:0:
224,160,153108,1,0,0:0:0:0:
288,160,153224,1,8,0:0:0:0:
288,160,153454,1,8,0:0:0:0:
288,160,153685,1,8,0:0:0:0:
288,224,153916,1,12,0:0:0:0:
224,160,154147,1,0,0:0:0:0:
288,160,154378,1,8,0:0:0:0:
224,160,154608,1,0,0:0:0:0:
224,160,154724,1,0,0:0:0:0:
288,160,154839,1,8,0:0:0:0:
224,160,155070,1,0,0:0:0:0:
288,160,155301,1,8,0:0:0:0:
224,160,155531,1,0,0:0:0:0:
288,160,155647,1,8,0:0:0:0:
224,160,155762,1,0,0:0:0:0:
224,160,155993,1,0,0:0:0:0:
288,160,156224,1,8,0:0:0:0:
288,160,156454,1,8,0:0:0:0:
288,160,156570,1,8,0:0:0:0:
224,160,156685,1,0,0:0:0:0:
224,160,156801,1,0,0:0:0:0:
288,160,156916,1,8,0:0:0:0:
288,160,157147,1,8,0:0:0:0:
224,160,157378,1,0,0:0:0:0:
224,224,157608,1,4,0:0:0:0:
224,160,157954,1,0,0:0:0:0:
288,160,158070,1,8,0:0:0:0:
224,160,158301,1,0,0:0:0:0:
288,160,158531,1,8,0:0:0:0:
224,160,158647,1,0,0:0:0:0:
224,160,158762,1,0,0:0:0:0:
288,160,158993,1,8,0:0:0:0:
224,160,159224,1,0,0:0:0:0:
288,160,159339,1,8,0:0:0:0:
224,160,159454,1,0,0:0:0:0:
224,160,159685,1,0,0:0:0:0:
288,160,159916,1,8,0:0:0:0:
224,160,160147,1,0,0:0:0:0:
224,160,160262,1,0,0:0:0:0:
224,160,160378,1,0,0:0:0:0:
288,160,160608,1,8,0:0:0:0:
288,160,160839,1,8,0:0:0:0:
224,160,161070,1,0,0:0:0:0:
224,224,161301,1,4,0:0:0:0:
288,160,161531,1,8,0:0:0:0:
288,160,161647,1,8,0:0:0:0:
224,160,161762,1,0,0:0:0:0:
224,160,161993,1,0,0:0:0:0:
288,160,162224,1,8,0:0:0:0:
288,160,162339,1,8,0:0:0:0:
224,160,162454,1,0,0:0:0:0:
288,160,162685,1,8,0:0:0:0:
288,160,162801,1,8,0:0:0:0:
224,160,162916,1,0,0:0:0:0:
288,160,163031,1,8,0:0:0:0:
224,160,163147,1,0,0:0:0:0:
288,224,164993,5,12,0:0:0:0:
288,160,165454,1,8,0:0:0:0:
224,160,165569,1,0,0:0:0:0:
224,160,165801,1,0,0:0:0:0:
288,160,166031,1,8,0:0:0:0:
224,160,166147,1,0,0:0:0:0:
224,160,166262,1,0,0:0:0:0:
288,160,166378,1,8,0:0:0:0:
288,224,166839,1,12,0:0:0:0:
224,160,167185,1,0,0:0:0:0:
288,160,167301,1,8,0:0:0:0:
224,160,167416,1,0,0:0:0:0:
224,160,167647,1,0,0:0:0:0:
288,160,167878,1,8,0:0:0:0:
224,160,168108,1,0,0:0:0:0:
288,160,168224,1,8,0:0:0:0:
288,160,168339,1,8,0:0:0:0:
224,160,168454,1,0,0:0:0:0:
288,224,168685,1,12,0:0:0:0:
224,160,169031,1,0,0:0:0:0:
288,160,169147,1,8,0:0:0:0:
224,160,169378,1,0,0:0:0:0:
288,160,169493,1,8,0:0:0:0:
288,160,169724,1,8,0:0:0:0:
224,160,169839,1,0,0:0:0:0:
288,160,170070,1,8,0:0:0:0:
224,160,170301,1,0,0:0:0:0:
224,224,170531,1,4,0:0:0:0:
224,160,170762,1,0,0:0:0:0:
224,160,170878,1,0,0:0:0:0:
288,160,170993,1,8,0:0:0:0:
224,160,171224,1,0,0:0:0:0:
288,160,171454,1,8,0:0:0:0:
288,160,171569,1,8,0:0:0:0:
224,160,171684,1,0,0:0:0:0:
224,160,171800,1,0,0:0:0:0:
288,160,171916,1,8,0:0:0:0:
288,224,172378,1,12,0:0:0:0:
288,160,172839,1,8,0:0:0:0:
224,160,172954,1,0,0:0:0:0:
224,160,173185,1,0,0:0:0:0:
288,160,173416,1,8,0:0:0:0:
224,160,173531,1,0,0:0:0:0:
224,160,173647,1,0,0:0:0:0:
288,160,173762,1,8,0:0:0:0:
224,160,173993,1,0,0:0:0:0:
288,224,174224,1,12,0:0:0:0:
224,160,174570,1,0,0:0:0:0:
288,160,174685,1,8,0:0:0:0:
224,160,174801,1,0,0:0:0:0:
224,160,175031,1,0,0:0:0:0:
288,160,175262,1,8,0:0:0:0:
288,160,175378,1,8,0:0:0:0:
224,160,175493,1,0,0:0:0:0:
288,160,175608,1,8,0:0:0:0:
224,160,175839,1,0,0:0:0:0:
288,224,176070,1,12,0:0:0:0:
224,160,176301,1,0,0:0:0:0:
224,160,176416,1,0,0:0:0:0:
288,160,176531,1,8,0:0:0:0:
224,160,176762,1,0,0:0:0:0:
288,160,176878,1,8,0:0:0:0:
288,160,177108,1,8,0:0:0:0:
224,160,177224,1,0,0:0:0:0:
224,160,177339,1,0,0:0:0:0:
288,160,177454,1,8,0:0:0:0:
224,160,177685,1,0,0:0:0:0:
224,224,177916,1,4,0:0:0:0:
224,160,178147,1,0,0:0:0:0:
288,160,178378,1,8,0:0:0:0:
224,160,178608,1,0,0:0:0:0:
288,160,178724,1,8,0:0:0:0:
224,160,178839,1,0,0:0:0:0:
224,160,178954,1,0,0:0:0:0:
288,160,179070,1,8,0:0:0:0:
224,160,179185,1,0,0:0:0:0:
288,160,179301,1,8,0:0:0:0:
288,160,179378,1,8,0:0:0:0:
288,160,179454,1,8,0:0:0:0:
224,160,179531,1,0,0:0:0:0:
288,224,179762,1,12,0:0:0:0:
288,224,180224,1,12,0:0:0:0:
288,224,180685,1,12,0:0:0:0:
288,224,181147,1,12,0:0:0:0:
288,160,181378,1,8,0:0:0:0:
224,224,181608,5,4,0:0:0:0:
288,160,181839,1,8,0:0:0:0:
288,160,181954,1,8,0:0:0:0:
288,160,182070,1,8,0:0:0:0:
288,160,182301,1,8,0:0:0:0:
288,160,182416,1,8,0:0:0:0:
224,160,182531,1,0,0:0:0:0:
288,160,182762,1,8,0:0:0:0:
288,160,182993,1,8,0:0:0:0:
288,160,183224,1,8,0:0:0:0:
288,160,183339,1,8,0:0:0:0:
224,160,183454,1,0,0:0:0:0:
288,160,183685,1,8,0:0:0:0:
224,160,183916,1,0,0:0:0:0:
288,160,184031,1,8,0:0:0:0:
288,160,184262,1,8,0:0:0:0:
224,160,184378,1,0,0:0:0:0:
224,160,184493,1,0,0:0:0:0:
288,160,184608,1,8,0:0:0:0:
288,160,184839,1,8,0:0:0:0:
288,160,185070,1,8,0:0:0:0:
224,224,185301,1,4,0:0:0:0:
288,160,185531,1,8,0:0:0:0:
288,160,185647,1,8,0:0:0:0:
288,160,185762,1,8,0:0:0:0:
288,160,185993,1,8,0:0:0:0:
288,160,186108,1,8,0:0:0:0:
224,160,186224,1,0,0:0:0:0:
288,160,186454,1,8,0:0:0:0:
288,160,186685,1,8,0:0:0:0:
288,160,186916,1,8,0:0:0:0:
288,160,187031,1,8,0:0:0:0:
224,160,187147,1,0,0:0:0:0:
288,160,187378,1,8,0:0:0:0:
224,160,187608,1,0,0:0:0:0:
288,160,187724,1,8,0:0:0:0:
288,160,187954,1,8,0:0:0:0:
224,160,188070,1,0,0:0:0:0:
224,160,188185,1,0,0:0:0:0:
288,160,188301,1,8,0:0:0:0:
288,160,188531,1,8,0:0:0:0:
288,160,188762,1,8,0:0:0:0:
224,224,188993,1,4,0:0:0:0:
224,160,189224,1,0,0:0:0:0:
224,160,189339,1,0,0:0:0:0:
288,160,189454,1,8,0:0:0:0:
224,160,189685,1,0,0:0:0:0:
224,160,189801,1,0,0:0:0:0:
288,160,189916,1,8,0:0:0:0:
288,160,190031,1,8,0:0:0:0:
224,160,190147,1,0,0:0:0:0:
288,160,190378,1,8,0:0:0:0:
224,160,190608,1,0,0:0:0:0:
288,160,190724,1,8,0:0:0:0:
224,160,190839,1,0,0:0:0:0:
224,160,190954,1,0,0:0:0:0:
288,160,191185,1,8,0:0:0:0:
224,160,191416,1,0,0:0:0:0:
288,160,191531,1,8,0:0:0:0:
288,160,191762,1,8,0:0:0:0:
224,160,191993,1,0,0:0:0:0:
224,160,192108,1,0,0:0:0:0:
288,160,192224,1,8,0:0:0:0:
288,160,192454,1,8,0:0:0:0:
224,224,192685,1,4,0:0:0:0:
288,160,192916,1,8,0:0:0:0:
288,160,193031,1,8,0:0:0:0:
224,160,193147,1,0,0:0:0:0:
224,160,193378,1,0,0:0:0:0:
224,160,193493,1,0,0:0:0:0:
288,160,193608,1,8,0:0:0:0:
288,160,193724,1,8,0:0:0:0:
224,160,193839,1,0,0:0:0:0:
288,160,194070,1,8,0:0:0:0:
224,160,194301,1,0,0:0:0:0:
288,160,194416,1,8,0:0:0:0:
224,160,194531,1,0,0:0:0:0:
224,160,194647,1,0,0:0:0:0:
288,160,194878,1,8,0:0:0:0:
224,160,195108,1,8,0:0:0:0:
288,160,195224,1,0,0:0:0:0:
224,160,195339,1,0,0:0:0:0:
288,160,195454,1,8,0:0:0:0:
224,160,195685,1,0,0:0:0:0:
224,160,195801,1,0,0:0:0:0:
288,160,195916,1,8,0:0:0:0:
288,160,196147,1,8,0:0:0:0:
224,224,196378,1,4,0:0:0:0:
224,160,196608,1,0,0:0:0:0:
224,160,196724,1,0,0:0:0:0:
288,160,196839,1,8,0:0:0:0:
288,160,197070,1,8,0:0:0:0:
224,160,197185,1,0,0:0:0:0:
288,160,197301,1,8,0:0:0:0:
288,160,197416,1,8,0:0:0:0:
224,160,197531,1,0,0:0:0:0:
224,160,197647,1,0,0:0:0:0:
288,160,197762,1,8,0:0:0:0:
224,160,197993,1,0,0:0:0:0:
288,160,198108,1,8,0:0:0:0:
224,160,198224,1,0,0:0:0:0:
224,160,198339,1,0,0:0:0:0:
288,160,198570,1,8,0:0:0:0:
224,160,198801,1,0,0:0:0:0:
288,160,198916,1,8,0:0:0:0:
288,160,199031,1,8,0:0:0:0:
224,160,199147,1,0,0:0:0:0:
288,160,199262,1,8,0:0:0:0:
224,160,199378,1,0,0:0:0:0:
288,160,199608,1,8,0:0:0:0:
288,160,199839,1,8,0:0:0:0:
224,224,200070,1,4,0:0:0:0:
288,160,200301,1,8,0:0:0:0:
288,160,200416,1,8,0:0:0:0:
224,160,200531,1,0,0:0:0:0:
224,160,200762,1,0,0:0:0:0:
224,160,200878,1,0,0:0:0:0:
288,160,200993,1,8,0:0:0:0:
288,160,201109,1,8,0:0:0:0:
224,160,201224,1,0,0:0:0:0:
224,160,201339,1,0,0:0:0:0:
288,160,201454,1,8,0:0:0:0:
224,160,201685,1,0,0:0:0:0:
288,160,201762,1,8,0:0:0:0:
288,160,201839,1,8,0:0:0:0:
224,160,201916,1,0,0:0:0:0:
224,224,203301,1,4,0:0:0:0:
288,224,203762,5,12,0:0:0:0:
224,160,203993,1,0,0:0:0:0:
224,160,204108,1,0,0:0:0:0:
288,160,204224,1,8,0:0:0:0:
224,160,204339,1,0,0:0:0:0:
224,160,204570,1,0,0:0:0:0:
288,160,204685,1,8,0:0:0:0:
288,160,204916,1,8,0:0:0:0:
224,160,205031,1,0,0:0:0:0:
288,160,205147,1,8,0:0:0:0:
224,160,205262,1,0,0:0:0:0:
288,160,205493,1,8,0:0:0:0:
224,160,205608,1,0,0:0:0:0:
224,160,205839,1,0,0:0:0:0:
224,160,205954,1,0,0:0:0:0:
288,160,206070,1,8,0:0:0:0:
224,160,206301,1,0,0:0:0:0:
288,160,206416,1,8,0:0:0:0:
288,160,206647,1,8,0:0:0:0:
224,160,206762,1,0,0:0:0:0:
288,160,206993,1,8,0:0:0:0:
224,160,207224,1,0,0:0:0:0:
288,224,207454,1,12,0:0:0:0:
224,160,207685,1,0,0:0:0:0:
224,160,207801,1,0,0:0:0:0:
288,160,207916,1,8,0:0:0:0:
224,160,208147,1,0,0:0:0:0:
224,160,208262,1,0,0:0:0:0:
288,160,208493,1,8,0:0:0:0:
224,160,208608,1,0,0:0:0:0:
288,160,208839,1,8,0:0:0:0:
224,160,209070,1,0,0:0:0:0:
288,160,209301,1,8,0:0:0:0:
288,160,209416,1,8,0:0:0:0:
224,160,209531,1,0,0:0:0:0:
288,160,209762,1,8,0:0:0:0:
224,160,209878,1,0,0:0:0:0:
224,160,209993,1,0,0:0:0:0:
288,160,210108,1,8,0:0:0:0:
288,160,210339,1,8,0:0:0:0:
224,160,210454,1,0,0:0:0:0:
288,160,210685,1,8,0:0:0:0:
224,160,210916,1,0,0:0:0:0:
288,224,211147,1,12,0:0:0:0:
224,160,211378,1,0,0:0:0:0:
224,160,211493,1,0,0:0:0:0:
288,160,211608,1,8,0:0:0:0:
224,160,211724,1,0,0:0:0:0:
224,160,211954,1,0,0:0:0:0:
288,160,212070,1,8,0:0:0:0:
288,160,212301,1,8,0:0:0:0:
224,160,212416,1,0,0:0:0:0:
288,160,212531,1,8,0:0:0:0:
224,160,212647,1,0,0:0:0:0:
288,160,212878,1,8,0:0:0:0:
224,160,212993,1,0,0:0:0:0:
224,160,213224,1,0,0:0:0:0:
224,160,213339,1,0,0:0:0:0:
288,160,213454,1,8,0:0:0:0:
224,160,213685,1,0,0:0:0:0:
288,160,213801,1,8,0:0:0:0:
224,160,213916,1,0,0:0:0:0:
288,160,214031,1,8,0:0:0:0:
224,160,214147,1,0,0:0:0:0:
288,160,214378,1,8,0:0:0:0:
224,160,214608,1,0,0:0:0:0:
288,224,214839,1,12,0:0:0:0:
224,160,215070,1,0,0:0:0:0:
224,160,215185,1,0,0:0:0:0:
288,160,215301,1,8,0:0:0:0:
288,160,215531,1,8,0:0:0:0:
288,160,215647,1,8,0:0:0:0:
224,160,215762,1,0,0:0:0:0:
288,160,215878,1,8,0:0:0:0:
224,160,215993,1,0,0:0:0:0:
288,160,216224,1,8,0:0:0:0:
224,160,216454,1,0,0:0:0:0:
224,160,216570,1,0,0:0:0:0:
288,160,216685,1,8,0:0:0:0:
224,160,216916,1,0,0:0:0:0:
288,160,217147,1,8,0:0:0:0:
224,160,217378,1,0,0:0:0:0:
288,160,217493,1,8,0:0:0:0:
224,160,217608,1,0,0:0:0:0:
288,160,217724,1,8,0:0:0:0:
224,160,217839,1,0,0:0:0:0:
288,160,218070,1,8,0:0:0:0:
288,160,218185,1,8,0:0:0:0:
224,160,218301,1,0,0:0:0:0:
224,224,218531,1,4,0:0:0:0:
224,160,218878,1,0,0:0:0:0:
224,160,219224,1,0,0:0:0:0:
224,224,219454,5,4,0:0:0:0:
224,160,219685,1,0,0:0:0:0:
224,160,219800,1,0,0:0:0:0:
288,160,219915,1,8,0:0:0:0:
224,160,220146,1,0,0:0:0:0:
288,160,220262,1,8,0:0:0:0:
288,160,220492,1,8,0:0:0:0:
224,160,220723,1,0,0:0:0:0:
288,160,220839,1,8,0:0:0:0:
224,160,221069,1,0,0:0:0:0:
288,160,221185,1,8,0:0:0:0:
224,160,221300,1,0,0:0:0:0:
224,160,221415,1,0,0:0:0:0:
288,160,221646,1,8,0:0:0:0:
224,160,221877,1,0,0:0:0:0:
288,160,221992,1,8,0:0:0:0:
288,160,222223,1,8,0:0:0:0:
224,160,222338,1,0,0:0:0:0:
224,160,222454,1,0,0:0:0:0:
224,160,222569,1,0,0:0:0:0:
288,160,222685,1,8,0:0:0:0:
288,160,222915,1,8,0:0:0:0:
224,224,223146,1,4,0:0:0:0:
288,160,223377,1,8,0:0:0:0:
288,160,223492,1,8,0:0:0:0:
224,160,223608,1,0,0:0:0:0:
288,160,223839,1,8,0:0:0:0:
224,160,223954,1,0,0:0:0:0:
288,160,224185,1,8,0:0:0:0:
224,160,224415,1,0,0:0:0:0:
288,160,224531,1,8,0:0:0:0:
288,160,224762,1,8,0:0:0:0:
288,160,224877,1,8,0:0:0:0:
224,160,224992,1,0,0:0:0:0:
224,160,225108,1,0,0:0:0:0:
288,160,225223,1,8,0:0:0:0:
224,160,225454,1,0,0:0:0:0:
288,160,225569,1,8,0:0:0:0:
224,160,225685,1,0,0:0:0:0:
224,160,225800,1,0,0:0:0:0:
288,160,225915,1,8,0:0:0:0:
224,160,226146,1,0,0:0:0:0:
288,160,226261,1,8,0:0:0:0:
224,160,226377,1,0,0:0:0:0:
288,160,226608,1,8,0:0:0:0:
224,224,226839,1,4,0:0:0:0:
224,160,227069,1,0,0:0:0:0:
224,160,227185,1,0,0:0:0:0:
288,160,227300,1,8,0:0:0:0:
224,160,227531,1,0,0:0:0:0:
288,160,227762,1,8,0:0:0:0:
224,160,227877,1,0,0:0:0:0:
288,160,228108,1,8,0:0:0:0:
224,160,228339,1,0,0:0:0:0:
288,160,228454,1,8,0:0:0:0:
288,160,228569,1,8,0:0:0:0:
224,160,228685,1,0,0:0:0:0:
224,160,228800,1,0,0:0:0:0:
288,160,229031,1,8,0:0:0:0:
224,160,229262,1,0,0:0:0:0:
288,160,229377,1,8,0:0:0:0:
288,160,229608,1,8,0:0:0:0:
224,160,229723,1,0,0:0:0:0:
224,160,229838,1,0,0:0:0:0:
288,160,229954,1,8,0:0:0:0:
224,160,230185,1,0,0:0:0:0:
288,160,230300,1,8,0:0:0:0:
224,224,230531,1,4,0:0:0:0:
224,160,230762,1,0,0:0:0:0:
288,160,230877,1,8,0:0:0:0:
224,160,231108,1,0,0:0:0:0:
224,160,231339,1,0,0:0:0:0:
288,160,231454,1,8,0:0:0:0:
224,160,231569,1,0,0:0:0:0:
224,160,231685,1,0,0:0:0:0:
288,160,231800,1,8,0:0:0:0:
224,160,232031,1,0,0:0:0:0:
288,160,232146,1,8,0:0:0:0:
288,160,232262,1,8,0:0:0:0:
224,160,232377,1,0,0:0:0:0:
256,192,232492,12,0,233069,0:0:0:0:
224,160,233300,5,0,0:0:0:0:
224,160,233530,1,0,0:0:0:0:
288,160,233761,1,8,0:0:0:0:
288,224,234223,5,12,0:0:0:0:
224,160,234454,1,0,0:0:0:0:
224,160,234569,1,0,0:0:0:0:
288,160,234685,1,8,0:0:0:0:
224,160,234915,1,0,0:0:0:0:
224,160,235031,1,0,0:0:0:0:
224,160,235146,1,0,0:0:0:0:
288,160,235262,1,8,0:0:0:0:
224,160,235377,1,0,0:0:0:0:
224,160,235492,1,0,0:0:0:0:
288,160,235608,1,8,0:0:0:0:
224,160,235839,1,0,0:0:0:0:
224,160,235954,1,0,0:0:0:0:
288,160,236069,1,8,0:0:0:0:
288,160,236300,1,8,0:0:0:0:
288,160,236531,1,8,0:0:0:0:
288,160,236646,1,8,0:0:0:0:
288,160,236762,1,8,0:0:0:0:
224,160,236877,1,0,0:0:0:0:
288,160,236992,1,8,0:0:0:0:
288,160,237107,1,8,0:0:0:0:
224,160,237223,1,0,0:0:0:0:
288,160,237454,1,8,0:0:0:0:
288,160,237685,1,8,0:0:0:0:
224,224,237915,1,4,0:0:0:0:
224,160,238146,1,0,0:0:0:0:
224,160,238262,1,0,0:0:0:0:
288,160,238377,1,8,0:0:0:0:
224,160,238608,1,0,0:0:0:0:
224,160,238723,1,0,0:0:0:0:
224,160,238839,1,0,0:0:0:0:
288,160,238954,1,8,0:0:0:0:
224,160,239069,1,0,0:0:0:0:
288,160,239300,1,8,0:0:0:0:
224,160,239531,1,0,0:0:0:0:
288,160,239762,1,8,0:0:0:0:
288,160,239877,1,8,0:0:0:0:
224,160,239992,1,0,0:0:0:0:
288,160,240223,1,8,0:0:0:0:
224,160,240454,1,0,0:0:0:0:
288,160,240569,1,8,0:0:0:0:
224,160,240684,1,0,0:0:0:0:
288,160,240800,1,8,0:0:0:0:
224,160,240915,1,0,0:0:0:0:
288,160,241146,1,8,0:0:0:0:
224,160,241262,1,0,0:0:0:0:
288,160,241377,1,8,0:0:0:0:
288,224,241608,1,12,0:0:0:0:
224,160,241839,1,0,0:0:0:0:
224,160,241954,1,0,0:0:0:0:
288,160,242069,1,8,0:0:0:0:
288,160,242300,1,8,0:0:0:0:
224,160,242415,1,0,0:0:0:0:
224,160,242531,1,0,0:0:0:0:
288,160,242646,1,8,0:0:0:0:
224,160,242762,1,0,0:0:0:0:
224,160,242877,1,0,0:0:0:0:
288,160,242992,1,8,0:0:0:0:
224,160,243223,1,0,0:0:0:0:
224,160,243338,1,0,0:0:0:0:
288,160,243454,1,8,0:0:0:0:
288,160,243685,1,8,0:0:0:0:
224,160,243915,1,0,0:0:0:0:
288,160,244031,1,8,0:0:0:0:
288,160,244146,1,8,0:0:0:0:
224,160,244262,1,0,0:0:0:0:
288,160,244377,1,8,0:0:0:0:
224,160,244608,1,0,0:0:0:0:
224,160,244723,1,0,0:0:0:0:
288,160,244839,1,8,0:0:0:0:
288,160,245069,1,8,0:0:0:0:
224,224,245300,1,4,0:0:0:0:
224,160,245531,1,0,0:0:0:0:
224,160,245646,1,0,0:0:0:0:
288,160,245762,1,8,0:0:0:0:
288,160,245992,1,8,0:0:0:0:
288,160,246108,1,8,0:0:0:0:
224,160,246223,1,0,0:0:0:0:
288,160,246339,1,8,0:0:0:0:
224,160,246454,1,0,0:0:0:0:
224,160,246569,1,0,0:0:0:0:
288,160,246685,1,8,0:0:0:0:
224,160,246915,1,0,0:0:0:0:
224,160,247031,1,0,0:0:0:0:
288,160,247146,1,8,0:0:0:0:
288,160,247377,1,8,0:0:0:0:
288,160,247608,1,8,0:0:0:0:
224,160,247723,1,0,0:0:0:0:
288,160,247839,1,8,0:0:0:0:
224,160,247954,1,0,0:0:0:0:
288,160,248069,1,8,0:0:0:0:
288,160,248185,1,8,0:0:0:0:
224,160,248300,1,0,0:0:0:0:
224,160,248415,1,0,0:0:0:0:
288,160,248531,1,8,0:0:0:0:
224,160,248646,1,0,0:0:0:0:
288,160,248762,1,8,0:0:0:0:
288,224,248992,1,12,0:0:0:0:
224,160,249338,1,0,0:0:0:0:
224,160,249454,1,0,0:0:0:0:
288,160,249684,1,8,0:0:0:0:
224,160,249915,1,0,0:0:0:0:
224,160,250030,1,0,0:0:0:0:
288,160,250146,1,8,0:0:0:0:
288,160,250377,1,8,0:0:0:0:
224,160,250607,1,0,0:0:0:0:
288,160,250723,1,8,0:0:0:0:
224,160,250838,1,0,0:0:0:0:
224,160,251184,1,0,0:0:0:0:
288,160,251300,1,8,0:0:0:0:
224,160,251530,1,0,0:0:0:0:
288,160,251761,1,8,0:0:0:0:
288,160,251877,1,8,0:0:0:0:
224,160,251992,1,0,0:0:0:0:
288,160,252223,1,8,0:0:0:0:
224,160,252454,1,0,0:0:0:0:
224,160,252684,1,4,0:0:0:0:
224,160,253030,1,0,0:0:0:0:
288,160,253146,1,8,0:0:0:0:
224,160,253377,1,0,0:0:0:0:
224,160,253492,1,0,0:0:0:0:
288,160,253607,1,8,0:0:0:0:
224,160,253723,1,0,0:0:0:0:
224,160,253838,1,0,0:0:0:0:
288,160,254069,1,8,0:0:0:0:
224,160,254300,1,0,0:0:0:0:
288,160,254415,1,8,0:0:0:0:
224,160,254530,1,0,0:0:0:0:
288,160,254877,1,8,0:0:0:0:
224,160,254992,1,0,0:0:0:0:
224,160,255107,1,0,0:0:0:0:
288,160,255223,1,8,0:0:0:0:
224,160,255454,1,0,0:0:0:0:
224,160,255569,1,0,0:0:0:0:
288,160,255684,1,8,0:0:0:0:
224,160,255800,1,0,0:0:0:0:
288,160,255915,1,8,0:0:0:0:
288,160,256146,1,8,0:0:0:0:
288,224,256377,1,12,0:0:0:0:
224,160,256608,1,0,0:0:0:0:
288,160,256839,1,8,0:0:0:0:
224,160,257069,1,0,0:0:0:0:
224,160,257185,1,0,0:0:0:0:
288,160,257300,1,8,0:0:0:0:
224,160,257415,1,0,0:0:0:0:
224,160,257531,1,0,0:0:0:0:
288,160,257762,1,8,0:0:0:0:
224,160,257992,1,0,0:0:0:0:
288,160,258108,1,8,0:0:0:0:
224,160,258223,1,0,0:0:0:0:
224,160,258454,1,0,0:0:0:0:
288,160,258685,1,8,0:0:0:0:
288,160,258915,1,8,0:0:0:0:
288,160,259031,1,8,0:0:0:0:
224,160,259146,1,0,0:0:0:0:
224,160,259262,1,0,0:0:0:0:
288,160,259377,1,8,0:0:0:0:
288,160,259608,1,8,0:0:0:0:
224,160,259839,1,0,0:0:0:0:
224,224,260069,1,4,0:0:0:0:
224,160,260415,1,0,0:0:0:0:
288,160,260531,1,8,0:0:0:0:
224,160,260762,1,0,0:0:0:0:
288,160,260992,1,8,0:0:0:0:
224,160,261108,1,0,0:0:0:0:
224,160,261223,1,0,0:0:0:0:
224,160,261339,1,0,0:0:0:0:
288,160,261454,1,8,0:0:0:0:
224,160,261685,1,0,0:0:0:0:
288,160,261800,1,8,0:0:0:0:
224,160,261915,1,0,0:0:0:0:
224,160,262146,1,0,0:0:0:0:
288,160,262377,1,8,0:0:0:0:
288,160,262608,1,8,0:0:0:0:
288,160,262723,1,8,0:0:0:0:
224,160,262839,1,0,0:0:0:0:
224,160,262954,1,0,0:0:0:0:
288,160,263069,1,8,0:0:0:0:
288,160,263300,1,8,0:0:0:0:
224,160,263531,1,0,0:0:0:0:
224,224,263762,1,4,0:0:0:0:
288,160,263992,1,8,0:0:0:0:
288,160,264108,1,8,0:0:0:0:
224,160,264223,1,0,0:0:0:0:
224,160,264454,1,0,0:0:0:0:
224,160,264569,1,0,0:0:0:0:
288,160,264685,1,8,0:0:0:0:
288,160,264800,1,8,0:0:0:0:
224,160,264915,1,0,0:0:0:0:
288,160,265146,1,8,0:0:0:0:
288,160,265262,1,8,0:0:0:0:
224,160,265377,1,0,0:0:0:0:
288,160,265492,1,8,0:0:0:0:
224,160,265608,1,0,0:0:0:0:
288,224,267454,5,12,0:0:0:0:
288,160,267915,1,8,0:0:0:0:
224,160,268030,1,0,0:0:0:0:
224,160,268262,1,0,0:0:0:0:
288,160,268492,1,8,0:0:0:0:
224,160,268608,1,0,0:0:0:0:
224,160,268723,1,0,0:0:0:0:
288,160,268839,1,8,0:0:0:0:
288,224,269300,1,12,0:0:0:0:
224,160,269646,1,0,0:0:0:0:
288,160,269762,1,8,0:0:0:0:
224,160,269877,1,0,0:0:0:0:
224,160,270108,1,0,0:0:0:0:
288,160,270339,1,8,0:0:0:0:
224,160,270569,1,0,0:0:0:0:
288,160,270685,1,8,0:0:0:0:
288,160,270800,1,8,0:0:0:0:
224,160,270915,1,0,0:0:0:0:
288,224,271146,1,12,0:0:0:0:
224,160,271492,1,0,0:0:0:0:
288,160,271608,1,8,0:0:0:0:
224,160,271839,1,0,0:0:0:0:
288,160,271954,1,8,0:0:0:0:
288,160,272185,1,8,0:0:0:0:
224,160,272300,1,0,0:0:0:0:
288,160,272531,1,8,0:0:0:0:
224,160,272762,1,0,0:0:0:0:
224,224,272992,1,4,0:0:0:0:
224,160,273223,1,0,0:0:0:0:
224,160,273339,1,0,0:0:0:0:
288,160,273454,1,8,0:0:0:0:
224,160,273685,1,0,0:0:0:0:
288,160,273915,1,8,0:0:0:0:
288,160,274030,1,8,0:0:0:0:
224,160,274145,1,0,0:0:0:0:
224,160,274261,1,0,0:0:0:0:
288,160,274377,1,8,0:0:0:0:
288,224,274839,1,12,0:0:0:0:
288,160,275300,1,8,0:0:0:0:
224,160,275415,1,0,0:0:0:0:
224,160,275646,1,0,0:0:0:0:
288,160,275877,1,8,0:0:0:0:
224,160,275992,1,0,0:0:0:0:
224,160,276108,1,0,0:0:0:0:
288,160,276223,1,8,0:0:0:0:
224,160,276454,1,0,0:0:0:0:
288,224,276685,1,12,0:0:0:0:
224,160,277031,1,0,0:0:0:0:
288,160,277146,1,8,0:0:0:0:
224,160,277262,1,0,0:0:0:0:
224,160,277492,1,0,0:0:0:0:
288,160,277723,1,8,0:0:0:0:
288,160,277839,1,8,0:0:0:0:
224,160,277954,1,0,0:0:0:0:
288,160,278069,1,8,0:0:0:0:
224,160,278300,1,0,0:0:0:0:
288,224,278531,1,12,0:0:0:0:
224,160,278761,1,0,0:0:0:0:
224,160,278877,1,0,0:0:0:0:
288,160,278992,1,8,0:0:0:0:
224,160,279223,1,0,0:0:0:0:
288,160,279339,1,8,0:0:0:0:
288,160,279569,1,8,0:0:0:0:
224,160,279685,1,0,0:0:0:0:
224,160,279800,1,0,0:0:0:0:
288,160,279915,1,8,0:0:0:0:
224,160,280146,1,0,0:0:0:0:
224,224,280377,1,4,0:0:0:0:
224,160,280608,1,0,0:0:0:0:
288,160,280839,1,8,0:0:0:0:
224,160,281069,1,0,0:0:0:0:
288,160,281185,1,8,0:0:0:0:
224,160,281300,1,0,0:0:0:0:
224,160,281415,1,0,0:0:0:0:
288,160,281531,1,8,0:0:0:0:
288,160,281762,1,8,0:0:0:0:
288,160,281877,1,8,0:0:0:0:
288,160,281992,1,8,0:0:0:0:
288,224,282223,1,12,0:0:0:0:
288,160,282684,1,8,0:0:0:0:
224,160,282800,1,0,0:0:0:0:
224,160,283030,1,0,0:0:0:0:
288,160,283261,1,8,0:0:0:0:
224,160,283377,1,0,0:0:0:0:
224,160,283492,1,0,0:0:0:0:
288,160,283607,1,8,0:0:0:0:
224,160,283838,1,0,0:0:0:0:
288,224,284069,1,12,0:0:0:0:
224,160,284300,1,0,0:0:0:0:
224,160,284415,1,0,0:0:0:0:
288,160,284530,1,8,0:0:0:0:
224,160,284646,1,0,0:0:0:0:
224,160,284877,1,0,0:0:0:0:
288,160,285107,1,8,0:0:0:0:
224,160,285338,1,0,0:0:0:0:
288,160,285454,1,8,0:0:0:0:
224,160,285569,1,8,0:0:0:0:
224,160,285684,1,0,0:0:0:0:
288,224,285915,1,12,0:0:0:0:
224,160,286146,1,0,0:0:0:0:
224,160,286261,1,0,0:0:0:0:
288,160,286377,1,8,0:0:0:0:
224,160,286607,1,0,0:0:0:0:
288,160,286723,1,8,0:0:0:0:
224,160,286838,1,0,0:0:0:0:
288,160,286954,1,8,0:0:0:0:
224,160,287069,1,0,0:0:0:0:
288,160,287300,1,8,0:0:0:0:
224,160,287530,1,0,0:0:0:0:
224,224,287761,1,4,0:0:0:0:
224,160,287992,1,0,0:0:0:0:
224,160,288107,1,0,0:0:0:0:
288,160,288223,1,8,0:0:0:0:
224,160,288454,1,0,0:0:0:0:
224,160,288569,1,0,0:0:0:0:
288,160,288684,1,8,0:0:0:0:
288,160,288800,1,8,0:0:0:0:
224,160,288915,1,0,0:0:0:0:
224,160,289030,1,0,0:0:0:0:
288,160,289146,1,8,0:0:0:0:
288,224,289607,1,12,0:0:0:0:
224,160,289838,1,0,0:0:0:0:
224,160,289954,1,0,0:0:0:0:
288,160,290069,1,8,0:0:0:0:
224,160,290184,1,0,0:0:0:0:
288,160,290415,1,8,0:0:0:0:
224,160,290530,1,0,0:0:0:0:
288,160,290646,1,8,0:0:0:0:
224,160,290761,1,0,0:0:0:0:
224,160,290877,1,0,0:0:0:0:
288,160,290992,1,8,0:0:0:0:
224,160,291223,1,0,0:0:0:0:
288,224,291454,1,12,0:0:0:0:
224,160,291684,1,0,0:0:0:0:
224,160,291800,1,0,0:0:0:0:
288,160,291915,1,8,0:0:0:0:
224,160,292030,1,0,0:0:0:0:
288,160,292261,1,8,0:0:0:0:
224,160,292377,1,0,0:0:0:0:
224,160,292492,1,0,0:0:0:0:
288,160,292608,1,8,0:0:0:0:
288,160,292723,1,8,0:0:0:0:
224,160,292838,1,0,0:0:0:0:
224,160,293069,1,0,0:0:0:0:
288,224,293300,1,12,0:0:0:0:
224,160,293530,1,0,0:0:0:0:
224,160,293646,1,0,0:0:0:0:
288,160,293761,1,8,0:0:0:0:
288,160,293877,1,8,0:0:0:0:
288,160,294107,1,8,0:0:0:0:
224,160,294223,1,0,0:0:0:0:
224,160,294338,1,0,0:0:0:0:
288,160,294454,1,8,0:0:0:0:
224,160,294569,1,0,0:0:0:0:
288,160,294684,1,8,0:0:0:0:
224,160,294915,1,0,0:0:0:0:
224,224,295146,1,4,0:0:0:0:
224,160,295377,1,0,0:0:0:0:
224,160,295492,1,0,0:0:0:0:
288,160,295607,1,8,0:0:0:0:
288,160,295723,1,8,0:0:0:0:
224,160,295838,1,0,0:0:0:0:
288,160,295954,1,8,0:0:0:0:
224,160,296069,1,0,0:0:0:0:
224,160,296184,1,0,0:0:0:0:
288,160,296300,1,8,0:0:0:0:
224,160,296415,1,0,0:0:0:0:
288,160,296530,1,8,0:0:0:0:
288,160,296607,1,8,0:0:0:0:
288,160,296684,1,8,0:0:0:0:
224,160,296761,1,0,0:0:0:0:
288,224,296992,1,12,0:0:0:0:
288,224,297453,1,12,0:0:0:0:
288,224,297915,1,12,0:0:0:0:
288,224,298376,1,12,0:0:0:0:
288,224,298838,1,12,0:0:0:0:
288,224,299299,1,12,0:0:0:0:
224,224,299761,5,4,0:0:0:0:
256,192,299991,12,0,306914,0:0:0:0:
224,224,307145,5,4,0:0:0:0:
288,160,307376,1,8,0:0:0:0:
288,160,307491,1,8,0:0:0:0:
288,160,307607,1,8,0:0:0:0:
288,160,307837,1,8,0:0:0:0:
288,160,307953,1,8,0:0:0:0:
224,160,308068,1,0,0:0:0:0:
288,160,308299,1,8,0:0:0:0:
288,160,308530,1,8,0:0:0:0:
288,160,308761,1,8,0:0:0:0:
288,160,308876,1,8,0:0:0:0:
224,160,308991,1,0,0:0:0:0:
288,160,309222,1,8,0:0:0:0:
224,160,309453,1,0,0:0:0:0:
288,160,309568,1,8,0:0:0:0:
288,160,309799,1,8,0:0:0:0:
224,160,309914,1,0,0:0:0:0:
224,160,310030,1,0,0:0:0:0:
288,160,310145,1,8,0:0:0:0:
288,160,310376,1,8,0:0:0:0:
288,160,310607,1,8,0:0:0:0:
224,224,310837,1,4,0:0:0:0:
288,160,311068,1,8,0:0:0:0:
288,160,311184,1,8,0:0:0:0:
288,160,311299,1,8,0:0:0:0:
288,160,311530,1,8,0:0:0:0:
288,160,311645,1,8,0:0:0:0:
224,160,311761,1,0,0:0:0:0:
288,160,311991,1,8,0:0:0:0:
288,160,312222,1,8,0:0:0:0:
288,160,312453,1,8,0:0:0:0:
288,160,312568,1,8,0:0:0:0:
224,160,312684,1,0,0:0:0:0:
288,160,312914,1,8,0:0:0:0:
224,160,313145,1,0,0:0:0:0:
288,160,313261,1,8,0:0:0:0:
288,160,313491,1,8,0:0:0:0:
224,160,313607,1,0,0:0:0:0:
288,160,313837,1,8,0:0:0:0:
288,160,314068,1,8,0:0:0:0:
288,160,314299,1,8,0:0:0:0:
288,160,314414,1,8,0:0:0:0:
