osu file format v14

[General]
AudioFilename: audio.mp3
AudioLeadIn: 0
PreviewTime: 85608
Countdown: 0
SampleSet: Soft
StackLeniency: 0.2
Mode: 0
LetterboxInBreaks: 0
EpilepsyWarning: 1
WidescreenStoryboard: 1

[Editor]
Bookmarks: 11762,26531,43147,57916,72685,87454,94839,102224,116993,124378,129916,131762,146531,153916,161301,164993,170531,172378,177916,179762,181608,188993,203762,219454,226838,234223,248992,256377,263761,267454,272992,274838,280377,282223,287761,289607,295146,296992,299761,307145,314414
DistanceSpacing: 2.1
BeatDivisor: 8
GridSize: 32
TimelineZoom: 1

[Metadata]
Title:MALFORMED BOX / INSIDE BEAST
TitleUnicode:MALFORMED BOX / INSIDE BEAST
Artist:the GazettE
ArtistUnicode:the GazettE
Creator:Vell
Version:Insane
Source:
Tags:visual kei ruki uruha aoi reita kai beautiful deformity greenshell darky1
BeatmapID:1322582
BeatmapSetID:627671

[Difficulty]
HPDrainRate:6.5
CircleSize:4.9
OverallDifficulty:7.8
ApproachRate:8.5
SliderMultiplier:1.3
SliderTickRate:1

[Events]
//Background and Video events
0,0,"bg.jpg",0,0
//Break Periods
//Storyboard Layer 0 (Background)
//Storyboard Layer 1 (Fail)
//Storyboard Layer 2 (Pass)
//Storyboard Layer 3 (Foreground)
Sprite,Foreground,Centre,"sb\focus_overlay.png",320,240 F,0,41301,43147,0,0.2 S,0,41301,61301,1,1.072624 P,0,41301,299760,A S,0,61301,81301,1.072624,1.081733 S,0,81301,101301,1.081733,1.076802 S,0,101301,121301,1.076802,1.055816 S,0,121301,141301,1.055816,1.020603 S,0,141301,161301,1.020603,1.055889 S,0,161301,181301,1.055889,1.090603 S,0,181301,201301,1.090603,1.044218 S,0,201301,221301,1.044218,1.097755 S,0,221301,241301,1.097755,1.02737 S,0,241301,261301,1.02737,1.029191 S,0,261301,281301,1.029191,1.046731 S,0,281301,299760,1.046731,1.063266
Sprite,Foreground,CentreLeft,"sb\pixel.png",320,0 F,0,41301,,1 R,0,41301,,0.7853982 V,0,41301,43147,0,0.3,80,0.3 F,0,299760,,0
Sprite,Foreground,CentreLeft,"sb\pixel.png",320,0 F,0,41301,,1 R,0,41301,,2.356194 V,0,41301,43147,0,0.3,80,0.3 F,0,299760,,0
Sprite,Foreground,CentreRight,"sb\pixelGradientLine.png",0,0 F,0,46551,,0.8 R,0,46551,,0.7853982 C,0,46551,,255,0,0 V,0,46551,,-2,0.2 M,2,46551,47101,320,0,956,636
Sprite,Foreground,CentreRight,"sb\pixelGradientLine.png",0,0 F,0,46551,,0.8 R,0,46551,,2.356194 C,0,46551,,255,0,0 V,0,46551,,-2,0.2 M,2,46551,47101,320,0,-316,636
Sprite,Foreground,CentreRight,"sb\pixelGradientLine.png",0,0 F,0,49608,,0.8 R,0,49608,,0.7853982 C,0,49608,,255,0,0 V,0,49608,,-2,0.2 M,2,49608,50158,320,0,956,636
Sprite,Foreground,CentreRight,"sb\pixelGradientLine.png",0,0 F,0,49608,,0.8 R,0,49608,,2.356194 C,0,49608,,255,0,0 V,0,49608,,-2,0.2 M,2,49608,50158,320,0,-316,636
Sprite,Foreground,CentreRight,"sb\pixelGradientLine.png",0,0 F,0,49954,,0.8 R,0,49954,,0.7853982 C,0,49954,,255,0,0 V,0,49954,,-2,0.2 M,2,49954,50504,320,0,956,636
Sprite,Foreground,CentreRight,"sb\pixelGradientLine.png",0,0 F,0,49954,,0.8 R,0,49954,,2.356194 C,0,49954,,255,0,0 V,0,49954,,-2,0.2 M,2,49954,50504,320,0,-316,636
Sprite,Foreground,CentreRight,"sb\pixelGradientLine.png",0,0 F,0,50300,,0.8 R,0,50300,,0.7853982 C,0,50300,,255,0,0 V,0,50300,,-2,0.2 M,2,50300,50850,320,0,956,636
Sprite,Foreground,CentreRight,"sb\pixelGradientLine.png",0,0 F,0,50300,,0.8 R,0,50300,,2.356194 C,0,50300,,255,0,0 V,0,50300,,-2,0.2 M,2,50300,50850,320,0,-316,636
Sprite,Foreground,CentreRight,"sb\pixelGradientLine.png",0,0 F,0,53935,,0.8 R,0,53935,,0.7853982 C,0,53935,,255,0,0 V,0,53935,,-2,0.2 M,2,53935,54485,320,0,956,636
Sprite,Foreground,CentreRight,"sb\pixelGradientLine.png",0,0 F,0,53935,,0.8 R,0,53935,,2.356194 C,0,53935,,255,0,0 V,0,53935,,-2,0.2 M,2,53935,54485,320,0,-316,636
Sprite,Foreground,CentreRight,"sb\pixelGradientLine.png",0,0 F,0,57628,,0.8 R,0,57628,,0.7853982 C,0,57628,,255,0,0 V,0,57628,,-2,0.2 M,2,57628,58178,320,0,956,636
Sprite,Foreground,CentreRight,"sb\pixelGradientLine.png",0,0 F,0,57628,,0.8 R,0,57628,,2.356194 C,0,57628,,255,0,0 V,0,57628,,-2,0.2 M,2,57628,58178,320,0,-316,636
Sprite,Foreground,CentreRight,"sb\pixelGradientLine.png",0,0 F,0,61320,,0.8 R,0,61320,,0.7853982 C,0,61320,,255,0,0 V,0,61320,,-2,0.2 M,2,61320,61870,320,0,956,636
Sprite,Foreground,CentreRight,"sb\pixelGradientLine.png",0,0 F,0,61320,,0.8 R,0,61320,,2.356194 C,0,61320,,255,0,0 V,0,61320,,-2,0.2 M,2,61320,61870,320,0,-316,636
Sprite,Foreground,CentreRight,"sb\pixelGradientLine.png",0,0 F,0,64378,,0.8 R,0,64378,,0.7853982 C,0,64378,,255,0,0 V,0,64378,,-2,0.2 M,2,64378,64928,320,0,956,636
Sprite,Foreground,CentreRight,"sb\pixelGradientLine.png",0,0 F,0,64378,,0.8 R,0,64378,,2.356194 C,0,64378,,255,0,0 V,0,64378,,-2,0.2 M,2,64378,64928,320,0,-316,636
Sprite,Foreground,CentreRight,"sb\pixelGradientLine.png",0,0 F,0,64724,,0.8 R,0,64724,,0.7853982 C,0,64724,,255,0,0 V,0,64724,,-2,0.2 M,2,64724,65274,320,0,956,636
Sprite,Foreground,CentreRight,"sb\pixelGradientLine.png",0,0 F,0,64724,,0.8 R,0,64724,,2.356194 C,0,64724,,255,0,0 V,0,64724,,-2,0.2 M,2,64724,65274,320,0,-316,636
Sprite,Foreground,CentreRight,"sb\pixelGradientLine.png",0,0 F,0,65070,,0.8 R,0,65070,,0.7853982 C,0,65070,,255,0,0 V,0,65070,,-2,0.2 M,2,65070,65620,320,0,956,636
Sprite,Foreground,CentreRight,"sb\pixelGradientLine.png",0,0 F,0,65070,,0.8 R,0,65070,,2.356194 C,0,65070,,255,0,0 V,0,65070,,-2,0.2 M,2,65070,65620,320,0,-316,636
Sprite,Foreground,CentreRight,"sb\pixelGradientLine.png",0,0 F,0,68704,,0.8 R,0,68704,,0.7853982 C,0,68704,,255,0,0 V,0,68704,,-2,0.2 M,2,68704,69254,320,0,956,636
Sprite,Foreground,CentreRight,"sb\pixelGradientLine.png",0,0 F,0,68704,,0.8 R,0,68704,,2.356194 C,0,68704,,255,0,0 V,0,68704,,-2,0.2 M,2,68704,69254,320,0,-316,636
Sprite,Foreground,CentreRight,"sb\pixelGradientLine.png",0,0 F,0,89070,,0.8 R,0,89070,,0.7853982 C,0,89070,,255,0,0 V,0,89070,,-2,0.2 M,2,89070,89620,320,0,956,636
Sprite,Foreground,CentreRight,"sb\pixelGradientLine.png",0,0 F,0,89070,,0.8 R,0,89070,,2.356194 C,0,89070,,255,0,0 V,0,89070,,-2,0.2 M,2,89070,89620,320,0,-316,636
Sprite,Foreground,CentreRight,"sb\pixelGradientLine.png",0,0 F,0,92762,,0.8 R,0,92762,,0.7853982 C,0,92762,,255,0,0 V,0,92762,,-2,0.2 M,2,92762,93312,320,0,956,636
Sprite,Foreground,CentreRight,"sb\pixelGradientLine.png",0,0 F,0,92762,,0.8 R,0,92762,,2.356194 C,0,92762,,255,0,0 V,0,92762,,-2,0.2 M,2,92762,93312,320,0,-316,636
Sprite,Foreground,CentreRight,"sb\pixelGradientLine.png",0,0 F,0,104070,,0.8 R,0,104070,,0.7853982 C,0,104070,,255,0,0 V,0,104070,,-2,0.2 M,2,104070,104620,320,0,956,636
Sprite,Foreground,CentreRight,"sb\pixelGradientLine.png",0,0 F,0,104070,,0.8 R,0,104070,,2.356194 C,0,104070,,255,0,0 V,0,104070,,-2,0.2 M,2,104070,104620,320,0,-316,636
Sprite,Foreground,CentreRight,"sb\pixelGradientLine.png",0,0 F,0,107762,,0.8 R,0,107762,,0.7853982 C,0,107762,,255,0,0 V,0,107762,,-2,0.2 M,2,107762,108312,320,0,956,636
Sprite,Foreground,CentreRight,"sb\pixelGradientLine.png",0,0 F,0,107762,,0.8 R,0,107762,,2.356194 C,0,107762,,255,0,0 V,0,107762,,-2,0.2 M,2,107762,108312,320,0,-316,636
Sprite,Foreground,CentreRight,"sb\pixelGradientLine.png",0,0 F,0,111454,,0.8 R,0,111454,,0.7853982 C,0,111454,,255,0,0 V,0,111454,,-2,0.2 M,2,111454,112004,320,0,956,636
Sprite,Foreground,CentreRight,"sb\pixelGradientLine.png",0,0 F,0,111454,,0.8 R,0,111454,,2.356194 C,0,111454,,255,0,0 V,0,111454,,-2,0.2 M,2,111454,112004,320,0,-316,636
Sprite,Foreground,CentreRight,"sb\pixelGradientLine.png",0,0 F,0,115147,,0.8 R,0,115147,,0.7853982 C,0,115147,,255,0,0 V,0,115147,,-2,0.2 M,2,115147,115697,320,0,956,636
Sprite,Foreground,CentreRight,"sb\pixelGradientLine.png",0,0 F,0,115147,,0.8 R,0,115147,,2.356194 C,0,115147,,255,0,0 V,0,115147,,-2,0.2 M,2,115147,115697,320,0,-316,636
Sprite,Foreground,CentreRight,"sb\pixelGradientLine.png",0,0 F,0,118608,,0.8 R,0,118608,,0.7853982 C,0,118608,,255,0,0 V,0,118608,,-2,0.2 M,2,118608,119158,320,0,956,636
Sprite,Foreground,CentreRight,"sb\pixelGradientLine.png",0,0 F,0,118608,,0.8 R,0,118608,,2.356194 C,0,118608,,255,0,0 V,0,118608,,-2,0.2 M,2,118608,119158,320,0,-316,636
Sprite,Foreground,CentreRight,"sb\pixelGradientLine.png",0,0 F,0,122301,,0.8 R,0,122301,,0.7853982 C,0,122301,,255,0,0 V,0,122301,,-2,0.2 M,2,122301,122851,320,0,956,636
Sprite,Foreground,CentreRight,"sb\pixelGradientLine.png",0,0 F,0,122301,,0.8 R,0,122301,,2.356194 C,0,122301,,255,0,0 V,0,122301,,-2,0.2 M,2,122301,122851,320,0,-316,636
Sprite,Foreground,CentreRight,"sb\pixelGradientLine.png",0,0 F,0,125993,,0.8 R,0,125993,,0.7853982 C,0,125993,,255,0,0 V,0,125993,,-2,0.2 M,2,125993,126543,320,0,956,636
Sprite,Foreground,CentreRight,"sb\pixelGradientLine.png",0,0 F,0,125993,,0.8 R,0,125993,,2.356194 C,0,125993,,255,0,0 V,0,125993,,-2,0.2 M,2,125993,126543,320,0,-316,636
Sprite,Foreground,CentreRight,"sb\pixelGradientLine.png",0,0 F,0,129685,,0.8 R,0,129685,,0.7853982 C,0,129685,,255,0,0 V,0,129685,,-2,0.2 M,2,129685,130235,320,0,956,636
Sprite,Foreground,CentreRight,"sb\pixelGradientLine.png",0,0 F,0,129685,,0.8 R,0,129685,,2.356194 C,0,129685,,255,0,0 V,0,129685,,-2,0.2 M,2,129685,130235,320,0,-316,636
Sprite,Foreground,CentreRight,"sb\pixelGradientLine.png",0,0 F,0,133608,,0.8 R,0,133608,,0.7853982 C,0,133608,,255,0,0 V,0,133608,,-2,0.2 M,2,133608,134158,320,0,956,636
Sprite,Foreground,CentreRight,"sb\pixelGradientLine.png",0,0 F,0,133608,,0.8 R,0,133608,,2.356194 C,0,133608,,255,0,0 V,0,133608,,-2,0.2 M,2,133608,134158,320,0,-316,636
Sprite,Foreground,CentreRight,"sb\pixelGradientLine.png",0,0 F,0,140993,,0.8 R,0,140993,,0.7853982 C,0,140993,,255,0,0 V,0,140993,,-2,0.2 M,2,140993,141543,320,0,956,636
Sprite,Foreground,CentreRight,"sb\pixelGradientLine.png",0,0 F,0,140993,,0.8 R,0,140993,,2.356194 C,0,140993,,255,0,0 V,0,140993,,-2,0.2 M,2,140993,141543,320,0,-316,636
Sprite,Foreground,CentreRight,"sb\pixelGradientLine.png",0,0 F,0,144685,,0.8 R,0,144685,,0.7853982 C,0,144685,,255,0,0 V,0,144685,,-2,0.2 M,2,144685,145235,320,0,956,636
Sprite,Foreground,CentreRight,"sb\pixelGradientLine.png",0,0 F,0,144685,,0.8 R,0,144685,,2.356194 C,0,144685,,255,0,0 V,0,144685,,-2,0.2 M,2,144685,145235,320,0,-316,636
Sprite,Foreground,CentreRight,"sb\pixelGradientLine.png",0,0 F,0,148147,,0.8 R,0,148147,,0.7853982 C,0,148147,,255,0,0 V,0,148147,,-2,0.2 M,2,148147,148697,320,0,956,636
Sprite,Foreground,CentreRight,"sb\pixelGradientLine.png",0,0 F,0,148147,,0.8 R,0,148147,,2.356194 C,0,148147,,255,0,0 V,0,148147,,-2,0.2 M,2,148147,148697,320,0,-316,636
Sprite,Foreground,CentreRight,"sb\pixelGradientLine.png",0,0 F,0,149993,,0.8 R,0,149993,,0.7853982 C,0,149993,,255,0,0 V,0,149993,,-2,0.2 M,2,149993,150543,320,0,956,636
Sprite,Foreground,CentreRight,"sb\pixelGradientLine.png",0,0 F,0,149993,,0.8 R,0,149993,,2.356194 C,0,149993,,255,0,0 V,0,149993,,-2,0.2 M,2,149993,150543,320,0,-316,636
Sprite,Foreground,CentreRight,"sb\pixelGradientLine.png",0,0 F,0,151839,,0.8 R,0,151839,,0.7853982 C,0,151839,,255,0,0 V,0,151839,,-2,0.2 M,2,151839,152389,320,0,956,636
Sprite,Foreground,CentreRight,"sb\pixelGradientLine.png",0,0 F,0,151839,,0.8 R,0,151839,,2.356194 C,0,151839,,255,0,0 V,0,151839,,-2,0.2 M,2,151839,152389,320,0,-316,636
Sprite,Foreground,CentreRight,"sb\pixelGradientLine.png",0,0 F,0,153685,,0.8 R,0,153685,,0.7853982 C,0,153685,,255,0,0 V,0,153685,,-2,0.2 M,2,153685,154235,320,0,956,636
Sprite,Foreground,CentreRight,"sb\pixelGradientLine.png",0,0 F,0,153685,,0.8 R,0,153685,,2.356194 C,0,153685,,255,0,0 V,0,153685,,-2,0.2 M,2,153685,154235,320,0,-316,636
Sprite,Foreground,CentreRight,"sb\pixelGradientLine.png",0,0 F,0,155531,,0.8 R,0,155531,,0.7853982 C,0,155531,,255,0,0 V,0,155531,,-2,0.2 M,2,155531,156081,320,0,956,636
Sprite,Foreground,CentreRight,"sb\pixelGradientLine.png",0,0 F,0,155531,,0.8 R,0,155531,,2.356194 C,0,155531,,255,0,0 V,0,155531,,-2,0.2 M,2,155531,156081,320,0,-316,636
Sprite,Foreground,CentreRight,"sb\pixelGradientLine.png",0,0 F,0,157378,,0.8 R,0,157378,,0.7853982 C,0,157378,,255,0,0 V,0,157378,,-2,0.2 M,2,157378,157928,320,0,956,636
Sprite,Foreground,CentreRight,"sb\pixelGradientLine.png",0,0 F,0,157378,,0.8 R,0,157378,,2.356194 C,0,157378,,255,0,0 V,0,157378,,-2,0.2 M,2,157378,157928,320,0,-316,636
Sprite,Foreground,CentreRight,"sb\pixelGradientLine.png",0,0 F,0,159224,,0.8 R,0,159224,,0.7853982 C,0,159224,,255,0,0 V,0,159224,,-2,0.2 M,2,159224,159774,320,0,956,636
Sprite,Foreground,CentreRight,"sb\pixelGradientLine.png",0,0 F,0,159224,,0.8 R,0,159224,,2.356194 C,0,159224,,255,0,0 V,0,159224,,-2,0.2 M,2,159224,159774,320,0,-316,636
Sprite,Foreground,CentreRight,"sb\pixelGradientLine.png",0,0 F,0,161070,,0.8 R,0,161070,,0.7853982 C,0,161070,,255,0,0 V,0,161070,,-2,0.2 M,2,161070,161620,320,0,956,636
Sprite,Foreground,CentreRight,"sb\pixelGradientLine.png",0,0 F,0,161070,,0.8 R,0,161070,,2.356194 C,0,161070,,255,0,0 V,0,161070,,-2,0.2 M,2,161070,161620,320,0,-316,636
Sprite,Foreground,CentreRight,"sb\pixelGradientLine.png",0,0 F,0,164993,,0.8 R,0,164993,,0.7853982 C,0,164993,,238,130,238 V,0,164993,,-2,0.2 M,2,164993,165915,320,0,956,636
Sprite,Foreground,CentreRight,"sb\pixelGradientLine.png",0,0 F,0,164993,,0.8 R,0,164993,,2.356194 C,0,164993,,238,130,238 V,0,164993,,-2,0.2 M,2,164993,165915,320,0,-316,636
Sprite,Foreground,CentreRight,"sb\pixelGradientLine.png",0,0 F,0,165454,,0.8 R,0,165454,,0.7853982 C,0,165454,,238,130,238 V,0,165454,,-2,0.2 M,2,165454,166376,320,0,956,636
Sprite,Foreground,CentreRight,"sb\pixelGradientLine.png",0,0 F,0,165454,,0.8 R,0,165454,,2.356194 C,0,165454,,238,130,238 V,0,165454,,-2,0.2 M,2,165454,166376,320,0,-316,636
Sprite,Foreground,CentreRight,"sb\pixelGradientLine.png",0,0 F,0,165916,,0.8 R,0,165916,,0.7853982 C,0,165916,,238,130,238 V,0,165916,,-2,0.2 M,2,165916,166838,320,0,956,636
Sprite,Foreground,CentreRight,"sb\pixelGradientLine.png",0,0 F,0,165916,,0.8 R,0,165916,,2.356194 C,0,165916,,238,130,238 V,0,165916,,-2,0.2 M,2,165916,166838,320,0,-316,636
Sprite,Foreground,CentreRight,"sb\pixelGradientLine.png",0,0 F,0,166378,,0.8 R,0,166378,,0.7853982 C,0,166378,,238,130,238 V,0,166378,,-2,0.2 M,2,166378,167300,320,0,956,636
Sprite,Foreground,CentreRight,"sb\pixelGradientLine.png",0,0 F,0,166378,,0.8 R,0,166378,,2.356194 C,0,166378,,238,130,238 V,0,166378,,-2,0.2 M,2,166378,167300,320,0,-316,636
Sprite,Foreground,CentreRight,"sb\pixelGradientLine.png",0,0 F,0,166839,,0.8 R,0,166839,,0.7853982 C,0,166839,,0,255,255 V,0,166839,,-2,0.2 M,2,166839,167761,320,0,956,636
Sprite,Foreground,CentreRight,"sb\pixelGradientLine.png",0,0 F,0,166839,,0.8 R,0,166839,,2.356194 C,0,166839,,0,255,255 V,0,166839,,-2,0.2 M,2,166839,167761,320,0,-316,636
Sprite,Foreground,CentreRight,"sb\pixelGradientLine.png",0,0 F,0,167301,,0.8 R,0,167301,,0.7853982 C,0,167301,,0,255,255 V,0,167301,,-2,0.2 M,2,167301,168223,320,0,956,636
Sprite,Foreground,CentreRight,"sb\pixelGradientLine.png",0,0 F,0,167301,,0.8 R,0,167301,,2.356194 C,0,167301,,0,255,255 V,0,167301,,-2,0.2 M,2,167301,168223,320,0,-316,636
Sprite,Foreground,CentreRight,"sb\pixelGradientLine.png",0,0 F,0,167762,,0.8 R,0,167762,,0.7853982 C,0,167762,,0,255,255 V,0,167762,,-2,0.2 M,2,167762,168684,320,0,956,636
Sprite,Foreground,CentreRight,"sb\pixelGradientLine.png",0,0 F,0,167762,,0.8 R,0,167762,,2.356194 C,0,167762,,0,255,255 V,0,167762,,-2,0.2 M,2,167762,168684,320,0,-316,636
Sprite,Foreground,CentreRight,"sb\pixelGradientLine.png",0,0 F,0,168224,,0.8 R,0,168224,,0.7853982 C,0,168224,,0,255,255 V,0,168224,,-2,0.2 M,2,168224,169146,320,0,956,636
Sprite,Foreground,CentreRight,"sb\pixelGradientLine.png",0,0 F,0,168224,,0.8 R,0,168224,,2.356194 C,0,168224,,0,255,255 V,0,168224,,-2,0.2 M,2,168224,169146,320,0,-316,636
Sprite,Foreground,CentreRight,"sb\pixelGradientLine.png",0,0 F,0,168685,,0.8 R,0,168685,,0.7853982 C,0,168685,,238,130,238 V,0,168685,,-2,0.2 M,2,168685,169607,320,0,956,636
Sprite,Foreground,CentreRight,"sb\pixelGradientLine.png",0,0 F,0,168685,,0.8 R,0,168685,,2.356194 C,0,168685,,238,130,238 V,0,168685,,-2,0.2 M,2,168685,169607,320,0,-316,636
Sprite,Foreground,CentreRight,"sb\pixelGradientLine.png",0,0 F,0,169147,,0.8 R,0,169147,,0.7853982 C,0,169147,,238,130,238 V,0,169147,,-2,0.2 M,2,169147,170069,320,0,956,636
Sprite,Foreground,CentreRight,"sb\pixelGradientLine.png",0,0 F,0,169147,,0.8 R,0,169147,,2.356194 C,0,169147,,238,130,238 V,0,169147,,-2,0.2 M,2,169147,170069,320,0,-316,636
Sprite,Foreground,CentreRight,"sb\pixelGradientLine.png",0,0 F,0,169608,,0.8 R,0,169608,,0.7853982 C,0,169608,,238,130,238 V,0,169608,,-2,0.2 M,2,169608,170530,320,0,956,636
Sprite,Foreground,CentreRight,"sb\pixelGradientLine.png",0,0 F,0,169608,,0.8 R,0,169608,,2.356194 C,0,169608,,238,130,238 V,0,169608,,-2,0.2 M,2,169608,170530,320,0,-316,636
Sprite,Foreground,CentreRight,"sb\pixelGradientLine.png",0,0 F,0,170070,,0.8 R,0,170070,,0.7853982 C,0,170070,,238,130,238 V,0,170070,,-2,0.2 M,2,170070,170992,320,0,956,636
Sprite,Foreground,CentreRight,"sb\pixelGradientLine.png",0,0 F,0,170070,,0.8 R,0,170070,,2.356194 C,0,170070,,238,130,238 V,0,170070,,-2,0.2 M,2,170070,170992,320,0,-316,636
Sprite,Foreground,CentreRight,"sb\pixelGradientLine.png",0,0 F,0,170531,,0.8 R,0,170531,,0.7853982 C,0,170531,,127,0,0 V,0,170531,,-2,0.2 M,2,170531,171453,320,0,956,636
Sprite,Foreground,CentreRight,"sb\pixelGradientLine.png",0,0 F,0,170531,,0.8 R,0,170531,,2.356194 C,0,170531,,127,0,0 V,0,170531,,-2,0.2 M,2,170531,171453,320,0,-316,636
Sprite,Foreground,CentreRight,"sb\pixelGradientLine.png",0,0 F,0,170993,,0.8 R,0,170993,,0.7853982 C,0,170993,,127,0,0 V,0,170993,,-2,0.2 M,2,170993,171915,320,0,956,636
Sprite,Foreground,CentreRight,"sb\pixelGradientLine.png",0,0 F,0,170993,,0.8 R,0,170993,,2.356194 C,0,170993,,127,0,0 V,0,170993,,-2,0.2 M,2,170993,171915,320,0,-316,636
Sprite,Foreground,CentreRight,"sb\pixelGradientLine.png",0,0 F,0,171454,,0.8 R,0,171454,,0.7853982 C,0,171454,,127,0,0 V,0,171454,,-2,0.2 M,2,171454,172376,320,0,956,636
Sprite,Foreground,CentreRight,"sb\pixelGradientLine.png",0,0 F,0,171454,,0.8 R,0,171454,,2.356194 C,0,171454,,127,0,0 V,0,171454,,-2,0.2 M,2,171454,172376,320,0,-316,636
Sprite,Foreground,CentreRight,"sb\pixelGradientLine.png",0,0 F,0,171916,,0.8 R,0,171916,,0.7853982 C,0,171916,,127,0,0 V,0,171916,,-2,0.2 M,2,171916,172838,320,0,956,636
Sprite,Foreground,CentreRight,"sb\pixelGradientLine.png",0,0 F,0,171916,,0.8 R,0,171916,,2.356194 C,0,171916,,127,0,0 V,0,171916,,-2,0.2 M,2,171916,172838,320,0,-316,636
Sprite,Foreground,CentreRight,"sb\pixelGradientLine.png",0,0 F,0,172378,,0.8 R,0,172378,,0.7853982 C,0,172378,,0,255,255 V,0,172378,,-2,0.2 M,2,172378,173300,320,0,956,636
Sprite,Foreground,CentreRight,"sb\pixelGradientLine.png",0,0 F,0,172378,,0.8 R,0,172378,,2.356194 C,0,172378,,0,255,255 V,0,172378,,-2,0.2 M,2,172378,173300,320,0,-316,636
Sprite,Foreground,CentreRight,"sb\pixelGradientLine.png",0,0 F,0,172839,,0.8 R,0,172839,,0.7853982 C,0,172839,,0,255,255 V,0,172839,,-2,0.2 M,2,172839,173761,320,0,956,636
Sprite,Foreground,CentreRight,"sb\pixelGradientLine.png",0,0 F,0,172839,,0.8 R,0,172839,,2.356194 C,0,172839,,0,255,255 V,0,172839,,-2,0.2 M,2,172839,173761,320,0,-316,636
Sprite,Foreground,CentreRight,"sb\pixelGradientLine.png",0,0 F,0,173301,,0.8 R,0,173301,,0.7853982 C,0,173301,,0,255,255 V,0,173301,,-2,0.2 M,2,173301,174223,320,0,956,636
Sprite,Foreground,CentreRight,"sb\pixelGradientLine.png",0,0 F,0,173301,,0.8 R,0,173301,,2.356194 C,0,173301,,0,255,255 V,0,173301,,-2,0.2 M,2,173301,174223,320,0,-316,636
Sprite,Foreground,CentreRight,"sb\pixelGradientLine.png",0,0 F,0,173762,,0.8 R,0,173762,,0.7853982 C,0,173762,,0,255,255 V,0,173762,,-2,0.2 M,2,173762,174684,320,0,956,636
Sprite,Foreground,CentreRight,"sb\pixelGradientLine.png",0,0 F,0,173762,,0.8 R,0,173762,,2.356194 C,0,173762,,0,255,255 V,0,173762,,-2,0.2 M,2,173762,174684,320,0,-316,636
Sprite,Foreground,CentreRight,"sb\pixelGradientLine.png",0,0 F,0,174224,,0.8 R,0,174224,,0.7853982 C,0,174224,,238,130,238 V,0,174224,,-2,0.2 M,2,174224,175146,320,0,956,636
Sprite,Foreground,CentreRight,"sb\pixelGradientLine.png",0,0 F,0,174224,,0.8 R,0,174224,,2.356194 C,0,174224,,238,130,238 V,0,174224,,-2,0.2 M,2,174224,175146,320,0,-316,636
Sprite,Foreground,CentreRight,"sb\pixelGradientLine.png",0,0 F,0,174685,,0.8 R,0,174685,,0.7853982 C,0,174685,,238,130,238 V,0,174685,,-2,0.2 M,2,174685,175607,320,0,956,636
Sprite,Foreground,CentreRight,"sb\pixelGradientLine.png",0,0 F,0,174685,,0.8 R,0,174685,,2.356194 C,0,174685,,238,130,238 V,0,174685,,-2,0.2 M,2,174685,175607,320,0,-316,636
Sprite,Foreground,CentreRight,"sb\pixelGradientLine.png",0,0 F,0,175147,,0.8 R,0,175147,,0.7853982 C,0,175147,,238,130,238 V,0,175147,,-2,0.2 M,2,175147,176069,320,0,956,636
Sprite,Foreground,CentreRight,"sb\pixelGradientLine.png",0,0 F,0,175147,,0.8 R,0,175147,,2.356194 C,0,175147,,238,130,238 V,0,175147,,-2,0.2 M,2,175147,176069,320,0,-316,636
Sprite,Foreground,CentreRight,"sb\pixelGradientLine.png",0,0 F,0,175608,,0.8 R,0,175608,,0.7853982 C,0,175608,,238,130,238 V,0,175608,,-2,0.2 M,2,175608,176530,320,0,956,636
Sprite,Foreground,CentreRight,"sb\pixelGradientLine.png",0,0 F,0,175608,,0.8 R,0,175608,,2.356194 C,0,175608,,238,130,238 V,0,175608,,-2,0.2 M,2,175608,176530,320,0,-316,636
Sprite,Foreground,CentreRight,"sb\pixelGradientLine.png",0,0 F,0,176070,,0.8 R,0,176070,,0.7853982 C,0,176070,,0,255,255 V,0,176070,,-2,0.2 M,2,176070,176992,320,0,956,636
Sprite,Foreground,CentreRight,"sb\pixelGradientLine.png",0,0 F,0,176070,,0.8 R,0,176070,,2.356194 C,0,176070,,0,255,255 V,0,176070,,-2,0.2 M,2,176070,176992,320,0,-316,636
Sprite,Foreground,CentreRight,"sb\pixelGradientLine.png",0,0 F,0,176531,,0.8 R,0,176531,,0.7853982 C,0,176531,,0,255,255 V,0,176531,,-2,0.2 M,2,176531,177453,320,0,956,636
Sprite,Foreground,CentreRight,"sb\pixelGradientLine.png",0,0 F,0,176531,,0.8 R,0,176531,,2.356194 C,0,176531,,0,255,255 V,0,176531,,-2,0.2 M,2,176531,177453,320,0,-316,636
Sprite,Foreground,CentreRight,"sb\pixelGradientLine.png",0,0 F,0,176993,,0.8 R,0,176993,,0.7853982 C,0,176993,,0,255,255 V,0,176993,,-2,0.2 M,2,176993,177915,320,0,956,636
Sprite,Foreground,CentreRight,"sb\pixelGradientLine.png",0,0 F,0,176993,,0.8 R,0,176993,,2.356194 C,0,176993,,0,255,255 V,0,176993,,-2,0.2 M,2,176993,177915,320,0,-316,636
Sprite,Foreground,CentreRight,"sb\pixelGradientLine.png",0,0 F,0,177454,,0.8 R,0,177454,,0.7853982 C,0,177454,,0,255,255 V,0,177454,,-2,0.2 M,2,177454,178376,320,0,956,636
Sprite,Foreground,CentreRight,"sb\pixelGradientLine.png",0,0 F,0,177454,,0.8 R,0,177454,,2.356194 C,0,177454,,0,255,255 V,0,177454,,-2,0.2 M,2,177454,178376,320,0,-316,636
Sprite,Foreground,CentreRight,"sb\pixelGradientLine.png",0,0 F,0,177916,,0.8 R,0,177916,,0.7853982 C,0,177916,,127,0,0 V,0,177916,,-2,0.2 M,2,177916,178838,320,0,956,636
Sprite,Foreground,CentreRight,"sb\pixelGradientLine.png",0,0 F,0,177916,,0.8 R,0,177916,,2.356194 C,0,177916,,127,0,0 V,0,177916,,-2,0.2 M,2,177916,178838,320,0,-316,636
Sprite,Foreground,CentreRight,"sb\pixelGradientLine.png",0,0 F,0,178378,,0.8 R,0,178378,,0.7853982 C,0,178378,,127,0,0 V,0,178378,,-2,0.2 M,2,178378,179300,320,0,956,636
Sprite,Foreground,CentreRight,"sb\pixelGradientLine.png",0,0 F,0,178378,,0.8 R,0,178378,,2.356194 C,0,178378,,127,0,0 V,0,178378,,-2,0.2 M,2,178378,179300,320,0,-316,636
Sprite,Foreground,CentreRight,"sb\pixelGradientLine.png",0,0 F,0,178839,,0.8 R,0,178839,,0.7853982 C,0,178839,,127,0,0 V,0,178839,,-2,0.2 M,2,178839,179761,320,0,956,636
Sprite,Foreground,CentreRight,"sb\pixelGradientLine.png",0,0 F,0,178839,,0.8 R,0,178839,,2.356194 C,0,178839,,127,0,0 V,0,178839,,-2,0.2 M,2,178839,179761,320,0,-316,636
Sprite,Foreground,CentreRight,"sb\pixelGradientLine.png",0,0 F,0,179301,,0.8 R,0,179301,,0.7853982 C,0,179301,,127,0,0 V,0,179301,,-2,0.2 M,2,179301,180223,320,0,956,636
Sprite,Foreground,CentreRight,"sb\pixelGradientLine.png",0,0 F,0,179301,,0.8 R,0,179301,,2.356194 C,0,179301,,127,0,0 V,0,179301,,-2,0.2 M,2,179301,180223,320,0,-316,636
Sprite,Foreground,CentreRight,"sb\pixelGradientLine.png",0,0 F,0,267454,,0.8 R,0,267454,,0.7853982 C,0,267454,,238,130,238 V,0,267454,,-2,0.2 M,2,267454,268376,320,0,956,636
Sprite,Foreground,CentreRight,"sb\pixelGradientLine.png",0,0 F,0,267454,,0.8 R,0,267454,,2.356194 C,0,267454,,238,130,238 V,0,267454,,-2,0.2 M,2,267454,268376,320,0,-316,636
Sprite,Foreground,CentreRight,"sb\pixelGradientLine.png",0,0 F,0,267915,,0.8 R,0,267915,,0.7853982 C,0,267915,,238,130,238 V,0,267915,,-2,0.2 M,2,267915,268837,320,0,956,636
Sprite,Foreground,CentreRight,"sb\pixelGradientLine.png",0,0 F,0,267915,,0.8 R,0,267915,,2.356194 C,0,267915,,238,130,238 V,0,267915,,-2,0.2 M,2,267915,268837,320,0,-316,636
Sprite,Foreground,CentreRight,"sb\pixelGradientLine.png",0,0 F,0,268377,,0.8 R,0,268377,,0.7853982 C,0,268377,,238,130,238 V,0,268377,,-2,0.2 M,2,268377,269299,320,0,956,636
Sprite,Foreground,CentreRight,"sb\pixelGradientLine.png",0,0 F,0,268377,,0.8 R,0,268377,,2.356194 C,0,268377,,238,130,238 V,0,268377,,-2,0.2 M,2,268377,269299,320,0,-316,636
Sprite,Foreground,CentreRight,"sb\pixelGradientLine.png",0,0 F,0,268838,,0.8 R,0,268838,,0.7853982 C,0,268838,,238,130,238 V,0,268838,,-2,0.2 M,2,268838,269760,320,0,956,636
Sprite,Foreground,CentreRight,"sb\pixelGradientLine.png",0,0 F,0,268838,,0.8 R,0,268838,,2.356194 C,0,268838,,238,130,238 V,0,268838,,-2,0.2 M,2,268838,269760,320,0,-316,636
Sprite,Foreground,CentreRight,"sb\pixelGradientLine.png",0,0 F,0,269300,,0.8 R,0,269300,,0.7853982 C,0,269300,,0,255,255 V,0,269300,,-2,0.2 M,2,269300,270222,320,0,956,636
Sprite,Foreground,CentreRight,"sb\pixelGradientLine.png",0,0 F,0,269300,,0.8 R,0,269300,,2.356194 C,0,269300,,0,255,255 V,0,269300,,-2,0.2 M,2,269300,270222,320,0,-316,636
Sprite,Foreground,CentreRight,"sb\pixelGradientLine.png",0,0 F,0,269761,,0.8 R,0,269761,,0.7853982 C,0,269761,,0,255,255 V,0,269761,,-2,0.2 M,2,269761,270683,320,0,956,636
Sprite,Foreground,CentreRight,"sb\pixelGradientLine.png",0,0 F,0,269761,,0.8 R,0,269761,,2.356194 C,0,269761,,0,255,255 V,0,269761,,-2,0.2 M,2,269761,270683,320,0,-316,636
Sprite,Foreground,CentreRight,"sb\pixelGradientLine.png",0,0 F,0,270223,,0.8 R,0,270223,,0.7853982 C,0,270223,,0,255,255 V,0,270223,,-2,0.2 M,2,270223,271145,320,0,956,636
Sprite,Foreground,CentreRight,"sb\pixelGradientLine.png",0,0 F,0,270223,,0.8 R,0,270223,,2.356194 C,0,270223,,0,255,255 V,0,270223,,-2,0.2 M,2,270223,271145,320,0,-316,636
Sprite,Foreground,CentreRight,"sb\pixelGradientLine.png",0,0 F,0,270684,,0.8 R,0,270684,,0.7853982 C,0,270684,,0,255,255 V,0,270684,,-2,0.2 M,2,270684,271606,320,0,956,636
Sprite,Foreground,CentreRight,"sb\pixelGradientLine.png",0,0 F,0,270684,,0.8 R,0,270684,,2.356194 C,0,270684,,0,255,255 V,0,270684,,-2,0.2 M,2,270684,271606,320,0,-316,636
Sprite,Foreground,CentreRight,"sb\pixelGradientLine.png",0,0 F,0,271146,,0.8 R,0,271146,,0.7853982 C,0,271146,,238,130,238 V,0,271146,,-2,0.2 M,2,271146,272068,320,0,956,636
Sprite,Foreground,CentreRight,"sb\pixelGradientLine.png",0,0 F,0,271146,,0.8 R,0,271146,,2.356194 C,0,271146,,238,130,238 V,0,271146,,-2,0.2 M,2,271146,272068,320,0,-316,636
Sprite,Foreground,CentreRight,"sb\pixelGradientLine.png",0,0 F,0,271607,,0.8 R,0,271607,,0.7853982 C,0,271607,,238,130,238 V,0,271607,,-2,0.2 M,2,271607,272529,320,0,956,636
Sprite,Foreground,CentreRight,"sb\pixelGradientLine.png",0,0 F,0,271607,,0.8 R,0,271607,,2.356194 C,0,271607,,238,130,238 V,0,271607,,-2,0.2 M,2,271607,272529,320,0,-316,636
Sprite,Foreground,CentreRight,"sb\pixelGradientLine.png",0,0 F,0,272069,,0.8 R,0,272069,,0.7853982 C,0,272069,,238,130,238 V,0,272069,,-2,0.2 M,2,272069,272991,320,0,956,636
Sprite,Foreground,CentreRight,"sb\pixelGradientLine.png",0,0 F,0,272069,,0.8 R,0,272069,,2.356194 C,0,272069,,238,130,238 V,0,272069,,-2,0.2 M,2,272069,272991,320,0,-316,636
Sprite,Foreground,CentreRight,"sb\pixelGradientLine.png",0,0 F,0,272530,,0.8 R,0,272530,,0.7853982 C,0,272530,,238,130,238 V,0,272530,,-2,0.2 M,2,272530,273452,320,0,956,636
Sprite,Foreground,CentreRight,"sb\pixelGradientLine.png",0,0 F,0,272530,,0.8 R,0,272530,,2.356194 C,0,272530,,238,130,238 V,0,272530,,-2,0.2 M,2,272530,273452,320,0,-316,636
Sprite,Foreground,CentreRight,"sb\pixelGradientLine.png",0,0 F,0,272992,,0.8 R,0,272992,,0.7853982 C,0,272992,,127,0,0 V,0,272992,,-2,0.2 M,2,272992,273914,320,0,956,636
Sprite,Foreground,CentreRight,"sb\pixelGradientLine.png",0,0 F,0,272992,,0.8 R,0,272992,,2.356194 C,0,272992,,127,0,0 V,0,272992,,-2,0.2 M,2,272992,273914,320,0,-316,636
Sprite,Foreground,CentreRight,"sb\pixelGradientLine.png",0,0 F,0,273454,,0.8 R,0,273454,,0.7853982 C,0,273454,,127,0,0 V,0,273454,,-2,0.2 M,2,273454,274376,320,0,956,636
Sprite,Foreground,CentreRight,"sb\pixelGradientLine.png",0,0 F,0,273454,,0.8 R,0,273454,,2.356194 C,0,273454,,127,0,0 V,0,273454,,-2,0.2 M,2,273454,274376,320,0,-316,636
Sprite,Foreground,CentreRight,"sb\pixelGradientLine.png",0,0 F,0,273915,,0.8 R,0,273915,,0.7853982 C,0,273915,,127,0,0 V,0,273915,,-2,0.2 M,2,273915,274837,320,0,956,636
Sprite,Foreground,CentreRight,"sb\pixelGradientLine.png",0,0 F,0,273915,,0.8 R,0,273915,,2.356194 C,0,273915,,127,0,0 V,0,273915,,-2,0.2 M,2,273915,274837,320,0,-316,636
Sprite,Foreground,CentreRight,"sb\pixelGradientLine.png",0,0 F,0,274377,,0.8 R,0,274377,,0.7853982 C,0,274377,,127,0,0 V,0,274377,,-2,0.2 M,2,274377,275299,320,0,956,636
Sprite,Foreground,CentreRight,"sb\pixelGradientLine.png",0,0 F,0,274377,,0.8 R,0,274377,,2.356194 C,0,274377,,127,0,0 V,0,274377,,-2,0.2 M,2,274377,275299,320,0,-316,636
Sprite,Foreground,CentreRight,"sb\pixelGradientLine.png",0,0 F,0,274838,,0.8 R,0,274838,,0.7853982 C,0,274838,,0,255,255 V,0,274838,,-2,0.2 M,2,274838,275760,320,0,956,636
Sprite,Foreground,CentreRight,"sb\pixelGradientLine.png",0,0 F,0,274838,,0.8 R,0,274838,,2.356194 C,0,274838,,0,255,255 V,0,274838,,-2,0.2 M,2,274838,275760,320,0,-316,636
Sprite,Foreground,CentreRight,"sb\pixelGradientLine.png",0,0 F,0,275300,,0.8 R,0,275300,,0.7853982 C,0,275300,,0,255,255 V,0,275300,,-2,0.2 M,2,275300,276222,320,0,956,636
Sprite,Foreground,CentreRight,"sb\pixelGradientLine.png",0,0 F,0,275300,,0.8 R,0,275300,,2.356194 C,0,275300,,0,255,255 V,0,275300,,-2,0.2 M,2,275300,276222,320,0,-316,636
Sprite,Foreground,CentreRight,"sb\pixelGradientLine.png",0,0 F,0,275761,,0.8 R,0,275761,,0.7853982 C,0,275761,,0,255,255 V,0,275761,,-2,0.2 M,2,275761,276683,320,0,956,636
Sprite,Foreground,CentreRight,"sb\pixelGradientLine.png",0,0 F,0,275761,,0.8 R,0,275761,,2.356194 C,0,275761,,0,255,255 V,0,275761,,-2,0.2 M,2,275761,276683,320,0,-316,636
Sprite,Foreground,CentreRight,"sb\pixelGradientLine.png",0,0 F,0,276223,,0.8 R,0,276223,,0.7853982 C,0,276223,,0,255,255 V,0,276223,,-2,0.2 M,2,276223,277145,320,0,956,636
Sprite,Foreground,CentreRight,"sb\pixelGradientLine.png",0,0 F,0,276223,,0.8 R,0,276223,,2.356194 C,0,276223,,0,255,255 V,0,276223,,-2,0.2 M,2,276223,277145,320,0,-316,636
Sprite,Foreground,CentreRight,"sb\pixelGradientLine.png",0,0 F,0,276684,,0.8 R,0,276684,,0.7853982 C,0,276684,,238,130,238 V,0,276684,,-2,0.2 M,2,276684,277606,320,0,956,636
Sprite,Foreground,CentreRight,"sb\pixelGradientLine.png",0,0 F,0,276684,,0.8 R,0,276684,,2.356194 C,0,276684,,238,130,238 V,0,276684,,-2,0.2 M,2,276684,277606,320,0,-316,636
Sprite,Foreground,CentreRight,"sb\pixelGradientLine.png",0,0 F,0,277146,,0.8 R,0,277146,,0.7853982 C,0,277146,,238,130,238 V,0,277146,,-2,0.2 M,2,277146,278068,320,0,956,636
Sprite,Foreground,CentreRight,"sb\pixelGradientLine.png",0,0 F,0,277146,,0.8 R,0,277146,,2.356194 C,0,277146,,238,130,238 V,0,277146,,-2,0.2 M,2,277146,278068,320,0,-316,636
Sprite,Foreground,CentreRight,"sb\pixelGradientLine.png",0,0 F,0,277607,,0.8 R,0,277607,,0.7853982 C,0,277607,,238,130,238 V,0,277607,,-2,0.2 M,2,277607,278529,320,0,956,636
Sprite,Foreground,CentreRight,"sb\pixelGradientLine.png",0,0 F,0,277607,,0.8 R,0,277607,,2.356194 C,0,277607,,238,130,238 V,0,277607,,-2,0.2 M,2,277607,278529,320,0,-316,636
Sprite,Foreground,CentreRight,"sb\pixelGradientLine.png",0,0 F,0,278069,,0.8 R,0,278069,,0.7853982 C,0,278069,,238,130,238 V,0,278069,,-2,0.2 M,2,278069,278991,320,0,956,636
Sprite,Foreground,CentreRight,"sb\pixelGradientLine.png",0,0 F,0,278069,,0.8 R,0,278069,,2.356194 C,0,278069,,238,130,238 V,0,278069,,-2,0.2 M,2,278069,278991,320,0,-316,636
Sprite,Foreground,CentreRight,"sb\pixelGradientLine.png",0,0 F,0,278530,,0.8 R,0,278530,,0.7853982 C,0,278530,,0,255,255 V,0,278530,,-2,0.2 M,2,278530,279452,320,0,956,636
Sprite,Foreground,CentreRight,"sb\pixelGradientLine.png",0,0 F,0,278530,,0.8 R,0,278530,,2.356194 C,0,278530,,0,255,255 V,0,278530,,-2,0.2 M,2,278530,279452,320,0,-316,636
Sprite,Foreground,CentreRight,"sb\pixelGradientLine.png",0,0 F,0,278992,,0.8 R,0,278992,,0.7853982 C,0,278992,,0,255,255 V,0,278992,,-2,0.2 M,2,278992,279914,320,0,956,636
Sprite,Foreground,CentreRight,"sb\pixelGradientLine.png",0,0 F,0,278992,,0.8 R,0,278992,,2.356194 C,0,278992,,0,255,255 V,0,278992,,-2,0.2 M,2,278992,279914,320,0,-316,636
Sprite,Foreground,CentreRight,"sb\pixelGradientLine.png",0,0 F,0,279454,,0.8 R,0,279454,,0.7853982 C,0,279454,,0,255,255 V,0,279454,,-2,0.2 M,2,279454,280376,320,0,956,636
Sprite,Foreground,CentreRight,"sb\pixelGradientLine.png",0,0 F,0,279454,,0.8 R,0,279454,,2.356194 C,0,279454,,0,255,255 V,0,279454,,-2,0.2 M,2,279454,280376,320,0,-316,636
Sprite,Foreground,CentreRight,"sb\pixelGradientLine.png",0,0 F,0,279915,,0.8 R,0,279915,,0.7853982 C,0,279915,,0,255,255 V,0,279915,,-2,0.2 M,2,279915,280837,320,0,956,636
Sprite,Foreground,CentreRight,"sb\pixelGradientLine.png",0,0 F,0,279915,,0.8 R,0,279915,,2.356194 C,0,279915,,0,255,255 V,0,279915,,-2,0.2 M,2,279915,280837,320,0,-316,636
Sprite,Foreground,CentreRight,"sb\pixelGradientLine.png",0,0 F,0,280377,,0.8 R,0,280377,,0.7853982 C,0,280377,,127,0,0 V,0,280377,,-2,0.2 M,2,280377,281299,320,0,956,636
Sprite,Foreground,CentreRight,"sb\pixelGradientLine.png",0,0 F,0,280377,,0.8 R,0,280377,,2.356194 C,0,280377,,127,0,0 V,0,280377,,-2,0.2 M,2,280377,281299,320,0,-316,636
Sprite,Foreground,CentreRight,"sb\pixelGradientLine.png",0,0 F,0,280838,,0.8 R,0,280838,,0.7853982 C,0,280838,,127,0,0 V,0,280838,,-2,0.2 M,2,280838,281760,320,0,956,636
Sprite,Foreground,CentreRight,"sb\pixelGradientLine.png",0,0 F,0,280838,,0.8 R,0,280838,,2.356194 C,0,280838,,127,0,0 V,0,280838,,-2,0.2 M,2,280838,281760,320,0,-316,636
Sprite,Foreground,CentreRight,"sb\pixelGradientLine.png",0,0 F,0,281300,,0.8 R,0,281300,,0.7853982 C,0,281300,,127,0,0 V,0,281300,,-2,0.2 M,2,281300,282222,320,0,956,636
Sprite,Foreground,CentreRight,"sb\pixelGradientLine.png",0,0 F,0,281300,,0.8 R,0,281300,,2.356194 C,0,281300,,127,0,0 V,0,281300,,-2,0.2 M,2,281300,282222,320,0,-316,636
Sprite,Foreground,CentreRight,"sb\pixelGradientLine.png",0,0 F,0,281761,,0.8 R,0,281761,,0.7853982 C,0,281761,,127,0,0 V,0,281761,,-2,0.2 M,2,281761,282683,320,0,956,636
Sprite,Foreground,CentreRight,"sb\pixelGradientLine.png",0,0 F,0,281761,,0.8 R,0,281761,,2.356194 C,0,281761,,127,0,0 V,0,281761,,-2,0.2 M,2,281761,282683,320,0,-316,636
Sprite,Foreground,CentreRight,"sb\pixelGradientLine.png",0,0 F,0,282223,,0.8 R,0,282223,,0.7853982 C,0,282223,,238,130,238 V,0,282223,,-2,0.2 M,2,282223,283145,320,0,956,636
Sprite,Foreground,CentreRight,"sb\pixelGradientLine.png",0,0 F,0,282223,,0.8 R,0,282223,,2.356194 C,0,282223,,238,130,238 V,0,282223,,-2,0.2 M,2,282223,283145,320,0,-316,636
Sprite,Foreground,CentreRight,"sb\pixelGradientLine.png",0,0 F,0,282684,,0.8 R,0,282684,,0.7853982 C,0,282684,,238,130,238 V,0,282684,,-2,0.2 M,2,282684,283606,320,0,956,636
Sprite,Foreground,CentreRight,"sb\pixelGradientLine.png",0,0 F,0,282684,,0.8 R,0,282684,,2.356194 C,0,282684,,238,130,238 V,0,282684,,-2,0.2 M,2,282684,283606,320,0,-316,636
Sprite,Foreground,CentreRight,"sb\pixelGradientLine.png",0,0 F,0,283146,,0.8 R,0,283146,,0.7853982 C,0,283146,,238,130,238 V,0,283146,,-2,0.2 M,2,283146,284068,320,0,956,636
Sprite,Foreground,CentreRight,"sb\pixelGradientLine.png",0,0 F,0,283146,,0.8 R,0,283146,,2.356194 C,0,283146,,238,130,238 V,0,283146,,-2,0.2 M,2,283146,284068,320,0,-316,636
Sprite,Foreground,CentreRight,"sb\pixelGradientLine.png",0,0 F,0,283607,,0.8 R,0,283607,,0.7853982 C,0,283607,,238,130,238 V,0,283607,,-2,0.2 M,2,283607,284529,320,0,956,636
Sprite,Foreground,CentreRight,"sb\pixelGradientLine.png",0,0 F,0,283607,,0.8 R,0,283607,,2.356194 C,0,283607,,238,130,238 V,0,283607,,-2,0.2 M,2,283607,284529,320,0,-316,636
Sprite,Foreground,CentreRight,"sb\pixelGradientLine.png",0,0 F,0,284069,,0.8 R,0,284069,,0.7853982 C,0,284069,,0,255,255 V,0,284069,,-2,0.2 M,2,284069,284991,320,0,956,636
Sprite,Foreground,CentreRight,"sb\pixelGradientLine.png",0,0 F,0,284069,,0.8 R,0,284069,,2.356194 C,0,284069,,0,255,255 V,0,284069,,-2,0.2 M,2,284069,284991,320,0,-316,636
Sprite,Foreground,CentreRight,"sb\pixelGradientLine.png",0,0 F,0,284530,,0.8 R,0,284530,,0.7853982 C,0,284530,,0,255,255 V,0,284530,,-2,0.2 M,2,284530,285452,320,0,956,636
Sprite,Foreground,CentreRight,"sb\pixelGradientLine.png",0,0 F,0,284530,,0.8 R,0,284530,,2.356194 C,0,284530,,0,255,255 V,0,284530,,-2,0.2 M,2,284530,285452,320,0,-316,636
Sprite,Foreground,CentreRight,"sb\pixelGradientLine.png",0,0 F,0,284992,,0.8 R,0,284992,,0.7853982 C,0,284992,,0,255,255 V,0,284992,,-2,0.2 M,2,284992,285914,320,0,956,636
Sprite,Foreground,CentreRight,"sb\pixelGradientLine.png",0,0 F,0,284992,,0.8 R,0,284992,,2.356194 C,0,284992,,0,255,255 V,0,284992,,-2,0.2 M,2,284992,285914,320,0,-316,636
Sprite,Foreground,CentreRight,"sb\pixelGradientLine.png",0,0 F,0,285454,,0.8 R,0,285454,,0.7853982 C,0,285454,,0,255,255 V,0,285454,,-2,0.2 M,2,285454,286376,320,0,956,636
Sprite,Foreground,CentreRight,"sb\pixelGradientLine.png",0,0 F,0,285454,,0.8 R,0,285454,,2.356194 C,0,285454,,0,255,255 V,0,285454,,-2,0.2 M,2,285454,286376,320,0,-316,636
Sprite,Foreground,CentreRight,"sb\pixelGradientLine.png",0,0 F,0,285915,,0.8 R,0,285915,,0.7853982 C,0,285915,,238,130,238 V,0,285915,,-2,0.2 M,2,285915,286837,320,0,956,636
Sprite,Foreground,CentreRight,"sb\pixelGradientLine.png",0,0 F,0,285915,,0.8 R,0,285915,,2.356194 C,0,285915,,238,130,238 V,0,285915,,-2,0.2 M,2,285915,286837,320,0,-316,636
Sprite,Foreground,CentreRight,"sb\pixelGradientLine.png",0,0 F,0,286377,,0.8 R,0,286377,,0.7853982 C,0,286377,,238,130,238 V,0,286377,,-2,0.2 M,2,286377,287299,320,0,956,636
Sprite,Foreground,CentreRight,"sb\pixelGradientLine.png",0,0 F,0,286377,,0.8 R,0,286377,,2.356194 C,0,286377,,238,130,238 V,0,286377,,-2,0.2 M,2,286377,287299,320,0,-316,636
Sprite,Foreground,CentreRight,"sb\pixelGradientLine.png",0,0 F,0,286838,,0.8 R,0,286838,,0.7853982 C,0,286838,,238,130,238 V,0,286838,,-2,0.2 M,2,286838,287760,320,0,956,636
Sprite,Foreground,CentreRight,"sb\pixelGradientLine.png",0,0 F,0,286838,,0.8 R,0,286838,,2.356194 C,0,286838,,238,130,238 V,0,286838,,-2,0.2 M,2,286838,287760,320,0,-316,636
Sprite,Foreground,CentreRight,"sb\pixelGradientLine.png",0,0 F,0,287300,,0.8 R,0,287300,,0.7853982 C,0,287300,,238,130,238 V,0,287300,,-2,0.2 M,2,287300,288222,320,0,956,636
Sprite,Foreground,CentreRight,"sb\pixelGradientLine.png",0,0 F,0,287300,,0.8 R,0,287300,,2.356194 C,0,287300,,238,130,238 V,0,287300,,-2,0.2 M,2,287300,288222,320,0,-316,636
Sprite,Foreground,CentreRight,"sb\pixelGradientLine.png",0,0 F,0,287761,,0.8 R,0,287761,,0.7853982 C,0,287761,,127,0,0 V,0,287761,,-2,0.2 M,2,287761,288683,320,0,956,636
Sprite,Foreground,CentreRight,"sb\pixelGradientLine.png",0,0 F,0,287761,,0.8 R,0,287761,,2.356194 C,0,287761,,127,0,0 V,0,287761,,-2,0.2 M,2,287761,288683,320,0,-316,636
Sprite,Foreground,CentreRight,"sb\pixelGradientLine.png",0,0 F,0,288223,,0.8 R,0,288223,,0.7853982 C,0,288223,,127,0,0 V,0,288223,,-2,0.2 M,2,288223,289145,320,0,956,636
Sprite,Foreground,CentreRight,"sb\pixelGradientLine.png",0,0 F,0,288223,,0.8 R,0,288223,,2.356194 C,0,288223,,127,0,0 V,0,288223,,-2,0.2 M,2,288223,289145,320,0,-316,636
Sprite,Foreground,CentreRight,"sb\pixelGradientLine.png",0,0 F,0,288684,,0.8 R,0,288684,,0.7853982 C,0,288684,,127,0,0 V,0,288684,,-2,0.2 M,2,288684,289606,320,0,956,636
Sprite,Foreground,CentreRight,"sb\pixelGradientLine.png",0,0 F,0,288684,,0.8 R,0,288684,,2.356194 C,0,288684,,127,0,0 V,0,288684,,-2,0.2 M,2,288684,289606,320,0,-316,636
Sprite,Foreground,CentreRight,"sb\pixelGradientLine.png",0,0 F,0,289146,,0.8 R,0,289146,,0.7853982 C,0,289146,,127,0,0 V,0,289146,,-2,0.2 M,2,289146,290068,320,0,956,636
Sprite,Foreground,CentreRight,"sb\pixelGradientLine.png",0,0 F,0,289146,,0.8 R,0,289146,,2.356194 C,0,289146,,127,0,0 V,0,289146,,-2,0.2 M,2,289146,290068,320,0,-316,636
Sprite,Foreground,CentreRight,"sb\pixelGradientLine.png",0,0 F,0,289607,,0.8 R,0,289607,,0.7853982 C,0,289607,,0,255,255 V,0,289607,,-2,0.2 M,2,289607,290529,320,0,956,636
Sprite,Foreground,CentreRight,"sb\pixelGradientLine.png",0,0 F,0,289607,,0.8 R,0,289607,,2.356194 C,0,289607,,0,255,255 V,0,289607,,-2,0.2 M,2,289607,290529,320,0,-316,636
Sprite,Foreground,CentreRight,"sb\pixelGradientLine.png",0,0 F,0,290069,,0.8 R,0,290069,,0.7853982 C,0,290069,,0,255,255 V,0,290069,,-2,0.2 M,2,290069,290991,320,0,956,636
Sprite,Foreground,CentreRight,"sb\pixelGradientLine.png",0,0 F,0,290069,,0.8 R,0,290069,,2.356194 C,0,290069,,0,255,255 V,0,290069,,-2,0.2 M,2,290069,290991,320,0,-316,636
Sprite,Foreground,CentreRight,"sb\pixelGradientLine.png",0,0 F,0,290530,,0.8 R,0,290530,,0.7853982 C,0,290530,,0,255,255 V,0,290530,,-2,0.2 M,2,290530,291452,320,0,956,636
Sprite,Foreground,CentreRight,"sb\pixelGradientLine.png",0,0 F,0,290530,,0.8 R,0,290530,,2.356194 C,0,290530,,0,255,255 V,0,290530,,-2,0.2 M,2,290530,291452,320,0,-316,636
Sprite,Foreground,CentreRight,"sb\pixelGradientLine.png",0,0 F,0,290992,,0.8 R,0,290992,,0.7853982 C,0,290992,,0,255,255 V,0,290992,,-2,0.2 M,2,290992,291914,320,0,956,636
Sprite,Foreground,CentreRight,"sb\pixelGradientLine.png",0,0 F,0,290992,,0.8 R,0,290992,,2.356194 C,0,290992,,0,255,255 V,0,290992,,-2,0.2 M,2,290992,291914,320,0,-316,636
Sprite,Foreground,CentreRight,"sb\pixelGradientLine.png",0,0 F,0,291454,,0.8 R,0,291454,,0.7853982 C,0,291454,,238,130,238 V,0,291454,,-2,0.2 M,2,291454,292376,320,0,956,636
Sprite,Foreground,CentreRight,"sb\pixelGradientLine.png",0,0 F,0,291454,,0.8 R,0,291454,,2.356194 C,0,291454,,238,130,238 V,0,291454,,-2,0.2 M,2,291454,292376,320,0,-316,636
Sprite,Foreground,CentreRight,"sb\pixelGradientLine.png",0,0 F,0,291915,,0.8 R,0,291915,,0.7853982 C,0,291915,,238,130,238 V,0,291915,,-2,0.2 M,2,291915,292837,320,0,956,636
Sprite,Foreground,CentreRight,"sb\pixelGradientLine.png",0,0 F,0,291915,,0.8 R,0,291915,,2.356194 C,0,291915,,238,130,238 V,0,291915,,-2,0.2 M,2,291915,292837,320,0,-316,636
Sprite,Foreground,CentreRight,"sb\pixelGradientLine.png",0,0 F,0,292377,,0.8 R,0,292377,,0.7853982 C,0,292377,,238,130,238 V,0,292377,,-2,0.2 M,2,292377,293299,320,0,956,636
Sprite,Foreground,CentreRight,"sb\pixelGradientLine.png",0,0 F,0,292377,,0.8 R,0,292377,,2.356194 C,0,292377,,238,130,238 V,0,292377,,-2,0.2 M,2,292377,293299,320,0,-316,636
Sprite,Foreground,CentreRight,"sb\pixelGradientLine.png",0,0 F,0,292838,,0.8 R,0,292838,,0.7853982 C,0,292838,,238,130,238 V,0,292838,,-2,0.2 M,2,292838,293760,320,0,956,636
Sprite,Foreground,CentreRight,"sb\pixelGradientLine.png",0,0 F,0,292838,,0.8 R,0,292838,,2.356194 C,0,292838,,238,130,238 V,0,292838,,-2,0.2 M,2,292838,293760,320,0,-316,636
Sprite,Foreground,CentreRight,"sb\pixelGradientLine.png",0,0 F,0,293300,,0.8 R,0,293300,,0.7853982 C,0,293300,,0,255,255 V,0,293300,,-2,0.2 M,2,293300,294222,320,0,956,636
Sprite,Foreground,CentreRight,"sb\pixelGradientLine.png",0,0 F,0,293300,,0.8 R,0,293300,,2.356194 C,0,293300,,0,255,255 V,0,293300,,-2,0.2 M,2,293300,294222,320,0,-316,636
Sprite,Foreground,CentreRight,"sb\pixelGradientLine.png",0,0 F,0,293761,,0.8 R,0,293761,,0.7853982 C,0,293761,,0,255,255 V,0,293761,,-2,0.2 M,2,293761,294683,320,0,956,636
Sprite,Foreground,CentreRight,"sb\pixelGradientLine.png",0,0 F,0,293761,,0.8 R,0,293761,,2.356194 C,0,293761,,0,255,255 V,0,293761,,-2,0.2 M,2,293761,294683,320,0,-316,636
Sprite,Foreground,CentreRight,"sb\pixelGradientLine.png",0,0 F,0,294223,,0.8 R,0,294223,,0.7853982 C,0,294223,,0,255,255 V,0,294223,,-2,0.2 M,2,294223,295145,320,0,956,636
Sprite,Foreground,CentreRight,"sb\pixelGradientLine.png",0,0 F,0,294223,,0.8 R,0,294223,,2.356194 C,0,294223,,0,255,255 V,0,294223,,-2,0.2 M,2,294223,295145,320,0,-316,636
Sprite,Foreground,CentreRight,"sb\pixelGradientLine.png",0,0 F,0,294684,,0.8 R,0,294684,,0.7853982 C,0,294684,,0,255,255 V,0,294684,,-2,0.2 M,2,294684,295606,320,0,956,636
Sprite,Foreground,CentreRight,"sb\pixelGradientLine.png",0,0 F,0,294684,,0.8 R,0,294684,,2.356194 C,0,294684,,0,255,255 V,0,294684,,-2,0.2 M,2,294684,295606,320,0,-316,636
Sprite,Foreground,CentreRight,"sb\pixelGradientLine.png",0,0 F,0,295146,,0.8 R,0,295146,,0.7853982 C,0,295146,,127,0,0 V,0,295146,,-2,0.2 M,2,295146,296068,320,0,956,636
Sprite,Foreground,CentreRight,"sb\pixelGradientLine.png",0,0 F,0,295146,,0.8 R,0,295146,,2.356194 C,0,295146,,127,0,0 V,0,295146,,-2,0.2 M,2,295146,296068,320,0,-316,636
Sprite,Foreground,CentreRight,"sb\pixelGradientLine.png",0,0 F,0,295607,,0.8 R,0,295607,,0.7853982 C,0,295607,,127,0,0 V,0,295607,,-2,0.2 M,2,295607,296529,320,0,956,636
Sprite,Foreground,CentreRight,"sb\pixelGradientLine.png",0,0 F,0,295607,,0.8 R,0,295607,,2.356194 C,0,295607,,127,0,0 V,0,295607,,-2,0.2 M,2,295607,296529,320,0,-316,636
Sprite,Foreground,CentreRight,"sb\pixelGradientLine.png",0,0 F,0,296069,,0.8 R,0,296069,,0.7853982 C,0,296069,,127,0,0 V,0,296069,,-2,0.2 M,2,296069,296991,320,0,956,636
Sprite,Foreground,CentreRight,"sb\pixelGradientLine.png",0,0 F,0,296069,,0.8 R,0,296069,,2.356194 C,0,296069,,127,0,0 V,0,296069,,-2,0.2 M,2,296069,296991,320,0,-316,636
Sprite,Foreground,CentreRight,"sb\pixelGradientLine.png",0,0 F,0,296530,,0.8 R,0,296530,,0.7853982 C,0,296530,,127,0,0 V,0,296530,,-2,0.2 M,2,296530,297452,320,0,956,636
Sprite,Foreground,CentreRight,"sb\pixelGradientLine.png",0,0 F,0,296530,,0.8 R,0,296530,,2.356194 C,0,296530,,127,0,0 V,0,296530,,-2,0.2 M,2,296530,297452,320,0,-316,636
Sprite,Foreground,CentreRight,"sb\pixelGradientLine.png",0,0 F,0,190608,,0.8 R,0,190608,,0.7853982 C,0,190608,,255,0,0 V,0,190608,,-2,0.2 M,2,190608,191158,320,0,956,636
Sprite,Foreground,CentreRight,"sb\pixelGradientLine.png",0,0 F,0,190608,,0.8 R,0,190608,,2.356194 C,0,190608,,255,0,0 V,0,190608,,-2,0.2 M,2,190608,191158,320,0,-316,636
Sprite,Foreground,CentreRight,"sb\pixelGradientLine.png",0,0 F,0,194301,,0.8 R,0,194301,,0.7853982 C,0,194301,,255,0,0 V,0,194301,,-2,0.2 M,2,194301,194851,320,0,956,636
Sprite,Foreground,CentreRight,"sb\pixelGradientLine.png",0,0 F,0,194301,,0.8 R,0,194301,,2.356194 C,0,194301,,255,0,0 V,0,194301,,-2,0.2 M,2,194301,194851,320,0,-316,636
Sprite,Foreground,CentreRight,"sb\pixelGradientLine.png",0,0 F,0,197993,,0.8 R,0,197993,,0.7853982 C,0,197993,,255,0,0 V,0,197993,,-2,0.2 M,2,197993,198543,320,0,956,636
Sprite,Foreground,CentreRight,"sb\pixelGradientLine.png",0,0 F,0,197993,,0.8 R,0,197993,,2.356194 C,0,197993,,255,0,0 V,0,197993,,-2,0.2 M,2,197993,198543,320,0,-316,636
Sprite,Foreground,CentreRight,"sb\pixelGradientLine.png",0,0 F,0,201685,,0.8 R,0,201685,,0.7853982 C,0,201685,,255,0,0 V,0,201685,,-2,0.2 M,2,201685,202235,320,0,956,636
Sprite,Foreground,CentreRight,"sb\pixelGradientLine.png",0,0 F,0,201685,,0.8 R,0,201685,,2.356194 C,0,201685,,255,0,0 V,0,201685,,-2,0.2 M,2,201685,202235,320,0,-316,636
Sprite,Foreground,CentreRight,"sb\pixelGradientLine.png",0,0 F,0,221069,,0.8 R,0,221069,,0.7853982 C,0,221069,,255,0,0 V,0,221069,,-2,0.2 M,2,221069,221619,320,0,956,636
Sprite,Foreground,CentreRight,"sb\pixelGradientLine.png",0,0 F,0,221069,,0.8 R,0,221069,,2.356194 C,0,221069,,255,0,0 V,0,221069,,-2,0.2 M,2,221069,221619,320,0,-316,636
Sprite,Foreground,CentreRight,"sb\pixelGradientLine.png",0,0 F,0,224761,,0.8 R,0,224761,,0.7853982 C,0,224761,,255,0,0 V,0,224761,,-2,0.2 M,2,224761,225311,320,0,956,636
Sprite,Foreground,CentreRight,"sb\pixelGradientLine.png",0,0 F,0,224761,,0.8 R,0,224761,,2.356194 C,0,224761,,255,0,0 V,0,224761,,-2,0.2 M,2,224761,225311,320,0,-316,636
Sprite,Foreground,CentreRight,"sb\pixelGradientLine.png",0,0 F,0,228454,,0.8 R,0,228454,,0.7853982 C,0,228454,,255,0,0 V,0,228454,,-2,0.2 M,2,228454,229004,320,0,956,636
Sprite,Foreground,CentreRight,"sb\pixelGradientLine.png",0,0 F,0,228454,,0.8 R,0,228454,,2.356194 C,0,228454,,255,0,0 V,0,228454,,-2,0.2 M,2,228454,229004,320,0,-316,636
Sprite,Foreground,CentreRight,"sb\pixelGradientLine.png",0,0 F,0,232146,,0.8 R,0,232146,,0.7853982 C,0,232146,,255,0,0 V,0,232146,,-2,0.2 M,2,232146,232696,320,0,956,636
Sprite,Foreground,CentreRight,"sb\pixelGradientLine.png",0,0 F,0,232146,,0.8 R,0,232146,,2.356194 C,0,232146,,255,0,0 V,0,232146,,-2,0.2 M,2,232146,232696,320,0,-316,636
Sprite,Foreground,CentreRight,"sb\pixelGradientLine.png",0,0 F,0,236069,,0.8 R,0,236069,,0.7853982 C,0,236069,,255,0,0 V,0,236069,,-2,0.2 M,2,236069,236619,320,0,956,636
Sprite,Foreground,CentreRight,"sb\pixelGradientLine.png",0,0 F,0,236069,,0.8 R,0,236069,,2.356194 C,0,236069,,255,0,0 V,0,236069,,-2,0.2 M,2,236069,236619,320,0,-316,636
Sprite,Foreground,CentreRight,"sb\pixelGradientLine.png",0,0 F,0,243454,,0.8 R,0,243454,,0.7853982 C,0,243454,,255,0,0 V,0,243454,,-2,0.2 M,2,243454,244004,320,0,956,636
Sprite,Foreground,CentreRight,"sb\pixelGradientLine.png",0,0 F,0,243454,,0.8 R,0,243454,,2.356194 C,0,243454,,255,0,0 V,0,243454,,-2,0.2 M,2,243454,244004,320,0,-316,636
Sprite,Foreground,CentreRight,"sb\pixelGradientLine.png",0,0 F,0,247146,,0.8 R,0,247146,,0.7853982 C,0,247146,,255,0,0 V,0,247146,,-2,0.2 M,2,247146,247696,320,0,956,636
Sprite,Foreground,CentreRight,"sb\pixelGradientLine.png",0,0 F,0,247146,,0.8 R,0,247146,,2.356194 C,0,247146,,255,0,0 V,0,247146,,-2,0.2 M,2,247146,247696,320,0,-316,636
Sprite,Foreground,CentreRight,"sb\pixelGradientLine.png",0,0 F,0,250607,,0.8 R,0,250607,,0.7853982 C,0,250607,,255,0,0 V,0,250607,,-2,0.2 M,2,250607,251157,320,0,956,636
Sprite,Foreground,CentreRight,"sb\pixelGradientLine.png",0,0 F,0,250607,,0.8 R,0,250607,,2.356194 C,0,250607,,255,0,0 V,0,250607,,-2,0.2 M,2,250607,251157,320,0,-316,636
Sprite,Foreground,CentreRight,"sb\pixelGradientLine.png",0,0 F,0,252454,,0.8 R,0,252454,,0.7853982 C,0,252454,,255,0,0 V,0,252454,,-2,0.2 M,2,252454,253004,320,0,956,636
Sprite,Foreground,CentreRight,"sb\pixelGradientLine.png",0,0 F,0,252454,,0.8 R,0,252454,,2.356194 C,0,252454,,255,0,0 V,0,252454,,-2,0.2 M,2,252454,253004,320,0,-316,636
Sprite,Foreground,CentreRight,"sb\pixelGradientLine.png",0,0 F,0,254300,,0.8 R,0,254300,,0.7853982 C,0,254300,,255,0,0 V,0,254300,,-2,0.2 M,2,254300,254850,320,0,956,636
Sprite,Foreground,CentreRight,"sb\pixelGradientLine.png",0,0 F,0,254300,,0.8 R,0,254300,,2.356194 C,0,254300,,255,0,0 V,0,254300,,-2,0.2 M,2,254300,254850,320,0,-316,636
Sprite,Foreground,CentreRight,"sb\pixelGradientLine.png",0,0 F,0,256146,,0.8 R,0,256146,,0.7853982 C,0,256146,,255,0,0 V,0,256146,,-2,0.2 M,2,256146,256696,320,0,956,636
Sprite,Foreground,CentreRight,"sb\pixelGradientLine.png",0,0 F,0,256146,,0.8 R,0,256146,,2.356194 C,0,256146,,255,0,0 V,0,256146,,-2,0.2 M,2,256146,256696,320,0,-316,636
Sprite,Foreground,CentreRight,"sb\pixelGradientLine.png",0,0 F,0,257992,,0.8 R,0,257992,,0.7853982 C,0,257992,,255,0,0 V,0,257992,,-2,0.2 M,2,257992,258542,320,0,956,636
Sprite,Foreground,CentreRight,"sb\pixelGradientLine.png",0,0 F,0,257992,,0.8 R,0,257992,,2.356194 C,0,257992,,255,0,0 V,0,257992,,-2,0.2 M,2,257992,258542,320,0,-316,636
Sprite,Foreground,CentreRight,"sb\pixelGradientLine.png",0,0 F,0,259838,,0.8 R,0,259838,,0.7853982 C,0,259838,,255,0,0 V,0,259838,,-2,0.2 M,2,259838,260388,320,0,956,636
Sprite,Foreground,CentreRight,"sb\pixelGradientLine.png",0,0 F,0,259838,,0.8 R,0,259838,,2.356194 C,0,259838,,255,0,0 V,0,259838,,-2,0.2 M,2,259838,260388,320,0,-316,636
Sprite,Foreground,CentreRight,"sb\pixelGradientLine.png",0,0 F,0,261684,,0.8 R,0,261684,,0.7853982 C,0,261684,,255,0,0 V,0,261684,,-2,0.2 M,2,261684,262234,320,0,956,636
Sprite,Foreground,CentreRight,"sb\pixelGradientLine.png",0,0 F,0,261684,,0.8 R,0,261684,,2.356194 C,0,261684,,255,0,0 V,0,261684,,-2,0.2 M,2,261684,262234,320,0,-316,636
Sprite,Foreground,CentreRight,"sb\pixelGradientLine.png",0,0 F,0,263530,,0.8 R,0,263530,,0.7853982 C,0,263530,,255,0,0 V,0,263530,,-2,0.2 M,2,263530,264080,320,0,956,636
Sprite,Foreground,CentreRight,"sb\pixelGradientLine.png",0,0 F,0,263530,,0.8 R,0,263530,,2.356194 C,0,263530,,255,0,0 V,0,263530,,-2,0.2 M,2,263530,264080,320,0,-316,636
Sprite,Foreground,Centre,"sb\triangleFull.png",320,180 C,0,41301,,0,0,0 S,0,41301,43147,0,0.5 F,0,299760,,1
Animation,Foreground,Centre,"sb\tri_fill_part_.png",320,128.3333,13,16,LoopForever S,0,131762,,0.5 F,0,146531,,1 R,0,146531,,6.283185
Animation,Foreground,Centre,"sb\tri_fill_part_.png",364.7446,205.8334,13,16,LoopForever S,0,131762,,0.5 F,0,146531,,1 R,0,146531,,2.094395
Animation,Foreground,Centre,"sb\tri_fill_part_.png",275.2553,205.8333,13,16,LoopForever S,0,131762,,0.5 F,0,146531,,1 R,0,146531,,4.18879
Animation,Foreground,Centre,"sb\triFillC_.png",320,129.3333,20,16,LoopForever F,0,164993,,0.75 S,0,164993,,0.5 R,0,166839,,6.283185
Animation,Foreground,Centre,"sb\triFillB_.png",320,129.3333,21,16,LoopForever F,0,166839,,0.75 S,0,166839,,0.5 R,0,168685,,6.283185
Animation,Foreground,Centre,"sb\triFillA_.png",320,129.3333,21,16,LoopForever F,0,168685,,0.75 S,0,168685,,0.5 R,0,170531,,6.283185
Animation,Foreground,Centre,"sb\triFillC_.png",363.8786,205.3334,20,16,LoopForever F,0,164993,,0.75 S,0,164993,,0.5 R,0,166839,,2.094395
Animation,Foreground,Centre,"sb\triFillB_.png",363.8786,205.3334,21,16,LoopForever F,0,166839,,0.75 S,0,166839,,0.5 R,0,168685,,2.094395
Animation,Foreground,Centre,"sb\triFillA_.png",363.8786,205.3334,21,16,LoopForever F,0,168685,,0.75 S,0,168685,,0.5 R,0,170531,,2.094395
Animation,Foreground,Centre,"sb\triFillC_.png",276.1214,205.3333,20,16,LoopForever F,0,164993,,0.75 S,0,164993,,0.5 R,0,166839,,4.18879
Animation,Foreground,Centre,"sb\triFillB_.png",276.1214,205.3333,21,16,LoopForever F,0,166839,,0.75 S,0,166839,,0.5 R,0,168685,,4.18879
Animation,Foreground,Centre,"sb\triFillA_.png",276.1214,205.3333,21,16,LoopForever F,0,168685,,0.75 S,0,168685,,0.5 R,0,170531,,4.18879
Sprite,Foreground,Centre,"sb\tri_fill_flash.png",320,128.3333 S,0,170762,,0.5 F,0,170762,170993,1,0
Sprite,Foreground,Centre,"sb\tri_fill_flash.png",275.2553,205.8333 S,0,170993,,0.5 R,0,170993,,4.18879 F,0,170993,171224,1,0
Sprite,Foreground,Centre,"sb\tri_fill_flash.png",364.7446,205.8334 S,0,171224,,0.5 R,0,171224,,2.094395 F,0,171224,171455,1,0
Sprite,Foreground,Centre,"sb\tri_fill_flash.png",320,128.3333 S,0,171454,,0.5 F,0,171454,171685,1,0
Sprite,Foreground,Centre,"sb\tri_fill_flash.png",275.2553,205.8333 S,0,171685,,0.5 R,0,171685,,4.18879 F,0,171685,171916,1,0
Animation,Foreground,Centre,"sb\triFillC_.png",320,129.3333,20,16,LoopForever F,0,172378,,0.75 S,0,172378,,0.5 R,0,174224,,6.283185
Animation,Foreground,Centre,"sb\triFillB_.png",320,129.3333,21,16,LoopForever F,0,174224,,0.75 S,0,174224,,0.5 R,0,176070,,6.283185
Animation,Foreground,Centre,"sb\triFillA_.png",320,129.3333,21,16,LoopForever F,0,176070,,0.75 S,0,176070,,0.5 R,0,177916,,6.283185
Animation,Foreground,Centre,"sb\triFillC_.png",363.8786,205.3334,20,16,LoopForever F,0,172378,,0.75 S,0,172378,,0.5 R,0,174224,,2.094395
Animation,Foreground,Centre,"sb\triFillB_.png",363.8786,205.3334,21,16,LoopForever F,0,174224,,0.75 S,0,174224,,0.5 R,0,176070,,2.094395
Animation,Foreground,Centre,"sb\triFillA_.png",363.8786,205.3334,21,16,LoopForever F,0,176070,,0.75 S,0,176070,,0.5 R,0,177916,,2.094395
Animation,Foreground,Centre,"sb\triFillC_.png",276.1214,205.3333,20,16,LoopForever F,0,172378,,0.75 S,0,172378,,0.5 R,0,174224,,4.18879
Animation,Foreground,Centre,"sb\triFillB_.png",276.1214,205.3333,21,16,LoopForever F,0,174224,,0.75 S,0,174224,,0.5 R,0,176070,,4.18879
Animation,Foreground,Centre,"sb\triFillA_.png",276.1214,205.3333,21,16,LoopForever F,0,176070,,0.75 S,0,176070,,0.5 R,0,177916,,4.18879
Sprite,Foreground,Centre,"sb\tri_fill_flash.png",320,128.3333 S,0,178147,,0.5 F,0,178147,178378,1,0
Sprite,Foreground,Centre,"sb\tri_fill_flash.png",275.2553,205.8333 S,0,178378,,0.5 R,0,178378,,4.18879 F,0,178378,178609,1,0
Sprite,Foreground,Centre,"sb\tri_fill_flash.png",364.7446,205.8334 S,0,178609,,0.5 R,0,178609,,2.094395 F,0,178609,178840,1,0
Sprite,Foreground,Centre,"sb\tri_fill_flash.png",320,128.3333 S,0,178839,,0.5 F,0,178839,179070,1,0
Sprite,Foreground,Centre,"sb\tri_fill_flash.png",275.2553,205.8333 S,0,179070,,0.5 R,0,179070,,4.18879 F,0,179070,179301,1,0
Animation,Foreground,Centre,"sb\triFillC_.png",320,129.3333,20,16,LoopForever F,0,267453,,0.75 S,0,267453,,0.5 R,0,269299,,6.283185
Animation,Foreground,Centre,"sb\triFillB_.png",320,129.3333,21,16,LoopForever F,0,269299,,0.75 S,0,269299,,0.5 R,0,271145,,6.283185
Animation,Foreground,Centre,"sb\triFillA_.png",320,129.3333,21,16,LoopForever F,0,271145,,0.75 S,0,271145,,0.5 R,0,272991,,6.283185
Animation,Foreground,Centre,"sb\triFillC_.png",363.8786,205.3334,20,16,LoopForever F,0,267453,,0.75 S,0,267453,,0.5 R,0,269299,,2.094395
Animation,Foreground,Centre,"sb\triFillB_.png",363.8786,205.3334,21,16,LoopForever F,0,269299,,0.75 S,0,269299,,0.5 R,0,271145,,2.094395
Animation,Foreground,Centre,"sb\triFillA_.png",363.8786,205.3334,21,16,LoopForever F,0,271145,,0.75 S,0,271145,,0.5 R,0,272991,,2.094395
Animation,Foreground,Centre,"sb\triFillC_.png",276.1214,205.3333,20,16,LoopForever F,0,267453,,0.75 S,0,267453,,0.5 R,0,269299,,4.18879
Animation,Foreground,Centre,"sb\triFillB_.png",276.1214,205.3333,21,16,LoopForever F,0,269299,,0.75 S,0,269299,,0.5 R,0,271145,,4.18879
Animation,Foreground,Centre,"sb\triFillA_.png",276.1214,205.3333,21,16,LoopForever F,0,271145,,0.75 S,0,271145,,0.5 R,0,272991,,4.18879
Sprite,Foreground,Centre,"sb\tri_fill_flash.png",320,128.3333 S,0,273222,,0.5 F,0,273222,273453,1,0
Sprite,Foreground,Centre,"sb\tri_fill_flash.png",364.7446,205.8334 S,0,273453,,0.5 R,0,273453,,2.094395 F,0,273453,273684,1,0
Sprite,Foreground,Centre,"sb\tri_fill_flash.png",320,128.3333 S,0,273684,,0.5 F,0,273684,273915,1,0
Sprite,Foreground,Centre,"sb\tri_fill_flash.png",275.2553,205.8333 S,0,273914,,0.5 R,0,273914,,4.18879 F,0,273914,274145,1,0
Sprite,Foreground,Centre,"sb\tri_fill_flash.png",320,128.3333 S,0,274145,,0.5 F,0,274145,274376,1,0
Animation,Foreground,Centre,"sb\triFillC_.png",320,129.3333,20,16,LoopForever F,0,274838,,0.75 S,0,274838,,0.5 R,0,276684,,6.283185
Animation,Foreground,Centre,"sb\triFillB_.png",320,129.3333,21,16,LoopForever F,0,276684,,0.75 S,0,276684,,0.5 R,0,278530,,6.283185
Animation,Foreground,Centre,"sb\triFillA_.png",320,129.3333,21,16,LoopForever F,0,278530,,0.75 S,0,278530,,0.5 R,0,280376,,6.283185
Animation,Foreground,Centre,"sb\triFillC_.png",363.8786,205.3334,20,16,LoopForever F,0,274838,,0.75 S,0,274838,,0.5 R,0,276684,,2.094395
Animation,Foreground,Centre,"sb\triFillB_.png",363.8786,205.3334,21,16,LoopForever F,0,276684,,0.75 S,0,276684,,0.5 R,0,278530,,2.094395
Animation,Foreground,Centre,"sb\triFillA_.png",363.8786,205.3334,21,16,LoopForever F,0,278530,,0.75 S,0,278530,,0.5 R,0,280376,,2.094395
Animation,Foreground,Centre,"sb\triFillC_.png",276.1214,205.3333,20,16,LoopForever F,0,274838,,0.75 S,0,274838,,0.5 R,0,276684,,4.18879
Animation,Foreground,Centre,"sb\triFillB_.png",276.1214,205.3333,21,16,LoopForever F,0,276684,,0.75 S,0,276684,,0.5 R,0,278530,,4.18879
Animation,Foreground,Centre,"sb\triFillA_.png",276.1214,205.3333,21,16,LoopForever F,0,278530,,0.75 S,0,278530,,0.5 R,0,280376,,4.18879
Sprite,Foreground,Centre,"sb\tri_fill_flash.png",320,128.3333 S,0,280607,,0.5 F,0,280607,280838,1,0
Sprite,Foreground,Centre,"sb\tri_fill_flash.png",275.2553,205.8333 S,0,280838,,0.5 R,0,280838,,4.18879 F,0,280838,281069,1,0
Sprite,Foreground,Centre,"sb\tri_fill_flash.png",320,128.3333 S,0,281069,,0.5 F,0,281069,281300,1,0
Sprite,Foreground,Centre,"sb\tri_fill_flash.png",364.7446,205.8334 S,0,281299,,0.5 R,0,281299,,2.094395 F,0,281299,281530,1,0
Sprite,Foreground,Centre,"sb\tri_fill_flash.png",320,128.3333 S,0,281530,,0.5 F,0,281530,281761,1,0
Animation,Foreground,Centre,"sb\triFillC_.png",320,129.3333,20,16,LoopForever F,0,282223,,0.75 S,0,282223,,0.5 R,0,284069,,6.283185
Animation,Foreground,Centre,"sb\triFillB_.png",320,129.3333,21,16,LoopForever F,0,284069,,0.75 S,0,284069,,0.5 R,0,285915,,6.283185
Animation,Foreground,Centre,"sb\triFillA_.png",320,129.3333,21,16,LoopForever F,0,285915,,0.75 S,0,285915,,0.5 R,0,287761,,6.283185
Animation,Foreground,Centre,"sb\triFillC_.png",363.8786,205.3334,20,16,LoopForever F,0,282223,,0.75 S,0,282223,,0.5 R,0,284069,,2.094395
Animation,Foreground,Centre,"sb\triFillB_.png",363.8786,205.3334,21,16,LoopForever F,0,284069,,0.75 S,0,284069,,0.5 R,0,285915,,2.094395
Animation,Foreground,Centre,"sb\triFillA_.png",363.8786,205.3334,21,16,LoopForever F,0,285915,,0.75 S,0,285915,,0.5 R,0,287761,,2.094395
Animation,Foreground,Centre,"sb\triFillC_.png",276.1214,205.3333,20,16,LoopForever F,0,282223,,0.75 S,0,282223,,0.5 R,0,284069,,4.18879
Animation,Foreground,Centre,"sb\triFillB_.png",276.1214,205.3333,21,16,LoopForever F,0,284069,,0.75 S,0,284069,,0.5 R,0,285915,,4.18879
Animation,Foreground,Centre,"sb\triFillA_.png",276.1214,205.3333,21,16,LoopForever F,0,285915,,0.75 S,0,285915,,0.5 R,0,287761,,4.18879
Sprite,Foreground,Centre,"sb\tri_fill_flash.png",320,128.3333 S,0,287992,,0.5 F,0,287992,288223,1,0
Sprite,Foreground,Centre,"sb\tri_fill_flash.png",275.2553,205.8333 S,0,288223,,0.5 R,0,288223,,4.18879 F,0,288223,288454,1,0
Sprite,Foreground,Centre,"sb\tri_fill_flash.png",364.7446,205.8334 S,0,288454,,0.5 R,0,288454,,2.094395 F,0,288454,288685,1,0
Sprite,Foreground,Centre,"sb\tri_fill_flash.png",275.2553,205.8333 S,0,288684,,0.5 R,0,288684,,4.18879 F,0,288684,288915,1,0
Sprite,Foreground,Centre,"sb\tri_fill_flash.png",320,128.3333 S,0,288915,,0.5 F,0,288915,289146,1,0
Animation,Foreground,Centre,"sb\triFillC_.png",320,129.3333,20,16,LoopForever F,0,289607,,0.75 S,0,289607,,0.5 R,0,291453,,6.283185
Animation,Foreground,Centre,"sb\triFillB_.png",320,129.3333,21,16,LoopForever F,0,291453,,0.75 S,0,291453,,0.5 R,0,293299,,6.283185
Animation,Foreground,Centre,"sb\triFillA_.png",320,129.3333,21,16,LoopForever F,0,293299,,0.75 S,0,293299,,0.5 R,0,295145,,6.283185
Animation,Foreground,Centre,"sb\triFillC_.png",363.8786,205.3334,20,16,LoopForever F,0,289607,,0.75 S,0,289607,,0.5 R,0,291453,,2.094395
Animation,Foreground,Centre,"sb\triFillB_.png",363.8786,205.3334,21,16,LoopForever F,0,291453,,0.75 S,0,291453,,0.5 R,0,293299,,2.094395
Animation,Foreground,Centre,"sb\triFillA_.png",363.8786,205.3334,21,16,LoopForever F,0,293299,,0.75 S,0,293299,,0.5 R,0,295145,,2.094395
Animation,Foreground,Centre,"sb\triFillC_.png",276.1214,205.3333,20,16,LoopForever F,0,289607,,0.75 S,0,289607,,0.5 R,0,291453,,4.18879
Animation,Foreground,Centre,"sb\triFillB_.png",276.1214,205.3333,21,16,LoopForever F,0,291453,,0.75 S,0,291453,,0.5 R,0,293299,,4.18879
Animation,Foreground,Centre,"sb\triFillA_.png",276.1214,205.3333,21,16,LoopForever F,0,293299,,0.75 S,0,293299,,0.5 R,0,295145,,4.18879
Sprite,Foreground,Centre,"sb\tri_fill_flash.png",320,128.3333 S,0,295376,,0.5 F,0,295376,295607,1,0
Sprite,Foreground,Centre,"sb\tri_fill_flash.png",275.2553,205.8333 S,0,295607,,0.5 R,0,295607,,4.18879 F,0,295607,295838,1,0
Sprite,Foreground,Centre,"sb\tri_fill_flash.png",320,128.3333 S,0,295838,,0.5 F,0,295838,296069,1,0
Sprite,Foreground,Centre,"sb\tri_fill_flash.png",364.7446,205.8334 S,0,296068,,0.5 R,0,296068,,2.094395 F,0,296068,296299,1,0
Sprite,Foreground,Centre,"sb\tri_fill_flash.png",275.2553,205.8333 S,0,296299,,0.5 R,0,296299,,4.18879 F,0,296299,296530,1,0
Animation,Foreground,Centre,"sb\tri_fill_part_.png",320,128.3333,13,16,LoopForever S,0,234223,,0.5 F,0,248992,,1 R,0,248992,,6.283185
Animation,Foreground,Centre,"sb\tri_fill_part_.png",364.7446,205.8334,13,16,LoopForever S,0,234223,,0.5 F,0,248992,,1 R,0,248992,,2.094395
Animation,Foreground,Centre,"sb\tri_fill_part_.png",275.2553,205.8333,13,16,LoopForever S,0,234223,,0.5 F,0,248992,,1 R,0,248992,,4.18879
Sprite,Foreground,Centre,"sb\triangleFill.png",320,180 F,0,0,,0 S,0,0,,0.333 F,0,87454,,1 F,0,99685,,0 F,0,102224,,1 F,0,115839,,0 F,0,116993,,1 F,0,129916,,0 F,0,188993,,1 F,13,201916,202378,1,0 F,0,203762,,1 F,0,218531,,0 F,0,219453,,1 F,0,232377,,0
Sprite,Foreground,Centre,"sb\triangleFillInvert.png",320,180 F,0,0,,0 S,0,0,,0.5
Sprite,Foreground,Centre,"sb\triangle_edges.png",320,180 F,0,0,,0 S,0,0,,0.5 C,0,0,,0,0,0 T,HitSound,87454,129916 F,0,0,25,0,1 F,0,25,100,1,0 T,HitSound,188993,201916 F,0,0,25,0,1 F,0,25,100,1,0 T,HitSound,203762,232377 F,0,0,25,0,1 F,0,25,100,1,0
Sprite,Foreground,Centre,"sb\triangleFrame.png",320,180 F,0,0,,0 S,0,0,,0.333 F,0,43147,,1 F,0,299761,,1
Sprite,Foreground,Centre,"sb\triangleBody.png",320,180 F,0,0,,0 S,0,0,,0.5 F,0,43147,43608,1,0 F,0,46839,47300,1,0 F,0,50531,50992,1,0 F,0,54223,54684,1,0 F,0,57915,58376,1,0 F,0,61607,62068,1,0 F,0,65299,65760,1,0 F,0,68991,69452,1,0 F,0,74531,74992,1,0 F,0,78224,78685,1,0 F,0,81916,82377,1,0 F,0,87454,87915,1,0 F,12,98070,99685,0,1 F,0,102224,102685,1,0 F,0,115608,115723,1,0 F,0,115724,115839,1,0 F,0,115839,115954,1,0 F,0,116993,117454,1,0 F,0,129685,129916,0,1 F,0,131301,,1 F,0,131762,132223,1,0 F,0,146531,147731,1,0 F,0,148378,149578,1,0 F,0,150225,151425,1,0 F,0,152072,153272,1,0 F,0,153919,155119,1,0 F,0,155766,156966,1,0 F,0,157613,158813,1,0 F,0,159460,160660,1,0 F,0,161301,163147,0,1 F,0,164531,164993,1,0 F,0,166839,167639,1,0 F,0,168685,169485,1,0 F,0,170531,170762,1,0 F,0,171916,172147,1,0 F,0,172147,172378,1,0 F,0,172378,173178,1,0 F,0,174224,175024,1,0 F,0,176070,176870,1,0 F,0,177916,178147,1,0 F,0,179762,180223,1,0 F,0,180224,180685,1,0 F,0,180685,181146,1,0 F,0,181147,181378,1,0 F,0,181378,181839,1,0 F,0,188993,189454,1,0 F,0,203762,204223,1,0 F,0,218070,218185,1,0 F,0,218185,218300,1,0 F,0,218301,218416,1,0 F,0,218416,218531,1,0 F,0,218531,218646,1,0 F,0,219453,219914,1,0 F,0,232146,232377,0,1 F,0,233300,233761,1,0 F,0,234223,234684,1,0 F,0,250838,252038,1,0 F,0,252685,253885,1,0 F,0,254532,255732,1,0 F,0,256379,257579,1,0 F,0,258226,259426,1,0 F,0,260073,261273,1,0 F,0,261920,263120,1,0 F,0,263761,265607,0,1 F,0,266992,267454,1,0 F,0,269300,269761,1,0 F,0,271146,271607,1,0 F,0,272991,273222,1,0 F,0,274376,274607,1,0 F,0,274607,274838,1,0 F,0,274838,275299,1,0 F,0,276684,277145,1,0 F,0,278530,278991,1,0 F,0,280376,280607,1,0 F,0,281761,281992,1,0 F,0,281992,282223,1,0 F,0,282223,282684,1,0 F,0,284069,284530,1,0 F,0,285915,286376,1,0 F,0,287761,287992,1,0 F,0,289146,289377,1,0 F,0,289377,289608,1,0 F,0,289607,290068,1,0 F,0,291453,291914,1,0 F,0,293300,293761,1,0 F,0,295145,295376,1,0 F,0,296992,297453,1,0 F,0,297453,297914,1,0 F,0,297915,298376,1,0 F,0,298377,298838,1,0 F,0,298838,299299,1,0 F,0,299300,299761,1,0
Sprite,Foreground,CentreLeft,"sb\triangleEdgeLineLight.png",320,181 F,0,41311,,1 R,0,41311,,1.570796 V,0,41361,43147,0,1,19.2,1
Sprite,Foreground,CentreLeft,"sb\triangleEdgeLineLight.png",320.866,179.5 F,0,41311,,1 R,0,41311,,-0.5235988 V,0,41361,43147,0,1,19.35019,1
Sprite,Foreground,CentreLeft,"sb\triangleEdgeLineLight.png",319.134,179.5 F,0,41311,,1 R,0,41311,,-2.617994 V,0,41361,43147,0,1,19.35019,1
Sprite,Foreground,Centre,"sb\pixel.png",0,0 F,0,41301,,1 R,0,41301,,1.047198 M,0,41301,43147,320,180,233.3975,230 V,0,41301,43147,0,0.2,33.04102,0.3
Sprite,Foreground,Centre,"sb\pixel.png",0,0 F,0,41301,,1 R,0,41301,,3.141593 M,0,41301,43147,320,180,320,80 V,0,41301,43147,0,0.2,33.04102,0.3
Sprite,Foreground,Centre,"sb\pixel.png",0,0 F,0,41301,,1 R,0,41301,,-1.047198 M,0,41301,43147,320,180,406.6025,230 V,0,41301,43147,0,0.2,33.04102,0.3
Sprite,Foreground,Centre,"sb\pixel.png",320,240 V,0,72685,,86,48 F,3,72685,73285,1,0
Sprite,Foreground,Centre,"sb\pixel.png",320,240 V,0,76378,,86,48 F,3,76378,76978,1,0
Sprite,Foreground,Centre,"sb\pixel.png",320,240 V,0,80070,,86,48 F,3,80070,80670,1,0
Sprite,Foreground,Centre,"sb\pixel.png",320,240 V,0,83762,,86,48 F,3,83762,84362,1,0
Sprite,Foreground,Centre,"sb\f\_000.png",320,113.3333 F,0,99685,,1 S,0,99685,,0.5 R,0,99685,,6.283185 F,0,100398,,0
Sprite,Foreground,Centre,"sb\f\_000.png",377.735,213.3334 F,0,99916,,1 S,0,99916,,0.5 R,0,99916,,2.094395 F,0,100398,,0
Sprite,Foreground,Centre,"sb\f\_000.png",262.265,213.3333 F,0,100147,,1 S,0,100147,,0.5 R,0,100147,,4.18879 F,0,100398,,0
Sprite,Foreground,Centre,"sb\f\_000.png",320,113.3333 F,0,100398,,1 S,0,100398,,0.5 R,0,100398,,6.283185 S,19,100398,100660,0.5,1 S,18,100660,100839,1,0 F,0,100839,,0
Sprite,Foreground,Centre,"sb\f\_001.png",320,113.3333 F,0,100839,,1 S,0,100839,,0.5 R,0,100839,,6.283185 S,19,100839,101101,0,0.5 S,18,101101,101301,0.5,0 F,0,101301,,0
Sprite,Foreground,Centre,"sb\f\_002.png",280,131.3333 F,0,101301,,1 S,0,101301,,0.5 R,0,101301,,6.833186 S,19,101301,101563,0,0.5 F,0,101762,,0
Sprite,Foreground,Centre,"sb\f\_003.png",360,131.3333 F,0,101531,,1 S,0,101531,,0.5 R,0,101531,,5.733185 S,19,101531,101793,0,0.5 F,0,101762,,0
Sprite,Foreground,Centre,"sb\f\_004.png",320,103.3333 F,0,101762,,1 S,0,101762,,0.5 R,0,101762,,6.283185 S,1,101762,102397,1,0.75 F,0,102224,102397,1,0 F,0,102397,,0
Sprite,Foreground,Centre,"sb\f\_000.png",377.735,213.3334 F,0,100398,,1 S,0,100398,,0.5 R,0,100398,,2.094395 S,19,100398,100660,0.5,1 S,18,100660,100839,1,0 F,0,100839,,0
Sprite,Foreground,Centre,"sb\f\_001.png",377.735,213.3334 F,0,100839,,1 S,0,100839,,0.5 R,0,100839,,2.094395 S,19,100839,101101,0,0.5 S,18,101101,101301,0.5,0 F,0,101301,,0
Sprite,Foreground,Centre,"sb\f\_002.png",382.1465,169.6923 F,0,101301,,1 S,0,101301,,0.5 R,0,101301,,2.644395 S,19,101301,101563,0,0.5 F,0,101762,,0
Sprite,Foreground,Centre,"sb\f\_003.png",342.1465,238.9744 F,0,101531,,1 S,0,101531,,0.5 R,0,101531,,1.544395 S,19,101531,101793,0,0.5 F,0,101762,,0
Sprite,Foreground,Centre,"sb\f\_004.png",386.3953,218.3334 F,0,101762,,1 S,0,101762,,0.5 R,0,101762,,2.094395 S,1,101762,102397,1,0.75 F,0,102224,102397,1,0 F,0,102397,,0
Sprite,Foreground,Centre,"sb\f\_000.png",262.265,213.3333 F,0,100398,,1 S,0,100398,,0.5 R,0,100398,,4.18879 S,19,100398,100660,0.5,1 S,18,100660,100839,1,0 F,0,100839,,0
Sprite,Foreground,Centre,"sb\f\_001.png",262.265,213.3333 F,0,100839,,1 S,0,100839,,0.5 R,0,100839,,4.18879 S,19,100839,101101,0,0.5 S,18,101101,101301,0.5,0 F,0,101301,,0
Sprite,Foreground,Centre,"sb\f\_002.png",297.8534,238.9743 F,0,101301,,1 S,0,101301,,0.5 R,0,101301,,4.738791 S,19,101301,101563,0,0.5 F,0,101762,,0
Sprite,Foreground,Centre,"sb\f\_003.png",257.8534,169.6923 F,0,101531,,1 S,0,101531,,0.5 R,0,101531,,3.63879 S,19,101531,101793,0,0.5 F,0,101762,,0
Sprite,Foreground,Centre,"sb\f\_004.png",253.6047,218.3333 F,0,101762,,1 S,0,101762,,0.5 R,0,101762,,4.18879 S,1,101762,102397,1,0.75 F,0,102224,102397,1,0 F,0,102397,,0
Sprite,Foreground,Centre,"sb\f\_005.png",290,101.3333 F,0,129916,,1 S,0,129916,,0.5 R,0,129916,,6.323185 F,0,130839,,0
Sprite,Foreground,Centre,"sb\f\_006.png",350,101.3333 F,0,130378,,1 S,0,130378,,0.5 R,0,130378,,6.083186 F,0,130839,,0
Sprite,Foreground,Centre,"sb\f\_007.png",320,128.3333 F,0,130608,,1 S,0,130608,,0.65 S,0,130608,,0.5 R,0,130608,,6.283185 F,0,130839,,0
Sprite,Foreground,Centre,"sb\f\_004.png",320,103.3333 F,0,130839,,1 S,0,130839,,0.5 R,0,130839,,6.283185 S,19,130839,131762,1,0.8 F,0,131762,,0
Sprite,Foreground,Centre,"sb\f\_005.png",403.1273,193.3526 F,0,129916,,1 S,0,129916,,0.5 R,0,129916,,2.134395 F,0,130839,,0
Sprite,Foreground,Centre,"sb\f\_006.png",373.1273,245.3141 F,0,130378,,1 S,0,130378,,0.5 R,0,130378,,1.894395 F,0,130839,,0
Sprite,Foreground,Centre,"sb\f\_007.png",364.7446,205.8334 F,0,130608,,1 S,0,130608,,0.65 S,0,130608,,0.5 R,0,130608,,2.094395 F,0,130839,,0
Sprite,Foreground,Centre,"sb\f\_004.png",386.3953,218.3334 F,0,130839,,1 S,0,130839,,0.5 R,0,130839,,2.094395 S,19,130839,131762,1,0.8 F,0,131762,,0
Sprite,Foreground,Centre,"sb\f\_005.png",266.8727,245.3141 F,0,129916,,1 S,0,129916,,0.5 R,0,129916,,4.22879 F,0,130839,,0
Sprite,Foreground,Centre,"sb\f\_006.png",236.8727,193.3525 F,0,130378,,1 S,0,130378,,0.5 R,0,130378,,3.98879 F,0,130839,,0
Sprite,Foreground,Centre,"sb\f\_007.png",275.2553,205.8333 F,0,130608,,1 S,0,130608,,0.65 S,0,130608,,0.5 R,0,130608,,4.18879 F,0,130839,,0
Sprite,Foreground,Centre,"sb\f\_004.png",253.6047,218.3333 F,0,130839,,1 S,0,130839,,0.5 R,0,130839,,4.18879 S,19,130839,131762,1,0.8 F,0,131762,,0
Sprite,Foreground,Centre,"sb\f\_008.png",320,103.3333 F,0,131762,,1 S,0,131762,,0.5 R,0,131762,,6.283185 S,30,131762,131993,0.25,0.9 S,18,131993,132224,0.9,0.25 F,0,132224,,0
Sprite,Foreground,Centre,"sb\f\_009.png",320,103.3333 F,0,132224,,1 S,0,132224,,0.5 R,0,132224,,6.283185 S,19,132224,132455,0.25,0.8 S,18,132455,132685,0.8,0.25 F,0,132685,,0
Sprite,Foreground,Centre,"sb\f\_00a.png",320,103.3333 F,0,132685,,1 S,0,132685,,0.5 R,0,132685,,6.283185 S,19,132685,132916,0.25,0.6 S,18,132916,133147,0.6,0.25 F,0,133147,,0
Sprite,Foreground,Centre,"sb\f\_00b.png",320,103.3333 F,0,133147,,1 S,0,133147,,0.5 R,0,133147,,6.283185 S,19,133147,133378,0.25,0.7 S,18,133378,133608,0.7,0.25 F,0,133608,,0
Sprite,Foreground,Centre,"sb\f\_00c.png",240,98.33332 F,0,133608,,1 S,0,133608,,0.5 R,0,133608,,6.283185 S,19,133608,133839,0.25,0.7 F,0,133839,,0
Sprite,Foreground,Centre,"sb\f\_00c.png",395.0001,98.33335 F,0,133839,,1 S,0,133839,,0.5 R,0,133839,,6.283185 S,19,133839,134070,0.25,0.7 F,0,134070,,0
Sprite,Foreground,Centre,"sb\f\_00c.png",300,123.3333 F,0,134070,,1 S,0,134070,,0.5 R,0,134070,,7.283185 S,19,134070,134185,0.25,0.7 F,0,134185,,0
Sprite,Foreground,Centre,"sb\f\_00c.png",340,123.3333 F,0,134185,,1 S,0,134185,,0.5 R,0,134185,,5.283185 S,19,134185,134301,0.25,0.7 F,0,134301,,0
Sprite,Foreground,Centre,"sb\f\_00c.png",320,133.3333 F,0,134301,,1 S,0,134301,,0.5 R,0,134301,,6.283185 S,19,134301,134531,0.25,0.7 F,0,134531,,0
Sprite,Foreground,Centre,"sb\f\_00d.png",320,103.3333 F,0,134531,,1 S,0,134531,,0.5 R,0,134531,,6.283185 S,19,134531,134762,0.25,0.7 S,18,134762,134993,0.7,0.25 F,0,134993,,0
Sprite,Foreground,Centre,"sb\f\_00e.png",320,103.3333 F,0,134993,,1 S,0,134993,,0.5 R,0,134993,,6.283185 S,19,134993,135224,0.25,0.7 S,18,135224,135454,0.7,0.25 F,0,135454,,0
Sprite,Foreground,Centre,"sb\f\_008.png",386.3953,218.3334 F,0,131762,,1 S,0,131762,,0.5 R,0,131762,,2.094395 S,30,131762,131993,0.25,0.9 S,18,131993,132224,0.9,0.25 F,0,132224,,0
Sprite,Foreground,Centre,"sb\f\_009.png",386.3953,218.3334 F,0,132224,,1 S,0,132224,,0.5 R,0,132224,,2.094395 S,19,132224,132455,0.25,0.8 S,18,132455,132685,0.8,0.25 F,0,132685,,0
Sprite,Foreground,Centre,"sb\f\_00a.png",386.3953,218.3334 F,0,132685,,1 S,0,132685,,0.5 R,0,132685,,2.094395 S,19,132685,132916,0.25,0.6 S,18,132916,133147,0.6,0.25 F,0,133147,,0
Sprite,Foreground,Centre,"sb\f\_00b.png",386.3953,218.3334 F,0,133147,,1 S,0,133147,,0.5 R,0,133147,,2.094395 S,19,133147,133378,0.25,0.7 S,18,133378,133608,0.7,0.25 F,0,133608,,0
Sprite,Foreground,Centre,"sb\f\_00c.png",430.7254,151.5513 F,0,133608,,1 S,0,133608,,0.5 R,0,133608,,2.094395 S,19,133608,133839,0.25,0.7 F,0,133839,,0
Sprite,Foreground,Centre,"sb\f\_00c.png",353.2254,285.7853 F,0,133839,,1 S,0,133839,,0.5 R,0,133839,,2.094395 S,19,133839,134070,0.25,0.7 F,0,134070,,0
Sprite,Foreground,Centre,"sb\f\_00c.png",379.0748,191.0128 F,0,134070,,1 S,0,134070,,0.5 R,0,134070,,3.094395 S,19,134070,134185,0.25,0.7 F,0,134185,,0
Sprite,Foreground,Centre,"sb\f\_00c.png",359.0748,225.6539 F,0,134185,,1 S,0,134185,,0.5 R,0,134185,,1.094395 S,19,134185,134301,0.25,0.7 F,0,134301,,0
Sprite,Foreground,Centre,"sb\f\_00c.png",360.4145,203.3334 F,0,134301,,1 S,0,134301,,0.5 R,0,134301,,2.094395 S,19,134301,134531,0.25,0.7 F,0,134531,,0
Sprite,Foreground,Centre,"sb\f\_00d.png",386.3953,218.3334 F,0,134531,,1 S,0,134531,,0.5 R,0,134531,,2.094395 S,19,134531,134762,0.25,0.7 S,18,134762,134993,0.7,0.25 F,0,134993,,0
Sprite,Foreground,Centre,"sb\f\_00e.png",386.3953,218.3334 F,0,134993,,1 S,0,134993,,0.5 R,0,134993,,2.094395 S,19,134993,135224,0.25,0.7 S,18,135224,135454,0.7,0.25 F,0,135454,,0
Sprite,Foreground,Centre,"sb\f\_008.png",253.6047,218.3333 F,0,131762,,1 S,0,131762,,0.5 R,0,131762,,4.18879 S,30,131762,131993,0.25,0.9 S,18,131993,132224,0.9,0.25 F,0,132224,,0
Sprite,Foreground,Centre,"sb\f\_009.png",253.6047,218.3333 F,0,132224,,1 S,0,132224,,0.5 R,0,132224,,4.18879 S,19,132224,132455,0.25,0.8 S,18,132455,132685,0.8,0.25 F,0,132685,,0
Sprite,Foreground,Centre,"sb\f\_00a.png",253.6047,218.3333 F,0,132685,,1 S,0,132685,,0.5 R,0,132685,,4.18879 S,19,132685,132916,0.25,0.6 S,18,132916,133147,0.6,0.25 F,0,133147,,0
Sprite,Foreground,Centre,"sb\f\_00b.png",253.6047,218.3333 F,0,133147,,1 S,0,133147,,0.5 R,0,133147,,4.18879 S,19,133147,133378,0.25,0.7 S,18,133378,133608,0.7,0.25 F,0,133608,,0
Sprite,Foreground,Centre,"sb\f\_00c.png",289.2746,290.1153 F,0,133608,,1 S,0,133608,,0.5 R,0,133608,,4.18879 S,19,133608,133839,0.25,0.7 F,0,133839,,0
Sprite,Foreground,Centre,"sb\f\_00c.png",211.7746,155.8814 F,0,133839,,1 S,0,133839,,0.5 R,0,133839,,4.18879 S,19,133839,134070,0.25,0.7 F,0,134070,,0
Sprite,Foreground,Centre,"sb\f\_00c.png",280.9252,225.6538 F,0,134070,,1 S,0,134070,,0.5 R,0,134070,,5.18879 S,19,134070,134185,0.25,0.7 F,0,134185,,0
Sprite,Foreground,Centre,"sb\f\_00c.png",260.9252,191.0128 F,0,134185,,1 S,0,134185,,0.5 R,0,134185,,3.18879 S,19,134185,134301,0.25,0.7 F,0,134301,,0
Sprite,Foreground,Centre,"sb\f\_00c.png",279.5855,203.3333 F,0,134301,,1 S,0,134301,,0.5 R,0,134301,,4.18879 S,19,134301,134531,0.25,0.7 F,0,134531,,0
Sprite,Foreground,Centre,"sb\f\_00d.png",253.6047,218.3333 F,0,134531,,1 S,0,134531,,0.5 R,0,134531,,4.18879 S,19,134531,134762,0.25,0.7 S,18,134762,134993,0.7,0.25 F,0,134993,,0
Sprite,Foreground,Centre,"sb\f\_00e.png",253.6047,218.3333 F,0,134993,,1 S,0,134993,,0.5 R,0,134993,,4.18879 S,19,134993,135224,0.25,0.7 S,18,135224,135454,0.7,0.25 F,0,135454,,0
Sprite,Foreground,Centre,"sb\f\_008.png",320,103.3333 F,0,135454,,1 S,0,135454,,0.5 R,0,135454,,6.283185 S,30,135454,135685,0.25,0.9 S,18,135685,135916,0.9,0.25 F,0,135916,,0
Sprite,Foreground,Centre,"sb\f\_009.png",320,103.3333 F,0,135916,,1 S,0,135916,,0.5 R,0,135916,,6.283185 S,19,135916,136147,0.25,0.8 S,18,136147,136377,0.8,0.25 F,0,136377,,0
Sprite,Foreground,Centre,"sb\f\_00a.png",320,103.3333 F,0,136377,,1 S,0,136377,,0.5 R,0,136377,,6.283185 S,19,136377,136608,0.25,0.6 S,18,136608,136839,0.6,0.25 F,0,136839,,0
Sprite,Foreground,Centre,"sb\f\_00b.png",320,103.3333 F,0,136839,,1 S,0,136839,,0.5 R,0,136839,,6.283185 S,19,136839,137070,0.25,0.7 S,18,137070,137300,0.7,0.25 F,0,137300,,0
Sprite,Foreground,Centre,"sb\f\_008.png",386.3953,218.3334 F,0,135454,,1 S,0,135454,,0.5 R,0,135454,,2.094395 S,30,135454,135685,0.25,0.9 S,18,135685,135916,0.9,0.25 F,0,135916,,0
Sprite,Foreground,Centre,"sb\f\_009.png",386.3953,218.3334 F,0,135916,,1 S,0,135916,,0.5 R,0,135916,,2.094395 S,19,135916,136147,0.25,0.8 S,18,136147,136377,0.8,0.25 F,0,136377,,0
Sprite,Foreground,Centre,"sb\f\_00a.png",386.3953,218.3334 F,0,136377,,1 S,0,136377,,0.5 R,0,136377,,2.094395 S,19,136377,136608,0.25,0.6 S,18,136608,136839,0.6,0.25 F,0,136839,,0
Sprite,Foreground,Centre,"sb\f\_00b.png",386.3953,218.3334 F,0,136839,,1 S,0,136839,,0.5 R,0,136839,,2.094395 S,19,136839,137070,0.25,0.7 S,18,137070,137300,0.7,0.25 F,0,137300,,0
Sprite,Foreground,Centre,"sb\f\_008.png",253.6047,218.3333 F,0,135454,,1 S,0,135454,,0.5 R,0,135454,,4.18879 S,30,135454,135685,0.25,0.9 S,18,135685,135916,0.9,0.25 F,0,135916,,0
Sprite,Foreground,Centre,"sb\f\_009.png",253.6047,218.3333 F,0,135916,,1 S,0,135916,,0.5 R,0,135916,,4.18879 S,19,135916,136147,0.25,0.8 S,18,136147,136377,0.8,0.25 F,0,136377,,0
Sprite,Foreground,Centre,"sb\f\_00a.png",253.6047,218.3333 F,0,136377,,1 S,0,136377,,0.5 R,0,136377,,4.18879 S,19,136377,136608,0.25,0.6 S,18,136608,136839,0.6,0.25 F,0,136839,,0
Sprite,Foreground,Centre,"sb\f\_00b.png",253.6047,218.3333 F,0,136839,,1 S,0,136839,,0.5 R,0,136839,,4.18879 S,19,136839,137070,0.25,0.7 S,18,137070,137300,0.7,0.25 F,0,137300,,0
Sprite,Foreground,Centre,"sb\f\_005.png",290,101.3333 F,0,137301,,1 S,0,137301,,0.5 R,0,137301,,6.323185 F,0,138224,,0
Sprite,Foreground,Centre,"sb\f\_006.png",350,101.3333 F,0,137763,,1 S,0,137763,,0.5 R,0,137763,,6.083186 F,0,138224,,0
Sprite,Foreground,Centre,"sb\f\_007.png",320,128.3333 F,0,137993,,1 S,0,137993,,0.65 S,0,137993,,0.5 R,0,137993,,6.283185 F,0,138224,,0
Sprite,Foreground,Centre,"sb\f\_004.png",320,103.3333 F,0,138224,,1 S,0,138224,,0.5 R,0,138224,,6.283185 S,19,138224,138686,1,0.8 F,0,138686,,0
Sprite,Foreground,Centre,"sb\f\_005.png",403.1273,193.3526 F,0,137301,,1 S,0,137301,,0.5 R,0,137301,,2.134395 F,0,138224,,0
Sprite,Foreground,Centre,"sb\f\_006.png",373.1273,245.3141 F,0,137763,,1 S,0,137763,,0.5 R,0,137763,,1.894395 F,0,138224,,0
Sprite,Foreground,Centre,"sb\f\_007.png",364.7446,205.8334 F,0,137993,,1 S,0,137993,,0.65 S,0,137993,,0.5 R,0,137993,,2.094395 F,0,138224,,0
Sprite,Foreground,Centre,"sb\f\_004.png",386.3953,218.3334 F,0,138224,,1 S,0,138224,,0.5 R,0,138224,,2.094395 S,19,138224,138686,1,0.8 F,0,138686,,0
Sprite,Foreground,Centre,"sb\f\_005.png",266.8727,245.3141 F,0,137301,,1 S,0,137301,,0.5 R,0,137301,,4.22879 F,0,138224,,0
Sprite,Foreground,Centre,"sb\f\_006.png",236.8727,193.3525 F,0,137763,,1 S,0,137763,,0.5 R,0,137763,,3.98879 F,0,138224,,0
Sprite,Foreground,Centre,"sb\f\_007.png",275.2553,205.8333 F,0,137993,,1 S,0,137993,,0.65 S,0,137993,,0.5 R,0,137993,,4.18879 F,0,138224,,0
Sprite,Foreground,Centre,"sb\f\_004.png",253.6047,218.3333 F,0,138224,,1 S,0,138224,,0.5 R,0,138224,,4.18879 S,19,138224,138686,1,0.8 F,0,138686,,0
Sprite,Foreground,Centre,"sb\f\_008.png",320,103.3333 F,0,138685,,1 S,0,138685,,0.5 R,0,138685,,6.283185 S,30,138685,138916,0.25,0.65 S,30,138916,139147,0.25,0.65 F,0,139147,,0
Sprite,Foreground,Centre,"sb\f\_008.png",386.3953,218.3334 F,0,138685,,1 S,0,138685,,0.5 R,0,138685,,2.094395 S,30,138685,138916,0.25,0.65 S,30,138916,139147,0.25,0.65 F,0,139147,,0
Sprite,Foreground,Centre,"sb\f\_008.png",253.6047,218.3333 F,0,138685,,1 S,0,138685,,0.5 R,0,138685,,4.18879 S,30,138685,138916,0.25,0.65 S,30,138916,139147,0.25,0.65 F,0,139147,,0
Sprite,Foreground,Centre,"sb\f\_008.png",320,103.3333 F,0,139147,,1 S,0,139147,,0.5 R,0,139147,,6.283185 S,30,139147,139378,0.25,0.9 S,18,139378,139609,0.9,0.25 F,0,139609,,0
Sprite,Foreground,Centre,"sb\f\_009.png",320,103.3333 F,0,139609,,1 S,0,139609,,0.5 R,0,139609,,6.283185 S,19,139609,139840,0.25,0.8 S,18,139840,140070,0.8,0.25 F,0,140070,,0
Sprite,Foreground,Centre,"sb\f\_00a.png",320,103.3333 F,0,140070,,1 S,0,140070,,0.5 R,0,140070,,6.283185 S,19,140070,140301,0.25,0.6 S,18,140301,140532,0.6,0.25 F,0,140532,,0
Sprite,Foreground,Centre,"sb\f\_00b.png",320,103.3333 F,0,140532,,1 S,0,140532,,0.5 R,0,140532,,6.283185 S,19,140532,140763,0.25,0.7 S,18,140763,140993,0.7,0.25 F,0,140993,,0
Sprite,Foreground,Centre,"sb\f\_00c.png",240,98.33332 F,0,140993,,1 S,0,140993,,0.5 R,0,140993,,6.283185 S,19,140993,141224,0.25,0.7 F,0,141224,,0
Sprite,Foreground,Centre,"sb\f\_00c.png",395.0001,98.33335 F,0,141224,,1 S,0,141224,,0.5 R,0,141224,,6.283185 S,19,141224,141455,0.25,0.7 F,0,141455,,0
Sprite,Foreground,Centre,"sb\f\_00c.png",300,123.3333 F,0,141455,,1 S,0,141455,,0.5 R,0,141455,,7.283185 S,19,141455,141570,0.25,0.7 F,0,141570,,0
Sprite,Foreground,Centre,"sb\f\_00c.png",340,123.3333 F,0,141570,,1 S,0,141570,,0.5 R,0,141570,,5.283185 S,19,141570,141686,0.25,0.7 F,0,141686,,0
Sprite,Foreground,Centre,"sb\f\_00c.png",320,133.3333 F,0,141686,,1 S,0,141686,,0.5 R,0,141686,,6.283185 S,19,141686,141916,0.25,0.7 F,0,141916,,0
Sprite,Foreground,Centre,"sb\f\_00d.png",320,103.3333 F,0,141916,,1 S,0,141916,,0.5 R,0,141916,,6.283185 S,19,141916,142147,0.25,0.7 S,18,142147,142378,0.7,0.25 F,0,142378,,0
Sprite,Foreground,Centre,"sb\f\_00e.png",320,103.3333 F,0,142378,,1 S,0,142378,,0.5 R,0,142378,,6.283185 S,19,142378,142609,0.25,0.7 S,18,142609,142839,0.7,0.25 F,0,142839,,0
Sprite,Foreground,Centre,"sb\f\_008.png",386.3953,218.3334 F,0,139147,,1 S,0,139147,,0.5 R,0,139147,,2.094395 S,30,139147,139378,0.25,0.9 S,18,139378,139609,0.9,0.25 F,0,139609,,0
Sprite,Foreground,Centre,"sb\f\_009.png",386.3953,218.3334 F,0,139609,,1 S,0,139609,,0.5 R,0,139609,,2.094395 S,19,139609,139840,0.25,0.8 S,18,139840,140070,0.8,0.25 F,0,140070,,0
Sprite,Foreground,Centre,"sb\f\_00a.png",386.3953,218.3334 F,0,140070,,1 S,0,140070,,0.5 R,0,140070,,2.094395 S,19,140070,140301,0.25,0.6 S,18,140301,140532,0.6,0.25 F,0,140532,,0
Sprite,Foreground,Centre,"sb\f\_00b.png",386.3953,218.3334 F,0,140532,,1 S,0,140532,,0.5 R,0,140532,,2.094395 S,19,140532,140763,0.25,0.7 S,18,140763,140993,0.7,0.25 F,0,140993,,0
Sprite,Foreground,Centre,"sb\f\_00c.png",430.7254,151.5513 F,0,140993,,1 S,0,140993,,0.5 R,0,140993,,2.094395 S,19,140993,141224,0.25,0.7 F,0,141224,,0
Sprite,Foreground,Centre,"sb\f\_00c.png",353.2254,285.7853 F,0,141224,,1 S,0,141224,,0.5 R,0,141224,,2.094395 S,19,141224,141455,0.25,0.7 F,0,141455,,0
Sprite,Foreground,Centre,"sb\f\_00c.png",379.0748,191.0128 F,0,141455,,1 S,0,141455,,0.5 R,0,141455,,3.094395 S,19,141455,141570,0.25,0.7 F,0,141570,,0
Sprite,Foreground,Centre,"sb\f\_00c.png",359.0748,225.6539 F,0,141570,,1 S,0,141570,,0.5 R,0,141570,,1.094395 S,19,141570,141686,0.25,0.7 F,0,141686,,0
Sprite,Foreground,Centre,"sb\f\_00c.png",360.4145,203.3334 F,0,141686,,1 S,0,141686,,0.5 R,0,141686,,2.094395 S,19,141686,141916,0.25,0.7 F,0,141916,,0
Sprite,Foreground,Centre,"sb\f\_00d.png",386.3953,218.3334 F,0,141916,,1 S,0,141916,,0.5 R,0,141916,,2.094395 S,19,141916,142147,0.25,0.7 S,18,142147,142378,0.7,0.25 F,0,142378,,0
Sprite,Foreground,Centre,"sb\f\_00e.png",386.3953,218.3334 F,0,142378,,1 S,0,142378,,0.5 R,0,142378,,2.094395 S,19,142378,142609,0.25,0.7 S,18,142609,142839,0.7,0.25 F,0,142839,,0
Sprite,Foreground,Centre,"sb\f\_008.png",253.6047,218.3333 F,0,139147,,1 S,0,139147,,0.5 R,0,139147,,4.18879 S,30,139147,139378,0.25,0.9 S,18,139378,139609,0.9,0.25 F,0,139609,,0
Sprite,Foreground,Centre,"sb\f\_009.png",253.6047,218.3333 F,0,139609,,1 S,0,139609,,0.5 R,0,139609,,4.18879 S,19,139609,139840,0.25,0.8 S,18,139840,140070,0.8,0.25 F,0,140070,,0
Sprite,Foreground,Centre,"sb\f\_00a.png",253.6047,218.3333 F,0,140070,,1 S,0,140070,,0.5 R,0,140070,,4.18879 S,19,140070,140301,0.25,0.6 S,18,140301,140532,0.6,0.25 F,0,140532,,0
Sprite,Foreground,Centre,"sb\f\_00b.png",253.6047,218.3333 F,0,140532,,1 S,0,140532,,0.5 R,0,140532,,4.18879 S,19,140532,140763,0.25,0.7 S,18,140763,140993,0.7,0.25 F,0,140993,,0
Sprite,Foreground,Centre,"sb\f\_00c.png",289.2746,290.1153 F,0,140993,,1 S,0,140993,,0.5 R,0,140993,,4.18879 S,19,140993,141224,0.25,0.7 F,0,141224,,0
Sprite,Foreground,Centre,"sb\f\_00c.png",211.7746,155.8814 F,0,141224,,1 S,0,141224,,0.5 R,0,141224,,4.18879 S,19,141224,141455,0.25,0.7 F,0,141455,,0
Sprite,Foreground,Centre,"sb\f\_00c.png",280.9252,225.6538 F,0,141455,,1 S,0,141455,,0.5 R,0,141455,,5.18879 S,19,141455,141570,0.25,0.7 F,0,141570,,0
Sprite,Foreground,Centre,"sb\f\_00c.png",260.9252,191.0128 F,0,141570,,1 S,0,141570,,0.5 R,0,141570,,3.18879 S,19,141570,141686,0.25,0.7 F,0,141686,,0
Sprite,Foreground,Centre,"sb\f\_00c.png",279.5855,203.3333 F,0,141686,,1 S,0,141686,,0.5 R,0,141686,,4.18879 S,19,141686,141916,0.25,0.7 F,0,141916,,0
Sprite,Foreground,Centre,"sb\f\_00d.png",253.6047,218.3333 F,0,141916,,1 S,0,141916,,0.5 R,0,141916,,4.18879 S,19,141916,142147,0.25,0.7 S,18,142147,142378,0.7,0.25 F,0,142378,,0
Sprite,Foreground,Centre,"sb\f\_00e.png",253.6047,218.3333 F,0,142378,,1 S,0,142378,,0.5 R,0,142378,,4.18879 S,19,142378,142609,0.25,0.7 S,18,142609,142839,0.7,0.25 F,0,142839,,0
Sprite,Foreground,Centre,"sb\f\_008.png",320,103.3333 F,0,142839,,1 S,0,142839,,0.5 R,0,142839,,6.283185 S,30,142839,143070,0.25,0.9 S,18,143070,143301,0.9,0.25 F,0,143301,,0
Sprite,Foreground,Centre,"sb\f\_009.png",320,103.3333 F,0,143301,,1 S,0,143301,,0.5 R,0,143301,,6.283185 S,19,143301,143532,0.25,0.8 S,18,143532,143762,0.8,0.25 F,0,143762,,0
Sprite,Foreground,Centre,"sb\f\_00a.png",320,103.3333 F,0,143762,,1 S,0,143762,,0.5 R,0,143762,,6.283185 S,19,143762,143993,0.25,0.6 S,18,143993,144224,0.6,0.25 F,0,144224,,0
Sprite,Foreground,Centre,"sb\f\_00b.png",320,103.3333 F,0,144224,,1 S,0,144224,,0.5 R,0,144224,,6.283185 S,19,144224,144455,0.25,0.7 S,18,144455,144685,0.7,0.25 F,0,144685,,0
Sprite,Foreground,Centre,"sb\f\_00c.png",240,98.33332 F,0,144685,,1 S,0,144685,,0.5 R,0,144685,,6.283185 S,19,144685,144916,0.25,0.7 F,0,144916,,0
Sprite,Foreground,Centre,"sb\f\_00c.png",395.0001,98.33335 F,0,144916,,1 S,0,144916,,0.5 R,0,144916,,6.283185 S,19,144916,145147,0.25,0.7 F,0,145147,,0
Sprite,Foreground,Centre,"sb\f\_00c.png",300,123.3333 F,0,145147,,1 S,0,145147,,0.5 R,0,145147,,7.283185 S,19,145147,145378,0.25,0.7 F,0,145378,,0
Sprite,Foreground,Centre,"sb\f\_00c.png",340,123.3333 F,0,145378,,1 S,0,145378,,0.5 R,0,145378,,5.283185 S,19,145378,145493,0.25,0.7 F,0,145493,,0
Sprite,Foreground,Centre,"sb\f\_00c.png",320,133.3333 F,0,145493,,1 S,0,145493,,0.5 R,0,145493,,6.283185 S,19,145493,145608,0.25,0.7 F,0,145608,,0
Sprite,Foreground,Centre,"sb\f\_00d.png",320,103.3333 F,0,145608,,1 S,0,145608,,0.5 R,0,145608,,6.283185 S,19,145608,145839,0.25,0.7 S,18,145839,146070,0.7,0.25 F,0,146070,,0
Sprite,Foreground,Centre,"sb\f\_00e.png",320,103.3333 F,0,146070,,1 S,0,146070,,0.5 R,0,146070,,6.283185 S,19,146070,146301,0.25,0.7 S,18,146301,146531,0.7,0.25 F,0,146531,,0
Sprite,Foreground,Centre,"sb\f\_008.png",386.3953,218.3334 F,0,142839,,1 S,0,142839,,0.5 R,0,142839,,2.094395 S,30,142839,143070,0.25,0.9 S,18,143070,143301,0.9,0.25 F,0,143301,,0
Sprite,Foreground,Centre,"sb\f\_009.png",386.3953,218.3334 F,0,143301,,1 S,0,143301,,0.5 R,0,143301,,2.094395 S,19,143301,143532,0.25,0.8 S,18,143532,143762,0.8,0.25 F,0,143762,,0
Sprite,Foreground,Centre,"sb\f\_00a.png",386.3953,218.3334 F,0,143762,,1 S,0,143762,,0.5 R,0,143762,,2.094395 S,19,143762,143993,0.25,0.6 S,18,143993,144224,0.6,0.25 F,0,144224,,0
Sprite,Foreground,Centre,"sb\f\_00b.png",386.3953,218.3334 F,0,144224,,1 S,0,144224,,0.5 R,0,144224,,2.094395 S,19,144224,144455,0.25,0.7 S,18,144455,144685,0.7,0.25 F,0,144685,,0
Sprite,Foreground,Centre,"sb\f\_00c.png",430.7254,151.5513 F,0,144685,,1 S,0,144685,,0.5 R,0,144685,,2.094395 S,19,144685,144916,0.25,0.7 F,0,144916,,0
Sprite,Foreground,Centre,"sb\f\_00c.png",353.2254,285.7853 F,0,144916,,1 S,0,144916,,0.5 R,0,144916,,2.094395 S,19,144916,145147,0.25,0.7 F,0,145147,,0
Sprite,Foreground,Centre,"sb\f\_00c.png",379.0748,191.0128 F,0,145147,,1 S,0,145147,,0.5 R,0,145147,,3.094395 S,19,145147,145378,0.25,0.7 F,0,145378,,0
Sprite,Foreground,Centre,"sb\f\_00c.png",359.0748,225.6539 F,0,145378,,1 S,0,145378,,0.5 R,0,145378,,1.094395 S,19,145378,145493,0.25,0.7 F,0,145493,,0
Sprite,Foreground,Centre,"sb\f\_00c.png",360.4145,203.3334 F,0,145493,,1 S,0,145493,,0.5 R,0,145493,,2.094395 S,19,145493,145608,0.25,0.7 F,0,145608,,0
Sprite,Foreground,Centre,"sb\f\_00d.png",386.3953,218.3334 F,0,145608,,1 S,0,145608,,0.5 R,0,145608,,2.094395 S,19,145608,145839,0.25,0.7 S,18,145839,146070,0.7,0.25 F,0,146070,,0
Sprite,Foreground,Centre,"sb\f\_00e.png",386.3953,218.3334 F,0,146070,,1 S,0,146070,,0.5 R,0,146070,,2.094395 S,19,146070,146301,0.25,0.7 S,18,146301,146531,0.7,0.25 F,0,146531,,0
Sprite,Foreground,Centre,"sb\f\_008.png",253.6047,218.3333 F,0,142839,,1 S,0,142839,,0.5 R,0,142839,,4.18879 S,30,142839,143070,0.25,0.9 S,18,143070,143301,0.9,0.25 F,0,143301,,0
Sprite,Foreground,Centre,"sb\f\_009.png",253.6047,218.3333 F,0,143301,,1 S,0,143301,,0.5 R,0,143301,,4.18879 S,19,143301,143532,0.25,0.8 S,18,143532,143762,0.8,0.25 F,0,143762,,0
Sprite,Foreground,Centre,"sb\f\_00a.png",253.6047,218.3333 F,0,143762,,1 S,0,143762,,0.5 R,0,143762,,4.18879 S,19,143762,143993,0.25,0.6 S,18,143993,144224,0.6,0.25 F,0,144224,,0
Sprite,Foreground,Centre,"sb\f\_00b.png",253.6047,218.3333 F,0,144224,,1 S,0,144224,,0.5 R,0,144224,,4.18879 S,19,144224,144455,0.25,0.7 S,18,144455,144685,0.7,0.25 F,0,144685,,0
Sprite,Foreground,Centre,"sb\f\_00c.png",289.2746,290.1153 F,0,144685,,1 S,0,144685,,0.5 R,0,144685,,4.18879 S,19,144685,144916,0.25,0.7 F,0,144916,,0
Sprite,Foreground,Centre,"sb\f\_00c.png",211.7746,155.8814 F,0,144916,,1 S,0,144916,,0.5 R,0,144916,,4.18879 S,19,144916,145147,0.25,0.7 F,0,145147,,0
Sprite,Foreground,Centre,"sb\f\_00c.png",280.9252,225.6538 F,0,145147,,1 S,0,145147,,0.5 R,0,145147,,5.18879 S,19,145147,145378,0.25,0.7 F,0,145378,,0
Sprite,Foreground,Centre,"sb\f\_00c.png",260.9252,191.0128 F,0,145378,,1 S,0,145378,,0.5 R,0,145378,,3.18879 S,19,145378,145493,0.25,0.7 F,0,145493,,0
Sprite,Foreground,Centre,"sb\f\_00c.png",279.5855,203.3333 F,0,145493,,1 S,0,145493,,0.5 R,0,145493,,4.18879 S,19,145493,145608,0.25,0.7 F,0,145608,,0
Sprite,Foreground,Centre,"sb\f\_00d.png",253.6047,218.3333 F,0,145608,,1 S,0,145608,,0.5 R,0,145608,,4.18879 S,19,145608,145839,0.25,0.7 S,18,145839,146070,0.7,0.25 F,0,146070,,0
Sprite,Foreground,Centre,"sb\f\_00e.png",253.6047,218.3333 F,0,146070,,1 S,0,146070,,0.5 R,0,146070,,4.18879 S,19,146070,146301,0.25,0.7 S,18,146301,146531,0.7,0.25 F,0,146531,,0
Sprite,Foreground,Centre,"sb\f\_00f.png",300,103.3333 F,0,163147,,1 S,0,163147,,0.5 R,0,163147,,6.383185 S,19,163147,163608,0,0.5 F,0,164070,,0
Sprite,Foreground,Centre,"sb\f\_007.png",335,130.3333 F,0,163608,,1 S,0,163608,,0.5 R,0,163608,,6.183186 S,19,163608,164070,0,0.5 F,0,164070,,0
Sprite,Foreground,Centre,"sb\f\_004.png",320,103.3333 F,0,164070,,1 S,0,164070,,0.5 R,0,164070,,6.283185 S,19,164070,164532,1,0.8 F,0,164532,,0
Sprite,Foreground,Centre,"sb\f\_00f.png",396.3953,201.0128 F,0,163147,,1 S,0,163147,,0.5 R,0,163147,,2.194395 S,19,163147,163608,0,0.5 F,0,164070,,0
Sprite,Foreground,Centre,"sb\f\_007.png",355.5126,217.8237 F,0,163608,,1 S,0,163608,,0.5 R,0,163608,,1.994395 S,19,163608,164070,0,0.5 F,0,164070,,0
Sprite,Foreground,Centre,"sb\f\_004.png",386.3953,218.3334 F,0,164070,,1 S,0,164070,,0.5 R,0,164070,,2.094395 S,19,164070,164532,1,0.8 F,0,164532,,0
Sprite,Foreground,Centre,"sb\f\_00f.png",263.6047,235.6538 F,0,163147,,1 S,0,163147,,0.5 R,0,163147,,4.28879 S,19,163147,163608,0,0.5 F,0,164070,,0
Sprite,Foreground,Centre,"sb\f\_007.png",269.4874,191.8429 F,0,163608,,1 S,0,163608,,0.5 R,0,163608,,4.08879 S,19,163608,164070,0,0.5 F,0,164070,,0
Sprite,Foreground,Centre,"sb\f\_004.png",253.6047,218.3333 F,0,164070,,1 S,0,164070,,0.5 R,0,164070,,4.18879 S,19,164070,164532,1,0.8 F,0,164532,,0
Sprite,Foreground,Centre,"sb\f\_005.png",290,101.3333 F,0,232377,,1 S,0,232377,,0.5 R,0,232377,,6.323185 F,0,233300,,0
Sprite,Foreground,Centre,"sb\f\_006.png",350,101.3333 F,0,232839,,1 S,0,232839,,0.5 R,0,232839,,6.083186 F,0,233300,,0
Sprite,Foreground,Centre,"sb\f\_007.png",320,128.3333 F,0,233069,,1 S,0,233069,,0.65 S,0,233069,,0.5 R,0,233069,,6.283185 F,0,233300,,0
Sprite,Foreground,Centre,"sb\f\_005.png",403.1273,193.3526 F,0,232377,,1 S,0,232377,,0.5 R,0,232377,,2.134395 F,0,233300,,0
Sprite,Foreground,Centre,"sb\f\_006.png",373.1273,245.3141 F,0,232839,,1 S,0,232839,,0.5 R,0,232839,,1.894395 F,0,233300,,0
Sprite,Foreground,Centre,"sb\f\_007.png",364.7446,205.8334 F,0,233069,,1 S,0,233069,,0.65 S,0,233069,,0.5 R,0,233069,,2.094395 F,0,233300,,0
Sprite,Foreground,Centre,"sb\f\_005.png",266.8727,245.3141 F,0,232377,,1 S,0,232377,,0.5 R,0,232377,,4.22879 F,0,233300,,0
Sprite,Foreground,Centre,"sb\f\_006.png",236.8727,193.3525 F,0,232839,,1 S,0,232839,,0.5 R,0,232839,,3.98879 F,0,233300,,0
Sprite,Foreground,Centre,"sb\f\_007.png",275.2553,205.8333 F,0,233069,,1 S,0,233069,,0.65 S,0,233069,,0.5 R,0,233069,,4.18879 F,0,233300,,0
Sprite,Foreground,Centre,"sb\f\_008.png",320,103.3333 F,0,234223,,1 S,0,234223,,0.5 R,0,234223,,6.283185 S,30,234223,234454,0.25,0.9 S,18,234454,234685,0.9,0.25 F,0,234685,,0
Sprite,Foreground,Centre,"sb\f\_009.png",320,103.3333 F,0,234685,,1 S,0,234685,,0.5 R,0,234685,,6.283185 S,19,234685,234916,0.25,0.8 S,18,234916,235146,0.8,0.25 F,0,235146,,0
Sprite,Foreground,Centre,"sb\f\_00a.png",320,103.3333 F,0,235146,,1 S,0,235146,,0.5 R,0,235146,,6.283185 S,19,235146,235377,0.25,0.6 S,18,235377,235608,0.6,0.25 F,0,235608,,0
Sprite,Foreground,Centre,"sb\f\_00b.png",320,103.3333 F,0,235608,,1 S,0,235608,,0.5 R,0,235608,,6.283185 S,19,235608,235839,0.25,0.7 S,18,235839,236069,0.7,0.25 F,0,236069,,0
Sprite,Foreground,Centre,"sb\f\_00c.png",240,98.33332 F,0,236069,,1 S,0,236069,,0.5 R,0,236069,,6.283185 S,19,236069,236300,0.25,0.7 F,0,236300,,0
Sprite,Foreground,Centre,"sb\f\_00c.png",395.0001,98.33335 F,0,236300,,1 S,0,236300,,0.5 R,0,236300,,6.283185 S,19,236300,236531,0.25,0.7 F,0,236531,,0
Sprite,Foreground,Centre,"sb\f\_00c.png",300,123.3333 F,0,236531,,1 S,0,236531,,0.5 R,0,236531,,7.283185 S,19,236531,236646,0.25,0.7 F,0,236646,,0
Sprite,Foreground,Centre,"sb\f\_00c.png",340,123.3333 F,0,236646,,1 S,0,236646,,0.5 R,0,236646,,5.283185 S,19,236646,236762,0.25,0.7 F,0,236762,,0
Sprite,Foreground,Centre,"sb\f\_00c.png",320,133.3333 F,0,236762,,1 S,0,236762,,0.5 R,0,236762,,6.283185 S,19,236762,236992,0.25,0.7 F,0,236992,,0
Sprite,Foreground,Centre,"sb\f\_00d.png",320,103.3333 F,0,236992,,1 S,0,236992,,0.5 R,0,236992,,6.283185 S,19,236992,237223,0.25,0.7 S,18,237223,237454,0.7,0.25 F,0,237454,,0
Sprite,Foreground,Centre,"sb\f\_00e.png",320,103.3333 F,0,237454,,1 S,0,237454,,0.5 R,0,237454,,6.283185 S,19,237454,237685,0.25,0.7 S,18,237685,237915,0.7,0.25 F,0,237915,,0
Sprite,Foreground,Centre,"sb\f\_008.png",386.3953,218.3334 F,0,234223,,1 S,0,234223,,0.5 R,0,234223,,2.094395 S,30,234223,234454,0.25,0.9 S,18,234454,234685,0.9,0.25 F,0,234685,,0
Sprite,Foreground,Centre,"sb\f\_009.png",386.3953,218.3334 F,0,234685,,1 S,0,234685,,0.5 R,0,234685,,2.094395 S,19,234685,234916,0.25,0.8 S,18,234916,235146,0.8,0.25 F,0,235146,,0
Sprite,Foreground,Centre,"sb\f\_00a.png",386.3953,218.3334 F,0,235146,,1 S,0,235146,,0.5 R,0,235146,,2.094395 S,19,235146,235377,0.25,0.6 S,18,235377,235608,0.6,0.25 F,0,235608,,0
Sprite,Foreground,Centre,"sb\f\_00b.png",386.3953,218.3334 F,0,235608,,1 S,0,235608,,0.5 R,0,235608,,2.094395 S,19,235608,235839,0.25,0.7 S,18,235839,236069,0.7,0.25 F,0,236069,,0
Sprite,Foreground,Centre,"sb\f\_00c.png",430.7254,151.5513 F,0,236069,,1 S,0,236069,,0.5 R,0,236069,,2.094395 S,19,236069,236300,0.25,0.7 F,0,236300,,0
Sprite,Foreground,Centre,"sb\f\_00c.png",353.2254,285.7853 F,0,236300,,1 S,0,236300,,0.5 R,0,236300,,2.094395 S,19,236300,236531,0.25,0.7 F,0,236531,,0
Sprite,Foreground,Centre,"sb\f\_00c.png",379.0748,191.0128 F,0,236531,,1 S,0,236531,,0.5 R,0,236531,,3.094395 S,19,236531,236646,0.25,0.7 F,0,236646,,0
Sprite,Foreground,Centre,"sb\f\_00c.png",359.0748,225.6539 F,0,236646,,1 S,0,236646,,0.5 R,0,236646,,1.094395 S,19,236646,236762,0.25,0.7 F,0,236762,,0
Sprite,Foreground,Centre,"sb\f\_00c.png",360.4145,203.3334 F,0,236762,,1 S,0,236762,,0.5 R,0,236762,,2.094395 S,19,236762,236992,0.25,0.7 F,0,236992,,0
Sprite,Foreground,Centre,"sb\f\_00d.png",386.3953,218.3334 F,0,236992,,1 S,0,236992,,0.5 R,0,236992,,2.094395 S,19,236992,237223,0.25,0.7 S,18,237223,237454,0.7,0.25 F,0,237454,,0
Sprite,Foreground,Centre,"sb\f\_00e.png",386.3953,218.3334 F,0,237454,,1 S,0,237454,,0.5 R,0,237454,,2.094395 S,19,237454,237685,0.25,0.7 S,18,237685,237915,0.7,0.25 F,0,237915,,0
Sprite,Foreground,Centre,"sb\f\_008.png",253.6047,218.3333 F,0,234223,,1 S,0,234223,,0.5 R,0,234223,,4.18879 S,30,234223,234454,0.25,0.9 S,18,234454,234685,0.9,0.25 F,0,234685,,0
Sprite,Foreground,Centre,"sb\f\_009.png",253.6047,218.3333 F,0,234685,,1 S,0,234685,,0.5 R,0,234685,,4.18879 S,19,234685,234916,0.25,0.8 S,18,234916,235146,0.8,0.25 F,0,235146,,0
Sprite,Foreground,Centre,"sb\f\_00a.png",253.6047,218.3333 F,0,235146,,1 S,0,235146,,0.5 R,0,235146,,4.18879 S,19,235146,235377,0.25,0.6 S,18,235377,235608,0.6,0.25 F,0,235608,,0
Sprite,Foreground,Centre,"sb\f\_00b.png",253.6047,218.3333 F,0,235608,,1 S,0,235608,,0.5 R,0,235608,,4.18879 S,19,235608,235839,0.25,0.7 S,18,235839,236069,0.7,0.25 F,0,236069,,0
Sprite,Foreground,Centre,"sb\f\_00c.png",289.2746,290.1153 F,0,236069,,1 S,0,236069,,0.5 R,0,236069,,4.18879 S,19,236069,236300,0.25,0.7 F,0,236300,,0
Sprite,Foreground,Centre,"sb\f\_00c.png",211.7746,155.8814 F,0,236300,,1 S,0,236300,,0.5 R,0,236300,,4.18879 S,19,236300,236531,0.25,0.7 F,0,236531,,0
Sprite,Foreground,Centre,"sb\f\_00c.png",280.9252,225.6538 F,0,236531,,1 S,0,236531,,0.5 R,0,236531,,5.18879 S,19,236531,236646,0.25,0.7 F,0,236646,,0
Sprite,Foreground,Centre,"sb\f\_00c.png",260.9252,191.0128 F,0,236646,,1 S,0,236646,,0.5 R,0,236646,,3.18879 S,19,236646,236762,0.25,0.7 F,0,236762,,0
Sprite,Foreground,Centre,"sb\f\_00c.png",279.5855,203.3333 F,0,236762,,1 S,0,236762,,0.5 R,0,236762,,4.18879 S,19,236762,236992,0.25,0.7 F,0,236992,,0
Sprite,Foreground,Centre,"sb\f\_00d.png",253.6047,218.3333 F,0,236992,,1 S,0,236992,,0.5 R,0,236992,,4.18879 S,19,236992,237223,0.25,0.7 S,18,237223,237454,0.7,0.25 F,0,237454,,0
Sprite,Foreground,Centre,"sb\f\_00e.png",253.6047,218.3333 F,0,237454,,1 S,0,237454,,0.5 R,0,237454,,4.18879 S,19,237454,237685,0.25,0.7 S,18,237685,237915,0.7,0.25 F,0,237915,,0
Sprite,Foreground,Centre,"sb\f\_008.png",320,103.3333 F,0,237915,,1 S,0,237915,,0.5 R,0,237915,,6.283185 S,30,237915,238146,0.25,0.9 S,18,238146,238377,0.9,0.25 F,0,238377,,0
Sprite,Foreground,Centre,"sb\f\_009.png",320,103.3333 F,0,238377,,1 S,0,238377,,0.5 R,0,238377,,6.283185 S,19,238377,238608,0.25,0.8 S,18,238608,238838,0.8,0.25 F,0,238838,,0
Sprite,Foreground,Centre,"sb\f\_00a.png",320,103.3333 F,0,238838,,1 S,0,238838,,0.5 R,0,238838,,6.283185 S,19,238838,239069,0.25,0.6 S,18,239069,239300,0.6,0.25 F,0,239300,,0
Sprite,Foreground,Centre,"sb\f\_00b.png",320,103.3333 F,0,239300,,1 S,0,239300,,0.5 R,0,239300,,6.283185 S,19,239300,239531,0.25,0.7 S,18,239531,239761,0.7,0.25 F,0,239761,,0
Sprite,Foreground,Centre,"sb\f\_008.png",386.3953,218.3334 F,0,237915,,1 S,0,237915,,0.5 R,0,237915,,2.094395 S,30,237915,238146,0.25,0.9 S,18,238146,238377,0.9,0.25 F,0,238377,,0
Sprite,Foreground,Centre,"sb\f\_009.png",386.3953,218.3334 F,0,238377,,1 S,0,238377,,0.5 R,0,238377,,2.094395 S,19,238377,238608,0.25,0.8 S,18,238608,238838,0.8,0.25 F,0,238838,,0
Sprite,Foreground,Centre,"sb\f\_00a.png",386.3953,218.3334 F,0,238838,,1 S,0,238838,,0.5 R,0,238838,,2.094395 S,19,238838,239069,0.25,0.6 S,18,239069,239300,0.6,0.25 F,0,239300,,0
Sprite,Foreground,Centre,"sb\f\_00b.png",386.3953,218.3334 F,0,239300,,1 S,0,239300,,0.5 R,0,239300,,2.094395 S,19,239300,239531,0.25,0.7 S,18,239531,239761,0.7,0.25 F,0,239761,,0
Sprite,Foreground,Centre,"sb\f\_008.png",253.6047,218.3333 F,0,237915,,1 S,0,237915,,0.5 R,0,237915,,4.18879 S,30,237915,238146,0.25,0.9 S,18,238146,238377,0.9,0.25 F,0,238377,,0
Sprite,Foreground,Centre,"sb\f\_009.png",253.6047,218.3333 F,0,238377,,1 S,0,238377,,0.5 R,0,238377,,4.18879 S,19,238377,238608,0.25,0.8 S,18,238608,238838,0.8,0.25 F,0,238838,,0
Sprite,Foreground,Centre,"sb\f\_00a.png",253.6047,218.3333 F,0,238838,,1 S,0,238838,,0.5 R,0,238838,,4.18879 S,19,238838,239069,0.25,0.6 S,18,239069,239300,0.6,0.25 F,0,239300,,0
Sprite,Foreground,Centre,"sb\f\_00b.png",253.6047,218.3333 F,0,239300,,1 S,0,239300,,0.5 R,0,239300,,4.18879 S,19,239300,239531,0.25,0.7 S,18,239531,239761,0.7,0.25 F,0,239761,,0
Sprite,Foreground,Centre,"sb\f\_005.png",290,101.3333 F,0,239761,,1 S,0,239761,,0.5 R,0,239761,,6.323185 F,0,240684,,0
Sprite,Foreground,Centre,"sb\f\_006.png",350,101.3333 F,0,240223,,1 S,0,240223,,0.5 R,0,240223,,6.083186 F,0,240684,,0
Sprite,Foreground,Centre,"sb\f\_007.png",320,128.3333 F,0,240453,,1 S,0,240453,,0.65 S,0,240453,,0.5 R,0,240453,,6.283185 F,0,240684,,0
Sprite,Foreground,Centre,"sb\f\_004.png",320,103.3333 F,0,240684,,1 S,0,240684,,0.5 R,0,240684,,6.283185 S,19,240684,241146,1,0.8 F,0,241146,,0
Sprite,Foreground,Centre,"sb\f\_005.png",403.1273,193.3526 F,0,239761,,1 S,0,239761,,0.5 R,0,239761,,2.134395 F,0,240684,,0
Sprite,Foreground,Centre,"sb\f\_006.png",373.1273,245.3141 F,0,240223,,1 S,0,240223,,0.5 R,0,240223,,1.894395 F,0,240684,,0
Sprite,Foreground,Centre,"sb\f\_007.png",364.7446,205.8334 F,0,240453,,1 S,0,240453,,0.65 S,0,240453,,0.5 R,0,240453,,2.094395 F,0,240684,,0
Sprite,Foreground,Centre,"sb\f\_004.png",386.3953,218.3334 F,0,240684,,1 S,0,240684,,0.5 R,0,240684,,2.094395 S,19,240684,241146,1,0.8 F,0,241146,,0
Sprite,Foreground,Centre,"sb\f\_005.png",266.8727,245.3141 F,0,239761,,1 S,0,239761,,0.5 R,0,239761,,4.22879 F,0,240684,,0
Sprite,Foreground,Centre,"sb\f\_006.png",236.8727,193.3525 F,0,240223,,1 S,0,240223,,0.5 R,0,240223,,3.98879 F,0,240684,,0
Sprite,Foreground,Centre,"sb\f\_007.png",275.2553,205.8333 F,0,240453,,1 S,0,240453,,0.65 S,0,240453,,0.5 R,0,240453,,4.18879 F,0,240684,,0
Sprite,Foreground,Centre,"sb\f\_004.png",253.6047,218.3333 F,0,240684,,1 S,0,240684,,0.5 R,0,240684,,4.18879 S,19,240684,241146,1,0.8 F,0,241146,,0
Sprite,Foreground,Centre,"sb\f\_008.png",320,103.3333 F,0,241607,,1 S,0,241607,,0.5 R,0,241607,,6.283185 S,30,241607,241838,0.25,0.9 S,18,241838,242069,0.9,0.25 F,0,242069,,0
Sprite,Foreground,Centre,"sb\f\_009.png",320,103.3333 F,0,242069,,1 S,0,242069,,0.5 R,0,242069,,6.283185 S,19,242069,242300,0.25,0.8 S,18,242300,242530,0.8,0.25 F,0,242530,,0
Sprite,Foreground,Centre,"sb\f\_00a.png",320,103.3333 F,0,242530,,1 S,0,242530,,0.5 R,0,242530,,6.283185 S,19,242530,242761,0.25,0.6 S,18,242761,242992,0.6,0.25 F,0,242992,,0
Sprite,Foreground,Centre,"sb\f\_00b.png",320,103.3333 F,0,242992,,1 S,0,242992,,0.5 R,0,242992,,6.283185 S,19,242992,243223,0.25,0.7 S,18,243223,243453,0.7,0.25 F,0,243453,,0
Sprite,Foreground,Centre,"sb\f\_00c.png",240,98.33332 F,0,243453,,1 S,0,243453,,0.5 R,0,243453,,6.283185 S,19,243453,243684,0.25,0.7 F,0,243684,,0
Sprite,Foreground,Centre,"sb\f\_00c.png",395.0001,98.33335 F,0,243684,,1 S,0,243684,,0.5 R,0,243684,,6.283185 S,19,243684,243915,0.25,0.7 F,0,243915,,0
Sprite,Foreground,Centre,"sb\f\_00c.png",300,123.3333 F,0,243915,,1 S,0,243915,,0.5 R,0,243915,,7.283185 S,19,243915,244030,0.25,0.7 F,0,244030,,0
Sprite,Foreground,Centre,"sb\f\_00c.png",340,123.3333 F,0,244030,,1 S,0,244030,,0.5 R,0,244030,,5.283185 S,19,244030,244146,0.25,0.7 F,0,244146,,0
Sprite,Foreground,Centre,"sb\f\_00c.png",320,133.3333 F,0,244146,,1 S,0,244146,,0.5 R,0,244146,,6.283185 S,19,244146,244376,0.25,0.7 F,0,244376,,0
Sprite,Foreground,Centre,"sb\f\_00d.png",320,103.3333 F,0,244376,,1 S,0,244376,,0.5 R,0,244376,,6.283185 S,19,244376,244607,0.25,0.7 S,18,244607,244838,0.7,0.25 F,0,244838,,0
Sprite,Foreground,Centre,"sb\f\_00e.png",320,103.3333 F,0,244838,,1 S,0,244838,,0.5 R,0,244838,,6.283185 S,19,244838,245069,0.25,0.7 S,18,245069,245299,0.7,0.25 F,0,245299,,0
Sprite,Foreground,Centre,"sb\f\_008.png",386.3953,218.3334 F,0,241607,,1 S,0,241607,,0.5 R,0,241607,,2.094395 S,30,241607,241838,0.25,0.9 S,18,241838,242069,0.9,0.25 F,0,242069,,0
Sprite,Foreground,Centre,"sb\f\_009.png",386.3953,218.3334 F,0,242069,,1 S,0,242069,,0.5 R,0,242069,,2.094395 S,19,242069,242300,0.25,0.8 S,18,242300,242530,0.8,0.25 F,0,242530,,0
Sprite,Foreground,Centre,"sb\f\_00a.png",386.3953,218.3334 F,0,242530,,1 S,0,242530,,0.5 R,0,242530,,2.094395 S,19,242530,242761,0.25,0.6 S,18,242761,242992,0.6,0.25 F,0,242992,,0
Sprite,Foreground,Centre,"sb\f\_00b.png",386.3953,218.3334 F,0,242992,,1 S,0,242992,,0.5 R,0,242992,,2.094395 S,19,242992,243223,0.25,0.7 S,18,243223,243453,0.7,0.25 F,0,243453,,0
Sprite,Foreground,Centre,"sb\f\_00c.png",430.7254,151.5513 F,0,243453,,1 S,0,243453,,0.5 R,0,243453,,2.094395 S,19,243453,243684,0.25,0.7 F,0,243684,,0
Sprite,Foreground,Centre,"sb\f\_00c.png",353.2254,285.7853 F,0,243684,,1 S,0,243684,,0.5 R,0,243684,,2.094395 S,19,243684,243915,0.25,0.7 F,0,243915,,0
Sprite,Foreground,Centre,"sb\f\_00c.png",379.0748,191.0128 F,0,243915,,1 S,0,243915,,0.5 R,0,243915,,3.094395 S,19,243915,244030,0.25,0.7 F,0,244030,,0
Sprite,Foreground,Centre,"sb\f\_00c.png",359.0748,225.6539 F,0,244030,,1 S,0,244030,,0.5 R,0,244030,,1.094395 S,19,244030,244146,0.25,0.7 F,0,244146,,0
Sprite,Foreground,Centre,"sb\f\_00c.png",360.4145,203.3334 F,0,244146,,1 S,0,244146,,0.5 R,0,244146,,2.094395 S,19,244146,244376,0.25,0.7 F,0,244376,,0
Sprite,Foreground,Centre,"sb\f\_00d.png",386.3953,218.3334 F,0,244376,,1 S,0,244376,,0.5 R,0,244376,,2.094395 S,19,244376,244607,0.25,0.7 S,18,244607,244838,0.7,0.25 F,0,244838,,0
Sprite,Foreground,Centre,"sb\f\_00e.png",386.3953,218.3334 F,0,244838,,1 S,0,244838,,0.5 R,0,244838,,2.094395 S,19,244838,245069,0.25,0.7 S,18,245069,245299,0.7,0.25 F,0,245299,,0
Sprite,Foreground,Centre,"sb\f\_008.png",253.6047,218.3333 F,0,241607,,1 S,0,241607,,0.5 R,0,241607,,4.18879 S,30,241607,241838,0.25,0.9 S,18,241838,242069,0.9,0.25 F,0,242069,,0
Sprite,Foreground,Centre,"sb\f\_009.png",253.6047,218.3333 F,0,242069,,1 S,0,242069,,0.5 R,0,242069,,4.18879 S,19,242069,242300,0.25,0.8 S,18,242300,242530,0.8,0.25 F,0,242530,,0
Sprite,Foreground,Centre,"sb\f\_00a.png",253.6047,218.3333 F,0,242530,,1 S,0,242530,,0.5 R,0,242530,,4.18879 S,19,242530,242761,0.25,0.6 S,18,242761,242992,0.6,0.25 F,0,242992,,0
Sprite,Foreground,Centre,"sb\f\_00b.png",253.6047,218.3333 F,0,242992,,1 S,0,242992,,0.5 R,0,242992,,4.18879 S,19,242992,243223,0.25,0.7 S,18,243223,243453,0.7,0.25 F,0,243453,,0
Sprite,Foreground,Centre,"sb\f\_00c.png",289.2746,290.1153 F,0,243453,,1 S,0,243453,,0.5 R,0,243453,,4.18879 S,19,243453,243684,0.25,0.7 F,0,243684,,0
Sprite,Foreground,Centre,"sb\f\_00c.png",211.7746,155.8814 F,0,243684,,1 S,0,243684,,0.5 R,0,243684,,4.18879 S,19,243684,243915,0.25,0.7 F,0,243915,,0
Sprite,Foreground,Centre,"sb\f\_00c.png",280.9252,225.6538 F,0,243915,,1 S,0,243915,,0.5 R,0,243915,,5.18879 S,19,243915,244030,0.25,0.7 F,0,244030,,0
Sprite,Foreground,Centre,"sb\f\_00c.png",260.9252,191.0128 F,0,244030,,1 S,0,244030,,0.5 R,0,244030,,3.18879 S,19,244030,244146,0.25,0.7 F,0,244146,,0
Sprite,Foreground,Centre,"sb\f\_00c.png",279.5855,203.3333 F,0,244146,,1 S,0,244146,,0.5 R,0,244146,,4.18879 S,19,244146,244376,0.25,0.7 F,0,244376,,0
Sprite,Foreground,Centre,"sb\f\_00d.png",253.6047,218.3333 F,0,244376,,1 S,0,244376,,0.5 R,0,244376,,4.18879 S,19,244376,244607,0.25,0.7 S,18,244607,244838,0.7,0.25 F,0,244838,,0
Sprite,Foreground,Centre,"sb\f\_00e.png",253.6047,218.3333 F,0,244838,,1 S,0,244838,,0.5 R,0,244838,,4.18879 S,19,244838,245069,0.25,0.7 S,18,245069,245299,0.7,0.25 F,0,245299,,0
Sprite,Foreground,Centre,"sb\f\_008.png",320,103.3333 F,0,241146,,1 S,0,241146,,0.5 R,0,241146,,6.283185 S,30,241146,241377,0.25,0.65 S,30,241377,241608,0.25,0.65 F,0,241608,,0
Sprite,Foreground,Centre,"sb\f\_008.png",386.3953,218.3334 F,0,241146,,1 S,0,241146,,0.5 R,0,241146,,2.094395 S,30,241146,241377,0.25,0.65 S,30,241377,241608,0.25,0.65 F,0,241608,,0
Sprite,Foreground,Centre,"sb\f\_008.png",253.6047,218.3333 F,0,241146,,1 S,0,241146,,0.5 R,0,241146,,4.18879 S,30,241146,241377,0.25,0.65 S,30,241377,241608,0.25,0.65 F,0,241608,,0
Sprite,Foreground,Centre,"sb\f\_008.png",320,103.3333 F,0,245300,,1 S,0,245300,,0.5 R,0,245300,,6.283185 S,30,245300,245531,0.25,0.9 S,18,245531,245762,0.9,0.25 F,0,245762,,0
Sprite,Foreground,Centre,"sb\f\_009.png",320,103.3333 F,0,245762,,1 S,0,245762,,0.5 R,0,245762,,6.283185 S,19,245762,245993,0.25,0.8 S,18,245993,246223,0.8,0.25 F,0,246223,,0
Sprite,Foreground,Centre,"sb\f\_00a.png",320,103.3333 F,0,246223,,1 S,0,246223,,0.5 R,0,246223,,6.283185 S,19,246223,246454,0.25,0.6 S,18,246454,246685,0.6,0.25 F,0,246685,,0
Sprite,Foreground,Centre,"sb\f\_00b.png",320,103.3333 F,0,246685,,1 S,0,246685,,0.5 R,0,246685,,6.283185 S,19,246685,246916,0.25,0.7 S,18,246916,247146,0.7,0.25 F,0,247146,,0
Sprite,Foreground,Centre,"sb\f\_00c.png",240,98.33332 F,0,247146,,1 S,0,247146,,0.5 R,0,247146,,6.283185 S,19,247146,247377,0.25,0.7 F,0,247377,,0
Sprite,Foreground,Centre,"sb\f\_00c.png",395.0001,98.33335 F,0,247377,,1 S,0,247377,,0.5 R,0,247377,,6.283185 S,19,247377,247608,0.25,0.7 F,0,247608,,0
Sprite,Foreground,Centre,"sb\f\_00c.png",300,123.3333 F,0,247608,,1 S,0,247608,,0.5 R,0,247608,,7.283185 S,19,247608,247839,0.25,0.7 F,0,247839,,0
Sprite,Foreground,Centre,"sb\f\_00c.png",340,123.3333 F,0,247839,,1 S,0,247839,,0.5 R,0,247839,,5.283185 S,19,247839,247954,0.25,0.7 F,0,247954,,0
Sprite,Foreground,Centre,"sb\f\_00c.png",320,133.3333 F,0,247954,,1 S,0,247954,,0.5 R,0,247954,,6.283185 S,19,247954,248069,0.25,0.7 F,0,248069,,0
Sprite,Foreground,Centre,"sb\f\_00d.png",320,103.3333 F,0,248069,,1 S,0,248069,,0.5 R,0,248069,,6.283185 S,19,248069,248300,0.25,0.7 S,18,248300,248531,0.7,0.25 F,0,248531,,0
Sprite,Foreground,Centre,"sb\f\_00e.png",320,103.3333 F,0,248531,,1 S,0,248531,,0.5 R,0,248531,,6.283185 S,19,248531,248762,0.25,0.7 S,18,248762,248992,0.7,0.25 F,0,248992,,0
Sprite,Foreground,Centre,"sb\f\_008.png",386.3953,218.3334 F,0,245300,,1 S,0,245300,,0.5 R,0,245300,,2.094395 S,30,245300,245531,0.25,0.9 S,18,245531,245762,0.9,0.25 F,0,245762,,0
Sprite,Foreground,Centre,"sb\f\_009.png",386.3953,218.3334 F,0,245762,,1 S,0,245762,,0.5 R,0,245762,,2.094395 S,19,245762,245993,0.25,0.8 S,18,245993,246223,0.8,0.25 F,0,246223,,0
Sprite,Foreground,Centre,"sb\f\_00a.png",386.3953,218.3334 F,0,246223,,1 S,0,246223,,0.5 R,0,246223,,2.094395 S,19,246223,246454,0.25,0.6 S,18,246454,246685,0.6,0.25 F,0,246685,,0
Sprite,Foreground,Centre,"sb\f\_00b.png",386.3953,218.3334 F,0,246685,,1 S,0,246685,,0.5 R,0,246685,,2.094395 S,19,246685,246916,0.25,0.7 S,18,246916,247146,0.7,0.25 F,0,247146,,0
Sprite,Foreground,Centre,"sb\f\_00c.png",430.7254,151.5513 F,0,247146,,1 S,0,247146,,0.5 R,0,247146,,2.094395 S,19,247146,247377,0.25,0.7 F,0,247377,,0
Sprite,Foreground,Centre,"sb\f\_00c.png",353.2254,285.7853 F,0,247377,,1 S,0,247377,,0.5 R,0,247377,,2.094395 S,19,247377,247608,0.25,0.7 F,0,247608,,0
Sprite,Foreground,Centre,"sb\f\_00c.png",379.0748,191.0128 F,0,247608,,1 S,0,247608,,0.5 R,0,247608,,3.094395 S,19,247608,247839,0.25,0.7 F,0,247839,,0
Sprite,Foreground,Centre,"sb\f\_00c.png",359.0748,225.6539 F,0,247839,,1 S,0,247839,,0.5 R,0,247839,,1.094395 S,19,247839,247954,0.25,0.7 F,0,247954,,0
Sprite,Foreground,Centre,"sb\f\_00c.png",360.4145,203.3334 F,0,247954,,1 S,0,247954,,0.5 R,0,247954,,2.094395 S,19,247954,248069,0.25,0.7 F,0,248069,,0
Sprite,Foreground,Centre,"sb\f\_00d.png",386.3953,218.3334 F,0,248069,,1 S,0,248069,,0.5 R,0,248069,,2.094395 S,19,248069,248300,0.25,0.7 S,18,248300,248531,0.7,0.25 F,0,248531,,0
Sprite,Foreground,Centre,"sb\f\_00e.png",386.3953,218.3334 F,0,248531,,1 S,0,248531,,0.5 R,0,248531,,2.094395 S,19,248531,248762,0.25,0.7 S,18,248762,248992,0.7,0.25 F,0,248992,,0
Sprite,Foreground,Centre,"sb\f\_008.png",253.6047,218.3333 F,0,245300,,1 S,0,245300,,0.5 R,0,245300,,4.18879 S,30,245300,245531,0.25,0.9 S,18,245531,245762,0.9,0.25 F,0,245762,,0
Sprite,Foreground,Centre,"sb\f\_009.png",253.6047,218.3333 F,0,245762,,1 S,0,245762,,0.5 R,0,245762,,4.18879 S,19,245762,245993,0.25,0.8 S,18,245993,246223,0.8,0.25 F,0,246223,,0
Sprite,Foreground,Centre,"sb\f\_00a.png",253.6047,218.3333 F,0,246223,,1 S,0,246223,,0.5 R,0,246223,,4.18879 S,19,246223,246454,0.25,0.6 S,18,246454,246685,0.6,0.25 F,0,246685,,0
Sprite,Foreground,Centre,"sb\f\_00b.png",253.6047,218.3333 F,0,246685,,1 S,0,246685,,0.5 R,0,246685,,4.18879 S,19,246685,246916,0.25,0.7 S,18,246916,247146,0.7,0.25 F,0,247146,,0
Sprite,Foreground,Centre,"sb\f\_00c.png",289.2746,290.1153 F,0,247146,,1 S,0,247146,,0.5 R,0,247146,,4.18879 S,19,247146,247377,0.25,0.7 F,0,247377,,0
Sprite,Foreground,Centre,"sb\f\_00c.png",211.7746,155.8814 F,0,247377,,1 S,0,247377,,0.5 R,0,247377,,4.18879 S,19,247377,247608,0.25,0.7 F,0,247608,,0
Sprite,Foreground,Centre,"sb\f\_00c.png",280.9252,225.6538 F,0,247608,,1 S,0,247608,,0.5 R,0,247608,,5.18879 S,19,247608,247839,0.25,0.7 F,0,247839,,0
Sprite,Foreground,Centre,"sb\f\_00c.png",260.9252,191.0128 F,0,247839,,1 S,0,247839,,0.5 R,0,247839,,3.18879 S,19,247839,247954,0.25,0.7 F,0,247954,,0
Sprite,Foreground,Centre,"sb\f\_00c.png",279.5855,203.3333 F,0,247954,,1 S,0,247954,,0.5 R,0,247954,,4.18879 S,19,247954,248069,0.25,0.7 F,0,248069,,0
Sprite,Foreground,Centre,"sb\f\_00d.png",253.6047,218.3333 F,0,248069,,1 S,0,248069,,0.5 R,0,248069,,4.18879 S,19,248069,248300,0.25,0.7 S,18,248300,248531,0.7,0.25 F,0,248531,,0
Sprite,Foreground,Centre,"sb\f\_00e.png",253.6047,218.3333 F,0,248531,,1 S,0,248531,,0.5 R,0,248531,,4.18879 S,19,248531,248762,0.25,0.7 S,18,248762,248992,0.7,0.25 F,0,248992,,0
Sprite,Foreground,Centre,"sb\f\_00f.png",300,103.3333 F,0,265607,,1 S,0,265607,,0.5 R,0,265607,,6.383185 S,19,265607,266068,0,0.5 F,0,266530,,0
Sprite,Foreground,Centre,"sb\f\_007.png",335,130.3333 F,0,266068,,1 S,0,266068,,0.5 R,0,266068,,6.183186 S,19,266068,266530,0,0.5 F,0,266530,,0
Sprite,Foreground,Centre,"sb\f\_004.png",320,103.3333 F,0,266530,,1 S,0,266530,,0.5 R,0,266530,,6.283185 S,19,266530,266992,1,0.8 F,0,266992,,0
Sprite,Foreground,Centre,"sb\f\_00f.png",396.3953,201.0128 F,0,265607,,1 S,0,265607,,0.5 R,0,265607,,2.194395 S,19,265607,266068,0,0.5 F,0,266530,,0
Sprite,Foreground,Centre,"sb\f\_007.png",355.5126,217.8237 F,0,266068,,1 S,0,266068,,0.5 R,0,266068,,1.994395 S,19,266068,266530,0,0.5 F,0,266530,,0
Sprite,Foreground,Centre,"sb\f\_004.png",386.3953,218.3334 F,0,266530,,1 S,0,266530,,0.5 R,0,266530,,2.094395 S,19,266530,266992,1,0.8 F,0,266992,,0
Sprite,Foreground,Centre,"sb\f\_00f.png",263.6047,235.6538 F,0,265607,,1 S,0,265607,,0.5 R,0,265607,,4.28879 S,19,265607,266068,0,0.5 F,0,266530,,0
Sprite,Foreground,Centre,"sb\f\_007.png",269.4874,191.8429 F,0,266068,,1 S,0,266068,,0.5 R,0,266068,,4.08879 S,19,266068,266530,0,0.5 F,0,266530,,0
Sprite,Foreground,Centre,"sb\f\_004.png",253.6047,218.3333 F,0,266530,,1 S,0,266530,,0.5 R,0,266530,,4.18879 S,19,266530,266992,1,0.8 F,0,266992,,0
Sprite,Foreground,Centre,"sb\flash_gradient.png",320,240 F,0,0,,0 C,0,0,,139,0,0 P,0,0,314414,A F,3,46782,47182,0.5,0 F,3,50531,50931,0.5,0 F,3,54166,54566,0.5,0 F,3,57859,58259,0.5,0 F,3,61551,61951,0.5,0 F,3,65301,65701,0.5,0 F,3,68935,69335,0.5,0 F,3,89301,89701,0.5,0 F,3,92993,93393,0.5,0 F,3,104070,104470,0.5,0 F,3,107762,108162,0.5,0 F,3,111454,111854,0.5,0 F,3,115147,115547,0.5,0 F,3,118839,119239,0.5,0 F,3,122532,122932,0.5,0 F,3,126224,126624,0.5,0 F,3,129916,130316,0.5,0 F,3,133608,134008,0.5,0 F,3,140993,141393,0.5,0 F,3,144685,145085,0.5,0 F,3,148378,148778,0.5,0 F,3,150224,150624,0.5,0 F,3,152070,152470,0.5,0 F,3,153916,154316,0.5,0 F,3,155762,156162,0.5,0 F,3,157609,158009,0.5,0 F,3,159455,159855,0.5,0 F,3,161301,161701,0.5,0 F,3,190839,191239,0.5,0 F,3,194532,194932,0.5,0 F,3,198224,198624,0.5,0 F,3,201916,202316,0.5,0 F,3,221300,221700,0.5,0 F,3,224992,225392,0.5,0 F,3,228685,229085,0.5,0 F,3,232377,232777,0.5,0 F,3,236300,236700,0.5,0 F,3,243685,244085,0.5,0 F,3,247377,247777,0.5,0 F,3,250838,251238,0.5,0 F,3,252685,253085,0.5,0 F,3,254531,254931,0.5,0 F,3,256377,256777,0.5,0 F,3,258223,258623,0.5,0 F,3,260069,260469,0.5,0 F,3,261915,262315,0.5,0 F,3,263761,264161,0.5,0
Sprite,Foreground,Centre,"sb\pl2.png",0,0 C,0,11301,,255,15,21 M,0,11301,11358,297,204,325.4375,204 F,2,11301,11616,1,0 S,2,11301,11616,1,0.2 P,0,11301,11616,A M,0,11358,11416,325.4375,204,349.9566,190.0264
Sprite,Foreground,Centre,"sb\pl2.png",0,0 C,0,11531,,255,15,21 M,0,11531,11588,273,73,248.781,87.90402 F,2,11531,11846,1,0 S,2,11531,11846,1,0.2 P,0,11531,11846,A M,0,11588,11646,248.781,87.90402,235.2176,112.5649
Sprite,Foreground,Centre,"sb\pl2.png",0,0 C,0,15166,,255,15,21 M,0,15166,15223,64,236,92.85202,231.1913 F,2,15166,15596,1,0 S,2,15166,15596,1,0.2 P,0,15166,15596,A M,0,15223,15281,92.85202,231.1913,121.704,226.3827 M,0,15281,15339,121.704,226.3827,150.5561,221.574 M,0,15339,15396,150.5561,221.574,179.4081,216.7653
Sprite,Foreground,Centre,"sb\pl2.png",0,0 C,0,18224,,255,15,21 M,0,18224,18281,201,316,204.0269,288.5413 F,2,18224,18654,1,0 S,2,18224,18654,1,0.2 P,0,18224,18654,A M,0,18281,18339,204.0269,288.5413,207.0539,261.0827 M,0,18339,18397,207.0539,261.0827,210.0808,233.624 M,0,18397,18454,210.0808,233.624,213.1078,206.1653
Sprite,Foreground,Centre,"sb\pl2.png",0,0 C,0,18570,,255,15,21 M,0,18570,18627,222,218,219.0041,245.4621 F,2,18570,19000,1,0 S,2,18570,19000,1,0.2 P,0,18570,19000,A M,0,18627,18685,219.0041,245.4621,216.0083,272.9241 M,0,18685,18743,216.0083,272.9241,213.0124,300.3862 M,0,18743,18800,213.0124,300.3862,210.0166,327.8483
Sprite,Foreground,Centre,"sb\pl2.png",0,0 C,0,18916,,255,15,21 M,0,18916,18973,219,338,222.0269,310.5413 F,2,18916,19346,1,0 S,2,18916,19346,1,0.2 P,0,18916,19346,A M,0,18973,19031,222.0269,310.5413,225.0539,283.0827 M,0,19031,19089,225.0539,283.0827,228.0808,255.624 M,0,19089,19146,228.0808,255.624,231.1078,228.1653
Sprite,Foreground,Centre,"sb\pl2.png",0,0 C,0,22551,,255,15,21 M,0,22551,22608,576,262,546.9758,265.628 F,2,22551,22981,1,0 S,2,22551,22981,1,0.2 P,0,22551,22981,A M,0,22608,22666,546.9758,265.628,517.9518,269.256 M,0,22666,22724,517.9518,269.256,488.9276,272.884 M,0,22724,22781,488.9276,272.884,459.9035,276.5121
Sprite,Foreground,Centre,"sb\pl2.png",380,208 C,0,25608,,255,15,21 F,2,25608,25808,1,0 S,2,25608,25808,1,0.2 P,0,25608,25808,A
Sprite,Foreground,Centre,"sb\pl2.png",389,217 C,0,25724,,255,15,21 F,2,25724,25924,1,0 S,2,25724,25924,1,0.2 P,0,25724,25924,A
Sprite,Foreground,Centre,"sb\pl2.png",402,225 C,0,25839,,255,15,21 F,2,25839,26039,1,0 S,2,25839,26039,1,0.2 P,0,25839,26039,A
Sprite,Foreground,Centre,"sb\pl2.png",420,230 C,0,25954,,255,15,21 F,2,25954,26154,1,0 S,2,25954,26154,1,0.2 P,0,25954,26154,A
Sprite,Foreground,Centre,"sb\pl2.png",442,228 C,0,26070,,255,15,21 F,2,26070,26270,1,0 S,2,26070,26270,1,0.2 P,0,26070,26270,A
Sprite,Foreground,Centre,"sb\pl2.png",465,217 C,0,26185,,255,15,21 F,2,26185,26385,1,0 S,2,26185,26385,1,0.2 P,0,26185,26385,A
Sprite,Foreground,Centre,"sb\pl2.png",482,193 C,0,26301,,255,15,21 F,2,26301,26501,1,0 S,2,26301,26501,1,0.2 P,0,26301,26501,A
Sprite,Foreground,Centre,"sb\pl2.png",483,160 C,0,26416,,255,15,21 F,2,26416,26616,1,0 S,2,26416,26616,1,0.2 P,0,26416,26616,A
Sprite,Foreground,Centre,"sb\pl2.png",0,0 C,0,32993,,255,15,21 M,0,32993,33050,224,193,227.0269,220.4587 F,2,32993,33423,1,0 S,2,32993,33423,1,0.2 P,0,32993,33423,A M,0,33050,33108,227.0269,220.4587,230.0539,247.9173 M,0,33108,33166,230.0539,247.9173,233.0808,275.376 M,0,33166,33223,233.0808,275.376,236.1078,302.8347
Sprite,Foreground,Centre,"sb\pl2.png",0,0 C,0,33339,,255,15,21 M,0,33339,33396,245,291,242.0041,263.5379 F,2,33339,33769,1,0 S,2,33339,33769,1,0.2 P,0,33339,33769,A M,0,33396,33454,242.0041,263.5379,239.0083,236.0759 M,0,33454,33512,239.0083,236.0759,236.0124,208.6138 M,0,33512,33569,236.0124,208.6138,233.0166,181.1517
Sprite,Foreground,Centre,"sb\pl2.png",0,0 C,0,33685,,255,15,21 M,0,33685,33742,242,171,245.0269,198.4587 F,2,33685,34115,1,0 S,2,33685,34115,1,0.2 P,0,33685,34115,A M,0,33742,33800,245.0269,198.4587,248.0539,225.9173 M,0,33800,33858,248.0539,225.9173,251.0808,253.376 M,0,33858,33915,251.0808,253.376,254.1078,280.8347
Sprite,Foreground,Centre,"sb\pl2.png",0,0 C,0,46551,,255,15,21 M,0,46551,46608,217,222,187.9094,218.9502 F,2,46551,46981,1,0 S,2,46551,46981,1,0.2 P,0,46551,46981,A M,0,46608,46666,187.9094,218.9502,158.8189,215.9004 M,0,46666,46724,158.8189,215.9004,129.7283,212.8505 M,0,46724,46781,129.7283,212.8505,100.6377,209.8007
Sprite,Foreground,Centre,"sb\pl2.png",0,0 C,0,49608,,255,15,21 M,0,49608,49665,553,352,525.5413,355.0269 F,2,49608,50038,1,0 S,2,49608,50038,1,0.2 P,0,49608,50038,A M,0,49665,49723,525.5413,355.0269,498.0827,358.0539 M,0,49723,49781,498.0827,358.0539,470.624,361.0808 M,0,49781,49838,470.624,361.0808,443.1653,364.1078
Sprite,Foreground,Centre,"sb\pl2.png",0,0 C,0,49954,,255,15,21 M,0,49954,50011,455,373,482.4621,370.0042 F,2,49954,50384,1,0 S,2,49954,50384,1,0.2 P,0,49954,50384,A M,0,50011,50069,482.4621,370.0042,509.9241,367.0083 M,0,50069,50127,509.9241,367.0083,537.3862,364.0124 M,0,50127,50184,537.3862,364.0124,564.8483,361.0165
Sprite,Foreground,Centre,"sb\pl2.png",0,0 C,0,50300,,255,15,21 M,0,50300,50357,575,370,547.5413,373.0269 F,2,50300,50730,1,0 S,2,50300,50730,1,0.2 P,0,50300,50730,A M,0,50357,50415,547.5413,373.0269,520.0826,376.0539 M,0,50415,50473,520.0826,376.0539,492.624,379.0808 M,0,50473,50530,492.624,379.0808,465.1653,382.1078
Sprite,Foreground,Centre,"sb\pl2.png",0,0 C,0,53935,,255,15,21 M,0,53935,53992,506,248,476.8243,245.916 F,2,53935,54365,1,0 S,2,53935,54365,1,0.2 P,0,53935,54365,A M,0,53992,54050,476.8243,245.916,447.6487,243.832 M,0,54050,54108,447.6487,243.832,418.473,241.7481 M,0,54108,54165,418.473,241.7481,389.2973,239.6641
Sprite,Foreground,Centre,"sb\pl2.png",0,0 C,0,57628,,255,15,21 M,0,57628,57685,312,264,314.5122,293.1419 F,2,57628,58058,1,0 S,2,57628,58058,1,0.2 P,0,57628,58058,A M,0,57685,57743,314.5122,293.1419,317.0245,322.2838 M,0,57743,57801,317.0245,322.2838,319.5367,351.4258 M,0,57801,57858,319.5367,351.4258,322,380
Sprite,Foreground,Centre,"sb\pl2.png",0,0 C,0,61320,,255,15,21 M,0,61320,61377,329,181,299.983,177.3153 F,2,61320,61750,1,0 S,2,61320,61750,1,0.2 P,0,61320,61750,A M,0,61377,61435,299.983,177.3153,270.966,173.6306 M,0,61435,61493,270.966,173.6306,241.949,169.9459 M,0,61493,61550,241.949,169.9459,212.9321,166.2612
Sprite,Foreground,Centre,"sb\pl2.png",0,0 C,0,64378,,255,15,21 M,0,64378,64435,89,209,91.99586,181.5379 F,2,64378,64808,1,0 S,2,64378,64808,1,0.2 P,0,64378,64808,A M,0,64435,64493,91.99586,181.5379,94.99173,154.0759 M,0,64493,64551,94.99173,154.0759,97.98759,126.6138 M,0,64551,64608,97.98759,126.6138,100.9835,99.15171
Sprite,Foreground,Centre,"sb\pl2.png",0,0 C,0,64724,,255,15,21 M,0,64724,64781,94,88,91.00414,115.4621 F,2,64724,65154,1,0 S,2,64724,65154,1,0.2 P,0,64724,65154,A M,0,64781,64839,91.00414,115.4621,88.00827,142.9241 M,0,64839,64897,88.00827,142.9241,85.01241,170.3862 M,0,64897,64954,85.01241,170.3862,82.01655,197.8483
Sprite,Foreground,Centre,"sb\pl2.png",0,0 C,0,65070,,255,15,21 M,0,65070,65127,76,188,78.99586,160.5379 F,2,65070,65500,1,0 S,2,65070,65500,1,0.2 P,0,65070,65500,A M,0,65127,65185,78.99586,160.5379,81.99173,133.0759 M,0,65185,65243,81.99173,133.0759,84.98759,105.6138 M,0,65243,65300,84.98759,105.6138,87.98345,78.15171
Sprite,Foreground,Centre,"sb\pl2.png",0,0 C,0,68704,,255,15,21 M,0,68704,68761,239,364,268.0826,367.1246 F,2,68704,69134,1,0 S,2,68704,69134,1,0.2 P,0,68704,69134,A M,0,68761,68819,268.0826,367.1246,297.1653,370.2491 M,0,68819,68877,297.1653,370.2491,326.2479,373.3737 M,0,68877,68934,326.2479,373.3737,355.3305,376.4983
Sprite,Foreground,Centre,"sb\pl2.png",0,0 C,0,89070,,255,15,21 M,0,89070,89127,416,325,386.0028,326.981 F,2,89070,89443,1,0 S,2,89070,89443,1,0.2 P,0,89070,89443,A M,0,89127,89185,386.0028,326.981,356.0057,328.9619 M,0,89185,89243,356.0057,328.9619,326.0085,330.9428
Sprite,Foreground,Centre,"sb\pl2.png",0,0 C,0,92762,,255,15,21 M,0,92762,92819,295,333,298.2485,303.1135 F,2,92762,93135,1,0 S,2,92762,93135,1,0.2 P,0,92762,93135,A M,0,92819,92877,298.2485,303.1135,301.4971,273.2271 M,0,92877,92935,301.4971,273.2271,304.7456,243.3406
Sprite,Foreground,Centre,"sb\pl2.png",0,0 C,0,104070,,255,15,21 M,0,104070,104127,470,247,437.6546,250.1667 F,2,104070,104500,1,0 S,2,104070,104500,1,0.2 P,0,104070,104500,A M,0,104127,104185,437.6546,250.1667,405.3093,253.3334 M,0,104185,104243,405.3093,253.3334,372.9639,256.5 M,0,104243,104300,372.9639,256.5,340.6186,259.6667
Sprite,Foreground,Centre,"sb\pl2.png",0,0 C,0,107762,,255,15,21 M,0,107762,107819,444,292,445.2029,324.4777 F,2,107762,108192,1,0 S,2,107762,108192,1,0.2 P,0,107762,108192,A M,0,107819,107877,445.2029,324.4777,446.4058,356.9554 M,0,107877,107935,446.4058,356.9554,447.6086,389.4332 M,0,107935,107992,447.6086,389.4332,448.8115,421.9109
Sprite,Foreground,Centre,"sb\pl2.png",0,0 C,0,111454,,255,15,21 M,0,111454,111511,536,146,503.6276,148.8775 F,2,111454,111884,1,0 S,2,111454,111884,1,0.2 P,0,111454,111884,A M,0,111511,111569,503.6276,148.8775,471.2553,151.7551 M,0,111569,111627,471.2553,151.7551,438.8829,154.6326 M,0,111627,111684,438.8829,154.6326,406.5106,157.5102
Sprite,Foreground,Centre,"sb\pl2.png",0,0 C,0,115147,,255,15,21 M,0,115147,115204,70,163,99.83703,175.8842 F,2,115147,115577,1,0 S,2,115147,115577,1,0.2 P,0,115147,115577,A M,0,115204,115262,99.83703,175.8842,129.6741,188.7683 M,0,115262,115320,129.6741,188.7683,159.5111,201.6525 M,0,115320,115377,159.5111,201.6525,189.3481,214.5367
Sprite,Foreground,Centre,"sb\pl2.png",0,0 C,0,118608,,255,15,21 M,0,118608,118665,128,88,124.3528,117.8404 F,2,118608,118981,1,0 S,2,118608,118981,1,0.2 P,0,118608,118981,A M,0,118665,118723,124.3528,117.8404,120.7057,147.6809 M,0,118723,118781,120.7057,147.6809,117.0585,177.5213
Sprite,Foreground,Centre,"sb\pl2.png",0,0 C,0,122301,,255,15,21 M,0,122301,122358,368,368,364.7162,338.1174 F,2,122301,122674,1,0 S,2,122301,122674,1,0.2 P,0,122301,122674,A M,0,122358,122416,364.7162,338.1174,361.4324,308.2348 M,0,122416,122474,361.4324,308.2348,358.1486,278.3522
Sprite,Foreground,Centre,"sb\pl2.png",0,0 C,0,125993,,255,15,21 M,0,125993,126050,375,157,404.6288,162.0878 F,2,125993,126366,1,0 S,2,125993,126366,1,0.2 P,0,125993,126366,A M,0,126050,126108,404.6288,162.0878,434.2577,167.1756 M,0,126108,126166,434.2577,167.1756,463.8865,172.2633
Sprite,Foreground,Centre,"sb\pl2.png",0,0 C,0,129685,,255,15,21 M,0,129685,129742,530,154,500.2039,150.0067 F,2,129685,130058,1,0 S,2,129685,130058,1,0.2 P,0,129685,130058,A M,0,129742,129800,500.2039,150.0067,470.4078,146.0134 M,0,129800,129858,470.4078,146.0134,440.6117,142.0201
Sprite,Foreground,Centre,"sb\pl2.png",0,0 C,0,133608,,255,15,21 M,0,133608,133665,133,293,138.8654,324.9663 F,2,133608,133981,1,0 S,2,133608,133981,1,0.2 P,0,133608,133981,A M,0,133665,133723,138.8654,324.9663,144.7308,356.9327 M,0,133723,133781,144.7308,356.9327,150.5962,388.899
Sprite,Foreground,Centre,"sb\pl2.png",0,0 C,0,140993,,255,15,21 M,0,140993,141050,228,142,260.4332,144.0829 F,2,140993,141366,1,0 S,2,140993,141366,1,0.2 P,0,140993,141366,A M,0,141050,141108,260.4332,144.0829,292.8664,146.1657 M,0,141108,141166,292.8664,146.1657,325.2996,148.2486
Sprite,Foreground,Centre,"sb\pl2.png",0,0 C,0,144685,,255,15,21 M,0,144685,144742,110,162,105.0581,194.1221 F,2,144685,145058,1,0 S,2,144685,145058,1,0.2 P,0,144685,145058,A M,0,144742,144800,105.0581,194.1221,100.1163,226.2442 M,0,144800,144858,100.1163,226.2442,95.17442,258.3662
Sprite,Foreground,Centre,"sb\pl2.png",0,0 C,0,148147,,255,15,21 M,0,148147,148204,131,371,128.1348,341.0743 F,2,148147,148520,1,0 S,2,148147,148520,1,0.2 P,0,148147,148520,A M,0,148204,148262,128.1348,341.0743,125.2696,311.1487 M,0,148262,148320,125.2696,311.1487,122.4043,281.2231
Sprite,Foreground,Centre,"sb\pl2.png",0,0 C,0,149993,,255,15,21 M,0,149993,150050,465,212,435.0897,215.0212 F,2,149993,150366,1,0 S,2,149993,150366,1,0.2 P,0,149993,150366,A M,0,150050,150108,435.0897,215.0212,405.1794,218.0425 M,0,150108,150166,405.1794,218.0425,375.2691,221.0637
Sprite,Foreground,Centre,"sb\pl2.png",0,0 C,0,151839,,255,15,21 M,0,151839,151896,219,172,215.1529,201.8153 F,2,151839,152212,1,0 S,2,151839,152212,1,0.2 P,0,151839,152212,A M,0,151896,151954,215.1529,201.8153,211.3057,231.6306 M,0,151954,152012,211.3057,231.6306,207.4586,261.446
Sprite,Foreground,Centre,"sb\pl2.png",0,0 C,0,153685,,255,15,21 M,0,153685,153742,109,303,138.9049,306.0743 F,2,153685,154058,1,0 S,2,153685,154058,1,0.2 P,0,153685,154058,A M,0,153742,153800,138.9049,306.0743,168.8098,309.1487 M,0,153800,153858,168.8098,309.1487,198.7147,312.223
Sprite,Foreground,Centre,"sb\pl2.png",0,0 C,0,155531,,255,15,21 M,0,155531,155588,503,116,473.0005,114.0556 F,2,155531,155904,1,0 S,2,155531,155904,1,0.2 P,0,155531,155904,A M,0,155588,155646,473.0005,114.0556,443.0009,112.1112 M,0,155646,155704,443.0009,112.1112,413.0013,110.1668
Sprite,Foreground,Centre,"sb\pl2.png",0,0 C,0,157378,,255,15,21 M,0,157378,157435,310,322,306.5422,292.137 F,2,157378,157751,1,0 S,2,157378,157751,1,0.2 P,0,157378,157751,A M,0,157435,157493,306.5422,292.137,303.0844,262.274 M,0,157493,157551,303.0844,262.274,299.6265,232.4111
Sprite,Foreground,Centre,"sb\pl2.png",0,0 C,0,159224,,255,15,21 M,0,159224,159281,451,307,421.028,309.3311 F,2,159224,159597,1,0 S,2,159224,159597,1,0.2 P,0,159224,159597,A M,0,159281,159339,421.028,309.3311,391.056,311.6623 M,0,159339,159397,391.056,311.6623,361.084,313.9935
Sprite,Foreground,Centre,"sb\pl2.png",0,0 C,0,161070,,255,15,21 M,0,161070,161127,79,335,108.9722,332.6721 F,2,161070,161443,1,0 S,2,161070,161443,1,0.2 P,0,161070,161443,A M,0,161127,161185,108.9722,332.6721,138.9445,330.3441 M,0,161185,161243,138.9445,330.3441,168.9167,328.0162
Sprite,Foreground,Centre,"sb\pl2.png",0,0 C,0,170531,,255,15,21 M,0,170531,170588,553,409,547.1796,378.7281 F,2,170531,170846,1,0 S,2,170531,170846,1,0.2 P,0,170531,170846,A M,0,170588,170646,547.1796,378.7281,536.7281,349.7379
Sprite,Foreground,Centre,"sb\pl2.png",0,0 C,0,170762,,255,15,21 M,0,170762,170819,448,284,454.2364,253.8222 F,2,170762,171077,1,0 S,2,170762,171077,1,0.2 P,0,170762,171077,A M,0,170819,170877,454.2364,253.8222,465,226
Sprite,Foreground,Centre,"sb\pl2.png",0,0 C,0,170993,,255,15,21 M,0,170993,171050,438,394,407.2416,393.6704 F,2,170993,171308,1,0 S,2,170993,171308,1,0.2 P,0,170993,171308,A M,0,171050,171108,407.2416,393.6704,377.4055,386.1466
Sprite,Foreground,Centre,"sb\pl2.png",272,237 C,0,171224,,255,15,21 F,2,171224,171424,1,0 S,2,171224,171424,1,0.2 P,0,171224,171424,A
Sprite,Foreground,Centre,"sb\pl2.png",226,304 C,0,171339,,255,15,21 F,2,171339,171539,1,0 S,2,171339,171539,1,0.2 P,0,171339,171539,A
Sprite,Foreground,Centre,"sb\pl2.png",0,0 C,0,171454,,255,15,21 M,0,171454,171511,248,243,258.3207,271.9778 F,2,171454,171769,1,0 S,2,171454,171769,1,0.2 P,0,171454,171769,A M,0,171511,171569,258.3207,271.9778,261.2838,302.5657
Sprite,Foreground,Centre,"sb\pl2.png",0,0 C,0,171685,,255,15,21 M,0,171685,171742,351,146,342.5392,175.66 F,2,171685,172000,1,0 S,2,171685,172000,1,0.2 P,0,171685,172000,A M,0,171742,171800,342.5392,175.66,337.9302,206.1484
Sprite,Foreground,Centre,"sb\pl2.png",0,0 C,0,171916,,255,15,21 M,0,171916,171973,135,233,164.6454,224.4716 F,2,171916,172346,1,0 S,2,171916,172346,1,0.2 P,0,171916,172346,A M,0,171973,172031,164.6454,224.4716,195.0783,219.4666 M,0,172031,172089,195.0783,219.4666,225.8984,218.1856 M,0,172089,172146,225.8984,218.1856,256.6336,220.7888
Sprite,Foreground,Centre,"sb\pl2.png",118,221 C,0,172262,,255,15,21 F,2,172262,172462,1,0 S,2,172262,172462,1,0.2 P,0,172262,172462,A
Sprite,Foreground,Centre,"sb\pl2.png",0,0 C,0,177916,,255,15,21 M,0,177916,177973,222,141,206.0272,114.6723 F,2,177916,178231,1,0 S,2,177916,178231,1,0.2 P,0,177916,178231,A M,0,177973,178031,206.0272,114.6723,195.6456,85.69825
Sprite,Foreground,Centre,"sb\pl2.png",0,0 C,0,178147,,255,15,21 M,0,178147,178204,315,234,329.9034,207.0396 F,2,178147,178462,1,0 S,2,178147,178462,1,0.2 P,0,178147,178462,A M,0,178204,178262,329.9034,207.0396,339.5445,177.7962
Sprite,Foreground,Centre,"sb\pl2.png",445,86 C,0,178378,,255,15,21 F,2,178378,178578,1,0 S,2,178378,178578,1,0.2 P,0,178378,178578,A
Sprite,Foreground,Centre,"sb\pl2.png",0,0 C,0,178493,,255,15,21 M,0,178493,178550,360,96,390.7271,94.2002 F,2,178493,178808,1,0 S,2,178493,178808,1,0.2 P,0,178493,178808,A M,0,178550,178608,390.7271,94.2002,421.0638,99.25777
Sprite,Foreground,Centre,"sb\pl2.png",445,211 C,0,178724,,255,15,21 F,2,178724,178924,1,0 S,2,178724,178924,1,0.2 P,0,178724,178924,A
Sprite,Foreground,Centre,"sb\pl2.png",0,0 C,0,178839,,255,15,21 M,0,178839,178896,530,221,500.9151,230.9334 F,2,178839,179154,1,0 S,2,178839,179154,1,0.2 P,0,178839,179154,A M,0,178896,178954,500.9151,230.9334,470.2731,232.7645
Sprite,Foreground,Centre,"sb\pl2.png",280,242 C,0,179070,,255,15,21 F,2,179070,179270,1,0 S,2,179070,179270,1,0.2 P,0,179070,179270,A
Sprite,Foreground,Centre,"sb\pl2.png",306,317 C,0,179185,,255,15,21 F,2,179185,179385,1,0 S,2,179185,179385,1,0.2 P,0,179185,179385,A
Sprite,Foreground,Centre,"sb\pl2.png",0,0 C,0,179301,,255,15,21 M,0,179301,179358,311,252,304.0858,281.8203 F,2,179301,179904,1,0 S,2,179301,179904,1,0.2 P,0,179301,179904,A M,0,179358,179416,304.0858,281.8203,311,252 M,0,179416,179474,311,252,304.0858,281.8203 M,0,179474,179531,304.0858,281.8203,311,252 M,0,179531,179589,311,252,304.0858,281.8203 M,0,179589,179647,304.0858,281.8203,311,252 M,0,179647,179704,311,252,304.0858,281.8203
Sprite,Foreground,Centre,"sb\pl2.png",0,0 C,0,272992,,255,15,21 M,0,272992,273049,129,308,138.7128,337.1154 F,2,272992,273307,1,0 S,2,272992,273307,1,0.2 P,0,272992,273307,A M,0,273049,273107,138.7128,337.1154,139.5018,367.8116
Sprite,Foreground,Centre,"sb\pl2.png",0,0 C,0,273223,,255,15,21 M,0,273223,273280,237,196,226.8278,224.9276 F,2,273223,273538,1,0 S,2,273223,273538,1,0.2 P,0,273223,273538,A M,0,273280,273338,226.8278,224.9276,226.2396,255.604
Sprite,Foreground,Centre,"sb\pl2.png",0,0 C,0,273454,,255,15,21 M,0,273454,273511,69,203,99.73844,203.7684 F,2,273454,273769,1,0 S,2,273454,273769,1,0.2 P,0,273454,273769,A M,0,273511,273569,99.73844,203.7684,129.7375,196.9919
Sprite,Foreground,Centre,"sb\pl2.png",275,78 C,0,273684,,255,15,21 F,2,273684,273884,1,0 S,2,273684,273884,1,0.2 P,0,273684,273884,A
Sprite,Foreground,Centre,"sb\pl2.png",310,156 C,0,273800,,255,15,21 F,2,273800,274000,1,0 S,2,273800,274000,1,0.2 P,0,273800,274000,A
Sprite,Foreground,Centre,"sb\pl2.png",0,0 C,0,273915,,255,15,21 M,0,273915,273972,258,113,288.6997,113.2747 F,2,273915,274230,1,0 S,2,273915,274230,1,0.2 P,0,273915,274230,A M,0,273972,274030,288.6997,113.2747,317.9241,122.539
Sprite,Foreground,Centre,"sb\pl2.png",0,0 C,0,274146,,255,15,21 M,0,274146,274203,456,186,427.739,198.0368 F,2,274146,274461,1,0 S,2,274146,274461,1,0.2 P,0,274146,274461,A M,0,274203,274261,427.739,198.0368,397.278,201.6777
Sprite,Foreground,Centre,"sb\pl2.png",0,0 C,0,274377,,255,15,21 M,0,274377,274434,309,353,306.7884,322.2298 F,2,274377,274807,1,0 S,2,274377,274807,1,0.2 P,0,274377,274807,A M,0,274434,274492,306.7884,322.2298,308.0424,291.4103 M,0,274492,274550,308.0424,291.4103,312.8778,260.9398 M,0,274550,274607,312.8778,260.9398,321.4104,231.2949
Sprite,Foreground,Centre,"sb\pl2.png",320,381 C,0,274723,,255,15,21 F,2,274723,274923,1,0 S,2,274723,274923,1,0.2 P,0,274723,274923,A
Sprite,Foreground,Centre,"sb\pl2.png",0,0 C,0,280377,,255,15,21 M,0,280377,280434,151,111,119.8684,119.6929 F,2,280377,280692,1,0 S,2,280377,280692,1,0.2 P,0,280377,280692,A M,0,280434,280492,119.8684,119.6929,87.54764,119.2755
Sprite,Foreground,Centre,"sb\pl2.png",0,0 C,0,280607,,255,15,21 M,0,280607,280664,183,247,152.1931,237.5429 F,2,280607,280922,1,0 S,2,280607,280922,1,0.2 P,0,280607,280922,A M,0,280664,280722,152.1931,237.5429,120.035,239.5083
Sprite,Foreground,Centre,"sb\pl2.png",266,80 C,0,280838,,255,15,21 F,2,280838,281038,1,0 S,2,280838,281038,1,0.2 P,0,280838,281038,A
Sprite,Foreground,Centre,"sb\pl2.png",0,0 C,0,280954,,255,15,21 M,0,280954,281011,251,170,242.8564,138.6487 F,2,280954,281269,1,0 S,2,280954,281269,1,0.2 P,0,280954,281269,A M,0,281011,281069,242.8564,138.6487,243.5974,106.2667
Sprite,Foreground,Centre,"sb\pl2.png",379,301 C,0,281184,,255,15,21 F,2,281184,281384,1,0 S,2,281184,281384,1,0.2 P,0,281184,281384,A
Sprite,Foreground,Centre,"sb\pl2.png",0,0 C,0,281300,,255,15,21 M,0,281300,281357,364,211,366.0739,243.2299 F,2,281300,281615,1,0 S,2,281300,281615,1,0.2 P,0,281300,281615,A M,0,281357,281415,366.0739,243.2299,358.1842,274.5461
Sprite,Foreground,Centre,"sb\pl2.png",532,142 C,0,281530,,255,15,21 F,2,281530,281730,1,0 S,2,281530,281730,1,0.2 P,0,281530,281730,A
Sprite,Foreground,Centre,"sb\pl2.png",461,190 C,0,281646,,255,15,21 F,2,281646,281846,1,0 S,2,281646,281846,1,0.2 P,0,281646,281846,A
Sprite,Foreground,Centre,"sb\pl2.png",0,0 C,0,281761,,255,15,21 M,0,281761,281818,485,98,484.4741,130.4846 F,2,281761,282191,1,0 S,2,281761,282191,1,0.2 P,0,281761,282191,A M,0,281818,281876,484.4741,130.4846,486.3478,162.9164 M,0,281876,281934,486.3478,162.9164,490.6944,195.1107 M,0,281934,281991,490.6944,195.1107,497.4885,226.8799
Sprite,Foreground,Centre,"sb\pl2.png",505,69 C,0,282107,,255,15,21 F,2,282107,282307,1,0 S,2,282107,282307,1,0.2 P,0,282107,282307,A
Sprite,Foreground,Centre,"sb\pl2.png",0,0 C,0,287761,,255,15,21 M,0,287761,287818,492,96,493.9131,130.0498 F,2,287761,288076,1,0 S,2,287761,288076,1,0.2 P,0,287761,288076,A M,0,287818,287876,493.9131,130.0498,499.8084,163.6374
Sprite,Foreground,Centre,"sb\pl2.png",0,0 C,0,287992,,255,15,21 M,0,287992,288049,383,186,383.2526,220.0685 F,2,287992,288307,1,0 S,2,287992,288307,1,0.2 P,0,287992,288307,A M,0,288049,288107,383.2526,220.0685,377.024,253.5585
Sprite,Foreground,Centre,"sb\pl2.png",0,0 C,0,288223,,255,15,21 M,0,288223,288280,260,85,258.9496,119.0376 F,2,288223,288538,1,0 S,2,288223,288538,1,0.2 P,0,288223,288538,A M,0,288280,288338,258.9496,119.0376,265.2736,152.4935
Sprite,Foreground,Centre,"sb\pl2.png",138,281 C,0,288454,,255,15,21 F,2,288454,288654,1,0 S,2,288454,288654,1,0.2 P,0,288454,288654,A
Sprite,Foreground,Centre,"sb\pl2.png",163,193 C,0,288569,,255,15,21 F,2,288569,288769,1,0 S,2,288569,288769,1,0.2 P,0,288569,288769,A
Sprite,Foreground,Centre,"sb\pl2.png",0,0 C,0,288684,,255,15,21 M,0,288684,288741,111,237,144.2569,229.5926 F,2,288684,288999,1,0 S,2,288684,288999,1,0.2 P,0,288684,288999,A M,0,288741,288799,144.2569,229.5926,178.301,228.3963
Sprite,Foreground,Centre,"sb\pl2.png",0,0 C,0,288915,,255,15,21 M,0,288915,288972,273,353,238.98,350.9658 F,2,288915,289230,1,0 S,2,288915,289230,1,0.2 P,0,288915,289230,A M,0,288972,289030,238.98,350.9658,205.5865,344.1589
Sprite,Foreground,Centre,"sb\pl2.png",0,0 C,0,289146,,255,15,21 M,0,289146,289203,383,186,394.9559,217.9377 F,2,289146,289576,1,0 S,2,289146,289576,1,0.2 P,0,289146,289576,A M,0,289203,289261,394.9559,217.9377,402.9137,251.0963 M,0,289261,289319,402.9137,251.0963,406.7544,284.9777 M,0,289319,289376,406.7544,284.9777,406.4573,319.076
Sprite,Foreground,Centre,"sb\pl2.png",352,165 C,0,289492,,255,15,21 F,2,289492,289692,1,0 S,2,289492,289692,1,0.2 P,0,289492,289692,A
Sprite,Foreground,Centre,"sb\pl2.png",0,0 C,0,295146,,255,15,21 M,0,295146,295203,433,319,433.1446,354.6863 F,2,295146,295461,1,0 S,2,295146,295461,1,0.2 P,0,295146,295461,A M,0,295203,295261,433.1446,354.6863,440.03,389.6906
Sprite,Foreground,Centre,"sb\pl2.png",0,0 C,0,295377,,255,15,21 M,0,295377,295434,333,193,334.0339,228.6374 F,2,295377,295692,1,0 S,2,295377,295692,1,0.2 P,0,295377,295692,A M,0,295434,295492,334.0339,228.6374,326.6686,263.5032
Sprite,Foreground,Centre,"sb\pl2.png",236,385 C,0,295607,,255,15,21 F,2,295607,295807,1,0 S,2,295607,295807,1,0.2 P,0,295607,295807,A
Sprite,Foreground,Centre,"sb\pl2.png",0,0 C,0,295723,,255,15,21 M,0,295723,295780,149,369,182.882,358.0921 F,2,295723,296038,1,0 S,2,295723,296038,1,0.2 P,0,295723,296038,A M,0,295780,295838,182.882,358.0921,218.4724,357.8898
Sprite,Foreground,Centre,"sb\pl2.png",168,210 C,0,295954,,255,15,21 F,2,295954,296154,1,0 S,2,295954,296154,1,0.2 P,0,295954,296154,A
Sprite,Foreground,Centre,"sb\pl2.png",0,0 C,0,296070,,255,15,21 M,0,296070,296127,255,225,221.8809,237.796 F,2,296070,296385,1,0 S,2,296070,296385,1,0.2 P,0,296070,296385,A M,0,296127,296185,221.8809,237.796,186.3903,236.9437
Sprite,Foreground,Centre,"sb\pl2.png",370,127 C,0,296300,,255,15,21 F,2,296300,296500,1,0 S,2,296300,296500,1,0.2 P,0,296300,296500,A
Sprite,Foreground,Centre,"sb\pl2.png",442,197 C,0,296415,,255,15,21 F,2,296415,296615,1,0 S,2,296415,296615,1,0.2 P,0,296415,296615,A
Sprite,Foreground,Centre,"sb\pl2.png",0,0 C,0,296530,,255,15,21 M,0,296530,296587,405,145,404.459,180.146 F,2,296530,297133,1,0 S,2,296530,297133,1,0.2 P,0,296530,297133,A M,0,296587,296645,404.459,180.146,405,145 M,0,296645,296703,405,145,404.459,180.146 M,0,296703,296760,404.459,180.146,405,145 M,0,296760,296818,405,145,404.459,180.146 M,0,296818,296876,404.459,180.146,405,145 M,0,296876,296933,405,145,404.459,180.146
Sprite,Foreground,Centre,"sb\pl2.png",0,0 C,0,190608,,255,15,21 M,0,190608,190665,99,109,128.8865,112.2485 F,2,190608,190981,1,0 S,2,190608,190981,1,0.2 P,0,190608,190981,A M,0,190665,190723,128.8865,112.2485,158.7729,115.4971 M,0,190723,190781,158.7729,115.4971,188.6594,118.7456
Sprite,Foreground,Centre,"sb\pl2.png",0,0 C,0,194301,,255,15,21 M,0,194301,194358,154,193,158.0879,222.7833 F,2,194301,194674,1,0 S,2,194301,194674,1,0.2 P,0,194301,194674,A M,0,194358,194416,158.0879,222.7833,162.1758,252.5665 M,0,194416,194474,162.1758,252.5665,166.2637,282.3498
Sprite,Foreground,Centre,"sb\pl2.png",0,0 C,0,197993,,255,15,21 M,0,197993,198050,553,339,523.0295,336.6494 F,2,197993,198366,1,0 S,2,197993,198366,1,0.2 P,0,197993,198366,A M,0,198050,198108,523.0295,336.6494,493.0591,334.2987 M,0,198108,198166,493.0591,334.2987,463.0886,331.9481
Sprite,Foreground,Centre,"sb\pl2.png",0,0 C,0,201685,,255,15,21 M,0,201685,201742,121,278,150.9628,275.5541 F,2,201685,202058,1,0 S,2,201685,202058,1,0.2 P,0,201685,202058,A M,0,201742,201800,150.9628,275.5541,180.9257,273.1081 M,0,201800,201858,180.9257,273.1081,210.8885,270.6622
Sprite,Foreground,Centre,"sb\pl2.png",0,0 C,0,221069,,255,15,21 M,0,221069,221126,198,109,227.9438,111.6683 F,2,221069,221442,1,0 S,2,221069,221442,1,0.2 P,0,221069,221442,A M,0,221126,221184,227.9438,111.6683,257.8877,114.3365 M,0,221184,221242,257.8877,114.3365,287.8315,117.0048
Sprite,Foreground,Centre,"sb\pl2.png",0,0 C,0,224761,,255,15,21 M,0,224761,224818,400,300,370.0458,297.4507 F,2,224761,225134,1,0 S,2,224761,225134,1,0.2 P,0,224761,225134,A M,0,224818,224876,370.0458,297.4507,340.0916,294.9014 M,0,224876,224934,340.0916,294.9014,310.1374,292.3521
Sprite,Foreground,Centre,"sb\pl2.png",0,0 C,0,228454,,255,15,21 M,0,228454,228511,364,206,334.0244,208.2839 F,2,228454,228827,1,0 S,2,228454,228827,1,0.2 P,0,228454,228827,A M,0,228511,228569,334.0244,208.2839,304.0488,210.5677 M,0,228569,228627,304.0488,210.5677,274.0731,212.8516
Sprite,Foreground,Centre,"sb\pl2.png",0,0 C,0,232146,,255,15,21 M,0,232146,232203,233,389,236.8755,359.1884 F,2,232146,232519,1,0 S,2,232146,232519,1,0.2 P,0,232146,232519,A M,0,232203,232261,236.8755,359.1884,240.751,329.3767 M,0,232261,232319,240.751,329.3767,244.6265,299.5651
Sprite,Foreground,Centre,"sb\pl2.png",0,0 C,0,236069,,255,15,21 M,0,236069,236126,464,152,431.5843,149.6607 F,2,236069,236442,1,0 S,2,236069,236442,1,0.2 P,0,236069,236442,A M,0,236126,236184,431.5843,149.6607,399.1686,147.3214 M,0,236184,236242,399.1686,147.3214,367,145
Sprite,Foreground,Centre,"sb\pl2.png",0,0 C,0,243454,,255,15,21 M,0,243454,243511,240,242,207.8139,246.5061 F,2,243454,243827,1,0 S,2,243454,243827,1,0.2 P,0,243454,243827,A M,0,243511,243569,207.8139,246.5061,175.6278,251.0121 M,0,243569,243627,175.6278,251.0121,143.4417,255.5182
Sprite,Foreground,Centre,"sb\pl2.png",0,0 C,0,247146,,255,15,21 M,0,247146,247203,470,311,473.5536,278.6949 F,2,247146,247519,1,0 S,2,247146,247519,1,0.2 P,0,247146,247519,A M,0,247203,247261,473.5536,278.6949,477.1071,246.3897 M,0,247261,247319,477.1071,246.3897,480.6607,214.0846
Sprite,Foreground,Centre,"sb\pl2.png",0,0 C,0,250607,,255,15,21 M,0,250607,250664,532,144,502.0435,146.5226 F,2,250607,250980,1,0 S,2,250607,250980,1,0.2 P,0,250607,250980,A M,0,250664,250722,502.0435,146.5226,472.0871,149.0453 M,0,250722,250780,472.0871,149.0453,442.1306,151.5679
Sprite,Foreground,Centre,"sb\pl2.png",0,0 C,0,252454,,255,15,21 M,0,252454,252511,323,146,327.0758,175.7849 F,2,252454,252827,1,0 S,2,252454,252827,1,0.2 P,0,252454,252827,A M,0,252511,252569,327.0758,175.7849,331.1517,205.5698 M,0,252569,252627,331.1517,205.5698,335.2275,235.3548
Sprite,Foreground,Centre,"sb\pl2.png",0,0 C,0,254300,,255,15,21 M,0,254300,254357,64,87,93.98453,84.83617 F,2,254300,254673,1,0 S,2,254300,254673,1,0.2 P,0,254300,254673,A M,0,254357,254415,93.98453,84.83617,123.969,82.67233 M,0,254415,254473,123.969,82.67233,153.9536,80.50851
Sprite,Foreground,Centre,"sb\pl2.png",0,0 C,0,256146,,255,15,21 M,0,256146,256203,521,80,491.0372,82.44595 F,2,256146,256519,1,0 S,2,256146,256519,1,0.2 P,0,256146,256519,A M,0,256203,256261,491.0372,82.44595,461.0743,84.89189 M,0,256261,256319,461.0743,84.89189,431.1115,87.33784
Sprite,Foreground,Centre,"sb\pl2.png",0,0 C,0,257992,,255,15,21 M,0,257992,258049,292,325,295.6077,295.1548 F,2,257992,258365,1,0 S,2,257992,258365,1,0.2 P,0,257992,258365,A M,0,258049,258107,295.6077,295.1548,299.2153,265.3095 M,0,258107,258165,299.2153,265.3095,302.823,235.4643
Sprite,Foreground,Centre,"sb\pl2.png",0,0 C,0,259838,,255,15,21 M,0,259838,259895,367,77,370.4789,106.8605 F,2,259838,260211,1,0 S,2,259838,260211,1,0.2 P,0,259838,260211,A M,0,259895,259953,370.4789,106.8605,373.9578,136.7211 M,0,259953,260011,373.9578,136.7211,377.4367,166.5816
Sprite,Foreground,Centre,"sb\pl2.png",0,0 C,0,261684,,255,15,21 M,0,261684,261741,161,193,131.0067,195.0384 F,2,261684,262057,1,0 S,2,261684,262057,1,0.2 P,0,261684,262057,A M,0,261741,261799,131.0067,195.0384,101.0134,197.0768 M,0,261799,261857,101.0134,197.0768,71.02005,199.1151
Sprite,Foreground,Centre,"sb\pl2.png",0,0 C,0,263530,,255,15,21 M,0,263530,263587,505,162,508.6077,132.1548 F,2,263530,263903,1,0 S,2,263530,263903,1,0.2 P,0,263530,263903,A M,0,263587,263645,508.6077,132.1548,512.2153,102.3095 M,0,263645,263703,512.2153,102.3095,515.823,72.46426
Sprite,Foreground,Centre,"sb\ring.png",168,395 F,0,131301,,1 S,0,131301,131801,0.2,0.8 F,7,131801,132301,1,0 S,7,131801,132301,0.8,1.4
Sprite,Foreground,Centre,"sb\ring.png",358,197 F,0,203301,,1 S,0,203301,203801,0.2,0.8 F,7,203801,204301,1,0 S,7,203801,204301,0.8,1.4
Sprite,Foreground,Centre,"sb\ring.png",289,344 F,0,314414,,1 S,0,314414,316014,0.2,1.6 F,7,315214,316014,1,0
Sprite,Foreground,Centre,"sb\pl.png",321,344 C,0,303453,,128,128,128 S,19,303453,303968,0,3 F,2,303453,306768,0.1,0 R,0,303453,306768,0,0.5 P,0,303453,306768,A S,2,303968,306768,3,2
Sprite,Foreground,Centre,"sb\pl.png",385,312 C,0,307145,,128,128,128 S,19,307145,307660,0,3 F,2,307145,310460,0.1,0 R,0,307145,310460,0,0.5 P,0,307145,310460,A S,2,307660,310460,3,2
Sprite,Foreground,Centre,"sb\pl.png",375,246 C,0,310837,,128,128,128 S,19,310837,311352,0,3 F,2,310837,314152,0.1,0 R,0,310837,314152,0,0.5 P,0,310837,314152,A S,2,311352,314152,3,2
Sprite,Foreground,Centre,"sb\ring.png",0,0 M,0,299761,,488,362 C,0,299761,,193,193,193 M,0,299761,299876,488,362,449.3358,356.8934 F,2,299761,300276,1,0 S,29,299761,300276,0.4273757,0.09086627 P,0,299761,300276,A M,0,300453,300452,324.3417,336.1238 M,0,300453,,324.3417,336.1238 C,0,300453,,193,193,193 F,2,300453,300852,1,0 S,29,300453,300852,0.4708094,0.07336573 P,0,300453,300852,A M,0,300914,,216.5653,421.5473 C,0,300914,,193,193,193 M,0,300914,301145,216.5653,421.5473,203,345 F,2,300914,301545,1,0 S,29,300914,301545,0.413763,0.09976736 P,0,300914,301545,A M,0,301607,,84,201 C,0,301607,,152,173,201 M,0,301607,301837,84,201,161.4531,191.7794 F,2,301607,302237,1,0 S,29,301607,302237,0.4065981,0.08438101 P,0,301607,302237,A M,0,302414,302413,172.5736,329.5578 M,0,302414,,172.5736,329.5578 C,0,302414,,152,173,201 F,2,302414,302813,1,0 S,29,302414,302813,0.4357302,0.08814818 P,0,302414,302813,A M,0,302991,,110.8631,428.1118,110.8961,428.3697 M,0,302991,,110.8631,428.1118 C,0,302991,,152,173,201 F,2,302991,303391,1,0 S,29,302991,303391,0.4881042,0.06367257 P,0,302991,303391,A M,0,303453,,321,344 C,0,303453,,193,193,193 M,0,303453,303568,321,344,313.5311,305.7219 F,2,303453,303968,1,0 S,29,303453,303968,0.4853175,0.06106574 P,0,303453,303968,A M,0,304145,304144,309.1936,184.4922 M,0,304145,,309.1936,184.4922 C,0,304145,,193,193,193 F,2,304145,304544,1,0 S,29,304145,304544,0.4141781,0.08398745 P,0,304145,304544,A M,0,304607,,213.6797,100.335 C,0,304607,,193,193,193 M,0,304607,304837,213.6797,100.335,291,110 F,2,304607,305237,1,0 S,29,304607,305237,0.491342,0.09192895 P,0,304607,305237,A M,0,305299,,485,68 C,0,305299,,152,173,201 M,0,305299,305529,485,68,468.0794,144.1426 F,2,305299,305929,1,0 S,29,305299,305929,0.4190537,0.05504677 P,0,305299,305929,A M,0,306107,306106,505.8847,230.4786 M,0,306107,,505.8847,230.4786 C,0,306107,,152,173,201 F,2,306107,306506,1,0 S,29,306107,306506,0.4459205,0.06627504 P,0,306107,306506,A M,0,306684,306683,362.203,243.3761 M,0,306684,,362.203,243.3761 C,0,306684,,152,173,201 F,2,306684,307083,1,0 S,29,306684,307083,0.4062459,0.06474984 P,0,306684,307083,A M,0,307145,,385,312 C,0,307145,,193,193,193 M,0,307145,307260,385,312,378.4693,343.8371 F,2,307145,307660,1,0 S,29,307145,307660,0.417939,0.0611259 P,0,307145,307660,A M,0,307837,,221,290 C,0,307837,,193,193,193 F,2,307837,308237,1,0 S,29,307837,308237,0.4933479,0.09500521 P,0,307837,308237,A M,0,308299,,151,272 C,0,308299,,193,193,193 F,2,308299,308699,1,0 S,29,308299,308699,0.439013,0.09765214 P,0,308299,308699,A M,0,308761,,152,124 C,0,308761,,193,193,193 M,0,308761,308876,152,124 F,2,308761,309276,1,0 S,29,308761,309276,0.4322388,0.07849309 P,0,308761,309276,A M,0,309453,,349,167 C,0,309453,,152,173,201 F,2,309453,309853,1,0 S,29,309453,309853,0.404142,0.09944062 P,0,309453,309853,A M,0,309914,,263,167 C,0,309914,,152,173,201 M,0,309914,310029,263,167,260.4422,199.3992 F,2,309914,310429,1,0 S,29,309914,310429,0.4468421,0.05285042 P,0,309914,310429,A M,0,310607,,304,379 C,0,310607,,152,173,201 M,0,310607,310722,304,379,308.3523,346.7928 F,2,310607,311122,1,0 S,29,310607,311122,0.4598124,0.09666963 P,0,310607,311122,A M,0,311184,,473,300 C,0,311184,,193,193,193 F,2,311184,311584,1,0 S,29,311184,311584,0.4390889,0.06253742 P,0,311184,311584,A M,0,311645,,405,166 C,0,311645,,193,193,193 F,2,311645,312045,1,0 S,29,311645,312045,0.415744,0.0784043 P,0,311645,312045,A M,0,312222,,506,71 C,0,312222,,193,193,193 F,2,312222,312622,1,0 S,29,312222,312622,0.4487033,0.05778827 P,0,312222,312622,A M,0,312684,,533,146 C,0,312684,,152,173,201 M,0,312684,312914,533,146,526.6224,210.6864 F,2,312684,313314,1,0 S,29,312684,313314,0.4698359,0.05322268 P,0,312684,313314,A M,0,313491,,423.3563,314.4708,423.3775,314.6864 M,0,313491,,423.3563,314.4708 C,0,313491,,152,173,201 F,2,313491,313891,1,0 S,29,313491,313891,0.45531,0.07255397 P,0,313491,313891,A M,0,314068,314067,477.5913,398.7221 M,0,314068,,477.5913,398.7221 C,0,314068,,152,173,201 F,2,314068,314467,1,0 S,29,314068,314467,0.4490539,0.09814448 P,0,314068,314467,A
Sprite,Foreground,Centre,"sb\ring.png",0,0 M,0,299876,,449.4647,356.9104,449.3358,356.8934 M,0,299876,,449.4647,356.9104 C,0,299876,,193,193,193 F,2,299876,300276,1,0 S,29,299876,300276,0.4231977,0.07790806 P,0,299876,300276,A M,0,300568,,237,402 C,0,300568,,193,193,193 F,2,300568,300968,1,0 S,29,300568,300968,0.4367341,0.07347559 P,0,300568,300968,A M,0,301145,,203.0318,345.1792,203,345 M,0,301145,,203.0318,345.1792 C,0,301145,,193,193,193 F,2,301145,301545,1,0 S,29,301145,301545,0.4322819,0.06572959 P,0,301145,301545,A M,0,301837,,161.1949,191.8101,161.4531,191.7794 M,0,301837,,161.1949,191.8101 C,0,301837,,152,173,201 F,2,301837,302237,1,0 S,29,301837,302237,0.4453185,0.0540555 P,0,301837,302237,A M,0,302530,,120,275 C,0,302530,,152,173,201 M,0,302530,302645,120,275,81.27346,279.6103 F,2,302530,303045,1,0 S,29,302530,303045,0.4969606,0.06905022 P,0,302530,303045,A M,0,303222,,208,201 C,0,303222,,152,173,201 M,0,303222,303337,208,201,202.1791,239.5632 F,2,303222,303737,1,0 S,29,303222,303737,0.4092902,0.08973828 P,0,303222,303737,A M,0,303799,,362,222 C,0,303799,,193,193,193 F,2,303799,304199,1,0 S,29,303799,304199,0.4805087,0.09390958 P,0,303799,304199,A M,0,304261,,232,78 C,0,304261,,193,193,193 F,2,304261,304661,1,0 S,29,304261,304661,0.4375134,0.06092034 P,0,304261,304661,A M,0,304837,,290.8194,109.9774,291,110 M,0,304837,,290.8194,109.9774 C,0,304837,,193,193,193 F,2,304837,305237,1,0 S,29,304837,305237,0.4829857,0.08220576 P,0,304837,305237,A M,0,305530,305529,468.0794,144.1426 M,0,305530,,468.0794,144.1426 C,0,305530,,152,173,201 F,2,305530,305929,1,0 S,29,305530,305929,0.4270906,0.08592253 P,0,305530,305929,A M,0,306222,,459,182 C,0,306222,,152,173,201 M,0,306222,306337,459,182,467.9882,144.0499 F,2,306222,306737,1,0 S,29,306222,306737,0.4328963,0.07341988 P,0,306222,306737,A M,0,306914,,217,321 C,0,306914,,152,173,201 M,0,306914,307029,217,321,255.7222,316.3533 F,2,306914,307429,1,0 S,29,306914,307429,0.4477215,0.08316964 P,0,306914,307429,A M,0,307491,,314,393 C,0,307491,,193,193,193 F,2,307491,307891,1,0 S,29,307491,307891,0.4369605,0.09638187 P,0,307491,307891,A M,0,307953,,213,310 C,0,307953,,193,193,193 F,2,307953,308352,1,0 S,29,307953,308352,0.4321494,0.0546989 P,0,307953,308352,A M,0,308530,,132,198 C,0,308530,,193,193,193 F,2,308530,308930,1,0 S,29,308530,308930,0.4509375,0.05740281 P,0,308530,308930,A M,0,308991,,179,95 C,0,308991,,152,173,201 M,0,308991,309221,179,95,243.793,100.1834 F,2,308991,309621,1,0 S,29,308991,309621,0.4149515,0.05311542 P,0,308991,309621,A M,0,309799,309798,301.3417,147.656 M,0,309799,,301.3417,147.656 C,0,309799,,152,173,201 F,2,309799,310198,1,0 S,29,309799,310198,0.4719675,0.0753288 P,0,309799,310198,A M,0,310376,310375,241.4571,290.3083 M,0,310376,,241.4571,290.3083 C,0,310376,,152,173,201 F,2,310376,310775,1,0 S,29,310376,310775,0.4895841,0.08711645 P,0,310376,310775,A M,0,310837,,375,246 C,0,310837,,193,193,193 M,0,310837,310952,375,246,402.7095,262.9833 F,2,310837,311352,1,0 S,29,310837,311352,0.4384592,0.09152839 P,0,310837,311352,A M,0,311530,,423,172 C,0,311530,,193,193,193 F,2,311530,311930,1,0 S,29,311530,311930,0.4936563,0.06318419 P,0,311530,311930,A M,0,311991,,434,96 C,0,311991,,193,193,193 F,2,311991,312391,1,0 S,29,311991,312391,0.4029873,0.05388546 P,0,311991,312391,A M,0,312453,,567,120 C,0,312453,,193,193,193 M,0,312453,312568,567,120 F,2,312453,312968,1,0 S,29,312453,312968,0.4186347,0.08212607 P,0,312453,312968,A M,0,313145,,450,267 C,0,313145,,152,173,201 F,2,313145,313545,1,0 S,29,313145,313545,0.4783694,0.05358448 P,0,313145,313545,A M,0,313607,,404,342 C,0,313607,,152,173,201 M,0,313607,313722,404,342,395.729,373.4299 F,2,313607,314122,1,0 S,29,313607,314122,0.4980151,0.06944189 P,0,313607,314122,A M,0,314299,,289,344 C,0,314299,,152,173,201 F,2,314299,314699,1,0 S,29,314299,314699,0.4006428,0.0508435 P,0,314299,314699,A
Sprite,Foreground,Centre,"sb\ring.png",0,0 M,0,299991,,374,290 C,0,299991,,193,193,193 F,2,299991,300391,1,0 S,29,299991,300391,0.4793967,0.07794424 P,0,299991,300391,A M,0,300684,,203,345 C,0,300684,,193,193,193 M,0,300684,300914,203,345,216.6107,421.8033 F,2,300684,301545,1,0 S,29,300684,301545,0.4017849,0.05151835 P,0,300684,301545,A M,0,300914,301145,216.6107,421.8033,203,345 M,0,302068,,178,306 C,0,302068,,152,173,201 F,2,302068,302468,1,0 S,29,302068,302468,0.4812875,0.07266636 P,0,302068,302468,A M,0,302645,,81.40254,279.5949,81.27346,279.6103 M,0,302645,,81.40254,279.5949 C,0,302645,,152,173,201 F,2,302645,303045,1,0 S,29,302645,303045,0.4656858,0.09787276 P,0,302645,303045,A M,0,303337,,202.1985,239.4346,202.1791,239.5632 M,0,303337,,202.1985,239.4346 C,0,303337,,152,173,201 F,2,303337,303737,1,0 S,29,303337,303737,0.466284,0.07286044 P,0,303337,303737,A M,0,303914,,387,179 C,0,303914,,193,193,193 M,0,303914,304144,387,179,309.1936,184.4922 F,2,303914,304544,1,0 S,29,303914,304544,0.4174577,0.08676987 P,0,303914,304544,A M,0,305068,,438,101 C,0,305068,,193,193,193 M,0,305068,305183,438,101 F,2,305068,305583,1,0 S,29,305068,305583,0.4173186,0.06095938 P,0,305068,305583,A M,0,305761,,535,236 C,0,305761,,152,173,201 F,2,305761,306161,1,0 S,29,305761,306161,0.4874473,0.09525882 P,0,305761,306161,A M,0,306337,,467.9582,144.1764,467.9882,144.0499 M,0,306337,,467.9582,144.1764 C,0,306337,,152,173,201 F,2,306337,306737,1,0 S,29,306337,306737,0.4166503,0.09046019 P,0,306337,306737,A M,0,307030,307029,255.7222,316.3533 M,0,307030,,255.7222,316.3533 C,0,307030,,152,173,201 F,2,307030,307429,1,0 S,29,307030,307429,0.4667411,0.06433612 P,0,307030,307429,A M,0,307607,,324,409 C,0,307607,,193,193,193 F,2,307607,308007,1,0 S,29,307607,308007,0.4778658,0.09643538 P,0,307607,308007,A M,0,308068,,200,327 C,0,308068,,193,193,193 F,2,308068,308468,1,0 S,29,308068,308468,0.4850903,0.05534862 P,0,308068,308468,A M,0,308818,,140.3448,112.9583 C,0,308818,,193,193,193 M,0,308818,308876,140.3448,112.9583,152,124 F,2,308818,309276,1,0 S,29,308818,309276,0.4774597,0.08090911 P,0,308818,309276,A M,0,309568,,366,141 C,0,309568,,152,173,201 M,0,309568,309798,366,141,301.3417,147.656 F,2,309568,310198,1,0 S,29,309568,310198,0.4612863,0.07613701 P,0,309568,310198,A M,0,310722,,308.3378,346.9001,308.3523,346.7928 M,0,310722,,308.3378,346.9001 C,0,310722,,152,173,201 F,2,310722,311122,1,0 S,29,310722,311122,0.4869302,0.08498262 P,0,310722,311122,A M,0,311299,,491,294 C,0,311299,,193,193,193 F,2,311299,311699,1,0 S,29,311299,311699,0.4002885,0.07843447 P,0,311299,311699,A M,0,311761,,389,155 C,0,311761,,193,193,193 F,2,311761,312161,1,0 S,29,311761,312161,0.435401,0.07581831 P,0,311761,312161,A M,0,312511,,571.9008,135.4025 C,0,312511,,193,193,193 M,0,312511,312568,571.9008,135.4025,567,120 F,2,312511,312968,1,0 S,29,312511,312968,0.4424607,0.07764309 P,0,312511,312968,A M,0,313261,,417,250 C,0,313261,,152,173,201 M,0,313261,313491,417,250,423.3775,314.6864 F,2,313261,313891,1,0 S,29,313261,313891,0.4769759,0.05754163 P,0,313261,313891,A M,0,314414,,289,344 C,0,314414,,152,173,201 F,2,314414,314814,1,0 S,29,314414,314814,0.4346481,0.06391647 P,0,314414,314814,A
Sprite,Foreground,Centre,"sb\ring.png",0,0 M,0,300107,,358,300 C,0,300107,,193,193,193 F,2,300107,300507,1,0 S,29,300107,300507,0.4093973,0.07210889 P,0,300107,300507,A M,0,301376,,138,233 C,0,301376,,193,193,193 M,0,301376,301491,138,233 F,2,301376,301891,1,0 S,29,301376,301891,0.4183092,0.09240259 P,0,301376,301891,A M,0,302184,,249.6645,338.9591 C,0,302184,,152,173,201 M,0,302184,302413,249.6645,338.9591,172.5736,329.5578 F,2,302184,302813,1,0 S,29,302184,302813,0.4702828,0.09942719 P,0,302184,302813,A M,0,303568,,313.556,305.8495,313.5311,305.7219 M,0,303568,,313.556,305.8495 C,0,303568,,193,193,193 F,2,303568,303968,1,0 S,29,303568,303968,0.4589927,0.08593635 P,0,303568,303968,A M,0,304376,,291,110 C,0,304376,,193,193,193 M,0,304376,304606,291,110,213.6023,100.3253 F,2,304376,305237,1,0 S,29,304376,305237,0.4104638,0.09482199 P,0,304376,305237,A M,0,304606,304837,213.6023,100.3253,291,110 M,0,305876,,521,307 C,0,305876,,152,173,201 M,0,305876,306106,521,307,505.8847,230.4786 F,2,305876,306506,1,0 S,29,305876,306506,0.4810876,0.07384049 P,0,305876,306506,A M,0,307261,307260,378.4693,343.8371 M,0,307261,,378.4693,343.8371 C,0,307261,,193,193,193 F,2,307261,307660,1,0 S,29,307261,307660,0.4813128,0.05342594 P,0,307261,307660,A M,0,308876,,151.9214,123.9255,152,124 M,0,308876,,151.9214,123.9255 C,0,308876,,193,193,193 F,2,308876,309276,1,0 S,29,308876,309276,0.4994918,0.06804695 P,0,308876,309276,A M,0,310030,310029,260.4422,199.3992 M,0,310030,,260.4422,199.3992 C,0,310030,,152,173,201 F,2,310030,310429,1,0 S,29,310030,310429,0.4719446,0.07480394 P,0,310030,310429,A M,0,310953,310952,402.7095,262.9833 M,0,310953,,402.7095,262.9833 C,0,310953,,193,193,193 F,2,310953,311352,1,0 S,29,310953,311352,0.4314874,0.07848712 P,0,310953,311352,A M,0,312568,,567.0328,120.1032,567,120 M,0,312568,,567.0328,120.1032 C,0,312568,,193,193,193 F,2,312568,312968,1,0 S,29,312568,312968,0.4327511,0.09972733 P,0,312568,312968,A M,0,313722,,395.7565,373.3252,395.729,373.4299 M,0,313722,,395.7565,373.3252 C,0,313722,,152,173,201 F,2,313722,314122,1,0 S,29,313722,314122,0.4183955,0.06013021 P,0,313722,314122,A
Sprite,Foreground,Centre,"sb\ring.png",0,0 M,0,300222,,336,259 C,0,300222,,193,193,193 M,0,300222,300452,336,259,324.3417,336.1238 F,2,300222,300852,1,0 S,29,300222,300852,0.402245,0.06368522 P,0,300222,300852,A M,0,301434,,118.7884,230.3317 C,0,301434,,193,193,193 M,0,301434,301491,118.7884,230.3317,138,233 F,2,301434,301891,1,0 S,29,301434,301891,0.4008098,0.05163126 P,0,301434,301891,A M,0,302761,,101,351 C,0,302761,,152,173,201 M,0,302761,302991,101,351,110.8961,428.3697 F,2,302761,303391,1,0 S,29,302761,303391,0.4494871,0.08579863 P,0,302761,303391,A M,0,303684,,342,214 C,0,303684,,193,193,193 F,2,303684,304084,1,0 S,29,303684,304084,0.438017,0.07439841 P,0,303684,304084,A M,0,305126,,433.6781,82.09164 C,0,305126,,193,193,193 M,0,305126,305183,433.6781,82.09164,438,101 F,2,305126,305583,1,0 S,29,305126,305583,0.4000027,0.07406829 P,0,305126,305583,A M,0,306453,,440,249 C,0,306453,,152,173,201 M,0,306453,306683,440,249,362.203,243.3761 F,2,306453,307083,1,0 S,29,306453,307083,0.420637,0.0882253 P,0,306453,307083,A M,0,307376,,308,375 C,0,307376,,193,193,193 F,2,307376,307776,1,0 S,29,307376,307776,0.4375377,0.08465225 P,0,307376,307776,A M,0,309222,309221,243.793,100.1834 M,0,309222,,243.793,100.1834 C,0,309222,,152,173,201 F,2,309222,309621,1,0 S,29,309222,309621,0.4718353,0.0852488 P,0,309222,309621,A M,0,310145,,232,226 C,0,310145,,152,173,201 M,0,310145,310375,232,226,241.4571,290.3083 F,2,310145,310775,1,0 S,29,310145,310775,0.4153585,0.08065789 P,0,310145,310775,A M,0,311068,,457,311 C,0,311068,,193,193,193 F,2,311068,311468,1,0 S,29,311068,311468,0.4827232,0.05922664 P,0,311068,311468,A M,0,312914,,526.6437,210.4707,526.6224,210.6864 M,0,312914,,526.6437,210.4707 C,0,312914,,152,173,201 F,2,312914,313314,1,0 S,29,312914,313314,0.4534297,0.07415371 P,0,312914,313314,A M,0,313837,,413,406 C,0,313837,,152,173,201 M,0,313837,314067,413,406,477.5913,398.7221 F,2,313837,314467,1,0 S,29,313837,314467,0.4086371,0.05147885 P,0,313837,314467,A
Sprite,Foreground,Centre,"sb\ring.png",0,0 M,0,301491,,137.8712,232.9821,138,233 M,0,301491,,137.8712,232.9821 C,0,301491,,193,193,193 F,2,301491,301891,1,0 S,29,301491,301891,0.4300058,0.0763142 P,0,301491,301891,A M,0,305184,305183,438,101 M,0,305184,,438,101 C,0,305184,,193,193,193 F,2,305184,305583,1,0 S,29,305184,305583,0.4347795,0.0859863 P,0,305184,305583,A
Sprite,Foreground,Centre,"sb\pl2.png",0,0 C,0,181608,,193,193,193 M,0,181608,181665,252,301,271.2733,303.9651 F,2,181608,181923,1,0 S,2,181608,181923,0.75,0.15 P,0,181608,181923,A M,0,181665,181723,271.2733,303.9651,290.5465,306.9302
Sprite,Foreground,Centre,"sb\pl2.png",405,324 C,0,181839,,193,193,193 F,2,181839,182039,1,0 S,2,181839,182039,0.75,0.15 P,0,181839,182039,A
Sprite,Foreground,Centre,"sb\pl2.png",402,303 C,0,181954,,193,193,193 F,2,181954,182154,1,0 S,2,181954,182154,0.75,0.15 P,0,181954,182154,A
Sprite,Foreground,Centre,"sb\pl2.png",0,0 C,0,182070,,193,193,193 M,0,182070,182127,438,268,418.5944,269.9166 F,2,182070,182500,1,0 S,2,182070,182500,0.75,0.15 P,0,182070,182500,A M,0,182127,182185,418.5944,269.9166,399.1888,271.8332 M,0,182185,182243,399.1888,271.8332,379.7833,273.7498 M,0,182243,182300,379.7833,273.7498,360.3777,275.6664
Sprite,Foreground,Centre,"sb\pl2.png",275,178 C,0,182416,,193,193,193 F,2,182416,182616,1,0 S,2,182416,182616,0.75,0.15 P,0,182416,182616,A
Sprite,Foreground,Centre,"sb\pl2.png",0,0 C,0,182531,,193,193,193 M,0,182531,182588,294,242,296.5027,222.6613 F,2,182531,183192,1,0 S,2,182531,183192,0.75,0.15 P,0,182531,183192,A M,0,182588,182646,296.5027,222.6613,299.0053,203.3225 M,0,182646,182704,299.0053,203.3225,301.508,183.9838 M,0,182704,182761,301.508,183.9838,304.0106,164.6451 M,0,182761,182819,304.0106,164.6451,301.508,183.9838 M,0,182819,182877,301.508,183.9838,299.0053,203.3225 M,0,182877,182934,299.0053,203.3225,296.5027,222.6613 M,0,182934,182992,296.5027,222.6613,294,242
Sprite,Foreground,Centre,"sb\pl2.png",0,0 C,0,183224,,193,193,193 M,0,183224,183281,136,167,143.6814,184.9233 F,2,183224,183539,1,0 S,2,183224,183539,0.75,0.15 P,0,183224,183539,A M,0,183281,183339,143.6814,184.9233,136,167
Sprite,Foreground,Centre,"sb\pl2.png",0,0 C,0,183454,,152,173,201 M,0,183454,183511,105,127,124.356,129.3657 F,2,183454,183884,1,0 S,2,183454,183884,0.75,0.15 P,0,183454,183884,A M,0,183511,183569,124.356,129.3657,143.7119,131.7315 M,0,183569,183627,143.7119,131.7315,163.0679,134.0972 M,0,183627,183684,163.0679,134.0972,182.4239,136.4629
Sprite,Foreground,Centre,"sb\pl2.png",331,117 C,0,183916,,152,173,201 F,2,183916,184116,1,0 S,2,183916,184116,0.75,0.15 P,0,183916,184116,A
Sprite,Foreground,Centre,"sb\pl2.png",0,0 C,0,184031,,152,173,201 M,0,184031,184088,396,133,376.6247,135.2017 F,2,184031,184461,1,0 S,2,184031,184461,0.75,0.15 P,0,184031,184461,A M,0,184088,184146,376.6247,135.2017,357.2494,137.4035 M,0,184146,184204,357.2494,137.4035,337.8741,139.6052 M,0,184204,184261,337.8741,139.6052,318.4988,141.8069
Sprite,Foreground,Centre,"sb\pl2.png",0,0 C,0,184378,,152,173,201 M,0,184378,184435,435,190,454.2347,193.2058 F,2,184378,184693,1,0 S,2,184378,184693,0.75,0.15 P,0,184378,184693,A M,0,184435,184493,454.2347,193.2058,473.4694,196.4116
Sprite,Foreground,Centre,"sb\pl2.png",0,0 C,0,184608,,152,173,201 M,0,184608,184665,535,153,537.2018,172.3753 F,2,184608,185038,1,0 S,2,184608,185038,0.75,0.15 P,0,184608,185038,A M,0,184665,184723,537.2018,172.3753,539.4034,191.7506 M,0,184723,184781,539.4034,191.7506,541.6052,211.1259 M,0,184781,184838,541.6052,211.1259,543.8069,230.5012
Sprite,Foreground,Centre,"sb\pl2.png",0,0 C,0,185070,,152,173,201 M,0,185070,185127,399,334,402.8992,314.8938 F,2,185070,185385,1,0 S,2,185070,185385,0.75,0.15 P,0,185070,185385,A M,0,185127,185185,402.8992,314.8938,406.7984,295.7877
Sprite,Foreground,Centre,"sb\pl2.png",0,0 C,0,185301,,193,193,193 M,0,185301,185358,572,293,552.696,295.7577 F,2,185301,185616,1,0 S,2,185301,185616,0.75,0.15 P,0,185301,185616,A M,0,185358,185416,552.696,295.7577,533.392,298.5154
Sprite,Foreground,Centre,"sb\pl2.png",406,295 C,0,185531,,193,193,193 F,2,185531,185731,1,0 S,2,185531,185731,0.75,0.15 P,0,185531,185731,A
Sprite,Foreground,Centre,"sb\pl2.png",387,279 C,0,185647,,193,193,193 F,2,185647,185847,1,0 S,2,185647,185847,0.75,0.15 P,0,185647,185847,A
Sprite,Foreground,Centre,"sb\pl2.png",0,0 C,0,185762,,193,193,193 M,0,185762,185819,355,233,350.9288,252.0703 F,2,185762,186192,1,0 S,2,185762,186192,0.75,0.15 P,0,185762,186192,A M,0,185819,185877,350.9288,252.0703,346.8576,271.1406 M,0,185877,185935,346.8576,271.1406,342.7864,290.2108 M,0,185935,185992,342.7864,290.2108,338.7153,309.2811
Sprite,Foreground,Centre,"sb\pl2.png",203,251 C,0,186108,,193,193,193 F,2,186108,186308,1,0 S,2,186108,186308,0.75,0.15 P,0,186108,186308,A
Sprite,Foreground,Centre,"sb\pl2.png",0,0 C,0,186224,,193,193,193 M,0,186224,186281,268,267,248.611,269.0774 F,2,186224,186885,1,0 S,2,186224,186885,0.75,0.15 P,0,186224,186885,A M,0,186281,186339,248.611,269.0774,229.2219,271.1548 M,0,186339,186397,229.2219,271.1548,209.8329,273.2322 M,0,186397,186454,209.8329,273.2322,190.4439,275.3096 M,0,186454,186512,190.4439,275.3096,209.8329,273.2322 M,0,186512,186570,209.8329,273.2322,229.222,271.1548 M,0,186570,186627,229.222,271.1548,248.611,269.0774 M,0,186627,186685,248.611,269.0774,268,267
Sprite,Foreground,Centre,"sb\pl2.png",0,0 C,0,186916,,193,193,193 M,0,186916,186973,82,188,63.33803,182.3448 F,2,186916,187231,1,0 S,2,186916,187231,0.75,0.15 P,0,186916,187231,A M,0,186973,187031,63.33803,182.3448,82,188
Sprite,Foreground,Centre,"sb\pl2.png",0,0 C,0,187147,,152,173,201 M,0,187147,187204,104,147,106.2523,166.3695 F,2,187147,187577,1,0 S,2,187147,187577,0.75,0.15 P,0,187147,187577,A M,0,187204,187262,106.2523,166.3695,108.5045,185.739 M,0,187262,187320,108.5045,185.739,110.7568,205.1085 M,0,187320,187377,110.7568,205.1085,113.0091,224.478
Sprite,Foreground,Centre,"sb\pl2.png",133,365 C,0,187608,,152,173,201 F,2,187608,187808,1,0 S,2,187608,187808,0.75,0.15 P,0,187608,187808,A
Sprite,Foreground,Centre,"sb\pl2.png",0,0 C,0,187724,,152,173,201 M,0,187724,187781,76,329,95.22186,332.2818 F,2,187724,188154,1,0 S,2,187724,188154,0.75,0.15 P,0,187724,188154,A M,0,187781,187839,95.22186,332.2818,114.4437,335.5636 M,0,187839,187897,114.4437,335.5636,133.6656,338.8453 M,0,187897,187954,133.6656,338.8453,152.8874,342.1271
Sprite,Foreground,Centre,"sb\pl2.png",0,0 C,0,188070,,152,173,201 M,0,188070,188127,202,390,221.1372,386.2558 F,2,188070,188385,1,0 S,2,188070,188385,0.75,0.15 P,0,188070,188385,A M,0,188127,188185,221.1372,386.2558,240.2743,382.5115
Sprite,Foreground,Centre,"sb\pl2.png",0,0 C,0,188301,,152,173,201 M,0,188301,188358,313,344,310.526,363.3424 F,2,188301,188731,1,0 S,2,188301,188731,0.75,0.15 P,0,188301,188731,A M,0,188358,188416,310.526,363.3424,308.0519,382.6848 M,0,188416,188474,308.0519,382.6848,305.5779,402.0273 M,0,188474,188531,305.5779,402.0273,303.1039,421.3697
Sprite,Foreground,Centre,"sb\pl2.png",0,0 C,0,188762,,152,173,201 M,0,188762,188819,438,380,418.8067,383.4449 F,2,188762,189077,1,0 S,2,188762,189077,0.75,0.15 P,0,188762,189077,A M,0,188819,188877,418.8067,383.4449,399.6134,386.8899
Sprite,Foreground,Centre,"sb\pl2.png",0,0 C,0,138685,,223,164,223 M,0,138685,138742,179,344,186.9733,320.966 F,2,138685,139342,1,0 S,2,138685,139342,1,0.2 P,0,138685,139342,A
Sprite,Foreground,Centre,"sb\pl2.png",0,0 C,0,138916,,223,164,223 M,0,138916,138973,265,373,253.7545,351.3741 F,2,138916,139573,1,0 S,2,138916,139573,1,0.2 P,0,138916,139573,A
Sprite,Foreground,Centre,"sb\pl2.png",0,0 C,0,139147,,131,239,209 M,0,139147,139204,423,344,398.7175,341.8782 F,2,139147,139977,1,0 S,2,139147,139977,1,0.2 P,0,139147,139977,A M,0,139204,139262,398.7175,341.8782,374.4351,339.7565 M,0,139262,139320,374.4351,339.7565,350.1526,337.6347 M,0,139320,139377,350.1526,337.6347,325.8701,335.5129
Sprite,Foreground,Centre,"sb\pl2.png",0,0 C,0,241146,,223,164,223 M,0,241146,241203,370,365,346.3528,359.0882 F,2,241146,241803,1,0 S,2,241146,241803,1,0.2 P,0,241146,241803,A
Sprite,Foreground,Centre,"sb\pl2.png",0,0 C,0,241377,,223,164,223 M,0,241377,241434,403,282,380.8416,292.1559 F,2,241377,242034,1,0 S,2,241377,242034,1,0.2 P,0,241377,242034,A
Sprite,Foreground,Centre,"sb\pl2.png",0,0 C,0,241607,,131,239,209 M,0,241607,241664,385,117,381.2585,141.0861 F,2,241607,242437,1,0 S,2,241607,242437,1,0.2 P,0,241607,242437,A M,0,241664,241722,381.2585,141.0861,377.5169,165.1723 M,0,241722,241780,377.5169,165.1723,373.7754,189.2584 M,0,241780,241837,373.7754,189.2584,370.0339,213.3445
//Storyboard Sound Samples

[TimingPoints]
4378,461.538461538462,4,2,1,50,1,0
4378,-125,4,2,1,50,0,0
11301,-57.1428571428571,4,2,1,50,0,0
11416,-57.1428571428571,4,2,99,5,0,0
11531,-57.1428571428571,4,2,1,50,0,0
11647,-57.1428571428571,4,2,99,5,0,0
11762,-100,4,2,1,60,0,0
15166,-55.5555555555556,4,2,1,60,0,0
15397,-58.8235294117647,4,2,99,5,0,0
15454,-100,4,2,1,60,0,0
17301,-200,4,2,1,60,0,0
18108,-200,4,2,99,5,0,0
18224,-58.8235294117647,4,2,50,60,0,0
18454,-58.8235294117647,4,2,1,60,0,0
18570,-58.8235294117647,4,2,50,60,0,0
18801,-58.8235294117647,4,2,1,60,0,0
18916,-58.8235294117647,4,2,50,60,0,0
19147,-58.8235294117647,4,2,1,60,0,0
19378,-100,4,2,1,60,0,0
22551,-55.5555555555556,4,2,1,60,0,0
22781,-58.8235294117647,4,2,99,5,0,0
22839,-100,4,2,1,60,0,0
32993,-58.8235294117647,4,2,50,60,0,0
33224,-58.8235294117647,4,2,1,60,0,0
33339,-58.8235294117647,4,2,50,60,0,0
33570,-58.8235294117647,4,2,1,60,0,0
33685,-58.8235294117647,4,2,50,60,0,0
33916,-100,4,2,1,60,0,0
46551,-55.5555555555556,4,2,1,60,0,0
46781,-58.8235294117647,4,2,99,5,0,0
46839,-100,4,2,1,60,0,0
49608,-58.8235294117647,4,2,50,60,0,0
49839,-58.8235294117647,4,2,1,60,0,0
49954,-58.8235294117647,4,2,50,60,0,0
50185,-58.8235294117647,4,2,1,60,0,0
50301,-58.8235294117647,4,2,50,60,0,0
50531,-100,4,2,1,60,0,0
53935,-55.5555555555556,4,2,1,60,0,0
54166,-58.8235294117647,4,2,99,5,0,0
54224,-100,4,2,1,60,0,0
57628,-55.5555555555556,4,2,1,60,0,0
57858,-58.8235294117647,4,2,99,5,0,0
57916,-100,4,2,1,60,0,0
61320,-55.5555555555556,4,2,1,60,0,0
61551,-58.8235294117647,4,2,99,5,0,0
61608,-100,4,2,1,60,0,0
64378,-58.8235294117647,4,2,50,60,0,0
64608,-58.8235294117647,4,2,1,60,0,0
64724,-58.8235294117647,4,2,50,60,0,0
64954,-58.8235294117647,4,2,1,60,0,0
65070,-58.8235294117647,4,2,50,60,0,0
65301,-100,4,2,1,60,0,0
68704,-55.5555555555556,4,2,1,60,0,0
68935,-58.8235294117647,4,2,99,5,0,0
68993,-100,4,2,1,60,0,0
72685,-83.3333333333333,4,2,2,60,0,0
87454,-71.4285714285714,4,2,2,70,0,0
89070,-54.054054054054,4,2,2,70,0,0
89243,-54.054054054054,4,2,99,5,0,0
89301,-71.4285714285714,4,2,2,70,0,0
90685,-111.111111111111,4,2,2,70,0,0
91147,-71.4285714285714,4,2,2,70,0,0
92762,-54.054054054054,4,2,2,70,0,0
92935,-52.6315789473684,4,2,99,5,0,0
92993,-71.4285714285714,4,2,2,70,0,0
94378,-111.111111111111,4,2,2,70,0,0
94839,-71.4285714285714,4,2,2,70,0,0
98070,-111.111111111111,4,2,2,70,0,0
98531,-71.4285714285714,4,2,2,70,0,0
99743,-71.4285714285714,4,2,99,5,0,0
99916,-71.4285714285714,4,2,2,70,0,0
99974,-71.4285714285714,4,2,99,5,0,0
100147,-71.4285714285714,4,2,2,70,0,0
100204,-71.4285714285714,4,2,99,5,0,0
100378,-400,4,2,2,70,0,0
100724,-400,4,2,2,30,0,0
102166,-400,4,2,99,5,0,0
102224,-66.6666666666667,4,2,2,70,0,0
104070,-50,4,2,2,70,0,0
104301,-66.6666666666667,4,2,2,70,0,0
105454,-111.111111111111,4,2,2,70,0,0
105858,-111.111111111111,4,2,100,5,0,0
105916,-66.6666666666667,4,2,2,70,0,0
107762,-50,4,2,2,70,0,0
107993,-66.6666666666667,4,2,2,70,0,0
111454,-50,4,2,2,70,0,0
111916,-66.6666666666667,4,2,2,70,0,0
112839,-111.111111111111,4,2,2,70,0,0
113243,-111.111111111111,4,2,99,5,0,0
113301,-66.6666666666666,4,2,2,70,0,0
115147,-50,4,2,2,70,0,0
116070,-400,4,2,2,30,0,0
116993,-71.4285714285714,4,2,2,60,0,0
118608,-54.054054054054,4,2,2,60,0,0
118781,-52.6315789473684,4,2,99,5,0,0
118839,-71.4285714285714,4,2,2,60,0,0
120224,-111.111111111111,4,2,2,60,0,0
120685,-71.4285714285714,4,2,2,60,0,0
122301,-54.054054054054,4,2,2,60,0,0
122474,-54.054054054054,4,2,99,5,0,0
122531,-71.4285714285714,4,2,2,60,0,0
123916,-111.111111111111,4,2,2,60,0,0
124378,-71.4285714285714,4,2,2,70,0,0
125993,-54.054054054054,4,2,2,70,0,0
126166,-54.054054054054,4,2,99,70,0,0
126224,-71.4285714285714,4,2,2,70,0,0
127608,-111.111111111111,4,2,2,70,0,0
128070,-71.4285714285714,4,2,2,70,0,0
129685,-54.054054054054,4,2,2,70,0,0
129858,-52.6315789473684,4,2,99,5,0,0
129916,-400,4,2,2,70,0,0
130262,-400,4,2,2,30,0,0
130839,-400,4,2,2,70,0,0
131762,-66.6666666666667,4,2,2,70,0,0
133608,-50,4,2,2,70,0,0
133781,-50,4,2,99,5,0,0
133839,-66.6666666666667,4,2,2,70,0,0
137301,-400,4,2,2,70,0,0
137762,-66.6666666666667,4,2,2,70,0,0
138743,-66.6666666666667,4,2,99,5,0,0
138916,-66.6666666666667,4,2,2,70,0,0
138974,-66.6666666666667,4,2,99,5,0,0
139147,-66.6666666666667,4,2,2,70,0,0
140993,-50,4,2,2,70,0,0
141166,-50,4,2,99,5,0,0
141224,-66.6666666666667,4,2,2,70,0,0
144685,-50,4,2,2,70,0,0
144858,-50,4,2,99,5,0,0
144916,-66.6666666666667,4,2,2,70,0,0
146531,-100,4,2,2,50,0,0
148147,-54.054054054054,4,2,2,50,0,0
148320,-54.054054054054,4,2,99,5,0,0
148378,-100,4,2,2,50,0,0
149993,-54.054054054054,4,2,2,50,0,0
150166,-54.054054054054,4,2,99,5,0,0
150224,-100,4,2,2,50,0,0
151839,-54.054054054054,4,2,2,50,0,0
152012,-54.054054054054,4,2,99,5,0,0
152070,-100,4,2,2,50,0,0
153685,-54.054054054054,4,2,2,50,0,0
153858,-54.054054054054,4,2,99,5,0,0
153916,-100,4,2,2,50,0,0
155531,-54.054054054054,4,2,2,50,0,0
155704,-54.054054054054,4,2,99,5,0,0
155762,-100,4,2,2,50,0,0
157378,-54.054054054054,4,2,2,50,0,0
157551,-54.054054054054,4,2,99,5,0,0
157608,-100,4,2,2,50,0,0
159224,-54.054054054054,4,2,2,50,0,0
159397,-54.054054054054,4,2,99,5,0,0
159454,-100,4,2,2,50,0,0
161070,-54.054054054054,4,2,2,50,0,0
161243,-54.054054054054,4,2,99,5,0,0
161301,-71.4285714285714,4,2,2,60,0,0
163147,-400,4,2,2,60,0,0
163493,-400,4,2,2,30,0,0
164993,-62.5,4,2,2,70,0,1
165108,-62.5,4,2,2,70,0,0
166839,-62.5,4,2,2,70,0,1
166954,-62.5,4,2,2,70,0,0
168685,-62.5,4,2,2,70,0,1
168801,-62.5,4,2,2,70,0,0
170531,-52.6315789473684,4,2,2,70,0,1
172262,-52.6315789473684,4,2,2,70,0,0
172378,-62.5,4,2,2,70,0,1
172493,-62.5,4,2,2,70,0,0
174224,-62.5,4,2,2,70,0,1
174339,-62.5,4,2,2,70,0,0
176070,-62.5,4,2,2,70,0,1
176185,-62.5,4,2,2,70,0,0
177916,-52.6315789473684,4,2,2,70,0,1
179762,-100,4,2,2,50,0,0
181608,-83.3333333333333,4,2,2,60,0,0
188993,-71.4285714285714,4,2,2,60,0,0
190608,-54.054054054054,4,2,2,60,0,0
190781,-54.054054054054,4,2,99,5,0,0
190839,-71.4285714285714,4,2,2,60,0,0
192224,-111.111111111111,4,2,2,60,0,0
192685,-71.4285714285714,4,2,2,60,0,0
194301,-54.054054054054,4,2,2,60,0,0
194474,-54.054054054054,4,2,99,5,0,0
194531,-71.4285714285714,4,2,2,60,0,0
195916,-111.111111111111,4,2,2,60,0,0
196378,-71.4285714285714,4,2,2,60,0,0
197993,-54.054054054054,4,2,2,60,0,0
198166,-54.054054054054,4,2,99,5,0,0
198224,-71.4285714285714,4,2,2,60,0,0
199608,-111.111111111111,4,2,2,60,0,0
200070,-71.4285714285714,4,2,2,60,0,0
201685,-54.054054054054,4,2,2,60,0,0
201858,-54.054054054054,4,2,99,5,0,0
201916,-54.054054054054,4,2,2,60,0,0
203762,-66.6666666666667,4,2,2,60,0,0
210685,-133.333333333333,4,2,2,60,0,0
211147,-66.6666666666667,4,2,2,60,0,0
219454,461.538461538462,4,2,2,60,1,0
219454,-71.4285714285714,4,2,2,60,0,0
221069,-54.054054054054,4,2,2,60,0,0
221242,-54.054054054054,4,2,99,5,0,0
221300,-71.4285714285714,4,2,2,60,0,0
222684,-111.111111111111,4,2,2,60,0,0
223146,-71.4285714285714,4,2,2,60,0,0
224761,-54.054054054054,4,2,2,60,0,0
224934,-54.054054054054,4,2,99,5,0,0
224992,-71.4285714285714,4,2,2,60,0,0
226377,-111.111111111111,4,2,2,60,0,0
226838,-71.4285714285714,4,2,2,70,0,0
228454,-54.054054054054,4,2,2,70,0,0
228627,-54.054054054054,4,2,99,5,0,0
228684,-71.4285714285714,4,2,2,70,0,0
230069,-111.111111111111,4,2,2,70,0,0
230530,-71.4285714285714,4,2,2,70,0,0
232146,-54.054054054054,4,2,2,70,0,0
232319,-54.054054054054,4,2,99,5,0,0
232377,-400,4,2,2,70,0,0
232723,-400,4,2,2,30,0,0
232954,-83.3333333333333,4,2,2,30,0,0
234223,-66.6666666666667,4,2,2,70,0,0
236069,-50,4,2,2,70,0,0
236242,-50,4,2,99,5,0,0
236300,-66.6666666666667,4,2,2,70,0,0
239761,-400,4,2,2,70,0,0
240223,-66.6666666666667,4,2,2,70,0,0
241204,-66.6666666666667,4,2,99,5,0,0
241377,-66.6666666666667,4,2,2,70,0,0
241434,-66.6666666666667,4,2,99,5,0,0
241607,-66.6666666666667,4,2,2,70,0,0
243454,-50,4,2,2,70,0,0
243627,-50,4,2,99,5,0,0
243684,-66.6666666666667,4,2,2,70,0,0
247146,-50,4,2,2,70,0,0
247319,-50,4,2,99,5,0,0
247377,-66.6666666666667,4,2,2,70,0,0
248992,-100,4,2,2,50,0,0
250607,-54.054054054054,4,2,2,50,0,0
250780,-54.054054054054,4,2,99,5,0,0
250838,-100,4,2,2,50,0,0
252454,-54.054054054054,4,2,2,50,0,0
252627,-54.054054054054,4,2,99,5,0,0
252684,-100,4,2,2,50,0,0
254300,-54.054054054054,4,2,2,50,0,0
254473,-54.054054054054,4,2,99,5,0,0
254530,-100,4,2,2,50,0,0
256146,-54.054054054054,4,2,2,50,0,0
256319,-54.054054054054,4,2,99,5,0,0
256377,-100,4,2,2,50,0,0
257992,-54.054054054054,4,2,2,50,0,0
258165,-54.054054054054,4,2,99,5,0,0
258223,-100,4,2,2,50,0,0
259838,-54.054054054054,4,2,2,50,0,0
260011,-54.054054054054,4,2,99,5,0,0
260069,-100,4,2,2,50,0,0
261684,-54.054054054054,4,2,2,50,0,0
261857,-54.054054054054,4,2,99,5,0,0
261915,-100,4,2,2,50,0,0
263530,-54.054054054054,4,2,2,50,0,0
263704,-54.054054054054,4,2,99,5,0,0
263761,-71.4285714285714,4,2,2,60,0,0
265607,-400,4,2,2,60,0,0
265954,-400,4,2,2,30,0,0
267454,-62.5,4,2,2,70,0,1
267569,-62.5,4,2,2,70,0,0
269300,-62.5,4,2,2,70,0,1
269415,-62.5,4,2,2,70,0,0
271146,-62.5,4,2,2,70,0,1
271261,-62.5,4,2,2,70,0,0
272992,-52.6315789473684,4,2,2,70,0,1
274723,-52.6315789473684,4,2,2,70,0,0
274838,-58.8235294117647,4,2,2,70,0,1
274954,-58.8235294117647,4,2,2,70,0,0
276684,-58.8235294117647,4,2,2,70,0,1
276800,-58.8235294117647,4,2,2,70,0,0
278530,-58.8235294117647,4,2,2,70,0,1
278646,-58.8235294117647,4,2,2,70,0,0
280377,-50,4,2,2,70,0,1
282107,-50,4,2,2,70,0,0
282223,-55.5555555555556,4,2,2,70,0,1
282338,-55.5555555555556,4,2,2,70,0,0
284069,-55.5555555555556,4,2,2,70,0,1
284184,-55.5555555555556,4,2,2,70,0,0
285915,-55.5555555555556,4,2,2,70,0,1
286030,-55.5555555555556,4,2,2,70,0,0
287761,-47.6190476190476,4,2,2,70,0,1
289492,-47.6190476190476,4,2,2,70,0,0
289607,-52.6315789473684,4,2,2,70,0,1
289723,-52.6315789473684,4,2,2,70,0,0
291454,-52.6315789473684,4,2,2,70,0,1
291569,-52.6315789473684,4,2,2,70,0,0
293300,-52.6315789473684,4,2,2,70,0,1
293415,-52.6315789473684,4,2,2,70,0,0
295146,-45.4545454545455,4,2,2,70,0,1
296992,461.538461538462,6,2,2,50,1,0
296992,-52.6315789473684,4,2,2,50,0,0
299761,461.538461538462,4,2,2,60,1,0
299761,-83.3333333333333,4,2,2,60,0,0
307145,-100,4,2,2,50,0,0

[Colours]
Combo1 : 131,239,209
Combo2 : 193,193,193
Combo3 : 152,173,201
Combo4 : 45,169,230
Combo5 : 255,15,21
Combo6 : 112,171,165
Combo7 : 223,164,223

[HitObjects]
199,103,4378,6,0,L|311:113,1,104,6|2,0:0|0:3,0:0:0:0:
377,81,5070,1,2,0:0:0:0:
377,81,5301,2,0,L|381:138,1,52,8|2,0:0|0:0,0:0:0:0:
390,214,5762,1,2,0:3:0:0:
390,214,5878,1,2,0:0:0:0:
274,275,6224,2,0,L|288:193,2,78,2|2|2,0:0|0:0|0:0,0:0:0:0:
152,237,7147,2,0,L|204:230,1,52,8|2,0:0|0:0,0:0:0:0:
448,346,8070,6,0,L|342:337,1,104,6|2,0:0|0:3,0:0:0:0:
284,286,8762,1,2,0:0:0:0:
284,286,8993,2,0,L|222:298,1,52,8|2,0:0|0:0,0:0:0:0:
165,342,9454,1,2,0:3:0:0:
165,342,9570,1,2,0:0:0:0:
40,276,9916,2,0,L|48:225,1,52,2|2,0:0|0:0,0:0:0:0:
108,172,10378,2,0,L|91:62,1,104,2|8,0:0|0:0,0:0:0:0:
92,69,11070,1,2,0:0:0:0:
233,148,11301,22,0,B|263:148|263:148|286:134,1,56.8750005424023,8|0,0:3|0:0,0:0:0:0:
209,17,11531,2,0,B|183:33|183:33|171:57,1,56.8750005424023,8|0,0:3|0:0,0:0:0:0:
303,49,11762,54,0,L|368:59,1,65,6|2,0:0|0:0,0:0:0:0:
419,116,12108,1,0,0:0:0:0:
419,116,12224,2,0,L|352:131,1,65,2|2,0:3|0:0,0:0:0:0:
241,82,12685,2,0,L|253:152,1,65,8|2,0:0|0:0,0:0:0:0:
312,190,13031,2,0,L|300:260,1,65,0|2,0:0|0:0,0:0:0:0:
287,324,13378,1,2,0:0:0:0:
139,226,13608,6,0,L|242:216,2,97.5,6|2|2,0:0|0:0|0:0,0:0:0:0:
22,150,14531,2,0,L|94:161,1,65,8|2,0:0|0:0,0:0:0:0:
0,180,15166,22,0,L|126:159,1,116.999996429443,4|0,0:3|0:0,0:0:0:0:
134,137,15454,54,0,L|206:148,1,65,6|0,0:0|0:0,0:0:0:0:
184,218,15801,1,0,0:0:0:0:
184,218,15916,2,0,L|256:207,1,65,2|2,0:3|0:0,0:0:0:0:
379,80,16378,2,0,L|371:150,1,65,8|2,0:0|0:0,0:0:0:0:
433,179,16724,2,0,L|441:249,1,65,0|2,0:0|0:0,0:0:0:0:
413,311,17070,1,0,0:0:0:0:
318,248,17301,6,0,L|283:245,1,32.5,6|2,0:0|0:0,0:0:0:0:
235,197,17762,2,0,L|183:210,1,48.75,2|0,0:3|0:0,0:0:0:0:
137,260,18224,22,0,L|151:133,1,110.50000210762,10|2,0:0|0:0,0:0:0:0:
158,162,18570,2,0,L|146:272,1,110.50000210762,2|0,0:0|0:0,0:0:0:0:
155,282,18916,2,0,L|169:155,1,110.50000210762,2|6,0:0|0:0,0:0:0:0:
149,47,19378,53,0,0:0:0:0:
144,63,19493,1,0,0:0:0:0:
113,89,19608,2,0,L|185:83,1,65,2|2,0:3|0:0,0:0:0:0:
311,36,20070,2,0,L|242:24,1,65,10|2,0:0|0:0,0:0:0:0:
401,107,20531,1,2,0:3:0:0:
390,115,20647,1,2,0:0:0:0:
430,82,20762,2,0,L|422:152,1,65,0|6,0:0|0:0,0:0:0:0:
330,294,21339,6,0,L|317:183,1,97.5,2|2,0:0|0:0,0:0:0:0:
489,246,21916,2,0,L|425:239,1,65,8|2,0:0|0:0,0:0:0:0:
512,206,22551,22,0,L|392:221,1,116.999996429443,4|0,0:3|0:0,0:0:0:0:
381,251,22839,54,0,L|313:242,1,65,6|0,0:0|0:0,0:0:0:0:
295,173,23185,1,0,0:0:0:0:
295,173,23301,2,0,L|227:164,1,65,2|2,0:3|0:0,0:0:0:0:
174,276,23762,2,0,L|166:206,1,65,8|2,0:0|0:0,0:0:0:0:
117,115,24224,1,2,0:3:0:0:
105,133,24340,1,2,0:0:0:0:
80,94,24455,2,0,L|144:102,1,65,8|2,0:0|0:2,0:0:0:0:
232,52,24916,5,2,0:0:0:0:
232,52,25147,1,2,0:0:0:0:
232,52,25378,1,2,0:0:0:0:
316,152,25608,21,8,0:0:0:0:
325,161,25724,1,8,0:0:0:0:
338,169,25839,1,8,0:0:0:0:
356,174,25954,1,8,0:0:0:0:
378,172,26070,1,8,0:0:0:0:
401,161,26185,1,8,0:0:0:0:
418,137,26301,1,8,0:0:0:0:
419,104,26416,1,8,0:0:0:0:
398,75,26531,54,0,L|413:180,1,97.5,6|0,0:0|0:0,0:0:0:0:
473,211,26993,2,0,L|462:276,1,65,2|2,0:3|0:0,0:0:0:0:
302,173,27454,2,0,L|335:178,1,32.5,8|0,0:0|0:0,0:0:0:0:
362,252,27685,2,0,L|329:247,1,32.5,2|0,0:0|0:0,0:0:0:0:
252,236,27916,1,2,0:3:0:0:
252,236,28031,2,0,L|259:348,1,97.5,2|6,0:0|0:0,0:0:0:0:
188,166,28724,6,0,L|171:265,1,97.5,2|2,0:0|0:0,0:0:0:0:
274,103,29301,2,0,L|234:113,1,32.5,8|0,0:0|0:0,0:0:0:0:
177,146,29531,2,0,L|137:136,1,32.5,2|0,0:0|0:0,0:0:0:0:
94,82,29762,2,0,L|166:66,1,65,2|0,0:3|0:0,0:0:0:0:
427,312,30224,86,0,L|436:206,1,97.5,6|0,0:0|0:0,0:0:0:0:
488,164,30685,2,0,L|475:99,1,65,2|2,0:3|0:0,0:0:0:0:
356,49,31147,2,0,L|324:46,1,32.5,8|0,0:0|0:0,0:0:0:0:
265,99,31378,2,0,L|233:96,1,32.5,2|0,0:0|0:0,0:0:0:0:
189,36,31608,1,2,0:3:0:0:
189,36,31724,2,0,L|88:51,1,97.5,2|6,0:0|0:0,0:0:0:0:
63,162,32301,6,0,L|0:151,1,65,2|2,0:0|0:0,0:0:0:0:
183,182,32762,1,0,0:0:0:0:
191,168,32878,1,0,0:0:0:0:
160,137,32993,22,0,L|174:264,1,110.50000210762,10|2,0:0|0:0,0:0:0:0:
181,235,33339,2,0,L|169:125,1,110.50000210762,2|0,0:0|0:0,0:0:0:0:
178,115,33685,2,0,L|192:242,1,110.50000210762,2|6,0:0|0:0,0:0:0:0:
433,98,34378,54,0,L|420:163,1,65,2|2,0:3|0:0,0:0:0:0:
293,52,34839,2,0,L|302:86,1,32.5,8|0,0:0|0:0,0:0:0:0:
250,154,35070,2,0,L|241:122,1,32.5,2|0,0:0|0:0,0:0:0:0:
327,159,35301,1,2,0:3:0:0:
327,159,35416,2,0,L|435:168,1,97.5,2|6,0:0|0:0,0:0:0:0:
216,54,36108,6,0,L|113:67,1,97.5,2|2,0:0|0:0,0:0:0:0:
23,142,36685,2,0,L|56:148,1,32.5,8|0,0:0|0:0,0:0:0:0:
129,209,36916,2,0,L|98:204,1,32.5,2|0,0:0|0:0,0:0:0:0:
33,244,37147,2,0,L|43:316,1,65,2|0,0:3|0:0,0:0:0:0:
432,73,37608,86,0,L|418:171,1,97.5,6|0,0:0|0:0,0:0:0:0:
462,229,38070,2,0,L|451:304,1,65,2|2,0:3|0:0,0:0:0:0:
345,231,38531,2,0,L|377:230,1,32.5,8|0,0:0|0:0,0:0:0:0:
285,180,38762,2,0,L|253:181,1,32.5,2|0,0:0|0:0,0:0:0:0:
179,242,38993,2,0,L|211:241,1,32.5,2|2,0:3|0:0,0:0:0:0:
123,189,39224,1,8,0:0:0:0:
241,68,39454,6,0,L|231:168,2,97.5,6|2|2,0:0|0:0|0:0,0:0:0:0:
367,62,40378,2,0,L|351:0,1,65,8|2,0:0|0:0,0:0:0:0:
463,180,40839,1,8,0:0:0:0:
466,157,40954,1,8,0:0:0:0:
469,134,41070,1,8,0:0:0:0:
472,111,41185,1,8,0:0:0:0:
383,257,43147,38,0,L|304:269,1,65,6|0,0:0|0:0,0:0:0:0:
331,338,43493,2,0,L|257:329,1,65
153,253,43954,1,0,0:0:0:0:
153,253,44070,2,0,L|157:299,1,32.5,8|0,0:0|0:0,0:0:0:0:
139,352,44301,1,2,0:0:0:0:
131,334,44416,1,0,0:0:0:0:
124,317,44531,1,2,0:3:0:0:
252,215,44762,1,0,0:0:0:0:
244,233,44877,1,0,0:0:0:0:
224,258,44993,54,0,L|216:183,1,65,6|0,0:0|0:0,0:0:0:0:
153,166,45339,2,0,L|145:91,1,65,2|0,0:0|0:0,0:0:0:0:
270,43,45801,1,0,0:0:0:0:
270,43,45916,2,0,L|231:38,1,32.5,8|0,0:0|0:0,0:0:0:0:
251,106,46147,1,2,0:0:0:0:
270,100,46262,1,0,0:0:0:0:
289,94,46378,1,2,0:3:0:0:
153,166,46551,22,0,L|29:153,1,116.999996429443,4|0,0:3|0:0,0:0:0:0:
49,122,46839,6,0,L|120:114,1,65,6|0,0:0|0:0,0:0:0:0:
105,46,47185,2,0,L|176:54,1,65
293,97,47647,1,0,0:0:0:0:
293,97,47762,2,0,L|289:59,1,32.5,8|0,0:0|0:0,0:0:0:0:
320,3,47993,1,2,0:0:0:0:
312,21,48108,1,0,0:0:0:0:
305,38,48223,1,2,0:3:0:0:
408,76,48454,1,0,0:0:0:0:
416,94,48569,1,0,0:0:0:0:
456,68,48685,54,0,L|449:133,1,65,6|2,0:0|0:0,0:0:0:0:
388,164,49031,2,0,L|380:228,1,65
439,339,49493,1,0,0:0:0:0:
489,296,49608,22,0,L|362:310,1,110.50000210762,10|2,0:0|0:0,0:0:0:0:
391,317,49954,2,0,L|501:305,1,110.50000210762,2|0,0:0|0:0,0:0:0:0:
511,314,50300,2,0,L|384:328,1,110.50000210762,2|6,0:0|0:0,0:0:0:0:
315,221,50762,5,0,0:0:0:0:
315,221,50878,2,0,L|386:229,1,65
255,285,51339,1,0,0:0:0:0:
255,285,51454,2,0,L|213:292,1,32.5,8|0,0:0|0:0,0:0:0:0:
172,337,51685,1,2,0:0:0:0:
149,332,51801,1,0,0:0:0:0:
127,328,51916,1,2,0:3:0:0:
67,204,52147,1,0,0:0:0:0:
71,226,52262,1,0,0:0:0:0:
95,255,52378,54,0,L|102:190,1,65,6|0,0:0|0:0,0:0:0:0:
165,163,52724,2,0,L|157:98,1,65,2|0,0:0|0:0,0:0:0:0:
255,194,53185,1,0,0:0:0:0:
255,194,53301,2,0,L|261:160,1,32.5,8|0,0:0|0:0,0:0:0:0:
311,116,53531,1,2,0:0:0:0:
305,96,53647,1,0,0:0:0:0:
299,77,53762,1,2,0:3:0:0:
442,192,53935,22,0,L|302:182,1,116.999996429443,4|0,0:3|0:0,0:0:0:0:
350,207,54224,6,0,L|414:199,1,65,6|0,0:0|0:0,0:0:0:0:
420,131,54570,2,0,L|484:138,1,65
364,31,55031,1,0,0:0:0:0:
364,31,55147,2,0,L|368:73,1,32.5,8|0,0:0|0:0,0:0:0:0:
299,77,55378,1,2,0:0:0:0:
279,71,55494,1,0,0:0:0:0:
242,91,55608,2,0,L|200:81,1,32.5,2|2,0:3|0:0,0:0:0:0:
143,96,55839,1,8,0:0:0:0:
14,48,56070,54,0,L|21:112,1,65,2|0,0:0|0:0,0:0:0:0:
85,135,56416,2,0,L|92:199,1,65,2|0,0:0|0:0,0:0:0:0:
210,268,56878,1,0,0:0:0:0:
210,268,56993,2,0,L|176:262,1,32.5,8|0,0:0|0:0,0:0:0:0:
109,265,57224,1,2,0:0:0:0:
89,271,57340,1,0,0:0:0:0:
70,277,57455,1,2,0:3:0:0:
248,208,57628,22,0,L|258:324,1,116.999996429443,4|0,0:3|0:0,0:0:0:0:
280,297,57916,6,0,L|287:233,1,65,6|0,0:0|0:0,0:0:0:0:
355,239,58262,2,0,L|348:175,1,65
476,204,58724,1,0,0:0:0:0:
476,204,58840,2,0,L|434:200,1,32.5,8|0,0:0|0:0,0:0:0:0:
386,162,59070,1,2,0:0:0:0:
366,168,59186,1,0,0:0:0:0:
347,174,59301,1,2,0:3:0:0:
280,297,59531,1,0,0:0:0:0:
261,291,59646,1,0,0:0:0:0:
227,255,59762,54,0,L|234:319,1,65,6|0,0:0|0:0,0:0:0:0:
166,310,60108,2,0,L|173:374,1,65,2|0,0:0|0:0,0:0:0:0:
9,298,60570,1,0,0:0:0:0:
9,298,60686,2,0,L|51:302,1,32.5,8|0,0:0|0:0,0:0:0:0:
104,275,60916,1,2,0:0:0:0:
100,254,61032,1,0,0:0:0:0:
96,234,61147,1,2,0:3:0:0:
265,125,61320,22,0,L|139:109,1,116.999996429443,4|0,0:3|0:0,0:0:0:0:
166,139,61608,6,0,L|230:132,1,65,6|0,0:0|0:0,0:0:0:0:
257,194,61954,2,0,L|321:187,1,65
434,108,62416,1,0,0:0:0:0:
434,108,62531,2,0,L|430:150,1,32.5,8|0,0:0|0:0,0:0:0:0:
395,198,62762,1,2,0:0:0:0:
389,178,62878,1,0,0:0:0:0:
383,159,62993,1,2,0:3:0:0:
273,77,63224,1,0,0:0:0:0:
279,58,63339,1,0,0:0:0:0:
321,31,63454,54,0,L|257:24,1,65,6|2,0:0|0:0,0:0:0:0:
204,70,63801,2,0,L|140:77,1,65
0,94,64262,1,0,0:0:0:0:
25,153,64378,22,0,L|37:43,1,110.50000210762,10|2,0:0|0:0,0:0:0:0:
30,32,64724,2,0,L|18:142,1,110.50000210762,2|0,0:0|0:0,0:0:0:0:
12,132,65070,2,0,L|24:22,1,110.50000210762,2|6,0:0|0:0,0:0:0:0:
143,81,65531,5,0,0:0:0:0:
143,81,65647,2,0,L|150:145,1,65
251,54,66108,1,0,0:0:0:0:
251,54,66224,2,0,L|243:96,1,32.5,8|0,0:0|0:0,0:0:0:0:
216,147,66454,1,2,0:0:0:0:
218,167,66570,1,0,0:0:0:0:
221,187,66685,1,2,0:3:0:0:
324,89,66916,1,0,0:0:0:0:
321,109,67031,1,0,0:0:0:0:
304,141,67147,54,0,L|368:134,1,65,6|0,0:0|0:0,0:0:0:0:
410,188,67493,2,0,L|474:181,1,65,2|0,0:0|0:0,0:0:0:0:
431,310,67954,1,0,0:0:0:0:
431,310,68070,2,0,L|439:268,1,32.5,8|0,0:0|0:0,0:0:0:0:
373,251,68301,1,2,0:0:0:0:
353,253,68417,1,0,0:0:0:0:
335,255,68532,1,2,0:3:0:0:
175,308,68704,22,0,L|296:321,1,116.999996429443,4|0,0:3|0:0,0:0:0:0:
264,342,68993,6,0,L|200:349,1,65,6|0,0:0|0:0,0:0:0:0:
137,378,69339,2,0,L|73:371,1,65
12,247,69801,1,0,0:0:0:0:
12,247,69917,2,0,L|54:255,1,32.5,8|0,0:0|0:0,0:0:0:0:
104,284,70147,1,2,0:0:0:0:
124,282,70263,1,0,0:0:0:0:
158,288,70378,2,0,L|200:280,1,32.5,2|2,0:3|0:0,0:0:0:0:
256,268,70608,1,8,0:0:0:0:
469,99,72685,38,0,L|424:94,1,38.9999988098145,14|8,0:0|0:0,0:0:0:0:
337,41,72916,1,8,0:0:0:0:
329,58,73031,1,8,0:0:0:0:
292,26,73147,2,0,L|306:111,1,77.999997619629,10|8,0:0|0:0,0:0:0:0:
337,208,73493,1,8,0:0:0:0:
375,150,73608,2,0,L|359:232,2,77.999997619629,10|8|10,0:0|0:0|0:0,0:0:0:0:
219,167,74301,2,0,L|197:172,2,19.4999994049072,8|8|8,0:0|0:0|0:0,0:0:0:0:
246,202,74531,6,0,L|163:195,1,77.999997619629,10|8,0:0|0:0,0:0:0:0:
57,102,74993,1,10,0:0:0:0:
1,135,75108,2,0,L|101:123,1,77.999997619629,8|8,0:0|0:0,0:0:0:0:
125,76,75454,2,0,L|167:86,1,38.9999988098145,10|8,0:0|0:0,0:0:0:0:
223,119,75685,2,0,L|236:36,1,77.999997619629,8|2,0:0|0:0,0:0:0:0:
318,208,76147,2,0,L|314:163,1,38.9999988098145,8|8,0:0|0:0,0:0:0:0:
400,61,76378,86,0,L|394:103,1,38.9999988098145,14|8,0:0|0:0,0:0:0:0:
420,201,76608,1,8,0:0:0:0:
438,191,76724,1,8,0:0:0:0:
466,228,76839,2,0,L|379:220,1,77.999997619629,10|8,0:0|0:0,0:0:0:0:
282,318,77185,1,8,0:0:0:0:
343,283,77301,2,0,L|262:289,2,77.999997619629,10|8|10,0:0|0:0|0:0,0:0:0:0:
205,159,77993,2,0,L|210:184,2,19.4999994049072,8|8|8,0:0|0:0|0:0,0:0:0:0:
175,129,78224,6,0,L|165:212,1,77.999997619629,10|8,0:0|0:0,0:0:0:0:
48,304,78685,1,10,0:0:0:0:
84,359,78801,2,0,L|72:273,1,77.999997619629,8|8,0:0|0:0,0:0:0:0:
36,225,79147,2,0,L|52:180,1,38.9999988098145,10|8,0:0|0:0,0:0:0:0:
87,128,79378,2,0,L|5:119,1,77.999997619629,8|2,0:0|0:0,0:0:0:0:
199,13,79839,2,0,L|153:19,1,38.9999988098145,8|8,0:0|0:0,0:0:0:0:
313,111,80070,86,0,L|320:73,1,38.9999988098145,14|8,0:0|0:0,0:0:0:0:
395,22,80301,1,8,0:0:0:0:
400,41,80416,1,8,0:0:0:0:
445,10,80531,2,0,L|432:90,1,77.999997619629,10|8,0:0|0:0,0:0:0:0:
442,205,80878,1,8,0:0:0:0:
373,185,80993,2,0,L|460:173,2,77.999997619629,10|8|10,0:0|0:0|0:0,0:0:0:0:
244,82,81685,2,0,L|214:77,2,19.4999994049072,8|8|8,0:0|0:0|0:0,0:0:0:0:
196,50,81916,6,0,L|209:134,1,77.999997619629,10|8,0:0|0:0,0:0:0:0:
34,215,82378,1,10,0:0:0:0:
47,150,82493,2,0,L|61:234,1,77.999997619629,8|8,0:0|0:0,0:0:0:0:
120,257,82839,2,0,L|108:299,1,38.9999988098145,10|8,0:0|0:0,0:0:0:0:
71,356,83070,2,0,L|151:364,1,77.999997619629,8|2,0:0|0:0,0:0:0:0:
338,276,83531,2,0,L|290:286,1,38.9999988098145,8|8,0:0|0:0,0:0:0:0:
439,352,83762,86,0,L|449:298,1,38.9999988098145,14|8,0:0|0:0,0:0:0:0:
397,228,83993,1,8,0:0:0:0:
388,209,84108,1,8,0:0:0:0:
350,178,84224,2,0,L|438:186,1,77.999997619629,10|8,0:0|0:0,0:0:0:0:
496,69,84570,1,8,0:0:0:0:
435,107,84685,2,0,L|521:95,2,77.999997619629,10|8|10,0:0|0:0|0:0,0:0:0:0:
302,38,85378,2,0,L|268:29,2,19.4999994049072,8|8|8,0:0|0:0|0:0,0:0:0:0:
98,106,87454,70,0,L|153:96,1,45.4999986114502,14|8,0:0|0:0,0:0:0:0:
205,138,87685,2,0,L|249:129,1,45.4999986114502,8|8,0:0|0:0,0:0:0:0:
296,68,87916,1,10,0:0:0:0:
37,266,88147,2,0,L|47:217,1,45.4999986114502,8|8,0:0|0:0,0:0:0:0:
121,214,88378,2,0,L|102:304,2,90.9999972229005,10|8|10,0:0|0:0|0:0,0:0:0:0:
352,269,89070,70,0,L|246:276,1,90.187499655962,8|0,0:0|0:0,0:0:0:0:
231,298,89301,38,0,L|326:305,1,90.9999972229005,10|8,0:0|0:3,0:0:0:0:
369,357,89647,2,0,L|418:348,1,45.4999986114502,0|10,0:0|0:0,0:0:0:0:
501,274,89878,1,8,0:0:0:0:
491,206,89993,2,0,L|484:257,1,45.4999986114502,8|8,0:0|0:0,0:0:0:0:
409,280,90224,2,0,L|416:235,2,45.4999986114502,10|8|8,0:0|0:0|0:0,0:0:0:0:
296,65,90685,38,0,L|390:51,1,87.7499973220826,8|0,0:0|0:0,0:0:0:0:
405,95,91147,38,0,L|351:86,1,45.4999986114502,14|8,0:0|0:0,0:0:0:0:
304,136,91378,2,0,L|259:128,1,45.4999986114502,8|8,0:0|0:0,0:0:0:0:
215,65,91608,1,10,0:0:0:0:
15,109,91839,2,0,L|66:105,1,45.4999986114502,8|8,0:0|0:0,0:0:0:0:
90,173,92070,2,0,L|-14:182,2,90.9999972229005,10|8|10,0:0|0:0|0:0,0:0:0:0:
231,277,92762,70,0,L|241:185,1,90.187499655962,8|0,0:0|0:0,0:0:0:0:
249,153,92993,38,0,L|268:245,1,90.9999972229005,10|8,0:0|0:3,0:0:0:0:
320,291,93339,2,0,L|311:339,1,45.4999986114502,0|10,0:0|0:0,0:0:0:0:
335,208,93570,1,8,0:0:0:0:
406,233,93685,2,0,L|360:226,1,45.4999986114502,0|8,0:0|0:0,0:0:0:0:
391,303,93916,2,0,L|436:310,2,45.4999986114502,2|8|8,0:0|0:0|0:0,0:0:0:0:
129,41,94378,38,0,L|223:55,1,87.7499973220826,8|0,0:0|0:3,0:0:0:0:
206,75,94839,38,0,L|113:83,1,90.9999972229005,14|8,0:0|0:0,0:0:0:0:
47,93,95185,1,8,0:0:0:0:
47,93,95301,1,10,0:0:0:0:
279,80,95531,2,0,L|291:134,1,45.4999986114502,8|8,0:0|0:0,0:0:0:0:
314,155,95762,2,0,L|324:65,1,90.9999972229005,10|8,0:0|0:0,0:0:0:0:
383,14,96108,1,0,0:0:0:0:
383,14,96224,2,0,L|404:121,1,90.9999972229005,10|0,0:0|0:0,0:0:0:0:
404,26,96685,6,0,L|425:133,1,90.9999972229005,10|8,0:0|0:3,0:0:0:0:
488,144,97031,2,0,L|469:209,1,45.4999986114502,0|10,0:0|0:0,0:0:0:0:
477,266,97262,1,8,0:0:0:0:
477,266,97378,2,0,L|504:178,2,90.9999972229005,0|10|8,0:0|0:0|0:0,0:0:0:0:
317,160,98070,38,0,L|406:148,1,87.7499973220826
413,166,98531,38,0,L|509:179,1,90.9999972229005,14|8,0:0|0:0,0:0:0:0:
491,107,98878,1,8,0:3:0:0:
491,107,98993,1,10,0:0:0:0:
314,80,99224,1,8,0:0:0:0:
325,61,99339,1,8,0:0:0:0:
331,39,99454,1,10,0:0:0:0:
182,53,99685,6,0,L|200:90,1,22.7499993057251,2|2,0:0|0:0,0:0:0:0:
93,85,99916,2,0,L|131:98,1,22.7499993057251,2|0,0:0|0:0,0:0:0:0:
56,168,100147,2,0,L|93:150,1,22.7499993057251,2|0,0:0|0:0,0:0:0:0:
95,256,100378,6,0,L|103:232,1,24.375,6|0,0:0|0:0,0:0:0:0:
277,153,101070,1,0,0:0:0:0:
346,137,101301,2,0,L|362:133,1,16.25
430,146,101762,2,0,L|458:154,1,28.4375
442,124,102224,70,0,L|345:136,1,97.50000371933,6|0,0:0|0:0,0:0:0:0:
242,35,102570,1,0,0:0:0:0:
157,41,102685,2,0,L|256:52,1,97.50000371933,8|2,0:3|0:3,0:0:0:0:
144,213,103147,1,2,0:0:0:0:
101,198,103262,2,0,L|111:268,1,48.750001859665,8|2,0:3|0:3,0:0:0:0:
246,328,103493,1,0,0:0:0:0:
210,346,103608,2,0,L|226:234,1,97.50000371933,8|2,0:3|0:3,0:0:0:0:
274,199,103954,1,0,0:0:0:0:
406,191,104070,70,0,B|263:205,1,130,2|2,0:0|0:3,0:0:0:0:
347,238,104416,37,0,0:0:0:0:
347,238,104531,2,0,L|332:125,1,97.50000371933,8|2,0:3|0:3,0:0:0:0:
307,72,104878,2,8,L|374:79,1,48.750001859665,8|2,0:3|0:0,0:3:0:0:
437,135,105108,1,8,0:3:0:0:
511,123,105224,2,0,L|461:118,1,48.750001859665,2|0,0:3|0:0,0:0:0:0:
423,34,105454,38,0,L|439:144,1,102.374996875763,8|0,0:3|0:0,0:0:0:0:
477,189,105916,38,0,L|377:178,1,97.50000371933,6|0,0:0|0:0,0:0:0:0:
219,135,106262,1,0,0:0:0:0:
197,57,106378,2,0,L|209:156,1,97.50000371933,8|2,0:3|0:3,0:0:0:0:
484,318,106839,1,2,0:0:0:0:
511,287,106954,2,0,L|449:280,1,48.750001859665,8|2,0:3|0:3,0:0:0:0:
250,374,107185,1,0,0:0:0:0:
221,349,107301,2,0,L|331:332,1,97.50000371933,8|2,0:3|0:3,0:0:0:0:
381,362,107647,1,0,0:0:0:0:
380,236,107762,70,0,B|385:371,1,130,2|2,0:0|0:3,0:0:0:0:
321,338,108108,37,0,0:0:0:0:
321,338,108224,2,0,L|211:321,1,97.50000371933,8|2,0:3|0:3,0:0:0:0:
177,274,108570,2,0,L|118:286,1,48.750001859665,8|2,0:3|0:0,0:0:0:0:
89,382,108801,1,8,0:3:0:0:
19,373,108916,2,0,L|66:363,1,48.750001859665,2|2,0:3|0:0,0:0:0:0:
28,275,109147,85,8,0:3:0:0:
71,15,109378,1,2,0:3:0:0:
28,90,109608,6,0,L|140:80,1,97.50000371933,6|0,0:0|0:0,0:0:0:0:
273,3,109954,1,0,0:0:0:0:
337,60,110070,2,0,L|246:18,1,97.50000371933,8|2,0:3|0:3,0:0:0:0:
512,64,110531,1,2,0:0:0:0:
474,36,110647,2,0,L|468:92,1,48.750001859665,8|2,0:3|0:3,0:0:0:0:
355,224,110878,1,0,0:0:0:0:
395,248,110993,2,0,L|380:142,1,97.50000371933,8|2,0:3|0:3,0:0:0:0:
340,97,111339,1,0,0:0:0:0:
472,90,111454,54,0,B|337:102,1,130,2|2,0:0|0:3,0:0:0:0:
315,163,111801,21,0,0:0:0:0:
315,163,111916,2,0,L|210:147,1,97.50000371933,8|2,0:3|0:3,0:0:0:0:
148,135,112262,2,0,L|157:193,1,48.750001859665,8|2,0:3|0:0,0:0:0:0:
85,238,112493,1,8,0:3:0:0:
117,304,112608,2,0,L|109:255,1,48.750001859665,2|2,0:3|0:0,0:0:0:0:
246,290,112839,54,0,L|145:274,1,102.374996875763,8|0,0:3|0:0,0:0:0:0:
190,326,113301,54,0,L|292:310,1,97.50000371933,6|0,0:0|0:0,0:0:0:0:
456,284,113647,1,0,0:0:0:0:
482,208,113762,2,0,L|469:312,1,97.50000371933,8|2,0:3|0:3,0:0:0:0:
247,162,114224,1,2,0:0:0:0:
290,178,114339,2,0,L|277:119,1,48.750001859665,8|2,0:3|0:3,0:0:0:0:
146,35,114570,1,0,0:0:0:0:
185,9,114685,2,0,L|172:113,1,97.50000371933,8|2,0:3|0:3,0:0:0:0:
123,154,115031,1,0,0:0:0:0:
6,107,115147,54,0,B|138:164,1,130,2|2,0:0|0:3,0:0:0:0:
190,171,115493,21,0,0:0:0:0:
193,178,115608,1,2,0:0:0:0:
142,220,115724,1,8,0:3:0:0:
145,227,115839,1,2,0:0:0:0:
286,227,116070,22,0,L|292:211,1,16.25
336,155,116416,2,0,L|333:145,4,8.125
360,225,116993,6,0,L|411:219,1,45.4999986114502,14|8,0:0|0:0,0:0:0:0:
465,265,117224,2,0,L|511:260,1,45.4999986114502,8|8,0:0|0:0,0:0:0:0:
433,331,117454,1,10,0:0:0:0:
300,11,117685,2,0,L|359:8,1,45.4999986114502,8|8,0:0|0:0,0:0:0:0:
374,72,117916,2,0,L|283:77,2,90.9999972229005,10|8|10,0:0|0:0|0:0,0:0:0:0:
64,32,118608,22,0,L|53:122,1,90.187499655962,8|0,0:0|0:0,0:0:0:0:
83,64,118839,6,0,L|91:172,1,90.9999972229005,10|8,0:0|0:3,0:0:0:0:
43,206,119185,2,0,L|38:271,1,45.4999986114502,0|2,0:0|0:0,0:0:0:0:
114,223,119416,1,8,0:0:0:0:
114,223,119531,2,0,L|176:214,1,45.4999986114502,0|8,0:0|0:0,0:0:0:0:
211,164,119762,2,0,L|271:174,2,45.4999986114502,10|8|8,0:0|0:0|0:0,0:0:0:0:
360,300,120224,70,0,L|271:288,1,87.7499973220826,2|0,0:0|0:0,0:0:0:0:
249,327,120685,86,0,L|302:318,1,45.4999986114502,14|8,0:0|0:0,0:0:0:0:
351,371,120916,2,0,L|404:362,1,45.4999986114502,8|8,0:0|0:0,0:0:0:0:
433,297,121147,1,10,0:0:0:0:
289,44,121378,2,0,L|282:99,1,45.4999986114502,8|8,0:0|0:0,0:0:0:0:
349,125,121608,2,0,L|362:35,2,90.9999972229005,10|8|10,0:0|0:0|0:0,0:0:0:0:
304,312,122301,22,0,L|294:221,1,90.187499655962,8|0,0:0|0:0,0:0:0:0:
330,257,122531,6,0,L|317:363,1,90.9999972229005,10|8,0:0|0:3,0:0:0:0:
390,318,122878,2,0,L|452:305,1,45.4999986114502,0|10,0:0|0:0,0:0:0:0:
498,250,123108,1,0,0:0:0:0:
498,250,123224,2,0,L|446:245,1,45.4999986114502,8|8,0:0|0:0,0:0:0:0:
404,195,123454,2,0,L|399:149,2,45.4999986114502,10|8|8,0:0|0:0|0:0,0:0:0:0:
280,265,123916,70,0,L|286:323,1,58.4999982147217,10|0,0:0|0:0,0:0:0:0:
191,201,124378,86,0,L|174:309,1,90.9999972229005,6|0,0:0|0:0,0:0:0:0:
107,294,124724,2,0,L|116:348,1,45.4999986114502,8|2,0:0|0:0,0:0:0:0:
183,361,124954,1,0,0:0:0:0:
183,361,125070,2,0,L|236:364,1,45.4999986114502,8|8,0:0|0:0,0:0:0:0:
246,296,125301,2,0,L|330:259,1,90.9999972229005,2|8,0:0|0:0,0:0:0:0:
400,244,125647,2,0,L|393:299,1,45.4999986114502,0|2,0:0|0:0,0:0:0:0:
311,101,125993,22,0,B|410:118,1,90.187499655962,8|0,0:0|0:0,0:0:0:0:
422,137,126224,6,0,L|366:149,1,45.4999986114502,10|8,0:0|0:0,0:0:0:0:
313,175,126454,1,8,0:0:0:0:
313,175,126570,2,0,L|262:166,1,45.4999986114502,8|10,0:0|0:0,0:0:0:0:
213,126,126801,1,0,0:0:0:0:
213,126,126916,2,0,L|226:226,1,90.9999972229005,8|10,0:0|0:0,0:0:0:0:
268,167,127262,2,0,L|249:267,1,90.9999972229005,8|8,0:0|0:0,0:0:0:0:
307,298,127608,70,0,L|366:288,1,58.4999982147217,2|0,0:0|0:0,0:0:0:0:
224,216,128070,86,0,L|126:206,1,90.9999972229005,14|0,0:0|0:0,0:0:0:0:
76,167,128416,2,0,B|64:203|64:203|79:269,1,90.9999972229005,8|8,0:0|0:0,0:0:0:0:
143,275,128762,2,0,L|130:326,1,45.4999986114502,0|8,0:0|0:0,0:0:0:0:
187,345,128993,2,0,L|171:236,1,90.9999972229005,10|8,0:0|0:0,0:0:0:0:
228,220,129339,1,8,0:0:0:0:
228,220,129454,1,10,0:0:0:0:
466,98,129685,22,0,B|369:85,1,90.187499655962,2|0,0:0|0:0,0:0:0:0:
354,121,129916,54,0,L|379:123,1,24.375,6|0,0:0|0:0,0:0:0:0:
451,137,130608,1,0,0:0:0:0:
491,201,130839,37,8,0:3:0:0:
288,222,130993,1,8,0:3:0:0:
182,70,131147,1,8,0:3:0:0:
104,339,131301,1,2,0:0:0:0:
107,344,131762,22,0,L|211:336,1,97.50000371933,6|0,0:0|0:0,0:0:0:0:
364,267,132108,1,0,0:0:0:0:
397,191,132224,2,0,L|376:286,1,97.50000371933,8|2,0:3|0:3,0:0:0:0:
288,222,132570,1,0,0:0:0:0:
227,248,132685,2,0,L|287:242,1,48.750001859665,2|8,0:0|0:3,0:0:0:0:
400,358,132916,2,0,L|352:354,1,48.750001859665,2|0,0:3|0:0,0:0:0:0:
227,174,133147,1,8,0:3:0:0:
107,344,133378,1,2,0:3:0:0:
69,237,133608,70,0,L|89:346,1,97.5,2|0,0:0|0:0,0:0:0:0:
107,344,133839,38,0,L|90:242,1,97.50000371933,2|8,0:3|0:3,0:0:0:0:
17,194,134185,2,0,L|27:146,1,48.750001859665,0|2,0:0|0:3,0:0:0:0:
148,66,134416,1,8,0:3:0:0:
148,66,134531,2,0,L|91:72,1,48.750001859665,2|8,0:0|0:3,0:0:0:0:
245,125,134762,2,0,L|196:130,1,48.750001859665,2|0,0:3|0:0,0:0:0:0:
76,235,134993,2,0,L|99:132,1,97.50000371933,8|2,0:3|0:3,0:0:0:0:
413,29,135454,86,0,L|427:130,1,97.50000371933,6|0,0:0|0:0,0:0:0:0:
315,242,135801,1,0,0:0:0:0:
320,320,135916,2,0,L|333:223,1,97.50000371933,8|2,0:3|0:3,0:0:0:0:
467,237,136262,1,0,0:0:0:0:
400,264,136378,2,0,L|454:257,1,48.750001859665,2|8,0:0|0:3,0:0:0:0:
318,153,136608,2,0,L|366:159,1,48.750001859665,2|0,0:3|0:0,0:0:0:0:
243,248,136839,1,8,0:3:0:0:
94,99,137070,1,2,0:3:0:0:
176,23,137301,22,0,L|172:48,1,24.375,2|2,0:0|0:0,0:0:0:0:
103,48,137762,86,0,L|124:156,1,97.50000371933,8|2,0:3|0:3,0:0:0:0:
204,107,138108,1,8,0:3:0:0:
268,133,138224,2,0,L|208:126,1,48.750001859665,2|8,0:0|0:3,0:0:0:0:
340,142,138454,1,2,0:3:0:0:
115,288,138685,86,0,L|124:262,1,24.3750009298325,8|0,0:3|0:0,0:0:0:0:
201,317,138916,2,0,L|188:292,1,24.3750009298325,2|0,0:0|0:0,0:0:0:0:
359,288,139147,6,0,L|256:279,1,97.50000371933,6|0,0:0|0:0,0:0:0:0:
399,191,139493,1,0,0:0:0:0:
481,202,139608,2,0,L|378:211,1,97.50000371933,8|2,0:3|0:3,0:0:0:0:
413,116,139954,1,0,0:0:0:0:
412,44,140070,2,0,L|399:108,1,48.750001859665,2|8,0:0|0:3,0:0:0:0:
318,166,140301,2,0,L|305:230,1,48.750001859665,2|0,0:3|0:0,0:0:0:0:
369,306,140531,1,8,0:3:0:0:
278,75,140762,1,2,0:3:0:0:
164,86,140993,54,0,L|273:93,1,97.5,2|0,0:0|0:0,0:0:0:0:
278,75,141224,22,0,L|180:69,1,97.50000371933,2|8,0:3|0:3,0:0:0:0:
109,26,141570,2,0,L|57:38,1,48.750001859665,0|2,0:0|0:3,0:0:0:0:
81,174,141801,1,8,0:3:0:0:
81,174,141916,2,0,L|90:117,1,48.750001859665,2|8,0:0|0:3,0:0:0:0:
180,69,142147,2,0,L|189:12,1,48.750001859665,2|0,0:3|0:0,0:0:0:0:
279,207,142378,2,0,L|267:105,1,97.50000371933,8|2,0:3|0:3,0:0:0:0:
28,191,142839,6,0,L|140:203,1,97.50000371933,6|0,0:0|0:0,0:0:0:0:
256,308,143185,1,0,0:0:0:0:
337,273,143301,2,0,L|240:283,1,97.50000371933,8|2,0:3|0:3,0:0:0:0:
204,146,143647,1,0,0:0:0:0:
208,216,143762,2,0,L|216:168,1,48.750001859665,2|8,0:0|0:3,0:0:0:0:
89,264,143993,2,0,L|97:315,1,48.750001859665,2|0,0:3|0:0,0:0:0:0:
198,354,144224,1,8,0:3:0:0:
12,212,144454,1,2,0:3:0:0:
46,106,144685,54,0,L|30:210,1,97.5,2|0,0:0|0:0,0:0:0:0:
11,211,144916,22,0,L|27:115,1,97.50000371933,2|8,0:3|0:3,0:0:0:0:
291,61,145378,2,0,L|243:70,1,48.750001859665,2|8,0:0|0:3,0:0:0:0:
389,112,145608,1,2,0:0:0:0:
361,145,145724,2,0,L|427:153,1,48.750001859665,8|8,0:3|0:3,0:0:0:0:
488,60,145954,1,8,0:3:0:0:
469,96,146070,2,0,L|452:44,1,48.750001859665,2|2,0:0|0:0,0:0:0:0:
373,0,146301,1,8,0:3:0:0:
367,27,146416,1,8,0:3:0:0:
280,136,146531,22,0,L|297:237,1,97.5,6|2,0:0|0:0,0:0:0:0:
364,239,146993,2,0,L|351:316,1,65,0|2,0:0|0:0,0:0:0:0:
140,268,147454,1,8,0:3:0:0:
140,268,147570,2,0,L|240:276,1,97.5,2|2,0:0|0:0,0:0:0:0:
67,315,148147,38,0,L|58:221,1,90.187499655962,2|0,0:0|0:0,0:0:0:0:
24,269,148378,70,0,L|39:162,1,97.5,6|2,0:0|0:0,0:0:0:0:
87,126,148839,2,0,L|77:49,1,65,0|2,0:0|0:0,0:0:0:0:
253,91,149301,1,8,0:3:0:0:
253,91,149416,2,0,L|150:79,1,97.5,2|2,0:0|0:0,0:0:0:0:
401,156,149993,22,0,L|302:166,1,90.187499655962,2|0,0:0|0:0,0:0:0:0:
361,113,150224,54,0,L|350:219,1,97.5,6|2,0:0|0:0,0:0:0:0:
400,257,150685,2,0,L|414:326,1,65,0|2,0:0|0:0,0:0:0:0:
236,284,151147,1,8,0:3:0:0:
236,284,151262,2,0,L|336:278,1,97.5,2|2,0:0|0:0,0:0:0:0:
155,116,151839,38,0,L|143:209,1,90.187499655962,2|0,0:0|0:0,0:0:0:0:
132,246,152070,70,0,L|114:147,1,97.5,6|2,0:0|0:0,0:0:0:0:
60,102,152531,2,0,L|71:33,1,65,0|2,0:0|0:0,0:0:0:0:
264,83,152993,1,8,0:3:0:0:
264,83,153108,2,0,L|165:91,1,97.5,2|6,0:0|0:0,0:0:0:0:
45,247,153685,22,0,L|152:258,1,90.187499655962,2|0,0:0|0:0,0:0:0:0:
124,273,153916,53,6,0:0:0:0:
96,170,154147,1,0,0:0:0:0:
166,90,154378,1,0,0:0:0:0:
266,94,154608,1,2,0:0:0:0:
297,239,154839,5,8,0:3:0:0:
397,243,155069,1,0,0:0:0:0:
467,163,155300,1,2,0:0:0:0:
439,60,155531,22,0,L|331:53,1,90.187499655962,2|0,0:0|0:0,0:0:0:0:
356,37,155762,53,6,0:0:0:0:
467,163,155993,1,0,0:0:0:0:
266,94,156224,1,0,0:0:0:0:
439,60,156454,1,2,0:0:0:0:
397,243,156685,1,8,0:3:0:0:
397,243,156801,2,0,L|385:147,1,97.5,2|2,0:0|0:0,0:0:0:0:
246,266,157378,38,0,L|235:171,1,90.187499655962,2|0,0:0|0:0,0:0:0:0:
265,212,157608,70,0,L|250:314,1,97.5,6|2,0:0|0:0,0:0:0:0:
266,297,158070,1,0,0:0:0:0:
179,210,158301,1,2,0:0:0:0:
62,318,158531,1,8,0:3:0:0:
179,210,158762,1,0,0:0:0:0:
140,59,158993,1,2,0:0:0:0:
387,251,159224,22,0,L|297:258,1,90.187499655962,2|0,0:0|0:0,0:0:0:0:
307,241,159454,53,6,0:0:0:0:
205,241,159685,1,0,0:0:0:0:
138,156,159916,1,0,0:0:0:0:
28,166,160147,1,2,0:0:0:0:
307,241,160378,1,8,0:3:0:0:
205,241,160609,1,0,0:0:0:0:
138,156,160839,1,2,0:0:0:0:
15,279,161070,38,0,B|118:271,1,90.187499655962,2|0,0:0|0:0,0:0:0:0:
140,261,161301,6,0,L|133:315,1,45.4999986114502,14|8,0:0|0:0,0:0:0:0:
222,311,161531,2,0,L|229:365,1,45.4999986114502,8|8,0:0|0:0,0:0:0:0:
299,290,161762,2,0,L|191:294,1,90.9999972229005,10|8,0:0|0:0,0:0:0:0:
387,338,162108,1,8,0:0:0:0:
387,338,162224,2,0,L|404:236,1,90.9999972229005,10|8,0:0|0:0,0:0:0:0:
401,248,162685,1,10,0:0:0:0:
131,304,162916,1,2,0:3:0:0:
120,233,163147,38,0,L|116:210,1,24.375,2|0,0:3|0:0,0:0:0:0:
197,44,163839,1,0,0:0:0:0:
185,112,164070,2,0,L|179:145,1,32.5
143,77,164993,70,0,L|161:194,1,104,6|0,0:0|0:0,0:0:0:0:
272,256,165339,1,0,0:0:0:0:
298,294,165454,2,0,L|224:287,1,52,8|0,0:3|0:0,0:0:0:0:
113,252,165685,1,2,0:3:0:0:
83,222,165801,2,0,L|134:217,1,52,0|2,0:0|0:0,0:0:0:0:
246,289,166031,1,8,0:3:0:0:
319,323,166147,2,0,L|260:318,1,52,2|0,0:3|0:0,0:0:0:0:
406,261,166378,2,0,L|421:380,1,104,8|2,0:3|0:3,0:0:0:0:
386,246,166724,1,0,0:0:0:0:
144,320,166839,6,0,L|134:215,1,104,6|0,0:0|0:0,0:0:0:0:
213,104,167185,1,0,0:0:0:0:
250,87,167301,2,0,L|242:150,1,52,8|0,0:3|0:0,0:0:0:0:
384,195,167531,1,2,0:3:0:0:
347,178,167647,2,0,L|355:241,1,52,8|2,0:3|0:0,0:0:0:0:
476,103,167878,1,8,0:3:0:0:
409,75,167993,2,0,L|478:84,1,52,2|0,0:3|0:0,0:0:0:0:
206,65,168224,2,0,L|317:53,1,104,8|2,0:3|0:3,0:0:0:0:
31,96,168685,86,0,L|73:190,1,104,6|0,0:0|0:0,0:0:0:0:
183,164,169031,1,0,0:0:0:0:
218,193,169147,2,0,L|166:204,1,52,8|0,0:3|0:0,0:0:0:0:
52,303,169378,1,2,0:3:0:0:
87,274,169494,2,0,L|35:263,1,52,2|2,0:0|0:0,0:0:0:0:
186,294,169724,1,8,0:3:0:0:
189,372,169839,2,0,L|208:262,1,104,2|8,0:3|0:3,0:0:0:0:
494,276,170301,2,0,L|485:336,1,52,2|0,0:3|0:0,0:0:0:0:
489,353,170531,70,0,P|482:318|467:282,1,61.7499983510972,6|0,0:0|0:0,0:0:0:0:
384,228,170762,2,0,P|390:198|401:170,1,61.7499983510972,2|0,0:3|0:0,0:0:0:0:
374,338,170993,2,0,P|344:338|313:330,1,61.7499983510972,8|0,0:3|0:0,0:0:0:0:
208,181,171224,1,2,0:3:0:0:
162,248,171339,1,8,0:3:0:0:
184,187,171454,2,0,P|195:218|197:256,1,61.7499983510972,2|8,0:0|0:3,0:0:0:0:
287,90,171685,2,0,P|279:117|273:169,1,61.7499983510972,10|0,0:3|0:0,0:0:0:0:
71,177,171916,2,0,P|135:163|201:166,1,123.499996702194,8|8,0:3|0:3,0:0:0:0:
54,165,172262,1,8,0:3:0:0:
309,65,172378,38,0,L|319:179,1,104,6|0,0:0|0:0,0:0:0:0:
417,142,172724,1,0,0:0:0:0:
451,111,172839,2,0,L|388:103,1,52,8|0,0:3|0:0,0:0:0:0:
470,245,173070,1,2,0:3:0:0:
504,276,173185,2,0,L|441:284,1,52,2|2,0:0|0:0,0:0:0:0:
329,239,173416,1,8,0:3:0:0:
318,168,173531,2,0,L|311:236,1,52,2|0,0:3|0:0,0:0:0:0:
235,330,173762,2,0,L|216:221,1,104,8|2,0:3|0:3,0:0:0:0:
222,349,174108,1,0,0:0:0:0:
0,250,174224,86,0,L|121:266,1,104,6|0,0:0|0:0,0:0:0:0:
158,179,174570,1,0,0:0:0:0:
175,141,174685,2,0,L|115:153,1,52,8|0,0:3|0:0,0:0:0:0:
58,81,174916,1,2,0:3:0:0:
20,98,175031,2,0,L|32:38,1,52,8|2,0:3|0:0,0:0:0:0:
189,104,175262,1,8,0:3:0:0:
254,141,175377,2,0,L|194:129,1,52,2|0,0:3|0:0,0:0:0:0:
359,54,175608,2,0,L|240:68,1,104,8|2,0:3|0:3,0:0:0:0:
44,294,176070,6,0,L|55:182,1,104,6|0,0:0|0:0,0:0:0:0:
187,248,176416,1,0,0:0:0:0:
150,229,176531,2,0,L|164:290,1,52,8|0,0:3|0:0,0:0:0:0:
309,325,176762,1,2,0:3:0:0:
276,343,176877,2,0,L|288:293,1,52,2|2,0:0|0:0,0:0:0:0:
365,192,177108,1,8,0:3:0:0:
456,214,177224,2,0,L|339:223,1,104,2|8,0:3|0:3,0:0:0:0:
116,48,177685,2,0,L|171:56,1,52,2|0,0:3|0:0,0:0:0:0:
158,85,177916,54,0,P|141:57|129:17,1,61.7499983510972,6|0,0:0|0:0,0:0:0:0:
251,178,178147,2,0,P|267:149|278:109,1,61.7499983510972,2|0,0:3|0:0,0:0:0:0:
381,30,178378,1,2,0:0:0:0:
296,40,178493,2,0,P|327:38|374:49,1,61.7499983510972,8|8,0:3|0:3,0:0:0:0:
381,155,178724,1,8,0:3:0:0:
466,165,178839,2,0,P|438:175|388:174,1,61.7499983510972,8|8,0:3|0:3,0:0:0:0:
216,186,179070,1,8,0:3:0:0:
242,261,179185,1,8,0:3:0:0:
247,196,179301,2,0,P|242:210|240:230,7,30.8749991755486,8|8|8|8|8|8|8|8,0:0|0:0|0:0|0:0|0:0|0:0|0:0|0:0,0:0:0:0:
160,256,179762,85,6,0:0:0:0:
475,40,180224,1,6,0:0:0:0:
475,40,180685,1,6,0:0:0:0:
414,281,181147,1,6,0:0:0:0:
414,281,181378,1,6,0:0:0:0:
188,245,181608,70,0,L|240:253,1,38.9999988098145,14|8,0:0|0:0,0:0:0:0:
341,268,181839,1,8,0:0:0:0:
338,247,181954,1,8,0:0:0:0:
374,212,182070,2,0,L|293:220,1,77.999997619629,10|8,0:0|0:0,0:0:0:0:
211,122,182416,1,8,0:0:0:0:
230,186,182531,2,0,L|241:101,2,77.999997619629,10|8|10,0:0|0:0|0:0,0:0:0:0:
72,111,183224,2,0,L|84:139,2,19.4999994049072,8|8|8,0:0|0:0|0:0,0:0:0:0:
41,71,183454,6,0,L|131:82,1,77.999997619629,10|8,0:0|0:0,0:0:0:0:
267,61,183916,1,10,0:0:0:0:
332,77,184031,2,0,L|244:87,1,77.999997619629,8|8,0:0|0:0,0:0:0:0:
371,134,184378,2,0,L|419:142,1,38.9999988098145,10|8,0:0|0:0,0:0:0:0:
471,97,184608,2,0,L|481:185,1,77.999997619629,8|2,0:0|0:0,0:0:0:0:
335,278,185070,2,0,L|345:229,1,38.9999988098145,8|8,0:0|0:0,0:0:0:0:
508,237,185301,86,0,L|452:245,1,38.9999988098145,14|8,0:0|0:0,0:0:0:0:
342,239,185531,1,8,0:0:0:0:
323,223,185647,1,8,0:0:0:0:
291,177,185762,2,0,L|272:266,1,77.999997619629,10|8,0:0|0:0,0:0:0:0:
139,195,186108,1,8,0:0:0:0:
204,211,186224,2,0,L|120:220,2,77.999997619629,10|8|10,0:0|0:0|0:0,0:0:0:0:
18,132,186916,2,0,L|-15:122,2,19.4999994049072,8|8|8,0:0|0:0|0:0,0:0:0:0:
40,91,187147,6,0,L|50:177,1,77.999997619629,10|8,0:0|0:0,0:0:0:0:
69,309,187608,1,10,0:0:0:0:
12,273,187724,2,0,L|94:287,1,77.999997619629,8|8,0:0|0:0,0:0:0:0:
138,334,188070,2,0,L|184:325,1,38.9999988098145,10|8,0:0|0:0,0:0:0:0:
249,288,188301,2,0,L|238:374,1,77.999997619629,8|2,0:0|0:0,0:0:0:0:
374,324,188762,2,0,L|335:331,1,38.9999988098145,8|8,0:0|0:0,0:0:0:0:
504,285,188993,38,0,L|459:279,1,45.4999986114502,14|8,0:0|0:0,0:0:0:0:
417,217,189224,2,0,L|373:211,1,45.4999986114502,8|8,0:0|0:0,0:0:0:0:
472,167,189454,1,10,0:0:0:0:
225,79,189685,2,0,L|234:133,1,45.4999986114502,8|8,0:0|0:0,0:0:0:0:
305,133,189916,2,0,L|289:44,2,90.9999972229005,10|8|10,0:0|0:0|0:0,0:0:0:0:
35,53,190608,86,0,L|127:63,1,90.187499655962,8|0,0:0|0:0,0:0:0:0:
88,106,190839,70,0,L|75:8,2,90.9999972229005,10|8|10,0:0|0:3|0:0,0:0:0:0:
144,157,191416,2,0,L|133:207,1,45.4999986114502
83,248,191647,1,8,0:0:0:0:
83,248,191762,2,0,L|28:252,2,45.4999986114502,2|8|8,0:0|0:0|0:0,0:0:0:0:
340,269,192224,6,0,L|252:257,1,87.7499973220826,10|0,0:0|0:0,0:0:0:0:
275,299,192685,22,0,L|320:293,1,45.4999986114502,14|8,0:0|0:0,0:0:0:0:
380,336,192916,2,0,L|424:345,1,45.4999986114502,8|8,0:0|0:0,0:0:0:0:
463,278,193147,1,10,0:0:0:0:
92,342,193378,2,0,L|104:285,1,45.4999986114502,8|8,0:0|0:0,0:0:0:0:
172,288,193608,2,0,L|155:378,2,90.9999972229005,10|8|10,0:0|0:0|0:0,0:0:0:0:
90,137,194301,86,0,L|104:239,1,90.187499655962,8|0,0:0|0:0,0:0:0:0:
141,184,194531,70,0,L|37:175,1,90.9999972229005,10|8,0:0|0:3,0:0:0:0:
13,112,194878,2,0,L|72:106,1,45.4999986114502,0|2,0:0|0:0,0:0:0:0:
155,93,195108,1,8,0:0:0:0:
150,23,195224,2,0,L|143:75,1,45.4999986114502,8|8,0:0|0:0,0:0:0:0:
215,53,195454,2,0,L|222:8,2,45.4999986114502,10|8|8,0:0|0:0|0:0,0:0:0:0:
355,125,195916,6,0,L|261:133,1,87.7499973220826,10|0,0:0|0:0,0:0:0:0:
287,91,196378,22,0,L|341:101,1,45.4999986114502,14|8,0:0|0:0,0:0:0:0:
384,46,196608,2,0,L|429:40,1,45.4999986114502,8|8,0:0|0:0,0:0:0:0:
475,104,196839,1,10,0:0:0:0:
188,284,197070,2,0,L|183:238,1,45.4999986114502,8|8,0:0|0:0,0:0:0:0:
247,208,197301,2,0,L|258:299,2,90.9999972229005,10|8|10,0:0|0:0|0:0,0:0:0:0:
489,283,197993,86,0,L|387:275,1,90.187499655962,8|0,0:0|0:0,0:0:0:0:
445,247,198224,70,0,L|354:259,1,90.9999972229005,10|8,0:0|0:3,0:0:0:0:
302,306,198570,2,0,L|243:296,1,45.4999986114502,8|2,0:0|0:0,0:0:0:0:
271,156,198801,1,0,0:0:0:0:
288,225,198916,2,0,L|283:180,1,45.4999986114502,8|8,0:0|0:0,0:0:0:0:
348,142,199147,2,0,L|353:187,2,45.4999986114502,10|8|8,0:0|0:0|0:0,0:0:0:0:
91,225,199608,6,0,L|190:234,1,87.7499973220826,10|0,0:0|0:0,0:0:0:0:
137,252,200070,22,0,L|130:188,1,45.4999986114502,14|8,0:0|0:0,0:0:0:0:
89,152,200301,2,0,L|99:107,1,45.4999986114502,8|8,0:0|0:0,0:0:0:0:
78,41,200531,1,10,0:0:0:0:
321,174,200762,2,0,L|261:169,1,45.4999986114502,8|8,0:0|0:0,0:0:0:0:
258,100,200993,2,0,L|348:108,2,90.9999972229005,10|8|10,0:0|0:0|0:0,0:0:0:0:
57,222,201685,86,0,L|155:214,1,90.187499655962,8|0,0:0|0:0,0:0:0:0:
139,232,201916,69,8,0:3:0:0:
294,141,203301,85,2,0:0:0:0:
425,305,203762,70,0,L|316:282,1,97.50000371933,6|2,0:0|0:0,0:0:0:0:
279,222,204108,1,2,0:0:0:0:
244,252,204224,2,0,L|232:204,1,48.750001859665,8|2,0:3|0:0,0:0:0:0:
294,141,204454,1,0,0:0:0:0:
328,132,204570,1,8,0:3:0:0:
360,163,204685,2,0,L|367:65,1,97.50000371933,6|0,0:0|0:0,0:0:0:0:
253,86,205031,1,2,0:0:0:0:
226,118,205147,2,0,L|323:110,1,97.50000371933,8|2,0:3|0:0,0:0:0:0:
150,169,205493,1,8,0:3:0:0:
67,186,205608,6,0,L|164:193,1,97.50000371933,6|2,0:0|0:0,0:0:0:0:
222,250,205954,1,2,0:0:0:0:
252,275,206070,2,0,L|197:284,1,48.750001859665,8|2,0:3|0:0,0:0:0:0:
126,299,206301,1,0,0:0:0:0:
132,269,206416,1,8,0:3:0:0:
108,237,206531,2,0,L|96:133,1,97.50000371933,6|0,0:0|0:0,0:0:0:0:
183,116,206878,1,2,0:0:0:0:
208,147,206993,2,0,L|220:43,1,97.50000371933,8|2,0:3|0:0,0:0:0:0:
298,106,207339,1,8,0:3:0:0:
408,123,207454,86,0,L|295:129,1,97.50000371933,6|2,0:0|0:0,0:0:0:0:
290,232,207801,1,2,0:0:0:0:
270,197,207916,2,0,L|328:208,1,48.750001859665,8|2,0:3|0:0,0:0:0:0:
380,262,208147,1,0,0:0:0:0:
409,245,208262,1,8,0:3:0:0:
427,203,208378,2,0,L|404:314,1,97.50000371933,6|0,0:0|0:0,0:0:0:0:
272,268,208724,1,2,0:0:0:0:
290,232,208839,2,0,L|313:343,1,97.50000371933,8|2,0:3|0:0,0:0:0:0:
215,313,209185,1,8,0:3:0:0:
105,283,209301,6,0,L|223:294,1,97.50000371933,6|2,0:0|0:0,0:0:0:0:
149,212,209647,1,2,0:0:0:0:
128,192,209762,2,0,L|71:200,1,48.750001859665,8|2,0:3|0:0,0:0:0:0:
23,143,209993,1,0,0:0:0:0:
48,126,210108,1,8,0:3:0:0:
54,84,210224,86,0,L|28:31,1,48.750001859665,6|2,0:0|0:0,0:0:0:0:
154,62,210454,2,0,L|104:29,1,48.750001859665,0|2,0:0|0:0,0:0:0:0:
293,48,210685,54,0,L|231:61,1,48.750001859665,8|2,0:3|0:0,0:0:0:0:
173,75,211031,1,8,0:3:0:0:
288,123,211147,54,0,L|398:137,1,97.50000371933,6|2,0:0|0:0,0:0:0:0:
483,192,211493,1,2,0:0:0:0:
459,227,211608,2,0,L|447:175,1,48.750001859665,8|2,0:3|0:0,0:0:0:0:
452,101,211839,1,0,0:0:0:0:
464,78,211954,1,8,0:3:0:0:
442,38,212070,2,0,L|337:52,1,97.50000371933,6|0,0:0|0:0,0:0:0:0:
255,147,212416,1,2,0:0:0:0:
288,123,212531,2,0,L|183:109,1,97.50000371933,8|2,0:3|0:0,0:0:0:0:
106,144,212878,1,8,0:3:0:0:
79,63,212993,86,0,L|90:174,1,97.50000371933,6|2,0:0|0:0,0:0:0:0:
163,220,213339,1,2,0:0:0:0:
205,209,213454,2,0,L|186:266,1,48.750001859665,8|2,0:3|0:0,0:0:0:0:
100,330,213685,1,0,0:0:0:0:
80,312,213801,1,8,0:3:0:0:
64,356,213916,2,0,L|175:351,1,97.50000371933,6|0,0:0|0:0,0:0:0:0:
163,220,214262,1,2,0:0:0:0:
189,255,214378,2,0,L|300:250,1,97.50000371933,8|2,0:3|0:0,0:0:0:0:
251,127,214724,1,8,0:3:0:0:
252,43,214839,6,0,L|267:152,1,97.50000371933,6|2,0:0|0:0,0:0:0:0:
376,179,215185,1,2,0:0:0:0:
344,188,215301,2,0,L|360:129,1,48.750001859665,8|2,0:3|0:0,0:0:0:0:
409,79,215531,1,0,0:0:0:0:
432,98,215647,1,8,0:3:0:0:
478,87,215762,2,0,L|492:196,1,97.50000371933,6|0,0:0|0:0,0:0:0:0:
395,256,216108,1,2,0:0:0:0:
430,231,216224,2,0,L|416:340,1,97.50000371933,8|2,0:3|0:0,0:0:0:0:
339,311,216570,1,8,0:3:0:0:
227,307,216685,86,0,L|336:293,1,97.50000371933,6|2,0:0|0:0,0:0:0:0:
247,229,217031,1,2,0:0:0:0:
227,195,217147,2,0,L|274:204,1,48.750001859665,8|2,0:3|0:0,0:0:0:0:
124,241,217378,2,0,L|171:250,1,48.750001859665,0|8,0:0|0:3,0:0:0:0:
109,357,217608,2,0,L|102:257,1,97.50000371933,6|0,0:0|0:0,0:0:0:0:
88,277,217954,1,2,0:0:0:0:
158,181,218070,5,8,0:3:0:0:
200,121,218185,1,8,0:3:0:0:
158,62,218301,1,8,0:3:0:0:
88,85,218416,1,8,0:3:0:0:
88,158,218531,5,2,0:0:0:0:
96,175,218878,1,2,0:0:0:0:
104,192,219224,1,2,0:0:0:0:
73,183,219454,6,0,L|124:176,1,45.4999986114502,14|8,0:0|0:0,0:0:0:0:
182,214,219684,2,0,L|233:207,1,45.4999986114502,8|8,0:0|0:0,0:0:0:0:
279,165,219915,2,0,L|267:272,1,90.9999972229005,10|8,0:0|0:0,0:0:0:0:
344,229,220261,1,8,0:0:0:0:
344,229,220377,2,0,L|451:217,2,90.9999972229005,10|8|10,0:0|0:0|0:0,0:0:0:0:
134,53,221069,22,0,L|235:62,1,90.187499655962,8|0,0:0|0:0,0:0:0:0:
176,11,221300,6,0,L|187:116,1,90.9999972229005,10|8,0:0|0:3,0:0:0:0:
336,9,221761,2,0,L|323:68,1,45.4999986114502,10|8,0:0|0:0,0:0:0:0:
398,62,221992,2,0,L|411:121,1,45.4999986114502,8|8,0:0|0:0,0:0:0:0:
472,58,222223,1,10,0:0:0:0:
493,52,222338,1,8,0:0:0:0:
511,46,222454,1,8,0:0:0:0:
336,129,222684,70,0,L|243:119,1,87.7499973220826,10|0,0:0|0:0,0:0:0:0:
230,100,223146,86,0,L|174:111,1,45.4999986114502,14|8,0:0|0:0,0:0:0:0:
150,169,223377,2,0,L|96:181,1,45.4999986114502,8|8,0:0|0:0,0:0:0:0:
61,129,223607,2,0,L|50:234,1,90.9999972229005,10|8,0:0|0:0,0:0:0:0:
121,253,223954,1,8,0:0:0:0:
121,253,224069,2,0,L|136:345,2,90.9999972229005,10|8|10,0:0|0:0|0:0,0:0:0:0:
336,244,224761,22,0,L|242:236,1,90.187499655962,8|0,0:0|0:0,0:0:0:0:
270,282,224992,6,0,L|371:268,1,90.9999972229005,10|8,0:0|0:3,0:0:0:0:
483,192,225454,2,0,L|419:182,1,45.4999986114502,10|8,0:0|0:0,0:0:0:0:
454,109,225684,2,0,L|390:119,1,45.4999986114502,8|8,0:0|0:0,0:0:0:0:
346,75,225915,1,10,0:0:0:0:
327,69,226030,1,8,0:0:0:0:
310,64,226146,1,8,0:0:0:0:
58,253,226377,70,0,L|-1:246,1,58.4999982147217,10|0,0:0|0:0,0:0:0:0:
127,183,226838,86,0,L|227:174,1,90.9999972229005,6|8,0:0|0:0,0:0:0:0:
280,147,227184,2,0,L|332:155,1,45.4999986114502,8|8,0:0|0:3,0:0:0:0:
378,200,227415,1,0,0:0:0:0:
378,200,227530,2,0,L|388:256,1,45.4999986114502,8|8,0:0|0:0,0:0:0:0:
446,283,227761,2,0,L|466:184,1,90.9999972229005,10|10,0:0|0:0,0:0:0:0:
511,144,228107,2,0,L|503:99,1,45.4999986114502,0|10,0:0|0:0,0:0:0:0:
300,150,228454,22,0,L|195:158,1,90.187499655962,8|0,0:0|0:0,0:0:0:0:
232,117,228684,6,0,L|280:124,1,45.4999986114502,6|0,0:0|0:0,0:0:0:0:
339,85,228914,1,8,0:0:0:0:
339,85,229030,2,0,L|393:75,1,45.4999986114502,0|8,0:0|0:3,0:0:0:0:
437,36,229261,1,8,0:0:0:0:
437,36,229377,2,0,L|424:136,1,90.9999972229005,2|10,0:0|0:0,0:0:0:0:
384,76,229723,2,0,L|400:178,1,90.9999972229005,2|0,0:0|0:0,0:0:0:0:
424,235,230069,70,0,L|365:229,1,58.4999982147217,10|0,0:0|0:0,0:0:0:0:
133,143,230530,86,0,L|230:131,1,90.9999972229005,6|8,0:0|0:0,0:0:0:0:
287,155,230877,2,0,B|299:128|299:128|290:63,1,90.9999972229005,8|8,0:0|0:0,0:0:0:0:
234,6,231223,2,0,L|226:57,1,45.4999986114502,8|2,0:0|0:0,0:0:0:0:
232,116,231454,2,0,L|142:128,1,90.9999972229005,2|0,0:0|0:0,0:0:0:0:
72,139,231800,1,0,0:0:0:0:
72,139,231915,1,10,0:0:0:0:
169,333,232146,22,0,L|182:233,1,90.187499655962,8|0,0:0|0:0,0:0:0:0:
201,216,232377,54,0,L|204:243,1,24.375,6|0,0:0|0:0,0:0:0:0:
255,314,233040,2,0,L|251:331,9,9.74999970245362
377,100,233790,1,0,0:0:0:0:
380,105,234223,70,0,L|275:97,1,97.50000371933,6|0,0:0|0:0,0:0:0:0:
147,188,234569,1,0,0:0:0:0:
71,172,234684,2,0,L|176:164,1,97.50000371933,8|2,0:3|0:3,0:0:0:0:
191,12,235030,1,0,0:0:0:0:
197,85,235146,2,0,L|204:36,1,48.750001859665,2|8,0:0|0:3,0:0:0:0:
258,179,235377,2,0,L|251:228,1,48.750001859665,2|0,0:3|0:0,0:0:0:0:
104,250,235607,1,8,0:3:0:0:
289,68,235838,1,2,0:3:0:0:
400,96,236069,70,0,L|303:89,1,97.5,2|0,0:0|0:0,0:0:0:0:
289,68,236300,38,0,L|386:75,1,97.50000371933,2|8,0:3|0:3,0:0:0:0:
468,67,236646,2,0,L|479:127,1,48.750001859665,0|2,0:0|0:3,0:0:0:0:
464,231,236877,1,8,0:3:0:0:
464,231,236992,2,0,L|521:228,1,48.750001859665,2|8,0:0|0:3,0:0:0:0:
352,169,237223,2,0,L|409:166,1,48.750001859665,2|0,0:3|0:0,0:0:0:0:
370,344,237454,2,0,L|382:237,1,97.50000371933,8|2,0:3|0:3,0:0:0:0:
228,54,237915,86,0,L|238:150,1,97.50000371933,6|0,0:0|0:0,0:0:0:0:
344,68,238261,1,0,0:0:0:0:
427,71,238377,2,0,L|325:89,1,97.50000371933,8|2,0:3|0:3,0:0:0:0:
228,54,238723,1,0,0:0:0:0:
159,67,238838,2,0,L|221:75,1,48.750001859665,2|8,0:0|0:3,0:0:0:0:
32,111,239069,2,0,L|80:117,1,48.750001859665,2|0,0:3|0:0,0:0:0:0:
238,150,239300,1,8,0:3:0:0:
28,31,239530,1,2,0:3:0:0:
100,210,239761,22,0,L|99:184,1,24.375,2|2,0:0|0:0,0:0:0:0:
172,175,240223,86,0,L|156:278,1,97.50000371933,8|2,0:3|0:3,0:0:0:0:
141,360,240569,1,8,0:3:0:0:
66,353,240684,2,0,L|120:345,1,48.750001859665,2|8,0:0|0:3,0:0:0:0:
0,320,240915,1,2,0:3:0:0:
306,309,241146,86,0,L|282:303,1,24.3750009298325,8|0,0:3|0:0,0:0:0:0:
339,226,241377,2,0,L|315:237,1,24.3750009298325,2|0,0:0|0:0,0:0:0:0:
321,61,241607,6,0,L|305:164,1,97.50000371933,6|0,0:0|0:0,0:0:0:0:
116,176,241954,1,0,0:0:0:0:
145,246,242069,2,0,L|130:149,1,97.50000371933,8|2,0:3|0:3,0:0:0:0:
76,33,242415,1,0,0:0:0:0:
150,19,242530,2,0,L|86:13,1,48.750001859665,2|8,0:0|0:3,0:0:0:0:
241,100,242761,2,0,L|177:94,1,48.750001859665,2|0,0:3|0:0,0:0:0:0:
398,15,242992,1,8,0:3:0:0:
59,182,243223,1,2,0:3:0:0:
176,186,243454,54,0,L|76:200,1,97.5,2|0,0:0|0:0,0:0:0:0:
59,182,243684,22,0,L|155:170,1,97.50000371933,2|8,0:3|0:3,0:0:0:0:
252,181,244030,2,0,L|238:241,1,48.750001859665,0|2,0:0|0:3,0:0:0:0:
288,325,244261,1,8,0:3:0:0:
288,325,244377,2,0,L|302:385,1,48.750001859665,2|8,0:0|0:3,0:0:0:0:
331,221,244607,2,0,L|345:281,1,48.750001859665,2|0,0:3|0:0,0:0:0:0:
501,234,244838,2,0,L|396:226,1,97.50000371933,8|2,0:3|0:3,0:0:0:0:
331,40,245300,6,0,L|239:72,1,97.50000371933,6|0,0:0|0:0,0:0:0:0:
51,46,245646,1,0,0:0:0:0:
63,123,245761,2,0,L|75:26,1,97.50000371933,8|2,0:3|0:3,0:0:0:0:
214,156,246107,1,0,0:0:0:0:
141,149,246223,2,0,L|199:140,1,48.750001859665,2|8,0:0|0:3,0:0:0:0:
320,201,246454,2,0,L|271:208,1,48.750001859665,2|0,0:3|0:0,0:0:0:0:
158,259,246684,1,8,0:3:0:0:
396,140,246915,1,2,0:3:0:0:
406,255,247146,54,0,L|417:155,1,97.5,2|0,0:0|0:0,0:0:0:0:
396,140,247377,22,0,L|387:237,1,97.50000371933,2|8,0:3|0:3,0:0:0:0:
185,378,247838,2,0,L|172:318,1,48.750001859665,2|8,0:3|0:3,0:0:0:0:
53,245,248069,1,2,0:0:0:0:
94,224,248184,2,0,L|80:293,1,48.750001859665,8|8,0:3|0:3,0:0:0:0:
147,164,248415,1,8,0:3:0:0:
188,143,248530,2,0,L|174:212,1,48.750001859665,2|8,0:0|0:3,0:0:0:0:
83,108,248761,1,8,0:3:0:0:
78,81,248877,1,8,0:3:0:0:
168,56,248992,22,0,L|268:45,1,97.5,6|2,0:0|0:0,0:0:0:0:
323,5,249454,2,0,L|390:15,2,65,0|2|8,0:0|0:0|0:3,0:0:0:0:
264,45,250030,2,0,L|256:151,1,97.5,2|2,0:0|0:0,0:0:0:0:
468,88,250607,38,0,L|373:96,1,90.187499655962
341,117,250838,70,0,L|444:127,1,97.5,6|2,0:0|0:0,0:0:0:0:
473,184,251300,2,0,L|484:259,2,65,0|2|8,0:0|0:0|0:3,0:0:0:0:
438,126,251877,2,0,L|420:232,1,97.5,2|2,0:0|0:0,0:0:0:0:
259,90,252454,22,0,L|272:185,1,90.187499655962,2|0,0:0|0:0,0:0:0:0:
317,133,252684,54,0,L|216:127,1,97.5,6|2,0:0|0:0,0:0:0:0:
164,83,253146,2,0,L|98:96,1,65,0|2,0:0|0:0,0:0:0:0:
143,247,253607,1,8,0:3:0:0:
143,247,253723,2,0,L|157:144,1,97.5,2|2,0:0|0:0,0:0:0:0:
0,31,254300,38,0,L|97:24,1,90.187499655962
48,51,254530,70,0,L|156:58,1,97.5,6|2,0:0|0:0,0:0:0:0:
214,79,254992,2,0,L|208:15,1,65,0|2,0:0|0:0,0:0:0:0:
314,219,255454,1,8,0:3:0:0:
314,219,255569,2,0,L|329:113,1,97.5,2|2,0:0|0:0,0:0:0:0:
457,24,256146,22,0,L|359:32,1,90.187499655962,2|0,0:0|0:0,0:0:0:0:
373,15,256377,53,6,0:0:0:0:
256,95,256607,1,0,0:0:0:0:
314,219,256838,1,0,0:0:0:0:
139,15,257069,1,2,0:0:0:0:
256,95,257299,1,8,0:3:0:0:
198,219,257530,1,0,0:0:0:0:
139,15,257761,1,2,0:0:0:0:
228,269,257992,38,0,L|239:178,1,90.187499655962
252,187,258223,69,6,0:0:0:0:
366,235,258454,1,0,0:0:0:0:
452,160,258684,1,0,0:0:0:0:
441,48,258915,1,2,0:0:0:0:
227,110,259146,1,8,0:3:0:0:
227,110,259261,2,0,L|125:119,1,97.5,2|2,0:0|0:0,0:0:0:0:
303,21,259838,22,0,L|315:124,1,90.187499655962,2|0,0:0|0:0,0:0:0:0:
348,62,260069,54,0,L|333:165,1,97.5,6|2,0:0|0:0,0:0:0:0:
352,147,260530,1,0,0:0:0:0:
217,46,260761,1,2,0:0:0:0:
52,189,260992,1,8,0:3:0:0:
129,277,261223,1,0,0:0:0:0:
244,263,261454,1,2,0:0:0:0:
97,137,261684,38,0,L|-6:144,1,90.187499655962
12,127,261915,69,6,0:0:0:0:
102,30,262146,1,0,0:0:0:0:
227,46,262377,1,0,0:0:0:0:
12,127,262607,1,2,0:0:0:0:
199,246,262838,1,8,0:3:0:0:
199,246,262954,2,0,L|186:146,1,97.5,2|2,0:0|0:0,0:0:0:0:
441,106,263530,22,0,L|452:15,1,90.187499655962,2|0,0:0|0:0,0:0:0:0:
425,55,263761,6,0,L|480:51,1,45.4999986114502,14|8,0:0|0:0,0:0:0:0:
327,107,263992,2,0,L|382:111,1,45.4999986114502,8|8,0:0|0:0,0:0:0:0:
221,75,264223,2,0,L|326:66,1,90.9999972229005,10|8,0:0|0:0,0:0:0:0:
123,195,264569,1,8,0:0:0:0:
123,195,264684,2,0,L|129:90,1,90.9999972229005,10|8,0:0|0:0,0:0:0:0:
128,104,265146,1,10,0:0:0:0:
327,107,265377,1,2,0:3:0:0:
401,97,265607,38,0,L|428:94,1,24.375,2|0,0:3|0:0,0:0:0:0:
188,180,266300,1,0,0:0:0:0:
116,165,266530,2,0,L|84:159,1,32.5
39,143,267454,70,0,L|146:130,1,104,6|0,0:0|0:0,0:0:0:0:
242,41,267800,1,0,0:0:0:0:
259,81,267915,2,0,L|199:66,1,52,8|0,0:3|0:0,0:0:0:0:
350,180,268146,1,2,0:3:0:0:
367,140,268261,2,0,L|307:155,1,52,0|2,0:0|0:0,0:0:0:0:
242,209,268492,1,8,0:3:0:0:
249,281,268607,2,0,L|257:221,1,52,2|0,0:3|0:0,0:0:0:0:
142,130,268838,2,0,L|159:243,1,104,8|2,0:3|0:3,0:0:0:0:
153,103,269184,1,0,0:0:0:0:
365,282,269300,6,0,L|349:179,1,104,6|0,0:0|0:0,0:0:0:0:
409,80,269646,1,0,0:0:0:0:
446,64,269761,2,0,L|434:129,1,52,8|0,0:3|0:0,0:0:0:0:
308,124,269992,1,2,0:3:0:0:
271,108,270107,2,0,L|283:173,1,52,8|2,0:3|0:0,0:0:0:0:
153,132,270338,1,8,0:3:0:0:
144,54,270454,2,0,L|132:119,1,52,2|0,0:3|0:0,0:0:0:0:
66,211,270684,2,0,L|169:202,1,104,8|2,0:3|0:3,0:0:0:0:
446,64,271146,86,0,L|342:55,1,104,6|0,0:0|0:0,0:0:0:0:
255,143,271492,1,0,0:0:0:0:
220,118,271607,2,0,L|274:107,1,52,8|0,0:3|0:0,0:0:0:0:
396,183,271838,1,2,0:3:0:0:
361,208,271953,2,0,L|415:219,1,52,0|2,0:0|0:0,0:0:0:0:
259,261,272184,1,8,0:3:0:0:
254,349,272300,2,0,L|238:240,1,104,2|8,0:3|0:3,0:0:0:0:
41,282,272761,2,0,L|96:292,1,52,2|0,0:3|0:0,0:0:0:0:
65,252,272992,70,0,P|75:281|74:320,1,61.7499983510972,6|0,0:0|0:0,0:0:0:0:
173,140,273223,2,0,P|162:172|164:208,1,61.7499983510972,2|0,0:3|0:0,0:0:0:0:
5,147,273454,2,0,P|36:148|73:138,1,61.7499983510972,8|2,0:3|0:0,0:0:0:0:
211,22,273684,1,2,0:0:0:0:
246,100,273800,1,8,0:3:0:0:
194,57,273915,2,0,P|225:57|264:72,1,61.7499983510972,2|8,0:0|0:3,0:0:0:0:
392,130,274146,2,0,P|365:142|322:145,1,61.7499983510972,2|0,0:3|0:0,0:0:0:0:
245,297,274377,2,0,P|244:235|264:158,1,123.499996702194,8|8,0:3|0:3,0:0:0:0:
256,325,274723,1,8,0:3:0:0:
434,195,274838,38,0,L|320:219,1,110.50000210762,6|0,0:0|0:0,0:0:0:0:
163,196,275184,1,0,0:0:0:0:
143,150,275300,2,0,L|209:165,1,55.2500010538101,8|0,0:3|0:0,0:0:0:0:
256,325,275530,1,2,0:3:0:0:
271,284,275646,2,0,L|218:297,1,55.2500010538101,0|2,0:0|0:0,0:0:0:0:
115,287,275877,1,8,0:3:0:0:
45,245,275992,2,0,L|98:257,1,55.2500010538101,2|0,0:3|0:0,0:0:0:0:
69,66,276223,2,0,L|76:195,1,110.50000210762,8|2,0:3|0:3,0:0:0:0:
84,39,276569,1,0,0:0:0:0:
306,98,276684,86,0,L|182:90,1,110.50000210762,6|0,0:0|0:0,0:0:0:0:
74,176,277030,1,0,0:0:0:0:
114,142,277146,2,0,L|119:204,1,55.2500010538101,8|2,0:3|0:0,0:0:0:0:
241,276,277377,1,2,0:0:0:0:
201,242,277493,2,0,L|196:304,1,55.2500010538101,8|2,0:3|0:0,0:0:0:0:
98,312,277723,1,8,0:3:0:0:
17,300,277838,2,0,L|87:292,1,55.2500010538101,2|0,0:3|0:0,0:0:0:0:
230,166,278069,2,0,L|241:281,1,110.50000210762,8|2,0:3|0:3,0:0:0:0:
462,39,278530,6,0,L|448:161,1,110.50000210762,6|0,0:0|0:0,0:0:0:0:
344,125,278877,1,0,0:0:0:0:
308,90,278992,2,0,L|372:80,1,55.2500010538101,8|0,0:3|0:0,0:0:0:0:
192,70,279223,1,2,0:3:0:0:
173,26,279338,2,0,L|227:34,1,55.2500010538101,0|2,0:0|0:0,0:0:0:0:
219,198,279569,1,8,0:3:0:0:
119,191,279684,2,0,L|238:178,1,110.50000210762,2|8,0:3|0:3,0:0:0:0:
54,26,280146,2,0,L|41:102,1,55.2500010538101,2|0,0:3|0:0,0:0:0:0:
87,55,280377,54,0,P|56:64|17:62,1,65,6|0,0:0|0:0,0:0:0:0:
119,191,280607,2,0,P|87:181|54:184,1,65,2|2,0:3|0:0,0:0:0:0:
202,24,280838,1,8,0:3:0:0:
187,114,280954,2,0,P|179:84|181:43,1,65,8|10,0:3|0:3,0:0:0:0:
315,245,281184,1,8,0:3:0:0:
300,155,281300,2,0,P|302:191|294:219,1,65,8|8,0:3|0:3,0:0:0:0:
468,86,281530,1,10,0:3:0:0:
397,134,281646,1,8,0:3:0:0:
421,42,281761,2,0,P|422:104|437:184,1,130,8|10,0:3|0:3,0:0:0:0:
441,13,282107,1,8,0:3:0:0:
300,155,282223,22,0,L|183:143,1,116.999996429443,6|0,0:0|0:0,0:0:0:0:
98,70,282569,1,0,0:0:0:0:
62,29,282684,2,0,L|46:92,1,58.4999982147217,8|0,0:3|0:0,0:0:0:0:
94,218,282915,1,2,0:3:0:0:
63,254,283030,2,0,L|48:197,1,58.4999982147217,0|2,0:0|0:0,0:0:0:0:
165,110,283261,1,8,0:3:0:0:
242,148,283377,2,0,L|157:141,1,58.4999982147217,2|0,0:3|0:0,0:0:0:0:
178,333,283607,2,0,L|206:213,1,116.999996429443,8|2,0:3|0:3,0:0:0:0:
189,363,283954,1,0,0:0:0:0:
382,125,284069,6,0,L|355:238,1,116.999996429443,6|0,0:0|0:0,0:0:0:0:
477,229,284415,1,0,0:0:0:0:
497,183,284530,2,0,L|434:195,1,58.4999982147217,8|0,0:3|0:0,0:0:0:0:
406,14,284761,1,2,0:3:0:0:
426,60,284876,2,0,L|363:48,1,58.4999982147217,8|2,0:3|0:0,0:0:0:0:
279,119,285107,1,8,0:3:0:0:
190,106,285223,2,0,L|258:99,1,58.4999982147217,2|0,0:3|0:0,0:0:0:0:
238,251,285454,2,0,L|355:238,1,116.999996429443,8|2,0:3|0:3,0:0:0:0:
0,26,285915,86,0,L|14:161,1,116.999996429443,6|0,0:0|0:0,0:0:0:0:
140,123,286261,1,0,0:0:0:0:
190,106,286377,2,0,L|173:178,1,58.4999982147217,8|0,0:3|0:0,0:0:0:0:
68,223,286607,1,2,0:3:0:0:
51,273,286723,2,0,L|123:256,1,58.4999982147217,0|2,0:0|0:0,0:0:0:0:
208,267,286954,1,8,0:3:0:0:
309,270,287069,2,0,L|185:302,1,116.999996429443,2|8,0:3|0:3,0:0:0:0:
405,76,287530,2,0,L|471:88,1,58.4999982147217,2|0,0:3|0:0,0:0:0:0:
428,40,287761,70,0,P|430:75|442:130,1,68.2499979171754,6|0,0:0|0:0,0:0:0:0:
319,130,287992,2,0,P|319:167|305:220,1,68.2499979171754,2|0,0:3|0:0,0:0:0:0:
196,29,288223,2,0,P|195:64|210:119,1,68.2499979171754,8|0,0:3|0:0,0:0:0:0:
74,225,288454,1,2,0:3:0:0:
99,137,288569,1,8,0:3:0:0:
47,181,288684,2,0,P|77:174|137:175,1,68.2499979171754,2|8,0:0|0:3,0:0:0:0:
209,297,288915,2,0,P|174:295|141:288,1,68.2499979171754,2|0,0:3|0:0,0:0:0:0:
319,130,289146,2,0,P|338:190|342:269,1,136.499995834351,8|8,0:3|0:3,0:0:0:0:
288,109,289492,1,8,0:3:0:0:
188,214,289607,38,0,L|325:200,1,123.499996702194,6|0,0:0|0:0,0:0:0:0:
431,107,289954,1,0,0:0:0:0:
458,154,290069,2,0,L|389:143,1,61.7499983510972,8|0,0:3|0:0,0:0:0:0:
288,109,290300,1,2,0:3:0:0:
288,54,290415,2,0,L|233:98,1,61.7499983510972,0|2,0:0|0:0,0:0:0:0:
125,134,290646,1,8,0:3:0:0:
106,45,290761,2,0,L|100:113,1,61.7499983510972,2|0,0:3|0:0,0:0:0:0:
249,285,290992,2,0,L|233:160,1,123.499996702194,8|2,0:3|0:3,0:0:0:0:
237,320,291338,1,0,0:0:0:0:
38,203,291454,86,0,L|170:215,1,123.499996702194,6|0,0:0|0:0,0:0:0:0:
106,45,291800,1,0,0:0:0:0:
144,79,291915,2,0,L|80:92,1,61.7499983510972,8|2,0:3|0:0,0:0:0:0:
255,115,292146,1,2,0:3:0:0:
233,162,292261,2,0,L|293:149,1,61.7499983510972,8|2,0:3|0:0,0:0:0:0:
361,61,292492,1,8,0:3:0:0:
449,52,292607,2,0,L|388:39,1,61.7499983510972,2|0,0:3|0:0,0:0:0:0:
422,269,292838,2,0,L|408:132,1,123.499996702194,8|2,0:3|0:3,0:0:0:0:
27,375,293300,6,0,L|41:238,1,123.499996702194,6|0,0:0|0:0,0:0:0:0:
126,166,293646,1,0,0:0:0:0:
164,130,293761,2,0,L|173:202,1,61.7499983510972,8|0,0:3|0:0,0:0:0:0:
50,70,293992,1,2,0:3:0:0:
12,34,294107,2,0,L|4:95,1,61.7499983510972,0|2,0:0|0:0,0:0:0:0:
147,26,294338,1,8,0:3:0:0:
261,38,294454,2,0,L|134:53,1,123.499996702194,2|8,0:3|0:3,0:0:0:0:
406,310,294915,2,0,L|337:299,1,61.7499983510972,2|0,0:3|0:0,0:0:0:0:
369,263,295146,54,0,P|369:298|380:346,1,71.5000021820069,6|0,0:0|0:0,0:0:0:0:
269,137,295377,2,0,P|270:174|258:220,1,71.5000021820069,2|0,0:3|0:0,0:0:0:0:
172,329,295607,1,2,0:0:0:0:
85,313,295723,2,0,P|119:302|161:303,1,71.5000021820069,8|10,0:3|0:3,0:0:0:0:
104,154,295954,1,8,0:3:0:0:
191,169,296070,2,0,P|157:182|115:179,1,71.5000021820069,8|8,0:3|0:3,0:0:0:0:
306,71,296300,1,10,0:3:0:0:
378,141,296415,1,8,0:3:0:0:
341,89,296530,2,0,P|338:108|343:134,7,35.7500010910034,8|8|8|8|8|8|8|8,0:0|0:0|0:0|0:0|0:0|0:0|0:0|0:0,0:0:0:0:
402,48,296992,85,6,0:0:0:0:
20,146,297454,1,6,0:0:0:0:
20,146,297915,1,6,0:0:0:0:
20,146,298377,1,6,0:0:0:0:
20,146,298838,1,6,0:0:0:0:
20,146,299300,1,6,0:0:0:0:
424,306,299761,70,0,L|371:299,1,38.9999988098145,14|8,0:0|0:0,0:0:0:0:
310,234,299991,1,8,0:0:0:0:
294,244,300107,1,8,0:0:0:0:
272,203,300222,2,0,L|259:289,1,77.999997619629,10|8,0:0|0:0,0:0:0:0:
173,346,300568,1,8,0:0:0:0:
139,289,300684,2,0,L|153:368,2,77.999997619629,10|8|10,0:0|0:0|0:0,0:0:0:0:
74,177,301376,2,0,L|38:172,2,19.4999994049072,8|8|8,0:0|0:0|0:0,0:0:0:0:
20,145,301607,6,0,L|104:135,1,77.999997619629,10|8,0:0|0:0,0:0:0:0:
114,250,302068,1,10,0:0:0:0:
186,283,302183,2,0,L|104:273,1,77.999997619629,8|8,0:0|0:0,0:0:0:0:
56,219,302530,2,0,L|14:224,1,38.9999988098145,10|8,0:0|0:0,0:0:0:0:
37,295,302761,2,0,L|48:381,1,77.999997619629,8|2,0:0|0:0,0:0:0:0:
144,145,303222,2,0,L|136:198,1,38.9999988098145,8|8,0:0|0:0,0:0:0:0:
257,288,303453,86,0,L|249:247,1,38.9999988098145,14|8,0:0|0:0,0:0:0:0:
278,158,303684,1,8,0:0:0:0:
298,166,303799,1,8,0:0:0:0:
323,123,303914,2,0,L|238:129,1,77.999997619629,10|8,0:0|0:0,0:0:0:0:
168,22,304261,1,8,0:0:0:0:
227,54,304376,2,0,L|147:44,2,77.999997619629,10|8|10,0:0|0:0|0:0,0:0:0:0:
374,45,305068,2,0,L|366:10,2,19.4999994049072,8|8|8,0:0|0:0|0:0,0:0:0:0:
421,12,305299,6,0,L|401:102,1,77.999997619629,10|8,0:0|0:0,0:0:0:0:
471,180,305761,1,10,0:0:0:0:
457,251,305876,2,0,L|441:170,1,77.999997619629,8|8,0:0|0:0,0:0:0:0:
395,126,306222,2,0,L|404:88,1,38.9999988098145,10|8,0:0|0:0,0:0:0:0:
376,193,306453,2,0,L|293:187,1,77.999997619629,8|2,0:0|0:0,0:0:0:0:
153,265,306914,2,0,L|203:259,1,38.9999988098145,8|8,0:0|0:0,0:0:0:0:
321,256,307145,86,0,L|313:295,1,32.5,14|8,0:0|0:0,0:0:0:0:
244,319,307376,1,8,0:0:0:0:
250,337,307491,1,8,0:0:0:0:
260,353,307607,1,10,0:0:0:0:
157,234,307837,1,8,0:0:0:0:
149,254,307952,1,8,0:0:0:0:
136,271,308068,1,10,0:0:0:0:
87,216,308299,1,8,0:0:0:0:
68,142,308530,1,10,0:0:0:0:
88,68,308761,2,0,L|69:50,2,16.25,8|8|8,0:0|0:0|0:0,0:0:0:0:
115,39,308991,6,0,L|190:45,1,65,10|8,0:0|0:0,0:0:0:0:
285,111,309453,1,10,0:0:0:0:
302,85,309568,2,0,L|234:92,1,65,8|8,0:0|0:0,0:0:0:0:
199,111,309914,2,0,L|196:149,1,32.5,10|8,0:0|0:0,0:0:0:0:
168,170,310145,2,0,L|178:238,1,65,8|2,0:0|0:0,0:0:0:0:
240,323,310607,2,0,L|245:286,1,32.5,8|8,0:0|0:0,0:0:0:0:
311,190,310837,86,0,L|342:209,1,32.5,14|8,0:0|0:0,0:0:0:0:
393,255,311068,1,8,0:0:0:0:
409,244,311184,1,8,0:0:0:0:
427,238,311299,1,10,0:0:0:0:
359,116,311530,1,8,0:0:0:0:
341,110,311645,1,8,0:0:0:0:
325,99,311761,1,10,0:0:0:0:
370,40,311991,1,8,0:0:0:0:
442,15,312222,1,10,0:0:0:0:
503,64,312453,2,0,L|510:86,2,16.25,8|8|8,0:0|0:0|0:0,0:0:0:0:
469,90,312684,6,0,L|462:161,1,65,10|8,0:0|0:0,0:0:0:0:
386,211,313145,1,10,0:0:0:0:
353,194,313261,2,0,L|360:265,1,65,8|8,0:0|0:0,0:0:0:0:
340,286,313607,2,0,L|330:324,1,32.5,10|8,0:0|0:0,0:0:0:0:
349,350,313837,2,0,L|420:342,1,65,8|2,0:0|0:0,0:0:0:0:
225,288,314299,1,8,0:0:0:0:
225,288,314414,1,8,0:3:0:0:
