osu file format v14

[General]
AudioFilename: audio.mp3
AudioLeadIn: 0
PreviewTime: 85608
Countdown: 0
SampleSet: Soft
StackLeniency: 0.3
Mode: 0
LetterboxInBreaks: 0
EpilepsyWarning: 1
WidescreenStoryboard: 1

[Editor]
Bookmarks: 11762,26531,43147,57916,72685,87454,94839,102224,116993,124378,129916,131762,135916,146531,153916,161301,164993,170531,172378,177916,179762,181608,188993,203762,215301,219454,223146,225915,226838,234223,248992,256377,263761,267454,272992,274838,280377,282223,287761,289607,295146,296992,299761,307145,314414
DistanceSpacing: 2.1
BeatDivisor: 16
GridSize: 32
TimelineZoom: 1.7

[Metadata]
Title:MALFORMED BOX / INSIDE BEAST
TitleUnicode:MALFORMED BOX / INSIDE BEAST
Artist:the GazettE
ArtistUnicode:the GazettE
Creator:Vell
Version:Extra
Source:
Tags:visual kei ruki uruha aoi reita kai beautiful deformity greenshell darky1
BeatmapID:1463983
BeatmapSetID:627671

[Difficulty]
HPDrainRate:6.9
CircleSize:4.6
OverallDifficulty:8.5
ApproachRate:9.5
SliderMultiplier:1.6
SliderTickRate:1

[Events]
//Background and Video events
0,0,"bg.jpg",0,0
//Break Periods
//Storyboard Layer 0 (Background)
//Storyboard Layer 1 (Fail)
//Storyboard Layer 2 (Pass)
//Storyboard Layer 3 (Foreground)
Sprite,Foreground,Centre,"sb\focus_overlay.png",320,240 F,0,41301,43147,0,0.2 S,0,41301,61301,1,1.072624 P,0,41301,299760,A S,0,61301,81301,1.072624,1.081733 S,0,81301,101301,1.081733,1.076802 S,0,101301,121301,1.076802,1.055816 S,0,121301,141301,1.055816,1.020603 S,0,141301,161301,1.020603,1.055889 S,0,161301,181301,1.055889,1.090603 S,0,181301,201301,1.090603,1.044218 S,0,201301,221301,1.044218,1.097755 S,0,221301,241301,1.097755,1.02737 S,0,241301,261301,1.02737,1.029191 S,0,261301,281301,1.029191,1.046731 S,0,281301,299760,1.046731,1.063266
Sprite,Foreground,CentreLeft,"sb\pixel.png",320,0 F,0,41301,,1 R,0,41301,,0.7853982 V,0,41301,43147,0,0.3,80,0.3 F,0,299760,,0
Sprite,Foreground,CentreLeft,"sb\pixel.png",320,0 F,0,41301,,1 R,0,41301,,2.356194 V,0,41301,43147,0,0.3,80,0.3 F,0,299760,,0
Sprite,Foreground,CentreRight,"sb\pixelGradientLine.png",0,0 F,0,46551,,0.8 R,0,46551,,0.7853982 C,0,46551,,255,0,0 V,0,46551,,-2,0.2 M,2,46551,47101,320,0,956,636
Sprite,Foreground,CentreRight,"sb\pixelGradientLine.png",0,0 F,0,46551,,0.8 R,0,46551,,2.356194 C,0,46551,,255,0,0 V,0,46551,,-2,0.2 M,2,46551,47101,320,0,-316,636
Sprite,Foreground,CentreRight,"sb\pixelGradientLine.png",0,0 F,0,49608,,0.8 R,0,49608,,0.7853982 C,0,49608,,255,0,0 V,0,49608,,-2,0.2 M,2,49608,50158,320,0,956,636
Sprite,Foreground,CentreRight,"sb\pixelGradientLine.png",0,0 F,0,49608,,0.8 R,0,49608,,2.356194 C,0,49608,,255,0,0 V,0,49608,,-2,0.2 M,2,49608,50158,320,0,-316,636
Sprite,Foreground,CentreRight,"sb\pixelGradientLine.png",0,0 F,0,49954,,0.8 R,0,49954,,0.7853982 C,0,49954,,255,0,0 V,0,49954,,-2,0.2 M,2,49954,50504,320,0,956,636
Sprite,Foreground,CentreRight,"sb\pixelGradientLine.png",0,0 F,0,49954,,0.8 R,0,49954,,2.356194 C,0,49954,,255,0,0 V,0,49954,,-2,0.2 M,2,49954,50504,320,0,-316,636
Sprite,Foreground,CentreRight,"sb\pixelGradientLine.png",0,0 F,0,50301,,0.8 R,0,50301,,0.7853982 C,0,50301,,255,0,0 V,0,50301,,-2,0.2 M,2,50301,50851,320,0,956,636
Sprite,Foreground,CentreRight,"sb\pixelGradientLine.png",0,0 F,0,50301,,0.8 R,0,50301,,2.356194 C,0,50301,,255,0,0 V,0,50301,,-2,0.2 M,2,50301,50851,320,0,-316,636
Sprite,Foreground,CentreRight,"sb\pixelGradientLine.png",0,0 F,0,53935,,0.8 R,0,53935,,0.7853982 C,0,53935,,255,0,0 V,0,53935,,-2,0.2 M,2,53935,54485,320,0,956,636
Sprite,Foreground,CentreRight,"sb\pixelGradientLine.png",0,0 F,0,53935,,0.8 R,0,53935,,2.356194 C,0,53935,,255,0,0 V,0,53935,,-2,0.2 M,2,53935,54485,320,0,-316,636
Sprite,Foreground,CentreRight,"sb\pixelGradientLine.png",0,0 F,0,57628,,0.8 R,0,57628,,0.7853982 C,0,57628,,255,0,0 V,0,57628,,-2,0.2 M,2,57628,58178,320,0,956,636
Sprite,Foreground,CentreRight,"sb\pixelGradientLine.png",0,0 F,0,57628,,0.8 R,0,57628,,2.356194 C,0,57628,,255,0,0 V,0,57628,,-2,0.2 M,2,57628,58178,320,0,-316,636
Sprite,Foreground,CentreRight,"sb\pixelGradientLine.png",0,0 F,0,61320,,0.8 R,0,61320,,0.7853982 C,0,61320,,255,0,0 V,0,61320,,-2,0.2 M,2,61320,61870,320,0,956,636
Sprite,Foreground,CentreRight,"sb\pixelGradientLine.png",0,0 F,0,61320,,0.8 R,0,61320,,2.356194 C,0,61320,,255,0,0 V,0,61320,,-2,0.2 M,2,61320,61870,320,0,-316,636
Sprite,Foreground,CentreRight,"sb\pixelGradientLine.png",0,0 F,0,64378,,0.8 R,0,64378,,0.7853982 C,0,64378,,255,0,0 V,0,64378,,-2,0.2 M,2,64378,64928,320,0,956,636
Sprite,Foreground,CentreRight,"sb\pixelGradientLine.png",0,0 F,0,64378,,0.8 R,0,64378,,2.356194 C,0,64378,,255,0,0 V,0,64378,,-2,0.2 M,2,64378,64928,320,0,-316,636
Sprite,Foreground,CentreRight,"sb\pixelGradientLine.png",0,0 F,0,64724,,0.8 R,0,64724,,0.7853982 C,0,64724,,255,0,0 V,0,64724,,-2,0.2 M,2,64724,65274,320,0,956,636
Sprite,Foreground,CentreRight,"sb\pixelGradientLine.png",0,0 F,0,64724,,0.8 R,0,64724,,2.356194 C,0,64724,,255,0,0 V,0,64724,,-2,0.2 M,2,64724,65274,320,0,-316,636
Sprite,Foreground,CentreRight,"sb\pixelGradientLine.png",0,0 F,0,65070,,0.8 R,0,65070,,0.7853982 C,0,65070,,255,0,0 V,0,65070,,-2,0.2 M,2,65070,65620,320,0,956,636
Sprite,Foreground,CentreRight,"sb\pixelGradientLine.png",0,0 F,0,65070,,0.8 R,0,65070,,2.356194 C,0,65070,,255,0,0 V,0,65070,,-2,0.2 M,2,65070,65620,320,0,-316,636
Sprite,Foreground,CentreRight,"sb\pixelGradientLine.png",0,0 F,0,68704,,0.8 R,0,68704,,0.7853982 C,0,68704,,255,0,0 V,0,68704,,-2,0.2 M,2,68704,69254,320,0,956,636
Sprite,Foreground,CentreRight,"sb\pixelGradientLine.png",0,0 F,0,68704,,0.8 R,0,68704,,2.356194 C,0,68704,,255,0,0 V,0,68704,,-2,0.2 M,2,68704,69254,320,0,-316,636
Sprite,Foreground,CentreRight,"sb\pixelGradientLine.png",0,0 F,0,89070,,0.8 R,0,89070,,0.7853982 C,0,89070,,255,0,0 V,0,89070,,-2,0.2 M,2,89070,89620,320,0,956,636
Sprite,Foreground,CentreRight,"sb\pixelGradientLine.png",0,0 F,0,89070,,0.8 R,0,89070,,2.356194 C,0,89070,,255,0,0 V,0,89070,,-2,0.2 M,2,89070,89620,320,0,-316,636
Sprite,Foreground,CentreRight,"sb\pixelGradientLine.png",0,0 F,0,92762,,0.8 R,0,92762,,0.7853982 C,0,92762,,255,0,0 V,0,92762,,-2,0.2 M,2,92762,93312,320,0,956,636
Sprite,Foreground,CentreRight,"sb\pixelGradientLine.png",0,0 F,0,92762,,0.8 R,0,92762,,2.356194 C,0,92762,,255,0,0 V,0,92762,,-2,0.2 M,2,92762,93312,320,0,-316,636
Sprite,Foreground,CentreRight,"sb\pixelGradientLine.png",0,0 F,0,96454,,0.8 R,0,96454,,0.7853982 C,0,96454,,255,0,0 V,0,96454,,-2,0.2 M,2,96454,97004,320,0,956,636
Sprite,Foreground,CentreRight,"sb\pixelGradientLine.png",0,0 F,0,96454,,0.8 R,0,96454,,2.356194 C,0,96454,,255,0,0 V,0,96454,,-2,0.2 M,2,96454,97004,320,0,-316,636
Sprite,Foreground,CentreRight,"sb\pixelGradientLine.png",0,0 F,0,104070,,0.8 R,0,104070,,0.7853982 C,0,104070,,255,0,0 V,0,104070,,-2,0.2 M,2,104070,104620,320,0,956,636
Sprite,Foreground,CentreRight,"sb\pixelGradientLine.png",0,0 F,0,104070,,0.8 R,0,104070,,2.356194 C,0,104070,,255,0,0 V,0,104070,,-2,0.2 M,2,104070,104620,320,0,-316,636
Sprite,Foreground,CentreRight,"sb\pixelGradientLine.png",0,0 F,0,107762,,0.8 R,0,107762,,0.7853982 C,0,107762,,255,0,0 V,0,107762,,-2,0.2 M,2,107762,108312,320,0,956,636
Sprite,Foreground,CentreRight,"sb\pixelGradientLine.png",0,0 F,0,107762,,0.8 R,0,107762,,2.356194 C,0,107762,,255,0,0 V,0,107762,,-2,0.2 M,2,107762,108312,320,0,-316,636
Sprite,Foreground,CentreRight,"sb\pixelGradientLine.png",0,0 F,0,111454,,0.8 R,0,111454,,0.7853982 C,0,111454,,255,0,0 V,0,111454,,-2,0.2 M,2,111454,112004,320,0,956,636
Sprite,Foreground,CentreRight,"sb\pixelGradientLine.png",0,0 F,0,111454,,0.8 R,0,111454,,2.356194 C,0,111454,,255,0,0 V,0,111454,,-2,0.2 M,2,111454,112004,320,0,-316,636
Sprite,Foreground,CentreRight,"sb\pixelGradientLine.png",0,0 F,0,115147,,0.8 R,0,115147,,0.7853982 C,0,115147,,255,0,0 V,0,115147,,-2,0.2 M,2,115147,115697,320,0,956,636
Sprite,Foreground,CentreRight,"sb\pixelGradientLine.png",0,0 F,0,115147,,0.8 R,0,115147,,2.356194 C,0,115147,,255,0,0 V,0,115147,,-2,0.2 M,2,115147,115697,320,0,-316,636
Sprite,Foreground,CentreRight,"sb\pixelGradientLine.png",0,0 F,0,118608,,0.8 R,0,118608,,0.7853982 C,0,118608,,255,0,0 V,0,118608,,-2,0.2 M,2,118608,119158,320,0,956,636
Sprite,Foreground,CentreRight,"sb\pixelGradientLine.png",0,0 F,0,118608,,0.8 R,0,118608,,2.356194 C,0,118608,,255,0,0 V,0,118608,,-2,0.2 M,2,118608,119158,320,0,-316,636
Sprite,Foreground,CentreRight,"sb\pixelGradientLine.png",0,0 F,0,122301,,0.8 R,0,122301,,0.7853982 C,0,122301,,255,0,0 V,0,122301,,-2,0.2 M,2,122301,122851,320,0,956,636
Sprite,Foreground,CentreRight,"sb\pixelGradientLine.png",0,0 F,0,122301,,0.8 R,0,122301,,2.356194 C,0,122301,,255,0,0 V,0,122301,,-2,0.2 M,2,122301,122851,320,0,-316,636
Sprite,Foreground,CentreRight,"sb\pixelGradientLine.png",0,0 F,0,125993,,0.8 R,0,125993,,0.7853982 C,0,125993,,255,0,0 V,0,125993,,-2,0.2 M,2,125993,126543,320,0,956,636
Sprite,Foreground,CentreRight,"sb\pixelGradientLine.png",0,0 F,0,125993,,0.8 R,0,125993,,2.356194 C,0,125993,,255,0,0 V,0,125993,,-2,0.2 M,2,125993,126543,320,0,-316,636
Sprite,Foreground,CentreRight,"sb\pixelGradientLine.png",0,0 F,0,129685,,0.8 R,0,129685,,0.7853982 C,0,129685,,255,0,0 V,0,129685,,-2,0.2 M,2,129685,130235,320,0,956,636
Sprite,Foreground,CentreRight,"sb\pixelGradientLine.png",0,0 F,0,129685,,0.8 R,0,129685,,2.356194 C,0,129685,,255,0,0 V,0,129685,,-2,0.2 M,2,129685,130235,320,0,-316,636
Sprite,Foreground,CentreRight,"sb\pixelGradientLine.png",0,0 F,0,133608,,0.8 R,0,133608,,0.7853982 C,0,133608,,255,0,0 V,0,133608,,-2,0.2 M,2,133608,134158,320,0,956,636
Sprite,Foreground,CentreRight,"sb\pixelGradientLine.png",0,0 F,0,133608,,0.8 R,0,133608,,2.356194 C,0,133608,,255,0,0 V,0,133608,,-2,0.2 M,2,133608,134158,320,0,-316,636
Sprite,Foreground,CentreRight,"sb\pixelGradientLine.png",0,0 F,0,140993,,0.8 R,0,140993,,0.7853982 C,0,140993,,255,0,0 V,0,140993,,-2,0.2 M,2,140993,141543,320,0,956,636
Sprite,Foreground,CentreRight,"sb\pixelGradientLine.png",0,0 F,0,140993,,0.8 R,0,140993,,2.356194 C,0,140993,,255,0,0 V,0,140993,,-2,0.2 M,2,140993,141543,320,0,-316,636
Sprite,Foreground,CentreRight,"sb\pixelGradientLine.png",0,0 F,0,144685,,0.8 R,0,144685,,0.7853982 C,0,144685,,255,0,0 V,0,144685,,-2,0.2 M,2,144685,145235,320,0,956,636
Sprite,Foreground,CentreRight,"sb\pixelGradientLine.png",0,0 F,0,144685,,0.8 R,0,144685,,2.356194 C,0,144685,,255,0,0 V,0,144685,,-2,0.2 M,2,144685,145235,320,0,-316,636
Sprite,Foreground,CentreRight,"sb\pixelGradientLine.png",0,0 F,0,148147,,0.8 R,0,148147,,0.7853982 C,0,148147,,255,0,0 V,0,148147,,-2,0.2 M,2,148147,148697,320,0,956,636
Sprite,Foreground,CentreRight,"sb\pixelGradientLine.png",0,0 F,0,148147,,0.8 R,0,148147,,2.356194 C,0,148147,,255,0,0 V,0,148147,,-2,0.2 M,2,148147,148697,320,0,-316,636
Sprite,Foreground,CentreRight,"sb\pixelGradientLine.png",0,0 F,0,149993,,0.8 R,0,149993,,0.7853982 C,0,149993,,255,0,0 V,0,149993,,-2,0.2 M,2,149993,150543,320,0,956,636
Sprite,Foreground,CentreRight,"sb\pixelGradientLine.png",0,0 F,0,149993,,0.8 R,0,149993,,2.356194 C,0,149993,,255,0,0 V,0,149993,,-2,0.2 M,2,149993,150543,320,0,-316,636
Sprite,Foreground,CentreRight,"sb\pixelGradientLine.png",0,0 F,0,151839,,0.8 R,0,151839,,0.7853982 C,0,151839,,255,0,0 V,0,151839,,-2,0.2 M,2,151839,152389,320,0,956,636
Sprite,Foreground,CentreRight,"sb\pixelGradientLine.png",0,0 F,0,151839,,0.8 R,0,151839,,2.356194 C,0,151839,,255,0,0 V,0,151839,,-2,0.2 M,2,151839,152389,320,0,-316,636
Sprite,Foreground,CentreRight,"sb\pixelGradientLine.png",0,0 F,0,153685,,0.8 R,0,153685,,0.7853982 C,0,153685,,255,0,0 V,0,153685,,-2,0.2 M,2,153685,154235,320,0,956,636
Sprite,Foreground,CentreRight,"sb\pixelGradientLine.png",0,0 F,0,153685,,0.8 R,0,153685,,2.356194 C,0,153685,,255,0,0 V,0,153685,,-2,0.2 M,2,153685,154235,320,0,-316,636
Sprite,Foreground,CentreRight,"sb\pixelGradientLine.png",0,0 F,0,157378,,0.8 R,0,157378,,0.7853982 C,0,157378,,255,0,0 V,0,157378,,-2,0.2 M,2,157378,157928,320,0,956,636
Sprite,Foreground,CentreRight,"sb\pixelGradientLine.png",0,0 F,0,157378,,0.8 R,0,157378,,2.356194 C,0,157378,,255,0,0 V,0,157378,,-2,0.2 M,2,157378,157928,320,0,-316,636
Sprite,Foreground,CentreRight,"sb\pixelGradientLine.png",0,0 F,0,161070,,0.8 R,0,161070,,0.7853982 C,0,161070,,255,0,0 V,0,161070,,-2,0.2 M,2,161070,161620,320,0,956,636
Sprite,Foreground,CentreRight,"sb\pixelGradientLine.png",0,0 F,0,161070,,0.8 R,0,161070,,2.356194 C,0,161070,,255,0,0 V,0,161070,,-2,0.2 M,2,161070,161620,320,0,-316,636
Sprite,Foreground,CentreRight,"sb\pixelGradientLine.png",0,0 F,0,164993,,0.8 R,0,164993,,0.7853982 C,0,164993,,238,130,238 V,0,164993,,-2,0.2 M,2,164993,165915,320,0,956,636
Sprite,Foreground,CentreRight,"sb\pixelGradientLine.png",0,0 F,0,164993,,0.8 R,0,164993,,2.356194 C,0,164993,,238,130,238 V,0,164993,,-2,0.2 M,2,164993,165915,320,0,-316,636
Sprite,Foreground,CentreRight,"sb\pixelGradientLine.png",0,0 F,0,165454,,0.8 R,0,165454,,0.7853982 C,0,165454,,238,130,238 V,0,165454,,-2,0.2 M,2,165454,166376,320,0,956,636
Sprite,Foreground,CentreRight,"sb\pixelGradientLine.png",0,0 F,0,165454,,0.8 R,0,165454,,2.356194 C,0,165454,,238,130,238 V,0,165454,,-2,0.2 M,2,165454,166376,320,0,-316,636
Sprite,Foreground,CentreRight,"sb\pixelGradientLine.png",0,0 F,0,165916,,0.8 R,0,165916,,0.7853982 C,0,165916,,238,130,238 V,0,165916,,-2,0.2 M,2,165916,166838,320,0,956,636
Sprite,Foreground,CentreRight,"sb\pixelGradientLine.png",0,0 F,0,165916,,0.8 R,0,165916,,2.356194 C,0,165916,,238,130,238 V,0,165916,,-2,0.2 M,2,165916,166838,320,0,-316,636
Sprite,Foreground,CentreRight,"sb\pixelGradientLine.png",0,0 F,0,166378,,0.8 R,0,166378,,0.7853982 C,0,166378,,238,130,238 V,0,166378,,-2,0.2 M,2,166378,167300,320,0,956,636
Sprite,Foreground,CentreRight,"sb\pixelGradientLine.png",0,0 F,0,166378,,0.8 R,0,166378,,2.356194 C,0,166378,,238,130,238 V,0,166378,,-2,0.2 M,2,166378,167300,320,0,-316,636
Sprite,Foreground,CentreRight,"sb\pixelGradientLine.png",0,0 F,0,166839,,0.8 R,0,166839,,0.7853982 C,0,166839,,0,255,255 V,0,166839,,-2,0.2 M,2,166839,167761,320,0,956,636
Sprite,Foreground,CentreRight,"sb\pixelGradientLine.png",0,0 F,0,166839,,0.8 R,0,166839,,2.356194 C,0,166839,,0,255,255 V,0,166839,,-2,0.2 M,2,166839,167761,320,0,-316,636
Sprite,Foreground,CentreRight,"sb\pixelGradientLine.png",0,0 F,0,167301,,0.8 R,0,167301,,0.7853982 C,0,167301,,0,255,255 V,0,167301,,-2,0.2 M,2,167301,168223,320,0,956,636
Sprite,Foreground,CentreRight,"sb\pixelGradientLine.png",0,0 F,0,167301,,0.8 R,0,167301,,2.356194 C,0,167301,,0,255,255 V,0,167301,,-2,0.2 M,2,167301,168223,320,0,-316,636
Sprite,Foreground,CentreRight,"sb\pixelGradientLine.png",0,0 F,0,167762,,0.8 R,0,167762,,0.7853982 C,0,167762,,0,255,255 V,0,167762,,-2,0.2 M,2,167762,168684,320,0,956,636
Sprite,Foreground,CentreRight,"sb\pixelGradientLine.png",0,0 F,0,167762,,0.8 R,0,167762,,2.356194 C,0,167762,,0,255,255 V,0,167762,,-2,0.2 M,2,167762,168684,320,0,-316,636
Sprite,Foreground,CentreRight,"sb\pixelGradientLine.png",0,0 F,0,168224,,0.8 R,0,168224,,0.7853982 C,0,168224,,0,255,255 V,0,168224,,-2,0.2 M,2,168224,169146,320,0,956,636
Sprite,Foreground,CentreRight,"sb\pixelGradientLine.png",0,0 F,0,168224,,0.8 R,0,168224,,2.356194 C,0,168224,,0,255,255 V,0,168224,,-2,0.2 M,2,168224,169146,320,0,-316,636
Sprite,Foreground,CentreRight,"sb\pixelGradientLine.png",0,0 F,0,168685,,0.8 R,0,168685,,0.7853982 C,0,168685,,238,130,238 V,0,168685,,-2,0.2 M,2,168685,169607,320,0,956,636
Sprite,Foreground,CentreRight,"sb\pixelGradientLine.png",0,0 F,0,168685,,0.8 R,0,168685,,2.356194 C,0,168685,,238,130,238 V,0,168685,,-2,0.2 M,2,168685,169607,320,0,-316,636
Sprite,Foreground,CentreRight,"sb\pixelGradientLine.png",0,0 F,0,169147,,0.8 R,0,169147,,0.7853982 C,0,169147,,238,130,238 V,0,169147,,-2,0.2 M,2,169147,170069,320,0,956,636
Sprite,Foreground,CentreRight,"sb\pixelGradientLine.png",0,0 F,0,169147,,0.8 R,0,169147,,2.356194 C,0,169147,,238,130,238 V,0,169147,,-2,0.2 M,2,169147,170069,320,0,-316,636
Sprite,Foreground,CentreRight,"sb\pixelGradientLine.png",0,0 F,0,169608,,0.8 R,0,169608,,0.7853982 C,0,169608,,238,130,238 V,0,169608,,-2,0.2 M,2,169608,170530,320,0,956,636
Sprite,Foreground,CentreRight,"sb\pixelGradientLine.png",0,0 F,0,169608,,0.8 R,0,169608,,2.356194 C,0,169608,,238,130,238 V,0,169608,,-2,0.2 M,2,169608,170530,320,0,-316,636
Sprite,Foreground,CentreRight,"sb\pixelGradientLine.png",0,0 F,0,170070,,0.8 R,0,170070,,0.7853982 C,0,170070,,238,130,238 V,0,170070,,-2,0.2 M,2,170070,170992,320,0,956,636
Sprite,Foreground,CentreRight,"sb\pixelGradientLine.png",0,0 F,0,170070,,0.8 R,0,170070,,2.356194 C,0,170070,,238,130,238 V,0,170070,,-2,0.2 M,2,170070,170992,320,0,-316,636
Sprite,Foreground,CentreRight,"sb\pixelGradientLine.png",0,0 F,0,170531,,0.8 R,0,170531,,0.7853982 C,0,170531,,127,0,0 V,0,170531,,-2,0.2 M,2,170531,171453,320,0,956,636
Sprite,Foreground,CentreRight,"sb\pixelGradientLine.png",0,0 F,0,170531,,0.8 R,0,170531,,2.356194 C,0,170531,,127,0,0 V,0,170531,,-2,0.2 M,2,170531,171453,320,0,-316,636
Sprite,Foreground,CentreRight,"sb\pixelGradientLine.png",0,0 F,0,170993,,0.8 R,0,170993,,0.7853982 C,0,170993,,127,0,0 V,0,170993,,-2,0.2 M,2,170993,171915,320,0,956,636
Sprite,Foreground,CentreRight,"sb\pixelGradientLine.png",0,0 F,0,170993,,0.8 R,0,170993,,2.356194 C,0,170993,,127,0,0 V,0,170993,,-2,0.2 M,2,170993,171915,320,0,-316,636
Sprite,Foreground,CentreRight,"sb\pixelGradientLine.png",0,0 F,0,171454,,0.8 R,0,171454,,0.7853982 C,0,171454,,127,0,0 V,0,171454,,-2,0.2 M,2,171454,172376,320,0,956,636
Sprite,Foreground,CentreRight,"sb\pixelGradientLine.png",0,0 F,0,171454,,0.8 R,0,171454,,2.356194 C,0,171454,,127,0,0 V,0,171454,,-2,0.2 M,2,171454,172376,320,0,-316,636
Sprite,Foreground,CentreRight,"sb\pixelGradientLine.png",0,0 F,0,171916,,0.8 R,0,171916,,0.7853982 C,0,171916,,127,0,0 V,0,171916,,-2,0.2 M,2,171916,172838,320,0,956,636
Sprite,Foreground,CentreRight,"sb\pixelGradientLine.png",0,0 F,0,171916,,0.8 R,0,171916,,2.356194 C,0,171916,,127,0,0 V,0,171916,,-2,0.2 M,2,171916,172838,320,0,-316,636
Sprite,Foreground,CentreRight,"sb\pixelGradientLine.png",0,0 F,0,172378,,0.8 R,0,172378,,0.7853982 C,0,172378,,238,130,238 V,0,172378,,-2,0.2 M,2,172378,173300,320,0,956,636
Sprite,Foreground,CentreRight,"sb\pixelGradientLine.png",0,0 F,0,172378,,0.8 R,0,172378,,2.356194 C,0,172378,,238,130,238 V,0,172378,,-2,0.2 M,2,172378,173300,320,0,-316,636
Sprite,Foreground,CentreRight,"sb\pixelGradientLine.png",0,0 F,0,172839,,0.8 R,0,172839,,0.7853982 C,0,172839,,238,130,238 V,0,172839,,-2,0.2 M,2,172839,173761,320,0,956,636
Sprite,Foreground,CentreRight,"sb\pixelGradientLine.png",0,0 F,0,172839,,0.8 R,0,172839,,2.356194 C,0,172839,,238,130,238 V,0,172839,,-2,0.2 M,2,172839,173761,320,0,-316,636
Sprite,Foreground,CentreRight,"sb\pixelGradientLine.png",0,0 F,0,173301,,0.8 R,0,173301,,0.7853982 C,0,173301,,238,130,238 V,0,173301,,-2,0.2 M,2,173301,174223,320,0,956,636
Sprite,Foreground,CentreRight,"sb\pixelGradientLine.png",0,0 F,0,173301,,0.8 R,0,173301,,2.356194 C,0,173301,,238,130,238 V,0,173301,,-2,0.2 M,2,173301,174223,320,0,-316,636
Sprite,Foreground,CentreRight,"sb\pixelGradientLine.png",0,0 F,0,173762,,0.8 R,0,173762,,0.7853982 C,0,173762,,238,130,238 V,0,173762,,-2,0.2 M,2,173762,174684,320,0,956,636
Sprite,Foreground,CentreRight,"sb\pixelGradientLine.png",0,0 F,0,173762,,0.8 R,0,173762,,2.356194 C,0,173762,,238,130,238 V,0,173762,,-2,0.2 M,2,173762,174684,320,0,-316,636
Sprite,Foreground,CentreRight,"sb\pixelGradientLine.png",0,0 F,0,174224,,0.8 R,0,174224,,0.7853982 C,0,174224,,0,255,255 V,0,174224,,-2,0.2 M,2,174224,175146,320,0,956,636
Sprite,Foreground,CentreRight,"sb\pixelGradientLine.png",0,0 F,0,174224,,0.8 R,0,174224,,2.356194 C,0,174224,,0,255,255 V,0,174224,,-2,0.2 M,2,174224,175146,320,0,-316,636
Sprite,Foreground,CentreRight,"sb\pixelGradientLine.png",0,0 F,0,174685,,0.8 R,0,174685,,0.7853982 C,0,174685,,0,255,255 V,0,174685,,-2,0.2 M,2,174685,175607,320,0,956,636
Sprite,Foreground,CentreRight,"sb\pixelGradientLine.png",0,0 F,0,174685,,0.8 R,0,174685,,2.356194 C,0,174685,,0,255,255 V,0,174685,,-2,0.2 M,2,174685,175607,320,0,-316,636
Sprite,Foreground,CentreRight,"sb\pixelGradientLine.png",0,0 F,0,175147,,0.8 R,0,175147,,0.7853982 C,0,175147,,0,255,255 V,0,175147,,-2,0.2 M,2,175147,176069,320,0,956,636
Sprite,Foreground,CentreRight,"sb\pixelGradientLine.png",0,0 F,0,175147,,0.8 R,0,175147,,2.356194 C,0,175147,,0,255,255 V,0,175147,,-2,0.2 M,2,175147,176069,320,0,-316,636
Sprite,Foreground,CentreRight,"sb\pixelGradientLine.png",0,0 F,0,175608,,0.8 R,0,175608,,0.7853982 C,0,175608,,0,255,255 V,0,175608,,-2,0.2 M,2,175608,176530,320,0,956,636
Sprite,Foreground,CentreRight,"sb\pixelGradientLine.png",0,0 F,0,175608,,0.8 R,0,175608,,2.356194 C,0,175608,,0,255,255 V,0,175608,,-2,0.2 M,2,175608,176530,320,0,-316,636
Sprite,Foreground,CentreRight,"sb\pixelGradientLine.png",0,0 F,0,176070,,0.8 R,0,176070,,0.7853982 C,0,176070,,238,130,238 V,0,176070,,-2,0.2 M,2,176070,176992,320,0,956,636
Sprite,Foreground,CentreRight,"sb\pixelGradientLine.png",0,0 F,0,176070,,0.8 R,0,176070,,2.356194 C,0,176070,,238,130,238 V,0,176070,,-2,0.2 M,2,176070,176992,320,0,-316,636
Sprite,Foreground,CentreRight,"sb\pixelGradientLine.png",0,0 F,0,176531,,0.8 R,0,176531,,0.7853982 C,0,176531,,238,130,238 V,0,176531,,-2,0.2 M,2,176531,177453,320,0,956,636
Sprite,Foreground,CentreRight,"sb\pixelGradientLine.png",0,0 F,0,176531,,0.8 R,0,176531,,2.356194 C,0,176531,,238,130,238 V,0,176531,,-2,0.2 M,2,176531,177453,320,0,-316,636
Sprite,Foreground,CentreRight,"sb\pixelGradientLine.png",0,0 F,0,176993,,0.8 R,0,176993,,0.7853982 C,0,176993,,238,130,238 V,0,176993,,-2,0.2 M,2,176993,177915,320,0,956,636
Sprite,Foreground,CentreRight,"sb\pixelGradientLine.png",0,0 F,0,176993,,0.8 R,0,176993,,2.356194 C,0,176993,,238,130,238 V,0,176993,,-2,0.2 M,2,176993,177915,320,0,-316,636
Sprite,Foreground,CentreRight,"sb\pixelGradientLine.png",0,0 F,0,177454,,0.8 R,0,177454,,0.7853982 C,0,177454,,238,130,238 V,0,177454,,-2,0.2 M,2,177454,178376,320,0,956,636
Sprite,Foreground,CentreRight,"sb\pixelGradientLine.png",0,0 F,0,177454,,0.8 R,0,177454,,2.356194 C,0,177454,,238,130,238 V,0,177454,,-2,0.2 M,2,177454,178376,320,0,-316,636
Sprite,Foreground,CentreRight,"sb\pixelGradientLine.png",0,0 F,0,177916,,0.8 R,0,177916,,0.7853982 C,0,177916,,127,0,0 V,0,177916,,-2,0.2 M,2,177916,178838,320,0,956,636
Sprite,Foreground,CentreRight,"sb\pixelGradientLine.png",0,0 F,0,177916,,0.8 R,0,177916,,2.356194 C,0,177916,,127,0,0 V,0,177916,,-2,0.2 M,2,177916,178838,320,0,-316,636
Sprite,Foreground,CentreRight,"sb\pixelGradientLine.png",0,0 F,0,178378,,0.8 R,0,178378,,0.7853982 C,0,178378,,127,0,0 V,0,178378,,-2,0.2 M,2,178378,179300,320,0,956,636
Sprite,Foreground,CentreRight,"sb\pixelGradientLine.png",0,0 F,0,178378,,0.8 R,0,178378,,2.356194 C,0,178378,,127,0,0 V,0,178378,,-2,0.2 M,2,178378,179300,320,0,-316,636
Sprite,Foreground,CentreRight,"sb\pixelGradientLine.png",0,0 F,0,178839,,0.8 R,0,178839,,0.7853982 C,0,178839,,127,0,0 V,0,178839,,-2,0.2 M,2,178839,179761,320,0,956,636
Sprite,Foreground,CentreRight,"sb\pixelGradientLine.png",0,0 F,0,178839,,0.8 R,0,178839,,2.356194 C,0,178839,,127,0,0 V,0,178839,,-2,0.2 M,2,178839,179761,320,0,-316,636
Sprite,Foreground,CentreRight,"sb\pixelGradientLine.png",0,0 F,0,179301,,0.8 R,0,179301,,0.7853982 C,0,179301,,127,0,0 V,0,179301,,-2,0.2 M,2,179301,180223,320,0,956,636
Sprite,Foreground,CentreRight,"sb\pixelGradientLine.png",0,0 F,0,179301,,0.8 R,0,179301,,2.356194 C,0,179301,,127,0,0 V,0,179301,,-2,0.2 M,2,179301,180223,320,0,-316,636
Sprite,Foreground,CentreRight,"sb\pixelGradientLine.png",0,0 F,0,267454,,0.8 R,0,267454,,0.7853982 C,0,267454,,238,130,238 V,0,267454,,-2,0.2 M,2,267454,268376,320,0,956,636
Sprite,Foreground,CentreRight,"sb\pixelGradientLine.png",0,0 F,0,267454,,0.8 R,0,267454,,2.356194 C,0,267454,,238,130,238 V,0,267454,,-2,0.2 M,2,267454,268376,320,0,-316,636
Sprite,Foreground,CentreRight,"sb\pixelGradientLine.png",0,0 F,0,267915,,0.8 R,0,267915,,0.7853982 C,0,267915,,238,130,238 V,0,267915,,-2,0.2 M,2,267915,268837,320,0,956,636
Sprite,Foreground,CentreRight,"sb\pixelGradientLine.png",0,0 F,0,267915,,0.8 R,0,267915,,2.356194 C,0,267915,,238,130,238 V,0,267915,,-2,0.2 M,2,267915,268837,320,0,-316,636
Sprite,Foreground,CentreRight,"sb\pixelGradientLine.png",0,0 F,0,268377,,0.8 R,0,268377,,0.7853982 C,0,268377,,238,130,238 V,0,268377,,-2,0.2 M,2,268377,269299,320,0,956,636
Sprite,Foreground,CentreRight,"sb\pixelGradientLine.png",0,0 F,0,268377,,0.8 R,0,268377,,2.356194 C,0,268377,,238,130,238 V,0,268377,,-2,0.2 M,2,268377,269299,320,0,-316,636
Sprite,Foreground,CentreRight,"sb\pixelGradientLine.png",0,0 F,0,268838,,0.8 R,0,268838,,0.7853982 C,0,268838,,238,130,238 V,0,268838,,-2,0.2 M,2,268838,269760,320,0,956,636
Sprite,Foreground,CentreRight,"sb\pixelGradientLine.png",0,0 F,0,268838,,0.8 R,0,268838,,2.356194 C,0,268838,,238,130,238 V,0,268838,,-2,0.2 M,2,268838,269760,320,0,-316,636
Sprite,Foreground,CentreRight,"sb\pixelGradientLine.png",0,0 F,0,269300,,0.8 R,0,269300,,0.7853982 C,0,269300,,0,255,255 V,0,269300,,-2,0.2 M,2,269300,270222,320,0,956,636
Sprite,Foreground,CentreRight,"sb\pixelGradientLine.png",0,0 F,0,269300,,0.8 R,0,269300,,2.356194 C,0,269300,,0,255,255 V,0,269300,,-2,0.2 M,2,269300,270222,320,0,-316,636
Sprite,Foreground,CentreRight,"sb\pixelGradientLine.png",0,0 F,0,269761,,0.8 R,0,269761,,0.7853982 C,0,269761,,0,255,255 V,0,269761,,-2,0.2 M,2,269761,270683,320,0,956,636
Sprite,Foreground,CentreRight,"sb\pixelGradientLine.png",0,0 F,0,269761,,0.8 R,0,269761,,2.356194 C,0,269761,,0,255,255 V,0,269761,,-2,0.2 M,2,269761,270683,320,0,-316,636
Sprite,Foreground,CentreRight,"sb\pixelGradientLine.png",0,0 F,0,270223,,0.8 R,0,270223,,0.7853982 C,0,270223,,0,255,255 V,0,270223,,-2,0.2 M,2,270223,271145,320,0,956,636
Sprite,Foreground,CentreRight,"sb\pixelGradientLine.png",0,0 F,0,270223,,0.8 R,0,270223,,2.356194 C,0,270223,,0,255,255 V,0,270223,,-2,0.2 M,2,270223,271145,320,0,-316,636
Sprite,Foreground,CentreRight,"sb\pixelGradientLine.png",0,0 F,0,270684,,0.8 R,0,270684,,0.7853982 C,0,270684,,0,255,255 V,0,270684,,-2,0.2 M,2,270684,271606,320,0,956,636
Sprite,Foreground,CentreRight,"sb\pixelGradientLine.png",0,0 F,0,270684,,0.8 R,0,270684,,2.356194 C,0,270684,,0,255,255 V,0,270684,,-2,0.2 M,2,270684,271606,320,0,-316,636
Sprite,Foreground,CentreRight,"sb\pixelGradientLine.png",0,0 F,0,271146,,0.8 R,0,271146,,0.7853982 C,0,271146,,238,130,238 V,0,271146,,-2,0.2 M,2,271146,272068,320,0,956,636
Sprite,Foreground,CentreRight,"sb\pixelGradientLine.png",0,0 F,0,271146,,0.8 R,0,271146,,2.356194 C,0,271146,,238,130,238 V,0,271146,,-2,0.2 M,2,271146,272068,320,0,-316,636
Sprite,Foreground,CentreRight,"sb\pixelGradientLine.png",0,0 F,0,271607,,0.8 R,0,271607,,0.7853982 C,0,271607,,238,130,238 V,0,271607,,-2,0.2 M,2,271607,272529,320,0,956,636
Sprite,Foreground,CentreRight,"sb\pixelGradientLine.png",0,0 F,0,271607,,0.8 R,0,271607,,2.356194 C,0,271607,,238,130,238 V,0,271607,,-2,0.2 M,2,271607,272529,320,0,-316,636
Sprite,Foreground,CentreRight,"sb\pixelGradientLine.png",0,0 F,0,272069,,0.8 R,0,272069,,0.7853982 C,0,272069,,238,130,238 V,0,272069,,-2,0.2 M,2,272069,272991,320,0,956,636
Sprite,Foreground,CentreRight,"sb\pixelGradientLine.png",0,0 F,0,272069,,0.8 R,0,272069,,2.356194 C,0,272069,,238,130,238 V,0,272069,,-2,0.2 M,2,272069,272991,320,0,-316,636
Sprite,Foreground,CentreRight,"sb\pixelGradientLine.png",0,0 F,0,272530,,0.8 R,0,272530,,0.7853982 C,0,272530,,238,130,238 V,0,272530,,-2,0.2 M,2,272530,273452,320,0,956,636
Sprite,Foreground,CentreRight,"sb\pixelGradientLine.png",0,0 F,0,272530,,0.8 R,0,272530,,2.356194 C,0,272530,,238,130,238 V,0,272530,,-2,0.2 M,2,272530,273452,320,0,-316,636
Sprite,Foreground,CentreRight,"sb\pixelGradientLine.png",0,0 F,0,272992,,0.8 R,0,272992,,0.7853982 C,0,272992,,127,0,0 V,0,272992,,-2,0.2 M,2,272992,273914,320,0,956,636
Sprite,Foreground,CentreRight,"sb\pixelGradientLine.png",0,0 F,0,272992,,0.8 R,0,272992,,2.356194 C,0,272992,,127,0,0 V,0,272992,,-2,0.2 M,2,272992,273914,320,0,-316,636
Sprite,Foreground,CentreRight,"sb\pixelGradientLine.png",0,0 F,0,273454,,0.8 R,0,273454,,0.7853982 C,0,273454,,127,0,0 V,0,273454,,-2,0.2 M,2,273454,274376,320,0,956,636
Sprite,Foreground,CentreRight,"sb\pixelGradientLine.png",0,0 F,0,273454,,0.8 R,0,273454,,2.356194 C,0,273454,,127,0,0 V,0,273454,,-2,0.2 M,2,273454,274376,320,0,-316,636
Sprite,Foreground,CentreRight,"sb\pixelGradientLine.png",0,0 F,0,273915,,0.8 R,0,273915,,0.7853982 C,0,273915,,127,0,0 V,0,273915,,-2,0.2 M,2,273915,274837,320,0,956,636
Sprite,Foreground,CentreRight,"sb\pixelGradientLine.png",0,0 F,0,273915,,0.8 R,0,273915,,2.356194 C,0,273915,,127,0,0 V,0,273915,,-2,0.2 M,2,273915,274837,320,0,-316,636
Sprite,Foreground,CentreRight,"sb\pixelGradientLine.png",0,0 F,0,274377,,0.8 R,0,274377,,0.7853982 C,0,274377,,127,0,0 V,0,274377,,-2,0.2 M,2,274377,275299,320,0,956,636
Sprite,Foreground,CentreRight,"sb\pixelGradientLine.png",0,0 F,0,274377,,0.8 R,0,274377,,2.356194 C,0,274377,,127,0,0 V,0,274377,,-2,0.2 M,2,274377,275299,320,0,-316,636
Sprite,Foreground,CentreRight,"sb\pixelGradientLine.png",0,0 F,0,274838,,0.8 R,0,274838,,0.7853982 C,0,274838,,0,255,255 V,0,274838,,-2,0.2 M,2,274838,275760,320,0,956,636
Sprite,Foreground,CentreRight,"sb\pixelGradientLine.png",0,0 F,0,274838,,0.8 R,0,274838,,2.356194 C,0,274838,,0,255,255 V,0,274838,,-2,0.2 M,2,274838,275760,320,0,-316,636
Sprite,Foreground,CentreRight,"sb\pixelGradientLine.png",0,0 F,0,275300,,0.8 R,0,275300,,0.7853982 C,0,275300,,0,255,255 V,0,275300,,-2,0.2 M,2,275300,276222,320,0,956,636
Sprite,Foreground,CentreRight,"sb\pixelGradientLine.png",0,0 F,0,275300,,0.8 R,0,275300,,2.356194 C,0,275300,,0,255,255 V,0,275300,,-2,0.2 M,2,275300,276222,320,0,-316,636
Sprite,Foreground,CentreRight,"sb\pixelGradientLine.png",0,0 F,0,275761,,0.8 R,0,275761,,0.7853982 C,0,275761,,0,255,255 V,0,275761,,-2,0.2 M,2,275761,276683,320,0,956,636
Sprite,Foreground,CentreRight,"sb\pixelGradientLine.png",0,0 F,0,275761,,0.8 R,0,275761,,2.356194 C,0,275761,,0,255,255 V,0,275761,,-2,0.2 M,2,275761,276683,320,0,-316,636
Sprite,Foreground,CentreRight,"sb\pixelGradientLine.png",0,0 F,0,276223,,0.8 R,0,276223,,0.7853982 C,0,276223,,0,255,255 V,0,276223,,-2,0.2 M,2,276223,277145,320,0,956,636
Sprite,Foreground,CentreRight,"sb\pixelGradientLine.png",0,0 F,0,276223,,0.8 R,0,276223,,2.356194 C,0,276223,,0,255,255 V,0,276223,,-2,0.2 M,2,276223,277145,320,0,-316,636
Sprite,Foreground,CentreRight,"sb\pixelGradientLine.png",0,0 F,0,276684,,0.8 R,0,276684,,0.7853982 C,0,276684,,238,130,238 V,0,276684,,-2,0.2 M,2,276684,277606,320,0,956,636
Sprite,Foreground,CentreRight,"sb\pixelGradientLine.png",0,0 F,0,276684,,0.8 R,0,276684,,2.356194 C,0,276684,,238,130,238 V,0,276684,,-2,0.2 M,2,276684,277606,320,0,-316,636
Sprite,Foreground,CentreRight,"sb\pixelGradientLine.png",0,0 F,0,277146,,0.8 R,0,277146,,0.7853982 C,0,277146,,238,130,238 V,0,277146,,-2,0.2 M,2,277146,278068,320,0,956,636
Sprite,Foreground,CentreRight,"sb\pixelGradientLine.png",0,0 F,0,277146,,0.8 R,0,277146,,2.356194 C,0,277146,,238,130,238 V,0,277146,,-2,0.2 M,2,277146,278068,320,0,-316,636
Sprite,Foreground,CentreRight,"sb\pixelGradientLine.png",0,0 F,0,277607,,0.8 R,0,277607,,0.7853982 C,0,277607,,238,130,238 V,0,277607,,-2,0.2 M,2,277607,278529,320,0,956,636
Sprite,Foreground,CentreRight,"sb\pixelGradientLine.png",0,0 F,0,277607,,0.8 R,0,277607,,2.356194 C,0,277607,,238,130,238 V,0,277607,,-2,0.2 M,2,277607,278529,320,0,-316,636
Sprite,Foreground,CentreRight,"sb\pixelGradientLine.png",0,0 F,0,278069,,0.8 R,0,278069,,0.7853982 C,0,278069,,238,130,238 V,0,278069,,-2,0.2 M,2,278069,278991,320,0,956,636
Sprite,Foreground,CentreRight,"sb\pixelGradientLine.png",0,0 F,0,278069,,0.8 R,0,278069,,2.356194 C,0,278069,,238,130,238 V,0,278069,,-2,0.2 M,2,278069,278991,320,0,-316,636
Sprite,Foreground,CentreRight,"sb\pixelGradientLine.png",0,0 F,0,278530,,0.8 R,0,278530,,0.7853982 C,0,278530,,0,255,255 V,0,278530,,-2,0.2 M,2,278530,279452,320,0,956,636
Sprite,Foreground,CentreRight,"sb\pixelGradientLine.png",0,0 F,0,278530,,0.8 R,0,278530,,2.356194 C,0,278530,,0,255,255 V,0,278530,,-2,0.2 M,2,278530,279452,320,0,-316,636
Sprite,Foreground,CentreRight,"sb\pixelGradientLine.png",0,0 F,0,278992,,0.8 R,0,278992,,0.7853982 C,0,278992,,0,255,255 V,0,278992,,-2,0.2 M,2,278992,279914,320,0,956,636
Sprite,Foreground,CentreRight,"sb\pixelGradientLine.png",0,0 F,0,278992,,0.8 R,0,278992,,2.356194 C,0,278992,,0,255,255 V,0,278992,,-2,0.2 M,2,278992,279914,320,0,-316,636
Sprite,Foreground,CentreRight,"sb\pixelGradientLine.png",0,0 F,0,279454,,0.8 R,0,279454,,0.7853982 C,0,279454,,0,255,255 V,0,279454,,-2,0.2 M,2,279454,280376,320,0,956,636
Sprite,Foreground,CentreRight,"sb\pixelGradientLine.png",0,0 F,0,279454,,0.8 R,0,279454,,2.356194 C,0,279454,,0,255,255 V,0,279454,,-2,0.2 M,2,279454,280376,320,0,-316,636
Sprite,Foreground,CentreRight,"sb\pixelGradientLine.png",0,0 F,0,279915,,0.8 R,0,279915,,0.7853982 C,0,279915,,0,255,255 V,0,279915,,-2,0.2 M,2,279915,280837,320,0,956,636
Sprite,Foreground,CentreRight,"sb\pixelGradientLine.png",0,0 F,0,279915,,0.8 R,0,279915,,2.356194 C,0,279915,,0,255,255 V,0,279915,,-2,0.2 M,2,279915,280837,320,0,-316,636
Sprite,Foreground,CentreRight,"sb\pixelGradientLine.png",0,0 F,0,280377,,0.8 R,0,280377,,0.7853982 C,0,280377,,127,0,0 V,0,280377,,-2,0.2 M,2,280377,281299,320,0,956,636
Sprite,Foreground,CentreRight,"sb\pixelGradientLine.png",0,0 F,0,280377,,0.8 R,0,280377,,2.356194 C,0,280377,,127,0,0 V,0,280377,,-2,0.2 M,2,280377,281299,320,0,-316,636
Sprite,Foreground,CentreRight,"sb\pixelGradientLine.png",0,0 F,0,280838,,0.8 R,0,280838,,0.7853982 C,0,280838,,127,0,0 V,0,280838,,-2,0.2 M,2,280838,281760,320,0,956,636
Sprite,Foreground,CentreRight,"sb\pixelGradientLine.png",0,0 F,0,280838,,0.8 R,0,280838,,2.356194 C,0,280838,,127,0,0 V,0,280838,,-2,0.2 M,2,280838,281760,320,0,-316,636
Sprite,Foreground,CentreRight,"sb\pixelGradientLine.png",0,0 F,0,281300,,0.8 R,0,281300,,0.7853982 C,0,281300,,127,0,0 V,0,281300,,-2,0.2 M,2,281300,282222,320,0,956,636
Sprite,Foreground,CentreRight,"sb\pixelGradientLine.png",0,0 F,0,281300,,0.8 R,0,281300,,2.356194 C,0,281300,,127,0,0 V,0,281300,,-2,0.2 M,2,281300,282222,320,0,-316,636
Sprite,Foreground,CentreRight,"sb\pixelGradientLine.png",0,0 F,0,281761,,0.8 R,0,281761,,0.7853982 C,0,281761,,127,0,0 V,0,281761,,-2,0.2 M,2,281761,282683,320,0,956,636
Sprite,Foreground,CentreRight,"sb\pixelGradientLine.png",0,0 F,0,281761,,0.8 R,0,281761,,2.356194 C,0,281761,,127,0,0 V,0,281761,,-2,0.2 M,2,281761,282683,320,0,-316,636
Sprite,Foreground,CentreRight,"sb\pixelGradientLine.png",0,0 F,0,282223,,0.8 R,0,282223,,0.7853982 C,0,282223,,238,130,238 V,0,282223,,-2,0.2 M,2,282223,283145,320,0,956,636
Sprite,Foreground,CentreRight,"sb\pixelGradientLine.png",0,0 F,0,282223,,0.8 R,0,282223,,2.356194 C,0,282223,,238,130,238 V,0,282223,,-2,0.2 M,2,282223,283145,320,0,-316,636
Sprite,Foreground,CentreRight,"sb\pixelGradientLine.png",0,0 F,0,282684,,0.8 R,0,282684,,0.7853982 C,0,282684,,238,130,238 V,0,282684,,-2,0.2 M,2,282684,283606,320,0,956,636
Sprite,Foreground,CentreRight,"sb\pixelGradientLine.png",0,0 F,0,282684,,0.8 R,0,282684,,2.356194 C,0,282684,,238,130,238 V,0,282684,,-2,0.2 M,2,282684,283606,320,0,-316,636
Sprite,Foreground,CentreRight,"sb\pixelGradientLine.png",0,0 F,0,283146,,0.8 R,0,283146,,0.7853982 C,0,283146,,238,130,238 V,0,283146,,-2,0.2 M,2,283146,284068,320,0,956,636
Sprite,Foreground,CentreRight,"sb\pixelGradientLine.png",0,0 F,0,283146,,0.8 R,0,283146,,2.356194 C,0,283146,,238,130,238 V,0,283146,,-2,0.2 M,2,283146,284068,320,0,-316,636
Sprite,Foreground,CentreRight,"sb\pixelGradientLine.png",0,0 F,0,283607,,0.8 R,0,283607,,0.7853982 C,0,283607,,238,130,238 V,0,283607,,-2,0.2 M,2,283607,284529,320,0,956,636
Sprite,Foreground,CentreRight,"sb\pixelGradientLine.png",0,0 F,0,283607,,0.8 R,0,283607,,2.356194 C,0,283607,,238,130,238 V,0,283607,,-2,0.2 M,2,283607,284529,320,0,-316,636
Sprite,Foreground,CentreRight,"sb\pixelGradientLine.png",0,0 F,0,284069,,0.8 R,0,284069,,0.7853982 C,0,284069,,0,255,255 V,0,284069,,-2,0.2 M,2,284069,284991,320,0,956,636
Sprite,Foreground,CentreRight,"sb\pixelGradientLine.png",0,0 F,0,284069,,0.8 R,0,284069,,2.356194 C,0,284069,,0,255,255 V,0,284069,,-2,0.2 M,2,284069,284991,320,0,-316,636
Sprite,Foreground,CentreRight,"sb\pixelGradientLine.png",0,0 F,0,284530,,0.8 R,0,284530,,0.7853982 C,0,284530,,0,255,255 V,0,284530,,-2,0.2 M,2,284530,285452,320,0,956,636
Sprite,Foreground,CentreRight,"sb\pixelGradientLine.png",0,0 F,0,284530,,0.8 R,0,284530,,2.356194 C,0,284530,,0,255,255 V,0,284530,,-2,0.2 M,2,284530,285452,320,0,-316,636
Sprite,Foreground,CentreRight,"sb\pixelGradientLine.png",0,0 F,0,284992,,0.8 R,0,284992,,0.7853982 C,0,284992,,0,255,255 V,0,284992,,-2,0.2 M,2,284992,285914,320,0,956,636
Sprite,Foreground,CentreRight,"sb\pixelGradientLine.png",0,0 F,0,284992,,0.8 R,0,284992,,2.356194 C,0,284992,,0,255,255 V,0,284992,,-2,0.2 M,2,284992,285914,320,0,-316,636
Sprite,Foreground,CentreRight,"sb\pixelGradientLine.png",0,0 F,0,285454,,0.8 R,0,285454,,0.7853982 C,0,285454,,0,255,255 V,0,285454,,-2,0.2 M,2,285454,286376,320,0,956,636
Sprite,Foreground,CentreRight,"sb\pixelGradientLine.png",0,0 F,0,285454,,0.8 R,0,285454,,2.356194 C,0,285454,,0,255,255 V,0,285454,,-2,0.2 M,2,285454,286376,320,0,-316,636
Sprite,Foreground,CentreRight,"sb\pixelGradientLine.png",0,0 F,0,285915,,0.8 R,0,285915,,0.7853982 C,0,285915,,238,130,238 V,0,285915,,-2,0.2 M,2,285915,286837,320,0,956,636
Sprite,Foreground,CentreRight,"sb\pixelGradientLine.png",0,0 F,0,285915,,0.8 R,0,285915,,2.356194 C,0,285915,,238,130,238 V,0,285915,,-2,0.2 M,2,285915,286837,320,0,-316,636
Sprite,Foreground,CentreRight,"sb\pixelGradientLine.png",0,0 F,0,286377,,0.8 R,0,286377,,0.7853982 C,0,286377,,238,130,238 V,0,286377,,-2,0.2 M,2,286377,287299,320,0,956,636
Sprite,Foreground,CentreRight,"sb\pixelGradientLine.png",0,0 F,0,286377,,0.8 R,0,286377,,2.356194 C,0,286377,,238,130,238 V,0,286377,,-2,0.2 M,2,286377,287299,320,0,-316,636
Sprite,Foreground,CentreRight,"sb\pixelGradientLine.png",0,0 F,0,286838,,0.8 R,0,286838,,0.7853982 C,0,286838,,238,130,238 V,0,286838,,-2,0.2 M,2,286838,287760,320,0,956,636
Sprite,Foreground,CentreRight,"sb\pixelGradientLine.png",0,0 F,0,286838,,0.8 R,0,286838,,2.356194 C,0,286838,,238,130,238 V,0,286838,,-2,0.2 M,2,286838,287760,320,0,-316,636
Sprite,Foreground,CentreRight,"sb\pixelGradientLine.png",0,0 F,0,287300,,0.8 R,0,287300,,0.7853982 C,0,287300,,238,130,238 V,0,287300,,-2,0.2 M,2,287300,288222,320,0,956,636
Sprite,Foreground,CentreRight,"sb\pixelGradientLine.png",0,0 F,0,287300,,0.8 R,0,287300,,2.356194 C,0,287300,,238,130,238 V,0,287300,,-2,0.2 M,2,287300,288222,320,0,-316,636
Sprite,Foreground,CentreRight,"sb\pixelGradientLine.png",0,0 F,0,287761,,0.8 R,0,287761,,0.7853982 C,0,287761,,127,0,0 V,0,287761,,-2,0.2 M,2,287761,288683,320,0,956,636
Sprite,Foreground,CentreRight,"sb\pixelGradientLine.png",0,0 F,0,287761,,0.8 R,0,287761,,2.356194 C,0,287761,,127,0,0 V,0,287761,,-2,0.2 M,2,287761,288683,320,0,-316,636
Sprite,Foreground,CentreRight,"sb\pixelGradientLine.png",0,0 F,0,288223,,0.8 R,0,288223,,0.7853982 C,0,288223,,127,0,0 V,0,288223,,-2,0.2 M,2,288223,289145,320,0,956,636
Sprite,Foreground,CentreRight,"sb\pixelGradientLine.png",0,0 F,0,288223,,0.8 R,0,288223,,2.356194 C,0,288223,,127,0,0 V,0,288223,,-2,0.2 M,2,288223,289145,320,0,-316,636
Sprite,Foreground,CentreRight,"sb\pixelGradientLine.png",0,0 F,0,288684,,0.8 R,0,288684,,0.7853982 C,0,288684,,127,0,0 V,0,288684,,-2,0.2 M,2,288684,289606,320,0,956,636
Sprite,Foreground,CentreRight,"sb\pixelGradientLine.png",0,0 F,0,288684,,0.8 R,0,288684,,2.356194 C,0,288684,,127,0,0 V,0,288684,,-2,0.2 M,2,288684,289606,320,0,-316,636
Sprite,Foreground,CentreRight,"sb\pixelGradientLine.png",0,0 F,0,289146,,0.8 R,0,289146,,0.7853982 C,0,289146,,127,0,0 V,0,289146,,-2,0.2 M,2,289146,290068,320,0,956,636
Sprite,Foreground,CentreRight,"sb\pixelGradientLine.png",0,0 F,0,289146,,0.8 R,0,289146,,2.356194 C,0,289146,,127,0,0 V,0,289146,,-2,0.2 M,2,289146,290068,320,0,-316,636
Sprite,Foreground,CentreRight,"sb\pixelGradientLine.png",0,0 F,0,289607,,0.8 R,0,289607,,0.7853982 C,0,289607,,0,255,255 V,0,289607,,-2,0.2 M,2,289607,290529,320,0,956,636
Sprite,Foreground,CentreRight,"sb\pixelGradientLine.png",0,0 F,0,289607,,0.8 R,0,289607,,2.356194 C,0,289607,,0,255,255 V,0,289607,,-2,0.2 M,2,289607,290529,320,0,-316,636
Sprite,Foreground,CentreRight,"sb\pixelGradientLine.png",0,0 F,0,290069,,0.8 R,0,290069,,0.7853982 C,0,290069,,0,255,255 V,0,290069,,-2,0.2 M,2,290069,290991,320,0,956,636
Sprite,Foreground,CentreRight,"sb\pixelGradientLine.png",0,0 F,0,290069,,0.8 R,0,290069,,2.356194 C,0,290069,,0,255,255 V,0,290069,,-2,0.2 M,2,290069,290991,320,0,-316,636
Sprite,Foreground,CentreRight,"sb\pixelGradientLine.png",0,0 F,0,290530,,0.8 R,0,290530,,0.7853982 C,0,290530,,0,255,255 V,0,290530,,-2,0.2 M,2,290530,291452,320,0,956,636
Sprite,Foreground,CentreRight,"sb\pixelGradientLine.png",0,0 F,0,290530,,0.8 R,0,290530,,2.356194 C,0,290530,,0,255,255 V,0,290530,,-2,0.2 M,2,290530,291452,320,0,-316,636
Sprite,Foreground,CentreRight,"sb\pixelGradientLine.png",0,0 F,0,290992,,0.8 R,0,290992,,0.7853982 C,0,290992,,0,255,255 V,0,290992,,-2,0.2 M,2,290992,291914,320,0,956,636
Sprite,Foreground,CentreRight,"sb\pixelGradientLine.png",0,0 F,0,290992,,0.8 R,0,290992,,2.356194 C,0,290992,,0,255,255 V,0,290992,,-2,0.2 M,2,290992,291914,320,0,-316,636
Sprite,Foreground,CentreRight,"sb\pixelGradientLine.png",0,0 F,0,291454,,0.8 R,0,291454,,0.7853982 C,0,291454,,238,130,238 V,0,291454,,-2,0.2 M,2,291454,292376,320,0,956,636
Sprite,Foreground,CentreRight,"sb\pixelGradientLine.png",0,0 F,0,291454,,0.8 R,0,291454,,2.356194 C,0,291454,,238,130,238 V,0,291454,,-2,0.2 M,2,291454,292376,320,0,-316,636
Sprite,Foreground,CentreRight,"sb\pixelGradientLine.png",0,0 F,0,291915,,0.8 R,0,291915,,0.7853982 C,0,291915,,238,130,238 V,0,291915,,-2,0.2 M,2,291915,292837,320,0,956,636
Sprite,Foreground,CentreRight,"sb\pixelGradientLine.png",0,0 F,0,291915,,0.8 R,0,291915,,2.356194 C,0,291915,,238,130,238 V,0,291915,,-2,0.2 M,2,291915,292837,320,0,-316,636
Sprite,Foreground,CentreRight,"sb\pixelGradientLine.png",0,0 F,0,292377,,0.8 R,0,292377,,0.7853982 C,0,292377,,238,130,238 V,0,292377,,-2,0.2 M,2,292377,293299,320,0,956,636
Sprite,Foreground,CentreRight,"sb\pixelGradientLine.png",0,0 F,0,292377,,0.8 R,0,292377,,2.356194 C,0,292377,,238,130,238 V,0,292377,,-2,0.2 M,2,292377,293299,320,0,-316,636
Sprite,Foreground,CentreRight,"sb\pixelGradientLine.png",0,0 F,0,292838,,0.8 R,0,292838,,0.7853982 C,0,292838,,238,130,238 V,0,292838,,-2,0.2 M,2,292838,293760,320,0,956,636
Sprite,Foreground,CentreRight,"sb\pixelGradientLine.png",0,0 F,0,292838,,0.8 R,0,292838,,2.356194 C,0,292838,,238,130,238 V,0,292838,,-2,0.2 M,2,292838,293760,320,0,-316,636
Sprite,Foreground,CentreRight,"sb\pixelGradientLine.png",0,0 F,0,293300,,0.8 R,0,293300,,0.7853982 C,0,293300,,0,255,255 V,0,293300,,-2,0.2 M,2,293300,294222,320,0,956,636
Sprite,Foreground,CentreRight,"sb\pixelGradientLine.png",0,0 F,0,293300,,0.8 R,0,293300,,2.356194 C,0,293300,,0,255,255 V,0,293300,,-2,0.2 M,2,293300,294222,320,0,-316,636
Sprite,Foreground,CentreRight,"sb\pixelGradientLine.png",0,0 F,0,293761,,0.8 R,0,293761,,0.7853982 C,0,293761,,0,255,255 V,0,293761,,-2,0.2 M,2,293761,294683,320,0,956,636
Sprite,Foreground,CentreRight,"sb\pixelGradientLine.png",0,0 F,0,293761,,0.8 R,0,293761,,2.356194 C,0,293761,,0,255,255 V,0,293761,,-2,0.2 M,2,293761,294683,320,0,-316,636
Sprite,Foreground,CentreRight,"sb\pixelGradientLine.png",0,0 F,0,294223,,0.8 R,0,294223,,0.7853982 C,0,294223,,0,255,255 V,0,294223,,-2,0.2 M,2,294223,295145,320,0,956,636
Sprite,Foreground,CentreRight,"sb\pixelGradientLine.png",0,0 F,0,294223,,0.8 R,0,294223,,2.356194 C,0,294223,,0,255,255 V,0,294223,,-2,0.2 M,2,294223,295145,320,0,-316,636
Sprite,Foreground,CentreRight,"sb\pixelGradientLine.png",0,0 F,0,294684,,0.8 R,0,294684,,0.7853982 C,0,294684,,0,255,255 V,0,294684,,-2,0.2 M,2,294684,295606,320,0,956,636
Sprite,Foreground,CentreRight,"sb\pixelGradientLine.png",0,0 F,0,294684,,0.8 R,0,294684,,2.356194 C,0,294684,,0,255,255 V,0,294684,,-2,0.2 M,2,294684,295606,320,0,-316,636
Sprite,Foreground,CentreRight,"sb\pixelGradientLine.png",0,0 F,0,295146,,0.8 R,0,295146,,0.7853982 C,0,295146,,127,0,0 V,0,295146,,-2,0.2 M,2,295146,296068,320,0,956,636
Sprite,Foreground,CentreRight,"sb\pixelGradientLine.png",0,0 F,0,295146,,0.8 R,0,295146,,2.356194 C,0,295146,,127,0,0 V,0,295146,,-2,0.2 M,2,295146,296068,320,0,-316,636
Sprite,Foreground,CentreRight,"sb\pixelGradientLine.png",0,0 F,0,295607,,0.8 R,0,295607,,0.7853982 C,0,295607,,127,0,0 V,0,295607,,-2,0.2 M,2,295607,296529,320,0,956,636
Sprite,Foreground,CentreRight,"sb\pixelGradientLine.png",0,0 F,0,295607,,0.8 R,0,295607,,2.356194 C,0,295607,,127,0,0 V,0,295607,,-2,0.2 M,2,295607,296529,320,0,-316,636
Sprite,Foreground,CentreRight,"sb\pixelGradientLine.png",0,0 F,0,296069,,0.8 R,0,296069,,0.7853982 C,0,296069,,127,0,0 V,0,296069,,-2,0.2 M,2,296069,296991,320,0,956,636
Sprite,Foreground,CentreRight,"sb\pixelGradientLine.png",0,0 F,0,296069,,0.8 R,0,296069,,2.356194 C,0,296069,,127,0,0 V,0,296069,,-2,0.2 M,2,296069,296991,320,0,-316,636
Sprite,Foreground,CentreRight,"sb\pixelGradientLine.png",0,0 F,0,296530,,0.8 R,0,296530,,0.7853982 C,0,296530,,127,0,0 V,0,296530,,-2,0.2 M,2,296530,297452,320,0,956,636
Sprite,Foreground,CentreRight,"sb\pixelGradientLine.png",0,0 F,0,296530,,0.8 R,0,296530,,2.356194 C,0,296530,,127,0,0 V,0,296530,,-2,0.2 M,2,296530,297452,320,0,-316,636
Sprite,Foreground,CentreRight,"sb\pixelGradientLine.png",0,0 F,0,190608,,0.8 R,0,190608,,0.7853982 C,0,190608,,255,0,0 V,0,190608,,-2,0.2 M,2,190608,191158,320,0,956,636
Sprite,Foreground,CentreRight,"sb\pixelGradientLine.png",0,0 F,0,190608,,0.8 R,0,190608,,2.356194 C,0,190608,,255,0,0 V,0,190608,,-2,0.2 M,2,190608,191158,320,0,-316,636
Sprite,Foreground,CentreRight,"sb\pixelGradientLine.png",0,0 F,0,194301,,0.8 R,0,194301,,0.7853982 C,0,194301,,255,0,0 V,0,194301,,-2,0.2 M,2,194301,194851,320,0,956,636
Sprite,Foreground,CentreRight,"sb\pixelGradientLine.png",0,0 F,0,194301,,0.8 R,0,194301,,2.356194 C,0,194301,,255,0,0 V,0,194301,,-2,0.2 M,2,194301,194851,320,0,-316,636
Sprite,Foreground,CentreRight,"sb\pixelGradientLine.png",0,0 F,0,197993,,0.8 R,0,197993,,0.7853982 C,0,197993,,255,0,0 V,0,197993,,-2,0.2 M,2,197993,198543,320,0,956,636
Sprite,Foreground,CentreRight,"sb\pixelGradientLine.png",0,0 F,0,197993,,0.8 R,0,197993,,2.356194 C,0,197993,,255,0,0 V,0,197993,,-2,0.2 M,2,197993,198543,320,0,-316,636
Sprite,Foreground,CentreRight,"sb\pixelGradientLine.png",0,0 F,0,201685,,0.8 R,0,201685,,0.7853982 C,0,201685,,255,0,0 V,0,201685,,-2,0.2 M,2,201685,202235,320,0,956,636
Sprite,Foreground,CentreRight,"sb\pixelGradientLine.png",0,0 F,0,201685,,0.8 R,0,201685,,2.356194 C,0,201685,,255,0,0 V,0,201685,,-2,0.2 M,2,201685,202235,320,0,-316,636
Sprite,Foreground,CentreRight,"sb\pixelGradientLine.png",0,0 F,0,221069,,0.8 R,0,221069,,0.7853982 C,0,221069,,255,0,0 V,0,221069,,-2,0.2 M,2,221069,221619,320,0,956,636
Sprite,Foreground,CentreRight,"sb\pixelGradientLine.png",0,0 F,0,221069,,0.8 R,0,221069,,2.356194 C,0,221069,,255,0,0 V,0,221069,,-2,0.2 M,2,221069,221619,320,0,-316,636
Sprite,Foreground,CentreRight,"sb\pixelGradientLine.png",0,0 F,0,224761,,0.8 R,0,224761,,0.7853982 C,0,224761,,255,0,0 V,0,224761,,-2,0.2 M,2,224761,225311,320,0,956,636
Sprite,Foreground,CentreRight,"sb\pixelGradientLine.png",0,0 F,0,224761,,0.8 R,0,224761,,2.356194 C,0,224761,,255,0,0 V,0,224761,,-2,0.2 M,2,224761,225311,320,0,-316,636
Sprite,Foreground,CentreRight,"sb\pixelGradientLine.png",0,0 F,0,228454,,0.8 R,0,228454,,0.7853982 C,0,228454,,255,0,0 V,0,228454,,-2,0.2 M,2,228454,229004,320,0,956,636
Sprite,Foreground,CentreRight,"sb\pixelGradientLine.png",0,0 F,0,228454,,0.8 R,0,228454,,2.356194 C,0,228454,,255,0,0 V,0,228454,,-2,0.2 M,2,228454,229004,320,0,-316,636
Sprite,Foreground,CentreRight,"sb\pixelGradientLine.png",0,0 F,0,232146,,0.8 R,0,232146,,0.7853982 C,0,232146,,255,0,0 V,0,232146,,-2,0.2 M,2,232146,232696,320,0,956,636
Sprite,Foreground,CentreRight,"sb\pixelGradientLine.png",0,0 F,0,232146,,0.8 R,0,232146,,2.356194 C,0,232146,,255,0,0 V,0,232146,,-2,0.2 M,2,232146,232696,320,0,-316,636
Sprite,Foreground,CentreRight,"sb\pixelGradientLine.png",0,0 F,0,236069,,0.8 R,0,236069,,0.7853982 C,0,236069,,255,0,0 V,0,236069,,-2,0.2 M,2,236069,236619,320,0,956,636
Sprite,Foreground,CentreRight,"sb\pixelGradientLine.png",0,0 F,0,236069,,0.8 R,0,236069,,2.356194 C,0,236069,,255,0,0 V,0,236069,,-2,0.2 M,2,236069,236619,320,0,-316,636
Sprite,Foreground,CentreRight,"sb\pixelGradientLine.png",0,0 F,0,243454,,0.8 R,0,243454,,0.7853982 C,0,243454,,255,0,0 V,0,243454,,-2,0.2 M,2,243454,244004,320,0,956,636
Sprite,Foreground,CentreRight,"sb\pixelGradientLine.png",0,0 F,0,243454,,0.8 R,0,243454,,2.356194 C,0,243454,,255,0,0 V,0,243454,,-2,0.2 M,2,243454,244004,320,0,-316,636
Sprite,Foreground,CentreRight,"sb\pixelGradientLine.png",0,0 F,0,247146,,0.8 R,0,247146,,0.7853982 C,0,247146,,255,0,0 V,0,247146,,-2,0.2 M,2,247146,247696,320,0,956,636
Sprite,Foreground,CentreRight,"sb\pixelGradientLine.png",0,0 F,0,247146,,0.8 R,0,247146,,2.356194 C,0,247146,,255,0,0 V,0,247146,,-2,0.2 M,2,247146,247696,320,0,-316,636
Sprite,Foreground,CentreRight,"sb\pixelGradientLine.png",0,0 F,0,250607,,0.8 R,0,250607,,0.7853982 C,0,250607,,255,0,0 V,0,250607,,-2,0.2 M,2,250607,251157,320,0,956,636
Sprite,Foreground,CentreRight,"sb\pixelGradientLine.png",0,0 F,0,250607,,0.8 R,0,250607,,2.356194 C,0,250607,,255,0,0 V,0,250607,,-2,0.2 M,2,250607,251157,320,0,-316,636
Sprite,Foreground,CentreRight,"sb\pixelGradientLine.png",0,0 F,0,252454,,0.8 R,0,252454,,0.7853982 C,0,252454,,255,0,0 V,0,252454,,-2,0.2 M,2,252454,253004,320,0,956,636
Sprite,Foreground,CentreRight,"sb\pixelGradientLine.png",0,0 F,0,252454,,0.8 R,0,252454,,2.356194 C,0,252454,,255,0,0 V,0,252454,,-2,0.2 M,2,252454,253004,320,0,-316,636
Sprite,Foreground,CentreRight,"sb\pixelGradientLine.png",0,0 F,0,254300,,0.8 R,0,254300,,0.7853982 C,0,254300,,255,0,0 V,0,254300,,-2,0.2 M,2,254300,254850,320,0,956,636
Sprite,Foreground,CentreRight,"sb\pixelGradientLine.png",0,0 F,0,254300,,0.8 R,0,254300,,2.356194 C,0,254300,,255,0,0 V,0,254300,,-2,0.2 M,2,254300,254850,320,0,-316,636
Sprite,Foreground,CentreRight,"sb\pixelGradientLine.png",0,0 F,0,256146,,0.8 R,0,256146,,0.7853982 C,0,256146,,255,0,0 V,0,256146,,-2,0.2 M,2,256146,256696,320,0,956,636
Sprite,Foreground,CentreRight,"sb\pixelGradientLine.png",0,0 F,0,256146,,0.8 R,0,256146,,2.356194 C,0,256146,,255,0,0 V,0,256146,,-2,0.2 M,2,256146,256696,320,0,-316,636
Sprite,Foreground,CentreRight,"sb\pixelGradientLine.png",0,0 F,0,257992,,0.8 R,0,257992,,0.7853982 C,0,257992,,255,0,0 V,0,257992,,-2,0.2 M,2,257992,258542,320,0,956,636
Sprite,Foreground,CentreRight,"sb\pixelGradientLine.png",0,0 F,0,257992,,0.8 R,0,257992,,2.356194 C,0,257992,,255,0,0 V,0,257992,,-2,0.2 M,2,257992,258542,320,0,-316,636
Sprite,Foreground,CentreRight,"sb\pixelGradientLine.png",0,0 F,0,259838,,0.8 R,0,259838,,0.7853982 C,0,259838,,255,0,0 V,0,259838,,-2,0.2 M,2,259838,260388,320,0,956,636
Sprite,Foreground,CentreRight,"sb\pixelGradientLine.png",0,0 F,0,259838,,0.8 R,0,259838,,2.356194 C,0,259838,,255,0,0 V,0,259838,,-2,0.2 M,2,259838,260388,320,0,-316,636
Sprite,Foreground,CentreRight,"sb\pixelGradientLine.png",0,0 F,0,261684,,0.8 R,0,261684,,0.7853982 C,0,261684,,255,0,0 V,0,261684,,-2,0.2 M,2,261684,262234,320,0,956,636
Sprite,Foreground,CentreRight,"sb\pixelGradientLine.png",0,0 F,0,261684,,0.8 R,0,261684,,2.356194 C,0,261684,,255,0,0 V,0,261684,,-2,0.2 M,2,261684,262234,320,0,-316,636
Sprite,Foreground,CentreRight,"sb\pixelGradientLine.png",0,0 F,0,263530,,0.8 R,0,263530,,0.7853982 C,0,263530,,255,0,0 V,0,263530,,-2,0.2 M,2,263530,264080,320,0,956,636
Sprite,Foreground,CentreRight,"sb\pixelGradientLine.png",0,0 F,0,263530,,0.8 R,0,263530,,2.356194 C,0,263530,,255,0,0 V,0,263530,,-2,0.2 M,2,263530,264080,320,0,-316,636
Sprite,Foreground,Centre,"sb\triangleFull.png",320,180 C,0,41301,,0,0,0 S,0,41301,43147,0,0.5 F,0,299760,,1
Animation,Foreground,Centre,"sb\tri_fill_part_.png",320,128.3333,13,16,LoopForever S,0,131762,,0.5 F,0,146531,,1 R,0,146531,,6.283185
Animation,Foreground,Centre,"sb\tri_fill_part_.png",364.7446,205.8334,13,16,LoopForever S,0,131762,,0.5 F,0,146531,,1 R,0,146531,,2.094395
Animation,Foreground,Centre,"sb\tri_fill_part_.png",275.2553,205.8333,13,16,LoopForever S,0,131762,,0.5 F,0,146531,,1 R,0,146531,,4.18879
Animation,Foreground,Centre,"sb\triFillC_.png",320,129.3333,20,16,LoopForever F,0,164993,,0.75 S,0,164993,,0.5 R,0,166839,,6.283185
Animation,Foreground,Centre,"sb\triFillB_.png",320,129.3333,21,16,LoopForever F,0,166839,,0.75 S,0,166839,,0.5 R,0,168685,,6.283185
Animation,Foreground,Centre,"sb\triFillA_.png",320,129.3333,21,16,LoopForever F,0,168685,,0.75 S,0,168685,,0.5 R,0,170531,,6.283185
Animation,Foreground,Centre,"sb\triFillC_.png",363.8786,205.3334,20,16,LoopForever F,0,164993,,0.75 S,0,164993,,0.5 R,0,166839,,2.094395
Animation,Foreground,Centre,"sb\triFillB_.png",363.8786,205.3334,21,16,LoopForever F,0,166839,,0.75 S,0,166839,,0.5 R,0,168685,,2.094395
Animation,Foreground,Centre,"sb\triFillA_.png",363.8786,205.3334,21,16,LoopForever F,0,168685,,0.75 S,0,168685,,0.5 R,0,170531,,2.094395
Animation,Foreground,Centre,"sb\triFillC_.png",276.1214,205.3333,20,16,LoopForever F,0,164993,,0.75 S,0,164993,,0.5 R,0,166839,,4.18879
Animation,Foreground,Centre,"sb\triFillB_.png",276.1214,205.3333,21,16,LoopForever F,0,166839,,0.75 S,0,166839,,0.5 R,0,168685,,4.18879
Animation,Foreground,Centre,"sb\triFillA_.png",276.1214,205.3333,21,16,LoopForever F,0,168685,,0.75 S,0,168685,,0.5 R,0,170531,,4.18879
Sprite,Foreground,Centre,"sb\tri_fill_flash.png",320,128.3333 S,0,170762,,0.5 F,0,170762,170993,1,0
Sprite,Foreground,Centre,"sb\tri_fill_flash.png",275.2553,205.8333 S,0,170993,,0.5 R,0,170993,,4.18879 F,0,170993,171224,1,0
Sprite,Foreground,Centre,"sb\tri_fill_flash.png",364.7446,205.8334 S,0,171224,,0.5 R,0,171224,,2.094395 F,0,171224,171455,1,0
Sprite,Foreground,Centre,"sb\tri_fill_flash.png",320,128.3333 S,0,171454,,0.5 F,0,171454,171685,1,0
Sprite,Foreground,Centre,"sb\tri_fill_flash.png",275.2553,205.8333 S,0,171685,,0.5 R,0,171685,,4.18879 F,0,171685,171916,1,0
Animation,Foreground,Centre,"sb\triFillC_.png",320,129.3333,20,16,LoopForever F,0,172378,,0.75 S,0,172378,,0.5 R,0,174224,,6.283185
Animation,Foreground,Centre,"sb\triFillB_.png",320,129.3333,21,16,LoopForever F,0,174224,,0.75 S,0,174224,,0.5 R,0,176070,,6.283185
Animation,Foreground,Centre,"sb\triFillA_.png",320,129.3333,21,16,LoopForever F,0,176070,,0.75 S,0,176070,,0.5 R,0,177916,,6.283185
Animation,Foreground,Centre,"sb\triFillC_.png",363.8786,205.3334,20,16,LoopForever F,0,172378,,0.75 S,0,172378,,0.5 R,0,174224,,2.094395
Animation,Foreground,Centre,"sb\triFillB_.png",363.8786,205.3334,21,16,LoopForever F,0,174224,,0.75 S,0,174224,,0.5 R,0,176070,,2.094395
Animation,Foreground,Centre,"sb\triFillA_.png",363.8786,205.3334,21,16,LoopForever F,0,176070,,0.75 S,0,176070,,0.5 R,0,177916,,2.094395
Animation,Foreground,Centre,"sb\triFillC_.png",276.1214,205.3333,20,16,LoopForever F,0,172378,,0.75 S,0,172378,,0.5 R,0,174224,,4.18879
Animation,Foreground,Centre,"sb\triFillB_.png",276.1214,205.3333,21,16,LoopForever F,0,174224,,0.75 S,0,174224,,0.5 R,0,176070,,4.18879
Animation,Foreground,Centre,"sb\triFillA_.png",276.1214,205.3333,21,16,LoopForever F,0,176070,,0.75 S,0,176070,,0.5 R,0,177916,,4.18879
Sprite,Foreground,Centre,"sb\tri_fill_flash.png",320,128.3333 S,0,178147,,0.5 F,0,178147,178378,1,0
Sprite,Foreground,Centre,"sb\tri_fill_flash.png",275.2553,205.8333 S,0,178378,,0.5 R,0,178378,,4.18879 F,0,178378,178609,1,0
Sprite,Foreground,Centre,"sb\tri_fill_flash.png",364.7446,205.8334 S,0,178609,,0.5 R,0,178609,,2.094395 F,0,178609,178840,1,0
Sprite,Foreground,Centre,"sb\tri_fill_flash.png",320,128.3333 S,0,178839,,0.5 F,0,178839,179070,1,0
Sprite,Foreground,Centre,"sb\tri_fill_flash.png",275.2553,205.8333 S,0,179070,,0.5 R,0,179070,,4.18879 F,0,179070,179301,1,0
Animation,Foreground,Centre,"sb\triFillC_.png",320,129.3333,20,16,LoopForever F,0,267453,,0.75 S,0,267453,,0.5 R,0,269299,,6.283185
Animation,Foreground,Centre,"sb\triFillB_.png",320,129.3333,21,16,LoopForever F,0,269299,,0.75 S,0,269299,,0.5 R,0,271145,,6.283185
Animation,Foreground,Centre,"sb\triFillA_.png",320,129.3333,21,16,LoopForever F,0,271145,,0.75 S,0,271145,,0.5 R,0,272991,,6.283185
Animation,Foreground,Centre,"sb\triFillC_.png",363.8786,205.3334,20,16,LoopForever F,0,267453,,0.75 S,0,267453,,0.5 R,0,269299,,2.094395
Animation,Foreground,Centre,"sb\triFillB_.png",363.8786,205.3334,21,16,LoopForever F,0,269299,,0.75 S,0,269299,,0.5 R,0,271145,,2.094395
Animation,Foreground,Centre,"sb\triFillA_.png",363.8786,205.3334,21,16,LoopForever F,0,271145,,0.75 S,0,271145,,0.5 R,0,272991,,2.094395
Animation,Foreground,Centre,"sb\triFillC_.png",276.1214,205.3333,20,16,LoopForever F,0,267453,,0.75 S,0,267453,,0.5 R,0,269299,,4.18879
Animation,Foreground,Centre,"sb\triFillB_.png",276.1214,205.3333,21,16,LoopForever F,0,269299,,0.75 S,0,269299,,0.5 R,0,271145,,4.18879
Animation,Foreground,Centre,"sb\triFillA_.png",276.1214,205.3333,21,16,LoopForever F,0,271145,,0.75 S,0,271145,,0.5 R,0,272991,,4.18879
Sprite,Foreground,Centre,"sb\tri_fill_flash.png",320,128.3333 S,0,273222,,0.5 F,0,273222,273453,1,0
Sprite,Foreground,Centre,"sb\tri_fill_flash.png",364.7446,205.8334 S,0,273453,,0.5 R,0,273453,,2.094395 F,0,273453,273684,1,0
Sprite,Foreground,Centre,"sb\tri_fill_flash.png",320,128.3333 S,0,273684,,0.5 F,0,273684,273915,1,0
Sprite,Foreground,Centre,"sb\tri_fill_flash.png",275.2553,205.8333 S,0,273914,,0.5 R,0,273914,,4.18879 F,0,273914,274145,1,0
Sprite,Foreground,Centre,"sb\tri_fill_flash.png",320,128.3333 S,0,274145,,0.5 F,0,274145,274376,1,0
Animation,Foreground,Centre,"sb\triFillC_.png",320,129.3333,20,16,LoopForever F,0,274838,,0.75 S,0,274838,,0.5 R,0,276684,,6.283185
Animation,Foreground,Centre,"sb\triFillB_.png",320,129.3333,21,16,LoopForever F,0,276684,,0.75 S,0,276684,,0.5 R,0,278530,,6.283185
Animation,Foreground,Centre,"sb\triFillA_.png",320,129.3333,21,16,LoopForever F,0,278530,,0.75 S,0,278530,,0.5 R,0,280376,,6.283185
Animation,Foreground,Centre,"sb\triFillC_.png",363.8786,205.3334,20,16,LoopForever F,0,274838,,0.75 S,0,274838,,0.5 R,0,276684,,2.094395
Animation,Foreground,Centre,"sb\triFillB_.png",363.8786,205.3334,21,16,LoopForever F,0,276684,,0.75 S,0,276684,,0.5 R,0,278530,,2.094395
Animation,Foreground,Centre,"sb\triFillA_.png",363.8786,205.3334,21,16,LoopForever F,0,278530,,0.75 S,0,278530,,0.5 R,0,280376,,2.094395
Animation,Foreground,Centre,"sb\triFillC_.png",276.1214,205.3333,20,16,LoopForever F,0,274838,,0.75 S,0,274838,,0.5 R,0,276684,,4.18879
Animation,Foreground,Centre,"sb\triFillB_.png",276.1214,205.3333,21,16,LoopForever F,0,276684,,0.75 S,0,276684,,0.5 R,0,278530,,4.18879
Animation,Foreground,Centre,"sb\triFillA_.png",276.1214,205.3333,21,16,LoopForever F,0,278530,,0.75 S,0,278530,,0.5 R,0,280376,,4.18879
Sprite,Foreground,Centre,"sb\tri_fill_flash.png",320,128.3333 S,0,280607,,0.5 F,0,280607,280838,1,0
Sprite,Foreground,Centre,"sb\tri_fill_flash.png",275.2553,205.8333 S,0,280838,,0.5 R,0,280838,,4.18879 F,0,280838,281069,1,0
Sprite,Foreground,Centre,"sb\tri_fill_flash.png",320,128.3333 S,0,281069,,0.5 F,0,281069,281300,1,0
Sprite,Foreground,Centre,"sb\tri_fill_flash.png",364.7446,205.8334 S,0,281299,,0.5 R,0,281299,,2.094395 F,0,281299,281530,1,0
Sprite,Foreground,Centre,"sb\tri_fill_flash.png",320,128.3333 S,0,281530,,0.5 F,0,281530,281761,1,0
Animation,Foreground,Centre,"sb\triFillC_.png",320,129.3333,20,16,LoopForever F,0,282223,,0.75 S,0,282223,,0.5 R,0,284069,,6.283185
Animation,Foreground,Centre,"sb\triFillB_.png",320,129.3333,21,16,LoopForever F,0,284069,,0.75 S,0,284069,,0.5 R,0,285915,,6.283185
Animation,Foreground,Centre,"sb\triFillA_.png",320,129.3333,21,16,LoopForever F,0,285915,,0.75 S,0,285915,,0.5 R,0,287761,,6.283185
Animation,Foreground,Centre,"sb\triFillC_.png",363.8786,205.3334,20,16,LoopForever F,0,282223,,0.75 S,0,282223,,0.5 R,0,284069,,2.094395
Animation,Foreground,Centre,"sb\triFillB_.png",363.8786,205.3334,21,16,LoopForever F,0,284069,,0.75 S,0,284069,,0.5 R,0,285915,,2.094395
Animation,Foreground,Centre,"sb\triFillA_.png",363.8786,205.3334,21,16,LoopForever F,0,285915,,0.75 S,0,285915,,0.5 R,0,287761,,2.094395
Animation,Foreground,Centre,"sb\triFillC_.png",276.1214,205.3333,20,16,LoopForever F,0,282223,,0.75 S,0,282223,,0.5 R,0,284069,,4.18879
Animation,Foreground,Centre,"sb\triFillB_.png",276.1214,205.3333,21,16,LoopForever F,0,284069,,0.75 S,0,284069,,0.5 R,0,285915,,4.18879
Animation,Foreground,Centre,"sb\triFillA_.png",276.1214,205.3333,21,16,LoopForever F,0,285915,,0.75 S,0,285915,,0.5 R,0,287761,,4.18879
Sprite,Foreground,Centre,"sb\tri_fill_flash.png",320,128.3333 S,0,287992,,0.5 F,0,287992,288223,1,0
Sprite,Foreground,Centre,"sb\tri_fill_flash.png",275.2553,205.8333 S,0,288223,,0.5 R,0,288223,,4.18879 F,0,288223,288454,1,0
Sprite,Foreground,Centre,"sb\tri_fill_flash.png",364.7446,205.8334 S,0,288454,,0.5 R,0,288454,,2.094395 F,0,288454,288685,1,0
Sprite,Foreground,Centre,"sb\tri_fill_flash.png",275.2553,205.8333 S,0,288684,,0.5 R,0,288684,,4.18879 F,0,288684,288915,1,0
Sprite,Foreground,Centre,"sb\tri_fill_flash.png",320,128.3333 S,0,288915,,0.5 F,0,288915,289146,1,0
Animation,Foreground,Centre,"sb\triFillC_.png",320,129.3333,20,16,LoopForever F,0,289607,,0.75 S,0,289607,,0.5 R,0,291453,,6.283185
Animation,Foreground,Centre,"sb\triFillB_.png",320,129.3333,21,16,LoopForever F,0,291453,,0.75 S,0,291453,,0.5 R,0,293299,,6.283185
Animation,Foreground,Centre,"sb\triFillA_.png",320,129.3333,21,16,LoopForever F,0,293299,,0.75 S,0,293299,,0.5 R,0,295145,,6.283185
Animation,Foreground,Centre,"sb\triFillC_.png",363.8786,205.3334,20,16,LoopForever F,0,289607,,0.75 S,0,289607,,0.5 R,0,291453,,2.094395
Animation,Foreground,Centre,"sb\triFillB_.png",363.8786,205.3334,21,16,LoopForever F,0,291453,,0.75 S,0,291453,,0.5 R,0,293299,,2.094395
Animation,Foreground,Centre,"sb\triFillA_.png",363.8786,205.3334,21,16,LoopForever F,0,293299,,0.75 S,0,293299,,0.5 R,0,295145,,2.094395
Animation,Foreground,Centre,"sb\triFillC_.png",276.1214,205.3333,20,16,LoopForever F,0,289607,,0.75 S,0,289607,,0.5 R,0,291453,,4.18879
Animation,Foreground,Centre,"sb\triFillB_.png",276.1214,205.3333,21,16,LoopForever F,0,291453,,0.75 S,0,291453,,0.5 R,0,293299,,4.18879
Animation,Foreground,Centre,"sb\triFillA_.png",276.1214,205.3333,21,16,LoopForever F,0,293299,,0.75 S,0,293299,,0.5 R,0,295145,,4.18879
Sprite,Foreground,Centre,"sb\tri_fill_flash.png",320,128.3333 S,0,295376,,0.5 F,0,295376,295607,1,0
Sprite,Foreground,Centre,"sb\tri_fill_flash.png",275.2553,205.8333 S,0,295607,,0.5 R,0,295607,,4.18879 F,0,295607,295838,1,0
Sprite,Foreground,Centre,"sb\tri_fill_flash.png",320,128.3333 S,0,295838,,0.5 F,0,295838,296069,1,0
Sprite,Foreground,Centre,"sb\tri_fill_flash.png",364.7446,205.8334 S,0,296068,,0.5 R,0,296068,,2.094395 F,0,296068,296299,1,0
Sprite,Foreground,Centre,"sb\tri_fill_flash.png",275.2553,205.8333 S,0,296299,,0.5 R,0,296299,,4.18879 F,0,296299,296530,1,0
Animation,Foreground,Centre,"sb\tri_fill_part_.png",320,128.3333,13,16,LoopForever S,0,234223,,0.5 F,0,248992,,1 R,0,248992,,6.283185
Animation,Foreground,Centre,"sb\tri_fill_part_.png",364.7446,205.8334,13,16,LoopForever S,0,234223,,0.5 F,0,248992,,1 R,0,248992,,2.094395
Animation,Foreground,Centre,"sb\tri_fill_part_.png",275.2553,205.8333,13,16,LoopForever S,0,234223,,0.5 F,0,248992,,1 R,0,248992,,4.18879
Sprite,Foreground,Centre,"sb\triangleFill.png",320,180 F,0,0,,0 S,0,0,,0.333 F,0,87454,,1 F,0,99685,,0 F,0,102224,,1 F,0,115839,,0 F,0,116993,,1 F,0,129916,,0 F,0,188993,,1 F,13,201916,202378,1,0 F,0,203762,,1 F,0,218531,,0 F,0,219453,,1 F,0,232377,,0
Sprite,Foreground,Centre,"sb\triangleFillInvert.png",320,180 F,0,0,,0 S,0,0,,0.5
Sprite,Foreground,Centre,"sb\triangle_edges.png",320,180 F,0,0,,0 S,0,0,,0.5 C,0,0,,0,0,0 T,HitSound,87454,129916 F,0,0,25,0,1 F,0,25,100,1,0 T,HitSound,188993,201916 F,0,0,25,0,1 F,0,25,100,1,0 T,HitSound,203762,232377 F,0,0,25,0,1 F,0,25,100,1,0
Sprite,Foreground,Centre,"sb\triangleFrame.png",320,180 F,0,0,,0 S,0,0,,0.333 F,0,43147,,1 F,0,299761,,1
Sprite,Foreground,Centre,"sb\triangleBody.png",320,180 F,0,0,,0 S,0,0,,0.5 F,0,43147,43608,1,0 F,0,46839,47300,1,0 F,0,50531,50992,1,0 F,0,54223,54684,1,0 F,0,57915,58376,1,0 F,0,61607,62068,1,0 F,0,65299,65760,1,0 F,0,68991,69452,1,0 F,0,74531,74992,1,0 F,0,78224,78685,1,0 F,0,81916,82377,1,0 F,0,87454,87915,1,0 F,12,98070,99685,0,1 F,0,102224,102685,1,0 F,0,115608,115723,1,0 F,0,115724,115839,1,0 F,0,115839,115954,1,0 F,0,116993,117454,1,0 F,0,129685,129916,0,1 F,0,131301,,1 F,0,131762,132223,1,0 F,0,146531,147731,1,0 F,0,148378,149578,1,0 F,0,150225,151425,1,0 F,0,152072,153272,1,0 F,0,153919,155119,1,0 F,0,155766,156966,1,0 F,0,157613,158813,1,0 F,0,159460,160660,1,0 F,0,161301,163147,0,1 F,0,164531,164993,1,0 F,0,166839,167639,1,0 F,0,168685,169485,1,0 F,0,170531,170762,1,0 F,0,171916,172147,1,0 F,0,172147,172378,1,0 F,0,172378,173178,1,0 F,0,174224,175024,1,0 F,0,176070,176870,1,0 F,0,177916,178147,1,0 F,0,179762,180223,1,0 F,0,180224,180685,1,0 F,0,180685,181146,1,0 F,0,181147,181378,1,0 F,0,181378,181839,1,0 F,0,188993,189454,1,0 F,0,203762,204223,1,0 F,0,218070,218185,1,0 F,0,218185,218300,1,0 F,0,218301,218416,1,0 F,0,218416,218531,1,0 F,0,218531,218646,1,0 F,0,219453,219914,1,0 F,0,232146,232377,0,1 F,0,233300,233761,1,0 F,0,234223,234684,1,0 F,0,250838,252038,1,0 F,0,252685,253885,1,0 F,0,254532,255732,1,0 F,0,256379,257579,1,0 F,0,258226,259426,1,0 F,0,260073,261273,1,0 F,0,261920,263120,1,0 F,0,263761,265607,0,1 F,0,266992,267454,1,0 F,0,269300,269761,1,0 F,0,271146,271607,1,0 F,0,272991,273222,1,0 F,0,274376,274607,1,0 F,0,274607,274838,1,0 F,0,274838,275299,1,0 F,0,276684,277145,1,0 F,0,278530,278991,1,0 F,0,280376,280607,1,0 F,0,281761,281992,1,0 F,0,281992,282223,1,0 F,0,282223,282684,1,0 F,0,284069,284530,1,0 F,0,285915,286376,1,0 F,0,287761,287992,1,0 F,0,289146,289377,1,0 F,0,289377,289608,1,0 F,0,289607,290068,1,0 F,0,291453,291914,1,0 F,0,293300,293761,1,0 F,0,295145,295376,1,0 F,0,296992,297453,1,0 F,0,297453,297914,1,0 F,0,297915,298376,1,0 F,0,298377,298838,1,0 F,0,298838,299299,1,0 F,0,299300,299761,1,0
Sprite,Foreground,CentreLeft,"sb\triangleEdgeLineLight.png",320,181 F,0,41311,,1 R,0,41311,,1.570796 V,0,41361,43147,0,1,19.2,1
Sprite,Foreground,CentreLeft,"sb\triangleEdgeLineLight.png",320.866,179.5 F,0,41311,,1 R,0,41311,,-0.5235988 V,0,41361,43147,0,1,19.35019,1
Sprite,Foreground,CentreLeft,"sb\triangleEdgeLineLight.png",319.134,179.5 F,0,41311,,1 R,0,41311,,-2.617994 V,0,41361,43147,0,1,19.35019,1
Sprite,Foreground,Centre,"sb\pixel.png",0,0 F,0,41301,,1 R,0,41301,,1.047198 M,0,41301,43147,320,180,233.3975,230 V,0,41301,43147,0,0.2,33.04102,0.3
Sprite,Foreground,Centre,"sb\pixel.png",0,0 F,0,41301,,1 R,0,41301,,3.141593 M,0,41301,43147,320,180,320,80 V,0,41301,43147,0,0.2,33.04102,0.3
Sprite,Foreground,Centre,"sb\pixel.png",0,0 F,0,41301,,1 R,0,41301,,-1.047198 M,0,41301,43147,320,180,406.6025,230 V,0,41301,43147,0,0.2,33.04102,0.3
Sprite,Foreground,Centre,"sb\pixel.png",320,240 V,0,72685,,86,48 F,3,72685,73285,1,0
Sprite,Foreground,Centre,"sb\pixel.png",320,240 V,0,76378,,86,48 F,3,76378,76978,1,0
Sprite,Foreground,Centre,"sb\pixel.png",320,240 V,0,80070,,86,48 F,3,80070,80670,1,0
Sprite,Foreground,Centre,"sb\pixel.png",320,240 V,0,83762,,86,48 F,3,83762,84362,1,0
Sprite,Foreground,Centre,"sb\f\_000.png",320,113.3333 F,0,99685,,1 S,0,99685,,0.5 R,0,99685,,6.283185 F,0,100398,,0
Sprite,Foreground,Centre,"sb\f\_000.png",377.735,213.3334 F,0,99916,,1 S,0,99916,,0.5 R,0,99916,,2.094395 F,0,100398,,0
Sprite,Foreground,Centre,"sb\f\_000.png",262.265,213.3333 F,0,100147,,1 S,0,100147,,0.5 R,0,100147,,4.18879 F,0,100398,,0
Sprite,Foreground,Centre,"sb\f\_000.png",320,113.3333 F,0,100398,,1 S,0,100398,,0.5 R,0,100398,,6.283185 S,19,100398,100660,0.5,1 S,18,100660,100839,1,0 F,0,100839,,0
Sprite,Foreground,Centre,"sb\f\_001.png",320,113.3333 F,0,100839,,1 S,0,100839,,0.5 R,0,100839,,6.283185 S,19,100839,101101,0,0.5 S,18,101101,101301,0.5,0 F,0,101301,,0
Sprite,Foreground,Centre,"sb\f\_002.png",280,131.3333 F,0,101301,,1 S,0,101301,,0.5 R,0,101301,,6.833186 S,19,101301,101563,0,0.5 F,0,101762,,0
Sprite,Foreground,Centre,"sb\f\_003.png",360,131.3333 F,0,101531,,1 S,0,101531,,0.5 R,0,101531,,5.733185 S,19,101531,101793,0,0.5 F,0,101762,,0
Sprite,Foreground,Centre,"sb\f\_004.png",320,103.3333 F,0,101762,,1 S,0,101762,,0.5 R,0,101762,,6.283185 S,1,101762,102397,1,0.75 F,0,102224,102397,1,0 F,0,102397,,0
Sprite,Foreground,Centre,"sb\f\_000.png",377.735,213.3334 F,0,100398,,1 S,0,100398,,0.5 R,0,100398,,2.094395 S,19,100398,100660,0.5,1 S,18,100660,100839,1,0 F,0,100839,,0
Sprite,Foreground,Centre,"sb\f\_001.png",377.735,213.3334 F,0,100839,,1 S,0,100839,,0.5 R,0,100839,,2.094395 S,19,100839,101101,0,0.5 S,18,101101,101301,0.5,0 F,0,101301,,0
Sprite,Foreground,Centre,"sb\f\_002.png",382.1465,169.6923 F,0,101301,,1 S,0,101301,,0.5 R,0,101301,,2.644395 S,19,101301,101563,0,0.5 F,0,101762,,0
Sprite,Foreground,Centre,"sb\f\_003.png",342.1465,238.9744 F,0,101531,,1 S,0,101531,,0.5 R,0,101531,,1.544395 S,19,101531,101793,0,0.5 F,0,101762,,0
Sprite,Foreground,Centre,"sb\f\_004.png",386.3953,218.3334 F,0,101762,,1 S,0,101762,,0.5 R,0,101762,,2.094395 S,1,101762,102397,1,0.75 F,0,102224,102397,1,0 F,0,102397,,0
Sprite,Foreground,Centre,"sb\f\_000.png",262.265,213.3333 F,0,100398,,1 S,0,100398,,0.5 R,0,100398,,4.18879 S,19,100398,100660,0.5,1 S,18,100660,100839,1,0 F,0,100839,,0
Sprite,Foreground,Centre,"sb\f\_001.png",262.265,213.3333 F,0,100839,,1 S,0,100839,,0.5 R,0,100839,,4.18879 S,19,100839,101101,0,0.5 S,18,101101,101301,0.5,0 F,0,101301,,0
Sprite,Foreground,Centre,"sb\f\_002.png",297.8534,238.9743 F,0,101301,,1 S,0,101301,,0.5 R,0,101301,,4.738791 S,19,101301,101563,0,0.5 F,0,101762,,0
Sprite,Foreground,Centre,"sb\f\_003.png",257.8534,169.6923 F,0,101531,,1 S,0,101531,,0.5 R,0,101531,,3.63879 S,19,101531,101793,0,0.5 F,0,101762,,0
Sprite,Foreground,Centre,"sb\f\_004.png",253.6047,218.3333 F,0,101762,,1 S,0,101762,,0.5 R,0,101762,,4.18879 S,1,101762,102397,1,0.75 F,0,102224,102397,1,0 F,0,102397,,0
Sprite,Foreground,Centre,"sb\f\_005.png",290,101.3333 F,0,129916,,1 S,0,129916,,0.5 R,0,129916,,6.323185 F,0,130839,,0
Sprite,Foreground,Centre,"sb\f\_006.png",350,101.3333 F,0,130378,,1 S,0,130378,,0.5 R,0,130378,,6.083186 F,0,130839,,0
Sprite,Foreground,Centre,"sb\f\_007.png",320,128.3333 F,0,130608,,1 S,0,130608,,0.5 S,0,130608,,0.65 R,0,130608,,6.283185 F,0,130839,,0
Sprite,Foreground,Centre,"sb\f\_004.png",320,103.3333 F,0,130839,,1 S,0,130839,,0.5 R,0,130839,,6.283185 S,19,130839,131762,1,0.8 F,0,131762,,0
Sprite,Foreground,Centre,"sb\f\_005.png",403.1273,193.3526 F,0,129916,,1 S,0,129916,,0.5 R,0,129916,,2.134395 F,0,130839,,0
Sprite,Foreground,Centre,"sb\f\_006.png",373.1273,245.3141 F,0,130378,,1 S,0,130378,,0.5 R,0,130378,,1.894395 F,0,130839,,0
Sprite,Foreground,Centre,"sb\f\_007.png",364.7446,205.8334 F,0,130608,,1 S,0,130608,,0.5 S,0,130608,,0.65 R,0,130608,,2.094395 F,0,130839,,0
Sprite,Foreground,Centre,"sb\f\_004.png",386.3953,218.3334 F,0,130839,,1 S,0,130839,,0.5 R,0,130839,,2.094395 S,19,130839,131762,1,0.8 F,0,131762,,0
Sprite,Foreground,Centre,"sb\f\_005.png",266.8727,245.3141 F,0,129916,,1 S,0,129916,,0.5 R,0,129916,,4.22879 F,0,130839,,0
Sprite,Foreground,Centre,"sb\f\_006.png",236.8727,193.3525 F,0,130378,,1 S,0,130378,,0.5 R,0,130378,,3.98879 F,0,130839,,0
Sprite,Foreground,Centre,"sb\f\_007.png",275.2553,205.8333 F,0,130608,,1 S,0,130608,,0.5 S,0,130608,,0.65 R,0,130608,,4.18879 F,0,130839,,0
Sprite,Foreground,Centre,"sb\f\_004.png",253.6047,218.3333 F,0,130839,,1 S,0,130839,,0.5 R,0,130839,,4.18879 S,19,130839,131762,1,0.8 F,0,131762,,0
Sprite,Foreground,Centre,"sb\f\_008.png",320,103.3333 F,0,131762,,1 S,0,131762,,0.5 R,0,131762,,6.283185 S,30,131762,131993,0.25,0.9 S,18,131993,132224,0.9,0.25 F,0,132224,,0
Sprite,Foreground,Centre,"sb\f\_009.png",320,103.3333 F,0,132224,,1 S,0,132224,,0.5 R,0,132224,,6.283185 S,19,132224,132455,0.25,0.8 S,18,132455,132685,0.8,0.25 F,0,132685,,0
Sprite,Foreground,Centre,"sb\f\_00a.png",320,103.3333 F,0,132685,,1 S,0,132685,,0.5 R,0,132685,,6.283185 S,19,132685,132916,0.25,0.6 S,18,132916,133147,0.6,0.25 F,0,133147,,0
Sprite,Foreground,Centre,"sb\f\_00b.png",320,103.3333 F,0,133147,,1 S,0,133147,,0.5 R,0,133147,,6.283185 S,19,133147,133378,0.25,0.7 S,18,133378,133608,0.7,0.25 F,0,133608,,0
Sprite,Foreground,Centre,"sb\f\_00c.png",240,98.33332 F,0,133608,,1 S,0,133608,,0.5 R,0,133608,,6.283185 S,19,133608,133839,0.25,0.7 F,0,133839,,0
Sprite,Foreground,Centre,"sb\f\_00c.png",395.0001,98.33335 F,0,133839,,1 S,0,133839,,0.5 R,0,133839,,6.283185 S,19,133839,134070,0.25,0.7 F,0,134070,,0
Sprite,Foreground,Centre,"sb\f\_00c.png",300,123.3333 F,0,134070,,1 S,0,134070,,0.5 R,0,134070,,7.283185 S,19,134070,134185,0.25,0.7 F,0,134185,,0
Sprite,Foreground,Centre,"sb\f\_00c.png",340,123.3333 F,0,134185,,1 S,0,134185,,0.5 R,0,134185,,5.283185 S,19,134185,134301,0.25,0.7 F,0,134301,,0
Sprite,Foreground,Centre,"sb\f\_00c.png",320,133.3333 F,0,134301,,1 S,0,134301,,0.5 R,0,134301,,6.283185 S,19,134301,134531,0.25,0.7 F,0,134531,,0
Sprite,Foreground,Centre,"sb\f\_00d.png",320,103.3333 F,0,134531,,1 S,0,134531,,0.5 R,0,134531,,6.283185 S,19,134531,134762,0.25,0.7 S,18,134762,134993,0.7,0.25 F,0,134993,,0
Sprite,Foreground,Centre,"sb\f\_00e.png",320,103.3333 F,0,134993,,1 S,0,134993,,0.5 R,0,134993,,6.283185 S,19,134993,135224,0.25,0.7 S,18,135224,135454,0.7,0.25 F,0,135454,,0
Sprite,Foreground,Centre,"sb\f\_008.png",386.3953,218.3334 F,0,131762,,1 S,0,131762,,0.5 R,0,131762,,2.094395 S,30,131762,131993,0.25,0.9 S,18,131993,132224,0.9,0.25 F,0,132224,,0
Sprite,Foreground,Centre,"sb\f\_009.png",386.3953,218.3334 F,0,132224,,1 S,0,132224,,0.5 R,0,132224,,2.094395 S,19,132224,132455,0.25,0.8 S,18,132455,132685,0.8,0.25 F,0,132685,,0
Sprite,Foreground,Centre,"sb\f\_00a.png",386.3953,218.3334 F,0,132685,,1 S,0,132685,,0.5 R,0,132685,,2.094395 S,19,132685,132916,0.25,0.6 S,18,132916,133147,0.6,0.25 F,0,133147,,0
Sprite,Foreground,Centre,"sb\f\_00b.png",386.3953,218.3334 F,0,133147,,1 S,0,133147,,0.5 R,0,133147,,2.094395 S,19,133147,133378,0.25,0.7 S,18,133378,133608,0.7,0.25 F,0,133608,,0
Sprite,Foreground,Centre,"sb\f\_00c.png",430.7254,151.5513 F,0,133608,,1 S,0,133608,,0.5 R,0,133608,,2.094395 S,19,133608,133839,0.25,0.7 F,0,133839,,0
Sprite,Foreground,Centre,"sb\f\_00c.png",353.2254,285.7853 F,0,133839,,1 S,0,133839,,0.5 R,0,133839,,2.094395 S,19,133839,134070,0.25,0.7 F,0,134070,,0
Sprite,Foreground,Centre,"sb\f\_00c.png",379.0748,191.0128 F,0,134070,,1 S,0,134070,,0.5 R,0,134070,,3.094395 S,19,134070,134185,0.25,0.7 F,0,134185,,0
Sprite,Foreground,Centre,"sb\f\_00c.png",359.0748,225.6539 F,0,134185,,1 S,0,134185,,0.5 R,0,134185,,1.094395 S,19,134185,134301,0.25,0.7 F,0,134301,,0
Sprite,Foreground,Centre,"sb\f\_00c.png",360.4145,203.3334 F,0,134301,,1 S,0,134301,,0.5 R,0,134301,,2.094395 S,19,134301,134531,0.25,0.7 F,0,134531,,0
Sprite,Foreground,Centre,"sb\f\_00d.png",386.3953,218.3334 F,0,134531,,1 S,0,134531,,0.5 R,0,134531,,2.094395 S,19,134531,134762,0.25,0.7 S,18,134762,134993,0.7,0.25 F,0,134993,,0
Sprite,Foreground,Centre,"sb\f\_00e.png",386.3953,218.3334 F,0,134993,,1 S,0,134993,,0.5 R,0,134993,,2.094395 S,19,134993,135224,0.25,0.7 S,18,135224,135454,0.7,0.25 F,0,135454,,0
Sprite,Foreground,Centre,"sb\f\_008.png",253.6047,218.3333 F,0,131762,,1 S,0,131762,,0.5 R,0,131762,,4.18879 S,30,131762,131993,0.25,0.9 S,18,131993,132224,0.9,0.25 F,0,132224,,0
Sprite,Foreground,Centre,"sb\f\_009.png",253.6047,218.3333 F,0,132224,,1 S,0,132224,,0.5 R,0,132224,,4.18879 S,19,132224,132455,0.25,0.8 S,18,132455,132685,0.8,0.25 F,0,132685,,0
Sprite,Foreground,Centre,"sb\f\_00a.png",253.6047,218.3333 F,0,132685,,1 S,0,132685,,0.5 R,0,132685,,4.18879 S,19,132685,132916,0.25,0.6 S,18,132916,133147,0.6,0.25 F,0,133147,,0
Sprite,Foreground,Centre,"sb\f\_00b.png",253.6047,218.3333 F,0,133147,,1 S,0,133147,,0.5 R,0,133147,,4.18879 S,19,133147,133378,0.25,0.7 S,18,133378,133608,0.7,0.25 F,0,133608,,0
Sprite,Foreground,Centre,"sb\f\_00c.png",289.2746,290.1153 F,0,133608,,1 S,0,133608,,0.5 R,0,133608,,4.18879 S,19,133608,133839,0.25,0.7 F,0,133839,,0
Sprite,Foreground,Centre,"sb\f\_00c.png",211.7746,155.8814 F,0,133839,,1 S,0,133839,,0.5 R,0,133839,,4.18879 S,19,133839,134070,0.25,0.7 F,0,134070,,0
Sprite,Foreground,Centre,"sb\f\_00c.png",280.9252,225.6538 F,0,134070,,1 S,0,134070,,0.5 R,0,134070,,5.18879 S,19,134070,134185,0.25,0.7 F,0,134185,,0
Sprite,Foreground,Centre,"sb\f\_00c.png",260.9252,191.0128 F,0,134185,,1 S,0,134185,,0.5 R,0,134185,,3.18879 S,19,134185,134301,0.25,0.7 F,0,134301,,0
Sprite,Foreground,Centre,"sb\f\_00c.png",279.5855,203.3333 F,0,134301,,1 S,0,134301,,0.5 R,0,134301,,4.18879 S,19,134301,134531,0.25,0.7 F,0,134531,,0
Sprite,Foreground,Centre,"sb\f\_00d.png",253.6047,218.3333 F,0,134531,,1 S,0,134531,,0.5 R,0,134531,,4.18879 S,19,134531,134762,0.25,0.7 S,18,134762,134993,0.7,0.25 F,0,134993,,0
Sprite,Foreground,Centre,"sb\f\_00e.png",253.6047,218.3333 F,0,134993,,1 S,0,134993,,0.5 R,0,134993,,4.18879 S,19,134993,135224,0.25,0.7 S,18,135224,135454,0.7,0.25 F,0,135454,,0
Sprite,Foreground,Centre,"sb\f\_008.png",320,103.3333 F,0,135454,,1 S,0,135454,,0.5 R,0,135454,,6.283185 S,30,135454,135685,0.25,0.9 S,18,135685,135916,0.9,0.25 F,0,135916,,0
Sprite,Foreground,Centre,"sb\f\_009.png",320,103.3333 F,0,135916,,1 S,0,135916,,0.5 R,0,135916,,6.283185 S,19,135916,136147,0.25,0.8 S,18,136147,136377,0.8,0.25 F,0,136377,,0
Sprite,Foreground,Centre,"sb\f\_00a.png",320,103.3333 F,0,136377,,1 S,0,136377,,0.5 R,0,136377,,6.283185 S,19,136377,136608,0.25,0.6 S,18,136608,136839,0.6,0.25 F,0,136839,,0
Sprite,Foreground,Centre,"sb\f\_00b.png",320,103.3333 F,0,136839,,1 S,0,136839,,0.5 R,0,136839,,6.283185 S,19,136839,137070,0.25,0.7 S,18,137070,137300,0.7,0.25 F,0,137300,,0
Sprite,Foreground,Centre,"sb\f\_008.png",386.3953,218.3334 F,0,135454,,1 S,0,135454,,0.5 R,0,135454,,2.094395 S,30,135454,135685,0.25,0.9 S,18,135685,135916,0.9,0.25 F,0,135916,,0
Sprite,Foreground,Centre,"sb\f\_009.png",386.3953,218.3334 F,0,135916,,1 S,0,135916,,0.5 R,0,135916,,2.094395 S,19,135916,136147,0.25,0.8 S,18,136147,136377,0.8,0.25 F,0,136377,,0
Sprite,Foreground,Centre,"sb\f\_00a.png",386.3953,218.3334 F,0,136377,,1 S,0,136377,,0.5 R,0,136377,,2.094395 S,19,136377,136608,0.25,0.6 S,18,136608,136839,0.6,0.25 F,0,136839,,0
Sprite,Foreground,Centre,"sb\f\_00b.png",386.3953,218.3334 F,0,136839,,1 S,0,136839,,0.5 R,0,136839,,2.094395 S,19,136839,137070,0.25,0.7 S,18,137070,137300,0.7,0.25 F,0,137300,,0
Sprite,Foreground,Centre,"sb\f\_008.png",253.6047,218.3333 F,0,135454,,1 S,0,135454,,0.5 R,0,135454,,4.18879 S,30,135454,135685,0.25,0.9 S,18,135685,135916,0.9,0.25 F,0,135916,,0
Sprite,Foreground,Centre,"sb\f\_009.png",253.6047,218.3333 F,0,135916,,1 S,0,135916,,0.5 R,0,135916,,4.18879 S,19,135916,136147,0.25,0.8 S,18,136147,136377,0.8,0.25 F,0,136377,,0
Sprite,Foreground,Centre,"sb\f\_00a.png",253.6047,218.3333 F,0,136377,,1 S,0,136377,,0.5 R,0,136377,,4.18879 S,19,136377,136608,0.25,0.6 S,18,136608,136839,0.6,0.25 F,0,136839,,0
Sprite,Foreground,Centre,"sb\f\_00b.png",253.6047,218.3333 F,0,136839,,1 S,0,136839,,0.5 R,0,136839,,4.18879 S,19,136839,137070,0.25,0.7 S,18,137070,137300,0.7,0.25 F,0,137300,,0
Sprite,Foreground,Centre,"sb\f\_005.png",290,101.3333 F,0,137301,,1 S,0,137301,,0.5 R,0,137301,,6.323185 F,0,138224,,0
Sprite,Foreground,Centre,"sb\f\_006.png",350,101.3333 F,0,137763,,1 S,0,137763,,0.5 R,0,137763,,6.083186 F,0,138224,,0
Sprite,Foreground,Centre,"sb\f\_007.png",320,128.3333 F,0,137993,,1 S,0,137993,,0.5 S,0,137993,,0.65 R,0,137993,,6.283185 F,0,138224,,0
Sprite,Foreground,Centre,"sb\f\_004.png",320,103.3333 F,0,138224,,1 S,0,138224,,0.5 R,0,138224,,6.283185 S,19,138224,138686,1,0.8 F,0,138686,,0
Sprite,Foreground,Centre,"sb\f\_005.png",403.1273,193.3526 F,0,137301,,1 S,0,137301,,0.5 R,0,137301,,2.134395 F,0,138224,,0
Sprite,Foreground,Centre,"sb\f\_006.png",373.1273,245.3141 F,0,137763,,1 S,0,137763,,0.5 R,0,137763,,1.894395 F,0,138224,,0
Sprite,Foreground,Centre,"sb\f\_007.png",364.7446,205.8334 F,0,137993,,1 S,0,137993,,0.5 S,0,137993,,0.65 R,0,137993,,2.094395 F,0,138224,,0
Sprite,Foreground,Centre,"sb\f\_004.png",386.3953,218.3334 F,0,138224,,1 S,0,138224,,0.5 R,0,138224,,2.094395 S,19,138224,138686,1,0.8 F,0,138686,,0
Sprite,Foreground,Centre,"sb\f\_005.png",266.8727,245.3141 F,0,137301,,1 S,0,137301,,0.5 R,0,137301,,4.22879 F,0,138224,,0
Sprite,Foreground,Centre,"sb\f\_006.png",236.8727,193.3525 F,0,137763,,1 S,0,137763,,0.5 R,0,137763,,3.98879 F,0,138224,,0
Sprite,Foreground,Centre,"sb\f\_007.png",275.2553,205.8333 F,0,137993,,1 S,0,137993,,0.5 S,0,137993,,0.65 R,0,137993,,4.18879 F,0,138224,,0
Sprite,Foreground,Centre,"sb\f\_004.png",253.6047,218.3333 F,0,138224,,1 S,0,138224,,0.5 R,0,138224,,4.18879 S,19,138224,138686,1,0.8 F,0,138686,,0
Sprite,Foreground,Centre,"sb\f\_008.png",320,103.3333 F,0,138685,,1 S,0,138685,,0.5 R,0,138685,,6.283185 S,30,138685,138916,0.25,0.65 S,30,138916,139147,0.25,0.65 F,0,139147,,0
Sprite,Foreground,Centre,"sb\f\_008.png",386.3953,218.3334 F,0,138685,,1 S,0,138685,,0.5 R,0,138685,,2.094395 S,30,138685,138916,0.25,0.65 S,30,138916,139147,0.25,0.65 F,0,139147,,0
Sprite,Foreground,Centre,"sb\f\_008.png",253.6047,218.3333 F,0,138685,,1 S,0,138685,,0.5 R,0,138685,,4.18879 S,30,138685,138916,0.25,0.65 S,30,138916,139147,0.25,0.65 F,0,139147,,0
Sprite,Foreground,Centre,"sb\f\_008.png",320,103.3333 F,0,139147,,1 S,0,139147,,0.5 R,0,139147,,6.283185 S,30,139147,139378,0.25,0.9 S,18,139378,139609,0.9,0.25 F,0,139609,,0
Sprite,Foreground,Centre,"sb\f\_009.png",320,103.3333 F,0,139609,,1 S,0,139609,,0.5 R,0,139609,,6.283185 S,19,139609,139840,0.25,0.8 S,18,139840,140070,0.8,0.25 F,0,140070,,0
Sprite,Foreground,Centre,"sb\f\_00a.png",320,103.3333 F,0,140070,,1 S,0,140070,,0.5 R,0,140070,,6.283185 S,19,140070,140301,0.25,0.6 S,18,140301,140532,0.6,0.25 F,0,140532,,0
Sprite,Foreground,Centre,"sb\f\_00b.png",320,103.3333 F,0,140532,,1 S,0,140532,,0.5 R,0,140532,,6.283185 S,19,140532,140763,0.25,0.7 S,18,140763,140993,0.7,0.25 F,0,140993,,0
Sprite,Foreground,Centre,"sb\f\_00c.png",240,98.33332 F,0,140993,,1 S,0,140993,,0.5 R,0,140993,,6.283185 S,19,140993,141224,0.25,0.7 F,0,141224,,0
Sprite,Foreground,Centre,"sb\f\_00c.png",395.0001,98.33335 F,0,141224,,1 S,0,141224,,0.5 R,0,141224,,6.283185 S,19,141224,141455,0.25,0.7 F,0,141455,,0
Sprite,Foreground,Centre,"sb\f\_00c.png",300,123.3333 F,0,141455,,1 S,0,141455,,0.5 R,0,141455,,7.283185 S,19,141455,141570,0.25,0.7 F,0,141570,,0
Sprite,Foreground,Centre,"sb\f\_00c.png",340,123.3333 F,0,141570,,1 S,0,141570,,0.5 R,0,141570,,5.283185 S,19,141570,141686,0.25,0.7 F,0,141686,,0
Sprite,Foreground,Centre,"sb\f\_00c.png",320,133.3333 F,0,141686,,1 S,0,141686,,0.5 R,0,141686,,6.283185 S,19,141686,141916,0.25,0.7 F,0,141916,,0
Sprite,Foreground,Centre,"sb\f\_00d.png",320,103.3333 F,0,141916,,1 S,0,141916,,0.5 R,0,141916,,6.283185 S,19,141916,142147,0.25,0.7 S,18,142147,142378,0.7,0.25 F,0,142378,,0
Sprite,Foreground,Centre,"sb\f\_00e.png",320,103.3333 F,0,142378,,1 S,0,142378,,0.5 R,0,142378,,6.283185 S,19,142378,142609,0.25,0.7 S,18,142609,142839,0.7,0.25 F,0,142839,,0
Sprite,Foreground,Centre,"sb\f\_008.png",386.3953,218.3334 F,0,139147,,1 S,0,139147,,0.5 R,0,139147,,2.094395 S,30,139147,139378,0.25,0.9 S,18,139378,139609,0.9,0.25 F,0,139609,,0
Sprite,Foreground,Centre,"sb\f\_009.png",386.3953,218.3334 F,0,139609,,1 S,0,139609,,0.5 R,0,139609,,2.094395 S,19,139609,139840,0.25,0.8 S,18,139840,140070,0.8,0.25 F,0,140070,,0
Sprite,Foreground,Centre,"sb\f\_00a.png",386.3953,218.3334 F,0,140070,,1 S,0,140070,,0.5 R,0,140070,,2.094395 S,19,140070,140301,0.25,0.6 S,18,140301,140532,0.6,0.25 F,0,140532,,0
Sprite,Foreground,Centre,"sb\f\_00b.png",386.3953,218.3334 F,0,140532,,1 S,0,140532,,0.5 R,0,140532,,2.094395 S,19,140532,140763,0.25,0.7 S,18,140763,140993,0.7,0.25 F,0,140993,,0
Sprite,Foreground,Centre,"sb\f\_00c.png",430.7254,151.5513 F,0,140993,,1 S,0,140993,,0.5 R,0,140993,,2.094395 S,19,140993,141224,0.25,0.7 F,0,141224,,0
Sprite,Foreground,Centre,"sb\f\_00c.png",353.2254,285.7853 F,0,141224,,1 S,0,141224,,0.5 R,0,141224,,2.094395 S,19,141224,141455,0.25,0.7 F,0,141455,,0
Sprite,Foreground,Centre,"sb\f\_00c.png",379.0748,191.0128 F,0,141455,,1 S,0,141455,,0.5 R,0,141455,,3.094395 S,19,141455,141570,0.25,0.7 F,0,141570,,0
Sprite,Foreground,Centre,"sb\f\_00c.png",359.0748,225.6539 F,0,141570,,1 S,0,141570,,0.5 R,0,141570,,1.094395 S,19,141570,141686,0.25,0.7 F,0,141686,,0
Sprite,Foreground,Centre,"sb\f\_00c.png",360.4145,203.3334 F,0,141686,,1 S,0,141686,,0.5 R,0,141686,,2.094395 S,19,141686,141916,0.25,0.7 F,0,141916,,0
Sprite,Foreground,Centre,"sb\f\_00d.png",386.3953,218.3334 F,0,141916,,1 S,0,141916,,0.5 R,0,141916,,2.094395 S,19,141916,142147,0.25,0.7 S,18,142147,142378,0.7,0.25 F,0,142378,,0
Sprite,Foreground,Centre,"sb\f\_00e.png",386.3953,218.3334 F,0,142378,,1 S,0,142378,,0.5 R,0,142378,,2.094395 S,19,142378,142609,0.25,0.7 S,18,142609,142839,0.7,0.25 F,0,142839,,0
Sprite,Foreground,Centre,"sb\f\_008.png",253.6047,218.3333 F,0,139147,,1 S,0,139147,,0.5 R,0,139147,,4.18879 S,30,139147,139378,0.25,0.9 S,18,139378,139609,0.9,0.25 F,0,139609,,0
Sprite,Foreground,Centre,"sb\f\_009.png",253.6047,218.3333 F,0,139609,,1 S,0,139609,,0.5 R,0,139609,,4.18879 S,19,139609,139840,0.25,0.8 S,18,139840,140070,0.8,0.25 F,0,140070,,0
Sprite,Foreground,Centre,"sb\f\_00a.png",253.6047,218.3333 F,0,140070,,1 S,0,140070,,0.5 R,0,140070,,4.18879 S,19,140070,140301,0.25,0.6 S,18,140301,140532,0.6,0.25 F,0,140532,,0
Sprite,Foreground,Centre,"sb\f\_00b.png",253.6047,218.3333 F,0,140532,,1 S,0,140532,,0.5 R,0,140532,,4.18879 S,19,140532,140763,0.25,0.7 S,18,140763,140993,0.7,0.25 F,0,140993,,0
Sprite,Foreground,Centre,"sb\f\_00c.png",289.2746,290.1153 F,0,140993,,1 S,0,140993,,0.5 R,0,140993,,4.18879 S,19,140993,141224,0.25,0.7 F,0,141224,,0
Sprite,Foreground,Centre,"sb\f\_00c.png",211.7746,155.8814 F,0,141224,,1 S,0,141224,,0.5 R,0,141224,,4.18879 S,19,141224,141455,0.25,0.7 F,0,141455,,0
Sprite,Foreground,Centre,"sb\f\_00c.png",280.9252,225.6538 F,0,141455,,1 S,0,141455,,0.5 R,0,141455,,5.18879 S,19,141455,141570,0.25,0.7 F,0,141570,,0
Sprite,Foreground,Centre,"sb\f\_00c.png",260.9252,191.0128 F,0,141570,,1 S,0,141570,,0.5 R,0,141570,,3.18879 S,19,141570,141686,0.25,0.7 F,0,141686,,0
Sprite,Foreground,Centre,"sb\f\_00c.png",279.5855,203.3333 F,0,141686,,1 S,0,141686,,0.5 R,0,141686,,4.18879 S,19,141686,141916,0.25,0.7 F,0,141916,,0
Sprite,Foreground,Centre,"sb\f\_00d.png",253.6047,218.3333 F,0,141916,,1 S,0,141916,,0.5 R,0,141916,,4.18879 S,19,141916,142147,0.25,0.7 S,18,142147,142378,0.7,0.25 F,0,142378,,0
Sprite,Foreground,Centre,"sb\f\_00e.png",253.6047,218.3333 F,0,142378,,1 S,0,142378,,0.5 R,0,142378,,4.18879 S,19,142378,142609,0.25,0.7 S,18,142609,142839,0.7,0.25 F,0,142839,,0
Sprite,Foreground,Centre,"sb\f\_008.png",320,103.3333 F,0,142839,,1 S,0,142839,,0.5 R,0,142839,,6.283185 S,30,142839,143070,0.25,0.9 S,18,143070,143301,0.9,0.25 F,0,143301,,0
Sprite,Foreground,Centre,"sb\f\_009.png",320,103.3333 F,0,143301,,1 S,0,143301,,0.5 R,0,143301,,6.283185 S,19,143301,143532,0.25,0.8 S,18,143532,143762,0.8,0.25 F,0,143762,,0
Sprite,Foreground,Centre,"sb\f\_00a.png",320,103.3333 F,0,143762,,1 S,0,143762,,0.5 R,0,143762,,6.283185 S,19,143762,143993,0.25,0.6 S,18,143993,144224,0.6,0.25 F,0,144224,,0
Sprite,Foreground,Centre,"sb\f\_00b.png",320,103.3333 F,0,144224,,1 S,0,144224,,0.5 R,0,144224,,6.283185 S,19,144224,144455,0.25,0.7 S,18,144455,144685,0.7,0.25 F,0,144685,,0
Sprite,Foreground,Centre,"sb\f\_00c.png",240,98.33332 F,0,144685,,1 S,0,144685,,0.5 R,0,144685,,6.283185 S,19,144685,144916,0.25,0.7 F,0,144916,,0
Sprite,Foreground,Centre,"sb\f\_00c.png",395.0001,98.33335 F,0,144916,,1 S,0,144916,,0.5 R,0,144916,,6.283185 S,19,144916,145147,0.25,0.7 F,0,145147,,0
Sprite,Foreground,Centre,"sb\f\_00c.png",300,123.3333 F,0,145147,,1 S,0,145147,,0.5 R,0,145147,,7.283185 S,19,145147,145378,0.25,0.7 F,0,145378,,0
Sprite,Foreground,Centre,"sb\f\_00c.png",340,123.3333 F,0,145378,,1 S,0,145378,,0.5 R,0,145378,,5.283185 S,19,145378,145493,0.25,0.7 F,0,145493,,0
Sprite,Foreground,Centre,"sb\f\_00c.png",320,133.3333 F,0,145493,,1 S,0,145493,,0.5 R,0,145493,,6.283185 S,19,145493,145608,0.25,0.7 F,0,145608,,0
Sprite,Foreground,Centre,"sb\f\_00d.png",320,103.3333 F,0,145608,,1 S,0,145608,,0.5 R,0,145608,,6.283185 S,19,145608,145839,0.25,0.7 S,18,145839,146070,0.7,0.25 F,0,146070,,0
Sprite,Foreground,Centre,"sb\f\_00e.png",320,103.3333 F,0,146070,,1 S,0,146070,,0.5 R,0,146070,,6.283185 S,19,146070,146301,0.25,0.7 S,18,146301,146531,0.7,0.25 F,0,146531,,0
Sprite,Foreground,Centre,"sb\f\_008.png",386.3953,218.3334 F,0,142839,,1 S,0,142839,,0.5 R,0,142839,,2.094395 S,30,142839,143070,0.25,0.9 S,18,143070,143301,0.9,0.25 F,0,143301,,0
Sprite,Foreground,Centre,"sb\f\_009.png",386.3953,218.3334 F,0,143301,,1 S,0,143301,,0.5 R,0,143301,,2.094395 S,19,143301,143532,0.25,0.8 S,18,143532,143762,0.8,0.25 F,0,143762,,0
Sprite,Foreground,Centre,"sb\f\_00a.png",386.3953,218.3334 F,0,143762,,1 S,0,143762,,0.5 R,0,143762,,2.094395 S,19,143762,143993,0.25,0.6 S,18,143993,144224,0.6,0.25 F,0,144224,,0
Sprite,Foreground,Centre,"sb\f\_00b.png",386.3953,218.3334 F,0,144224,,1 S,0,144224,,0.5 R,0,144224,,2.094395 S,19,144224,144455,0.25,0.7 S,18,144455,144685,0.7,0.25 F,0,144685,,0
Sprite,Foreground,Centre,"sb\f\_00c.png",430.7254,151.5513 F,0,144685,,1 S,0,144685,,0.5 R,0,144685,,2.094395 S,19,144685,144916,0.25,0.7 F,0,144916,,0
Sprite,Foreground,Centre,"sb\f\_00c.png",353.2254,285.7853 F,0,144916,,1 S,0,144916,,0.5 R,0,144916,,2.094395 S,19,144916,145147,0.25,0.7 F,0,145147,,0
Sprite,Foreground,Centre,"sb\f\_00c.png",379.0748,191.0128 F,0,145147,,1 S,0,145147,,0.5 R,0,145147,,3.094395 S,19,145147,145378,0.25,0.7 F,0,145378,,0
Sprite,Foreground,Centre,"sb\f\_00c.png",359.0748,225.6539 F,0,145378,,1 S,0,145378,,0.5 R,0,145378,,1.094395 S,19,145378,145493,0.25,0.7 F,0,145493,,0
Sprite,Foreground,Centre,"sb\f\_00c.png",360.4145,203.3334 F,0,145493,,1 S,0,145493,,0.5 R,0,145493,,2.094395 S,19,145493,145608,0.25,0.7 F,0,145608,,0
Sprite,Foreground,Centre,"sb\f\_00d.png",386.3953,218.3334 F,0,145608,,1 S,0,145608,,0.5 R,0,145608,,2.094395 S,19,145608,145839,0.25,0.7 S,18,145839,146070,0.7,0.25 F,0,146070,,0
Sprite,Foreground,Centre,"sb\f\_00e.png",386.3953,218.3334 F,0,146070,,1 S,0,146070,,0.5 R,0,146070,,2.094395 S,19,146070,146301,0.25,0.7 S,18,146301,146531,0.7,0.25 F,0,146531,,0
Sprite,Foreground,Centre,"sb\f\_008.png",253.6047,218.3333 F,0,142839,,1 S,0,142839,,0.5 R,0,142839,,4.18879 S,30,142839,143070,0.25,0.9 S,18,143070,143301,0.9,0.25 F,0,143301,,0
Sprite,Foreground,Centre,"sb\f\_009.png",253.6047,218.3333 F,0,143301,,1 S,0,143301,,0.5 R,0,143301,,4.18879 S,19,143301,143532,0.25,0.8 S,18,143532,143762,0.8,0.25 F,0,143762,,0
Sprite,Foreground,Centre,"sb\f\_00a.png",253.6047,218.3333 F,0,143762,,1 S,0,143762,,0.5 R,0,143762,,4.18879 S,19,143762,143993,0.25,0.6 S,18,143993,144224,0.6,0.25 F,0,144224,,0
Sprite,Foreground,Centre,"sb\f\_00b.png",253.6047,218.3333 F,0,144224,,1 S,0,144224,,0.5 R,0,144224,,4.18879 S,19,144224,144455,0.25,0.7 S,18,144455,144685,0.7,0.25 F,0,144685,,0
Sprite,Foreground,Centre,"sb\f\_00c.png",289.2746,290.1153 F,0,144685,,1 S,0,144685,,0.5 R,0,144685,,4.18879 S,19,144685,144916,0.25,0.7 F,0,144916,,0
Sprite,Foreground,Centre,"sb\f\_00c.png",211.7746,155.8814 F,0,144916,,1 S,0,144916,,0.5 R,0,144916,,4.18879 S,19,144916,145147,0.25,0.7 F,0,145147,,0
Sprite,Foreground,Centre,"sb\f\_00c.png",280.9252,225.6538 F,0,145147,,1 S,0,145147,,0.5 R,0,145147,,5.18879 S,19,145147,145378,0.25,0.7 F,0,145378,,0
Sprite,Foreground,Centre,"sb\f\_00c.png",260.9252,191.0128 F,0,145378,,1 S,0,145378,,0.5 R,0,145378,,3.18879 S,19,145378,145493,0.25,0.7 F,0,145493,,0
Sprite,Foreground,Centre,"sb\f\_00c.png",279.5855,203.3333 F,0,145493,,1 S,0,145493,,0.5 R,0,145493,,4.18879 S,19,145493,145608,0.25,0.7 F,0,145608,,0
Sprite,Foreground,Centre,"sb\f\_00d.png",253.6047,218.3333 F,0,145608,,1 S,0,145608,,0.5 R,0,145608,,4.18879 S,19,145608,145839,0.25,0.7 S,18,145839,146070,0.7,0.25 F,0,146070,,0
Sprite,Foreground,Centre,"sb\f\_00e.png",253.6047,218.3333 F,0,146070,,1 S,0,146070,,0.5 R,0,146070,,4.18879 S,19,146070,146301,0.25,0.7 S,18,146301,146531,0.7,0.25 F,0,146531,,0
Sprite,Foreground,Centre,"sb\f\_00f.png",300,103.3333 F,0,163147,,1 S,0,163147,,0.5 R,0,163147,,6.383185 S,19,163147,163608,0,0.5 F,0,164070,,0
Sprite,Foreground,Centre,"sb\f\_007.png",335,130.3333 F,0,163608,,1 S,0,163608,,0.5 R,0,163608,,6.183186 S,19,163608,164070,0,0.5 F,0,164070,,0
Sprite,Foreground,Centre,"sb\f\_004.png",320,103.3333 F,0,164070,,1 S,0,164070,,0.5 R,0,164070,,6.283185 S,19,164070,164532,1,0.8 F,0,164532,,0
Sprite,Foreground,Centre,"sb\f\_00f.png",396.3953,201.0128 F,0,163147,,1 S,0,163147,,0.5 R,0,163147,,2.194395 S,19,163147,163608,0,0.5 F,0,164070,,0
Sprite,Foreground,Centre,"sb\f\_007.png",355.5126,217.8237 F,0,163608,,1 S,0,163608,,0.5 R,0,163608,,1.994395 S,19,163608,164070,0,0.5 F,0,164070,,0
Sprite,Foreground,Centre,"sb\f\_004.png",386.3953,218.3334 F,0,164070,,1 S,0,164070,,0.5 R,0,164070,,2.094395 S,19,164070,164532,1,0.8 F,0,164532,,0
Sprite,Foreground,Centre,"sb\f\_00f.png",263.6047,235.6538 F,0,163147,,1 S,0,163147,,0.5 R,0,163147,,4.28879 S,19,163147,163608,0,0.5 F,0,164070,,0
Sprite,Foreground,Centre,"sb\f\_007.png",269.4874,191.8429 F,0,163608,,1 S,0,163608,,0.5 R,0,163608,,4.08879 S,19,163608,164070,0,0.5 F,0,164070,,0
Sprite,Foreground,Centre,"sb\f\_004.png",253.6047,218.3333 F,0,164070,,1 S,0,164070,,0.5 R,0,164070,,4.18879 S,19,164070,164532,1,0.8 F,0,164532,,0
Sprite,Foreground,Centre,"sb\f\_005.png",290,101.3333 F,0,232377,,1 S,0,232377,,0.5 R,0,232377,,6.323185 F,0,233300,,0
Sprite,Foreground,Centre,"sb\f\_006.png",350,101.3333 F,0,232839,,1 S,0,232839,,0.5 R,0,232839,,6.083186 F,0,233300,,0
Sprite,Foreground,Centre,"sb\f\_007.png",320,128.3333 F,0,233069,,1 S,0,233069,,0.5 S,0,233069,,0.65 R,0,233069,,6.283185 F,0,233300,,0
Sprite,Foreground,Centre,"sb\f\_005.png",403.1273,193.3526 F,0,232377,,1 S,0,232377,,0.5 R,0,232377,,2.134395 F,0,233300,,0
Sprite,Foreground,Centre,"sb\f\_006.png",373.1273,245.3141 F,0,232839,,1 S,0,232839,,0.5 R,0,232839,,1.894395 F,0,233300,,0
Sprite,Foreground,Centre,"sb\f\_007.png",364.7446,205.8334 F,0,233069,,1 S,0,233069,,0.5 S,0,233069,,0.65 R,0,233069,,2.094395 F,0,233300,,0
Sprite,Foreground,Centre,"sb\f\_005.png",266.8727,245.3141 F,0,232377,,1 S,0,232377,,0.5 R,0,232377,,4.22879 F,0,233300,,0
Sprite,Foreground,Centre,"sb\f\_006.png",236.8727,193.3525 F,0,232839,,1 S,0,232839,,0.5 R,0,232839,,3.98879 F,0,233300,,0
Sprite,Foreground,Centre,"sb\f\_007.png",275.2553,205.8333 F,0,233069,,1 S,0,233069,,0.5 S,0,233069,,0.65 R,0,233069,,4.18879 F,0,233300,,0
Sprite,Foreground,Centre,"sb\f\_008.png",320,103.3333 F,0,234223,,1 S,0,234223,,0.5 R,0,234223,,6.283185 S,30,234223,234454,0.25,0.9 S,18,234454,234685,0.9,0.25 F,0,234685,,0
Sprite,Foreground,Centre,"sb\f\_009.png",320,103.3333 F,0,234685,,1 S,0,234685,,0.5 R,0,234685,,6.283185 S,19,234685,234916,0.25,0.8 S,18,234916,235146,0.8,0.25 F,0,235146,,0
Sprite,Foreground,Centre,"sb\f\_00a.png",320,103.3333 F,0,235146,,1 S,0,235146,,0.5 R,0,235146,,6.283185 S,19,235146,235377,0.25,0.6 S,18,235377,235608,0.6,0.25 F,0,235608,,0
Sprite,Foreground,Centre,"sb\f\_00b.png",320,103.3333 F,0,235608,,1 S,0,235608,,0.5 R,0,235608,,6.283185 S,19,235608,235839,0.25,0.7 S,18,235839,236069,0.7,0.25 F,0,236069,,0
Sprite,Foreground,Centre,"sb\f\_00c.png",240,98.33332 F,0,236069,,1 S,0,236069,,0.5 R,0,236069,,6.283185 S,19,236069,236300,0.25,0.7 F,0,236300,,0
Sprite,Foreground,Centre,"sb\f\_00c.png",395.0001,98.33335 F,0,236300,,1 S,0,236300,,0.5 R,0,236300,,6.283185 S,19,236300,236531,0.25,0.7 F,0,236531,,0
Sprite,Foreground,Centre,"sb\f\_00c.png",300,123.3333 F,0,236531,,1 S,0,236531,,0.5 R,0,236531,,7.283185 S,19,236531,236646,0.25,0.7 F,0,236646,,0
Sprite,Foreground,Centre,"sb\f\_00c.png",340,123.3333 F,0,236646,,1 S,0,236646,,0.5 R,0,236646,,5.283185 S,19,236646,236762,0.25,0.7 F,0,236762,,0
Sprite,Foreground,Centre,"sb\f\_00c.png",320,133.3333 F,0,236762,,1 S,0,236762,,0.5 R,0,236762,,6.283185 S,19,236762,236992,0.25,0.7 F,0,236992,,0
Sprite,Foreground,Centre,"sb\f\_00d.png",320,103.3333 F,0,236992,,1 S,0,236992,,0.5 R,0,236992,,6.283185 S,19,236992,237223,0.25,0.7 S,18,237223,237454,0.7,0.25 F,0,237454,,0
Sprite,Foreground,Centre,"sb\f\_00e.png",320,103.3333 F,0,237454,,1 S,0,237454,,0.5 R,0,237454,,6.283185 S,19,237454,237685,0.25,0.7 S,18,237685,237915,0.7,0.25 F,0,237915,,0
Sprite,Foreground,Centre,"sb\f\_008.png",386.3953,218.3334 F,0,234223,,1 S,0,234223,,0.5 R,0,234223,,2.094395 S,30,234223,234454,0.25,0.9 S,18,234454,234685,0.9,0.25 F,0,234685,,0
Sprite,Foreground,Centre,"sb\f\_009.png",386.3953,218.3334 F,0,234685,,1 S,0,234685,,0.5 R,0,234685,,2.094395 S,19,234685,234916,0.25,0.8 S,18,234916,235146,0.8,0.25 F,0,235146,,0
Sprite,Foreground,Centre,"sb\f\_00a.png",386.3953,218.3334 F,0,235146,,1 S,0,235146,,0.5 R,0,235146,,2.094395 S,19,235146,235377,0.25,0.6 S,18,235377,235608,0.6,0.25 F,0,235608,,0
Sprite,Foreground,Centre,"sb\f\_00b.png",386.3953,218.3334 F,0,235608,,1 S,0,235608,,0.5 R,0,235608,,2.094395 S,19,235608,235839,0.25,0.7 S,18,235839,236069,0.7,0.25 F,0,236069,,0
Sprite,Foreground,Centre,"sb\f\_00c.png",430.7254,151.5513 F,0,236069,,1 S,0,236069,,0.5 R,0,236069,,2.094395 S,19,236069,236300,0.25,0.7 F,0,236300,,0
Sprite,Foreground,Centre,"sb\f\_00c.png",353.2254,285.7853 F,0,236300,,1 S,0,236300,,0.5 R,0,236300,,2.094395 S,19,236300,236531,0.25,0.7 F,0,236531,,0
Sprite,Foreground,Centre,"sb\f\_00c.png",379.0748,191.0128 F,0,236531,,1 S,0,236531,,0.5 R,0,236531,,3.094395 S,19,236531,236646,0.25,0.7 F,0,236646,,0
Sprite,Foreground,Centre,"sb\f\_00c.png",359.0748,225.6539 F,0,236646,,1 S,0,236646,,0.5 R,0,236646,,1.094395 S,19,236646,236762,0.25,0.7 F,0,236762,,0
Sprite,Foreground,Centre,"sb\f\_00c.png",360.4145,203.3334 F,0,236762,,1 S,0,236762,,0.5 R,0,236762,,2.094395 S,19,236762,236992,0.25,0.7 F,0,236992,,0
Sprite,Foreground,Centre,"sb\f\_00d.png",386.3953,218.3334 F,0,236992,,1 S,0,236992,,0.5 R,0,236992,,2.094395 S,19,236992,237223,0.25,0.7 S,18,237223,237454,0.7,0.25 F,0,237454,,0
Sprite,Foreground,Centre,"sb\f\_00e.png",386.3953,218.3334 F,0,237454,,1 S,0,237454,,0.5 R,0,237454,,2.094395 S,19,237454,237685,0.25,0.7 S,18,237685,237915,0.7,0.25 F,0,237915,,0
Sprite,Foreground,Centre,"sb\f\_008.png",253.6047,218.3333 F,0,234223,,1 S,0,234223,,0.5 R,0,234223,,4.18879 S,30,234223,234454,0.25,0.9 S,18,234454,234685,0.9,0.25 F,0,234685,,0
Sprite,Foreground,Centre,"sb\f\_009.png",253.6047,218.3333 F,0,234685,,1 S,0,234685,,0.5 R,0,234685,,4.18879 S,19,234685,234916,0.25,0.8 S,18,234916,235146,0.8,0.25 F,0,235146,,0
Sprite,Foreground,Centre,"sb\f\_00a.png",253.6047,218.3333 F,0,235146,,1 S,0,235146,,0.5 R,0,235146,,4.18879 S,19,235146,235377,0.25,0.6 S,18,235377,235608,0.6,0.25 F,0,235608,,0
Sprite,Foreground,Centre,"sb\f\_00b.png",253.6047,218.3333 F,0,235608,,1 S,0,235608,,0.5 R,0,235608,,4.18879 S,19,235608,235839,0.25,0.7 S,18,235839,236069,0.7,0.25 F,0,236069,,0
Sprite,Foreground,Centre,"sb\f\_00c.png",289.2746,290.1153 F,0,236069,,1 S,0,236069,,0.5 R,0,236069,,4.18879 S,19,236069,236300,0.25,0.7 F,0,236300,,0
Sprite,Foreground,Centre,"sb\f\_00c.png",211.7746,155.8814 F,0,236300,,1 S,0,236300,,0.5 R,0,236300,,4.18879 S,19,236300,236531,0.25,0.7 F,0,236531,,0
Sprite,Foreground,Centre,"sb\f\_00c.png",280.9252,225.6538 F,0,236531,,1 S,0,236531,,0.5 R,0,236531,,5.18879 S,19,236531,236646,0.25,0.7 F,0,236646,,0
Sprite,Foreground,Centre,"sb\f\_00c.png",260.9252,191.0128 F,0,236646,,1 S,0,236646,,0.5 R,0,236646,,3.18879 S,19,236646,236762,0.25,0.7 F,0,236762,,0
Sprite,Foreground,Centre,"sb\f\_00c.png",279.5855,203.3333 F,0,236762,,1 S,0,236762,,0.5 R,0,236762,,4.18879 S,19,236762,236992,0.25,0.7 F,0,236992,,0
Sprite,Foreground,Centre,"sb\f\_00d.png",253.6047,218.3333 F,0,236992,,1 S,0,236992,,0.5 R,0,236992,,4.18879 S,19,236992,237223,0.25,0.7 S,18,237223,237454,0.7,0.25 F,0,237454,,0
Sprite,Foreground,Centre,"sb\f\_00e.png",253.6047,218.3333 F,0,237454,,1 S,0,237454,,0.5 R,0,237454,,4.18879 S,19,237454,237685,0.25,0.7 S,18,237685,237915,0.7,0.25 F,0,237915,,0
Sprite,Foreground,Centre,"sb\f\_008.png",320,103.3333 F,0,237915,,1 S,0,237915,,0.5 R,0,237915,,6.283185 S,30,237915,238146,0.25,0.9 S,18,238146,238377,0.9,0.25 F,0,238377,,0
Sprite,Foreground,Centre,"sb\f\_009.png",320,103.3333 F,0,238377,,1 S,0,238377,,0.5 R,0,238377,,6.283185 S,19,238377,238608,0.25,0.8 S,18,238608,238838,0.8,0.25 F,0,238838,,0
Sprite,Foreground,Centre,"sb\f\_00a.png",320,103.3333 F,0,238838,,1 S,0,238838,,0.5 R,0,238838,,6.283185 S,19,238838,239069,0.25,0.6 S,18,239069,239300,0.6,0.25 F,0,239300,,0
Sprite,Foreground,Centre,"sb\f\_00b.png",320,103.3333 F,0,239300,,1 S,0,239300,,0.5 R,0,239300,,6.283185 S,19,239300,239531,0.25,0.7 S,18,239531,239761,0.7,0.25 F,0,239761,,0
Sprite,Foreground,Centre,"sb\f\_008.png",386.3953,218.3334 F,0,237915,,1 S,0,237915,,0.5 R,0,237915,,2.094395 S,30,237915,238146,0.25,0.9 S,18,238146,238377,0.9,0.25 F,0,238377,,0
Sprite,Foreground,Centre,"sb\f\_009.png",386.3953,218.3334 F,0,238377,,1 S,0,238377,,0.5 R,0,238377,,2.094395 S,19,238377,238608,0.25,0.8 S,18,238608,238838,0.8,0.25 F,0,238838,,0
Sprite,Foreground,Centre,"sb\f\_00a.png",386.3953,218.3334 F,0,238838,,1 S,0,238838,,0.5 R,0,238838,,2.094395 S,19,238838,239069,0.25,0.6 S,18,239069,239300,0.6,0.25 F,0,239300,,0
Sprite,Foreground,Centre,"sb\f\_00b.png",386.3953,218.3334 F,0,239300,,1 S,0,239300,,0.5 R,0,239300,,2.094395 S,19,239300,239531,0.25,0.7 S,18,239531,239761,0.7,0.25 F,0,239761,,0
Sprite,Foreground,Centre,"sb\f\_008.png",253.6047,218.3333 F,0,237915,,1 S,0,237915,,0.5 R,0,237915,,4.18879 S,30,237915,238146,0.25,0.9 S,18,238146,238377,0.9,0.25 F,0,238377,,0
Sprite,Foreground,Centre,"sb\f\_009.png",253.6047,218.3333 F,0,238377,,1 S,0,238377,,0.5 R,0,238377,,4.18879 S,19,238377,238608,0.25,0.8 S,18,238608,238838,0.8,0.25 F,0,238838,,0
Sprite,Foreground,Centre,"sb\f\_00a.png",253.6047,218.3333 F,0,238838,,1 S,0,238838,,0.5 R,0,238838,,4.18879 S,19,238838,239069,0.25,0.6 S,18,239069,239300,0.6,0.25 F,0,239300,,0
Sprite,Foreground,Centre,"sb\f\_00b.png",253.6047,218.3333 F,0,239300,,1 S,0,239300,,0.5 R,0,239300,,4.18879 S,19,239300,239531,0.25,0.7 S,18,239531,239761,0.7,0.25 F,0,239761,,0
Sprite,Foreground,Centre,"sb\f\_005.png",290,101.3333 F,0,239761,,1 S,0,239761,,0.5 R,0,239761,,6.323185 F,0,240684,,0
Sprite,Foreground,Centre,"sb\f\_006.png",350,101.3333 F,0,240223,,1 S,0,240223,,0.5 R,0,240223,,6.083186 F,0,240684,,0
Sprite,Foreground,Centre,"sb\f\_007.png",320,128.3333 F,0,240453,,1 S,0,240453,,0.5 S,0,240453,,0.65 R,0,240453,,6.283185 F,0,240684,,0
Sprite,Foreground,Centre,"sb\f\_004.png",320,103.3333 F,0,240684,,1 S,0,240684,,0.5 R,0,240684,,6.283185 S,19,240684,241146,1,0.8 F,0,241146,,0
Sprite,Foreground,Centre,"sb\f\_005.png",403.1273,193.3526 F,0,239761,,1 S,0,239761,,0.5 R,0,239761,,2.134395 F,0,240684,,0
Sprite,Foreground,Centre,"sb\f\_006.png",373.1273,245.3141 F,0,240223,,1 S,0,240223,,0.5 R,0,240223,,1.894395 F,0,240684,,0
Sprite,Foreground,Centre,"sb\f\_007.png",364.7446,205.8334 F,0,240453,,1 S,0,240453,,0.5 S,0,240453,,0.65 R,0,240453,,2.094395 F,0,240684,,0
Sprite,Foreground,Centre,"sb\f\_004.png",386.3953,218.3334 F,0,240684,,1 S,0,240684,,0.5 R,0,240684,,2.094395 S,19,240684,241146,1,0.8 F,0,241146,,0
Sprite,Foreground,Centre,"sb\f\_005.png",266.8727,245.3141 F,0,239761,,1 S,0,239761,,0.5 R,0,239761,,4.22879 F,0,240684,,0
Sprite,Foreground,Centre,"sb\f\_006.png",236.8727,193.3525 F,0,240223,,1 S,0,240223,,0.5 R,0,240223,,3.98879 F,0,240684,,0
Sprite,Foreground,Centre,"sb\f\_007.png",275.2553,205.8333 F,0,240453,,1 S,0,240453,,0.5 S,0,240453,,0.65 R,0,240453,,4.18879 F,0,240684,,0
Sprite,Foreground,Centre,"sb\f\_004.png",253.6047,218.3333 F,0,240684,,1 S,0,240684,,0.5 R,0,240684,,4.18879 S,19,240684,241146,1,0.8 F,0,241146,,0
Sprite,Foreground,Centre,"sb\f\_008.png",320,103.3333 F,0,241607,,1 S,0,241607,,0.5 R,0,241607,,6.283185 S,30,241607,241838,0.25,0.9 S,18,241838,242069,0.9,0.25 F,0,242069,,0
Sprite,Foreground,Centre,"sb\f\_009.png",320,103.3333 F,0,242069,,1 S,0,242069,,0.5 R,0,242069,,6.283185 S,19,242069,242300,0.25,0.8 S,18,242300,242530,0.8,0.25 F,0,242530,,0
Sprite,Foreground,Centre,"sb\f\_00a.png",320,103.3333 F,0,242530,,1 S,0,242530,,0.5 R,0,242530,,6.283185 S,19,242530,242761,0.25,0.6 S,18,242761,242992,0.6,0.25 F,0,242992,,0
Sprite,Foreground,Centre,"sb\f\_00b.png",320,103.3333 F,0,242992,,1 S,0,242992,,0.5 R,0,242992,,6.283185 S,19,242992,243223,0.25,0.7 S,18,243223,243453,0.7,0.25 F,0,243453,,0
Sprite,Foreground,Centre,"sb\f\_00c.png",240,98.33332 F,0,243453,,1 S,0,243453,,0.5 R,0,243453,,6.283185 S,19,243453,243684,0.25,0.7 F,0,243684,,0
Sprite,Foreground,Centre,"sb\f\_00c.png",395.0001,98.33335 F,0,243684,,1 S,0,243684,,0.5 R,0,243684,,6.283185 S,19,243684,243915,0.25,0.7 F,0,243915,,0
Sprite,Foreground,Centre,"sb\f\_00c.png",300,123.3333 F,0,243915,,1 S,0,243915,,0.5 R,0,243915,,7.283185 S,19,243915,244030,0.25,0.7 F,0,244030,,0
Sprite,Foreground,Centre,"sb\f\_00c.png",340,123.3333 F,0,244030,,1 S,0,244030,,0.5 R,0,244030,,5.283185 S,19,244030,244146,0.25,0.7 F,0,244146,,0
Sprite,Foreground,Centre,"sb\f\_00c.png",320,133.3333 F,0,244146,,1 S,0,244146,,0.5 R,0,244146,,6.283185 S,19,244146,244376,0.25,0.7 F,0,244376,,0
Sprite,Foreground,Centre,"sb\f\_00d.png",320,103.3333 F,0,244376,,1 S,0,244376,,0.5 R,0,244376,,6.283185 S,19,244376,244607,0.25,0.7 S,18,244607,244838,0.7,0.25 F,0,244838,,0
Sprite,Foreground,Centre,"sb\f\_00e.png",320,103.3333 F,0,244838,,1 S,0,244838,,0.5 R,0,244838,,6.283185 S,19,244838,245069,0.25,0.7 S,18,245069,245299,0.7,0.25 F,0,245299,,0
Sprite,Foreground,Centre,"sb\f\_008.png",386.3953,218.3334 F,0,241607,,1 S,0,241607,,0.5 R,0,241607,,2.094395 S,30,241607,241838,0.25,0.9 S,18,241838,242069,0.9,0.25 F,0,242069,,0
Sprite,Foreground,Centre,"sb\f\_009.png",386.3953,218.3334 F,0,242069,,1 S,0,242069,,0.5 R,0,242069,,2.094395 S,19,242069,242300,0.25,0.8 S,18,242300,242530,0.8,0.25 F,0,242530,,0
Sprite,Foreground,Centre,"sb\f\_00a.png",386.3953,218.3334 F,0,242530,,1 S,0,242530,,0.5 R,0,242530,,2.094395 S,19,242530,242761,0.25,0.6 S,18,242761,242992,0.6,0.25 F,0,242992,,0
Sprite,Foreground,Centre,"sb\f\_00b.png",386.3953,218.3334 F,0,242992,,1 S,0,242992,,0.5 R,0,242992,,2.094395 S,19,242992,243223,0.25,0.7 S,18,243223,243453,0.7,0.25 F,0,243453,,0
Sprite,Foreground,Centre,"sb\f\_00c.png",430.7254,151.5513 F,0,243453,,1 S,0,243453,,0.5 R,0,243453,,2.094395 S,19,243453,243684,0.25,0.7 F,0,243684,,0
Sprite,Foreground,Centre,"sb\f\_00c.png",353.2254,285.7853 F,0,243684,,1 S,0,243684,,0.5 R,0,243684,,2.094395 S,19,243684,243915,0.25,0.7 F,0,243915,,0
Sprite,Foreground,Centre,"sb\f\_00c.png",379.0748,191.0128 F,0,243915,,1 S,0,243915,,0.5 R,0,243915,,3.094395 S,19,243915,244030,0.25,0.7 F,0,244030,,0
Sprite,Foreground,Centre,"sb\f\_00c.png",359.0748,225.6539 F,0,244030,,1 S,0,244030,,0.5 R,0,244030,,1.094395 S,19,244030,244146,0.25,0.7 F,0,244146,,0
Sprite,Foreground,Centre,"sb\f\_00c.png",360.4145,203.3334 F,0,244146,,1 S,0,244146,,0.5 R,0,244146,,2.094395 S,19,244146,244376,0.25,0.7 F,0,244376,,0
Sprite,Foreground,Centre,"sb\f\_00d.png",386.3953,218.3334 F,0,244376,,1 S,0,244376,,0.5 R,0,244376,,2.094395 S,19,244376,244607,0.25,0.7 S,18,244607,244838,0.7,0.25 F,0,244838,,0
Sprite,Foreground,Centre,"sb\f\_00e.png",386.3953,218.3334 F,0,244838,,1 S,0,244838,,0.5 R,0,244838,,2.094395 S,19,244838,245069,0.25,0.7 S,18,245069,245299,0.7,0.25 F,0,245299,,0
Sprite,Foreground,Centre,"sb\f\_008.png",253.6047,218.3333 F,0,241607,,1 S,0,241607,,0.5 R,0,241607,,4.18879 S,30,241607,241838,0.25,0.9 S,18,241838,242069,0.9,0.25 F,0,242069,,0
Sprite,Foreground,Centre,"sb\f\_009.png",253.6047,218.3333 F,0,242069,,1 S,0,242069,,0.5 R,0,242069,,4.18879 S,19,242069,242300,0.25,0.8 S,18,242300,242530,0.8,0.25 F,0,242530,,0
Sprite,Foreground,Centre,"sb\f\_00a.png",253.6047,218.3333 F,0,242530,,1 S,0,242530,,0.5 R,0,242530,,4.18879 S,19,242530,242761,0.25,0.6 S,18,242761,242992,0.6,0.25 F,0,242992,,0
Sprite,Foreground,Centre,"sb\f\_00b.png",253.6047,218.3333 F,0,242992,,1 S,0,242992,,0.5 R,0,242992,,4.18879 S,19,242992,243223,0.25,0.7 S,18,243223,243453,0.7,0.25 F,0,243453,,0
Sprite,Foreground,Centre,"sb\f\_00c.png",289.2746,290.1153 F,0,243453,,1 S,0,243453,,0.5 R,0,243453,,4.18879 S,19,243453,243684,0.25,0.7 F,0,243684,,0
Sprite,Foreground,Centre,"sb\f\_00c.png",211.7746,155.8814 F,0,243684,,1 S,0,243684,,0.5 R,0,243684,,4.18879 S,19,243684,243915,0.25,0.7 F,0,243915,,0
Sprite,Foreground,Centre,"sb\f\_00c.png",280.9252,225.6538 F,0,243915,,1 S,0,243915,,0.5 R,0,243915,,5.18879 S,19,243915,244030,0.25,0.7 F,0,244030,,0
Sprite,Foreground,Centre,"sb\f\_00c.png",260.9252,191.0128 F,0,244030,,1 S,0,244030,,0.5 R,0,244030,,3.18879 S,19,244030,244146,0.25,0.7 F,0,244146,,0
Sprite,Foreground,Centre,"sb\f\_00c.png",279.5855,203.3333 F,0,244146,,1 S,0,244146,,0.5 R,0,244146,,4.18879 S,19,244146,244376,0.25,0.7 F,0,244376,,0
Sprite,Foreground,Centre,"sb\f\_00d.png",253.6047,218.3333 F,0,244376,,1 S,0,244376,,0.5 R,0,244376,,4.18879 S,19,244376,244607,0.25,0.7 S,18,244607,244838,0.7,0.25 F,0,244838,,0
Sprite,Foreground,Centre,"sb\f\_00e.png",253.6047,218.3333 F,0,244838,,1 S,0,244838,,0.5 R,0,244838,,4.18879 S,19,244838,245069,0.25,0.7 S,18,245069,245299,0.7,0.25 F,0,245299,,0
Sprite,Foreground,Centre,"sb\f\_008.png",320,103.3333 F,0,241146,,1 S,0,241146,,0.5 R,0,241146,,6.283185 S,30,241146,241377,0.25,0.65 S,30,241377,241608,0.25,0.65 F,0,241608,,0
Sprite,Foreground,Centre,"sb\f\_008.png",386.3953,218.3334 F,0,241146,,1 S,0,241146,,0.5 R,0,241146,,2.094395 S,30,241146,241377,0.25,0.65 S,30,241377,241608,0.25,0.65 F,0,241608,,0
Sprite,Foreground,Centre,"sb\f\_008.png",253.6047,218.3333 F,0,241146,,1 S,0,241146,,0.5 R,0,241146,,4.18879 S,30,241146,241377,0.25,0.65 S,30,241377,241608,0.25,0.65 F,0,241608,,0
Sprite,Foreground,Centre,"sb\f\_008.png",320,103.3333 F,0,245300,,1 S,0,245300,,0.5 R,0,245300,,6.283185 S,30,245300,245531,0.25,0.9 S,18,245531,245762,0.9,0.25 F,0,245762,,0
Sprite,Foreground,Centre,"sb\f\_009.png",320,103.3333 F,0,245762,,1 S,0,245762,,0.5 R,0,245762,,6.283185 S,19,245762,245993,0.25,0.8 S,18,245993,246223,0.8,0.25 F,0,246223,,0
Sprite,Foreground,Centre,"sb\f\_00a.png",320,103.3333 F,0,246223,,1 S,0,246223,,0.5 R,0,246223,,6.283185 S,19,246223,246454,0.25,0.6 S,18,246454,246685,0.6,0.25 F,0,246685,,0
Sprite,Foreground,Centre,"sb\f\_00b.png",320,103.3333 F,0,246685,,1 S,0,246685,,0.5 R,0,246685,,6.283185 S,19,246685,246916,0.25,0.7 S,18,246916,247146,0.7,0.25 F,0,247146,,0
Sprite,Foreground,Centre,"sb\f\_00c.png",240,98.33332 F,0,247146,,1 S,0,247146,,0.5 R,0,247146,,6.283185 S,19,247146,247377,0.25,0.7 F,0,247377,,0
Sprite,Foreground,Centre,"sb\f\_00c.png",395.0001,98.33335 F,0,247377,,1 S,0,247377,,0.5 R,0,247377,,6.283185 S,19,247377,247608,0.25,0.7 F,0,247608,,0
Sprite,Foreground,Centre,"sb\f\_00c.png",300,123.3333 F,0,247608,,1 S,0,247608,,0.5 R,0,247608,,7.283185 S,19,247608,247839,0.25,0.7 F,0,247839,,0
Sprite,Foreground,Centre,"sb\f\_00c.png",340,123.3333 F,0,247839,,1 S,0,247839,,0.5 R,0,247839,,5.283185 S,19,247839,247954,0.25,0.7 F,0,247954,,0
Sprite,Foreground,Centre,"sb\f\_00c.png",320,133.3333 F,0,247954,,1 S,0,247954,,0.5 R,0,247954,,6.283185 S,19,247954,248069,0.25,0.7 F,0,248069,,0
Sprite,Foreground,Centre,"sb\f\_00d.png",320,103.3333 F,0,248069,,1 S,0,248069,,0.5 R,0,248069,,6.283185 S,19,248069,248300,0.25,0.7 S,18,248300,248531,0.7,0.25 F,0,248531,,0
Sprite,Foreground,Centre,"sb\f\_00e.png",320,103.3333 F,0,248531,,1 S,0,248531,,0.5 R,0,248531,,6.283185 S,19,248531,248762,0.25,0.7 S,18,248762,248992,0.7,0.25 F,0,248992,,0
Sprite,Foreground,Centre,"sb\f\_008.png",386.3953,218.3334 F,0,245300,,1 S,0,245300,,0.5 R,0,245300,,2.094395 S,30,245300,245531,0.25,0.9 S,18,245531,245762,0.9,0.25 F,0,245762,,0
Sprite,Foreground,Centre,"sb\f\_009.png",386.3953,218.3334 F,0,245762,,1 S,0,245762,,0.5 R,0,245762,,2.094395 S,19,245762,245993,0.25,0.8 S,18,245993,246223,0.8,0.25 F,0,246223,,0
Sprite,Foreground,Centre,"sb\f\_00a.png",386.3953,218.3334 F,0,246223,,1 S,0,246223,,0.5 R,0,246223,,2.094395 S,19,246223,246454,0.25,0.6 S,18,246454,246685,0.6,0.25 F,0,246685,,0
Sprite,Foreground,Centre,"sb\f\_00b.png",386.3953,218.3334 F,0,246685,,1 S,0,246685,,0.5 R,0,246685,,2.094395 S,19,246685,246916,0.25,0.7 S,18,246916,247146,0.7,0.25 F,0,247146,,0
Sprite,Foreground,Centre,"sb\f\_00c.png",430.7254,151.5513 F,0,247146,,1 S,0,247146,,0.5 R,0,247146,,2.094395 S,19,247146,247377,0.25,0.7 F,0,247377,,0
Sprite,Foreground,Centre,"sb\f\_00c.png",353.2254,285.7853 F,0,247377,,1 S,0,247377,,0.5 R,0,247377,,2.094395 S,19,247377,247608,0.25,0.7 F,0,247608,,0
Sprite,Foreground,Centre,"sb\f\_00c.png",379.0748,191.0128 F,0,247608,,1 S,0,247608,,0.5 R,0,247608,,3.094395 S,19,247608,247839,0.25,0.7 F,0,247839,,0
Sprite,Foreground,Centre,"sb\f\_00c.png",359.0748,225.6539 F,0,247839,,1 S,0,247839,,0.5 R,0,247839,,1.094395 S,19,247839,247954,0.25,0.7 F,0,247954,,0
Sprite,Foreground,Centre,"sb\f\_00c.png",360.4145,203.3334 F,0,247954,,1 S,0,247954,,0.5 R,0,247954,,2.094395 S,19,247954,248069,0.25,0.7 F,0,248069,,0
Sprite,Foreground,Centre,"sb\f\_00d.png",386.3953,218.3334 F,0,248069,,1 S,0,248069,,0.5 R,0,248069,,2.094395 S,19,248069,248300,0.25,0.7 S,18,248300,248531,0.7,0.25 F,0,248531,,0
Sprite,Foreground,Centre,"sb\f\_00e.png",386.3953,218.3334 F,0,248531,,1 S,0,248531,,0.5 R,0,248531,,2.094395 S,19,248531,248762,0.25,0.7 S,18,248762,248992,0.7,0.25 F,0,248992,,0
Sprite,Foreground,Centre,"sb\f\_008.png",253.6047,218.3333 F,0,245300,,1 S,0,245300,,0.5 R,0,245300,,4.18879 S,30,245300,245531,0.25,0.9 S,18,245531,245762,0.9,0.25 F,0,245762,,0
Sprite,Foreground,Centre,"sb\f\_009.png",253.6047,218.3333 F,0,245762,,1 S,0,245762,,0.5 R,0,245762,,4.18879 S,19,245762,245993,0.25,0.8 S,18,245993,246223,0.8,0.25 F,0,246223,,0
Sprite,Foreground,Centre,"sb\f\_00a.png",253.6047,218.3333 F,0,246223,,1 S,0,246223,,0.5 R,0,246223,,4.18879 S,19,246223,246454,0.25,0.6 S,18,246454,246685,0.6,0.25 F,0,246685,,0
Sprite,Foreground,Centre,"sb\f\_00b.png",253.6047,218.3333 F,0,246685,,1 S,0,246685,,0.5 R,0,246685,,4.18879 S,19,246685,246916,0.25,0.7 S,18,246916,247146,0.7,0.25 F,0,247146,,0
Sprite,Foreground,Centre,"sb\f\_00c.png",289.2746,290.1153 F,0,247146,,1 S,0,247146,,0.5 R,0,247146,,4.18879 S,19,247146,247377,0.25,0.7 F,0,247377,,0
Sprite,Foreground,Centre,"sb\f\_00c.png",211.7746,155.8814 F,0,247377,,1 S,0,247377,,0.5 R,0,247377,,4.18879 S,19,247377,247608,0.25,0.7 F,0,247608,,0
Sprite,Foreground,Centre,"sb\f\_00c.png",280.9252,225.6538 F,0,247608,,1 S,0,247608,,0.5 R,0,247608,,5.18879 S,19,247608,247839,0.25,0.7 F,0,247839,,0
Sprite,Foreground,Centre,"sb\f\_00c.png",260.9252,191.0128 F,0,247839,,1 S,0,247839,,0.5 R,0,247839,,3.18879 S,19,247839,247954,0.25,0.7 F,0,247954,,0
Sprite,Foreground,Centre,"sb\f\_00c.png",279.5855,203.3333 F,0,247954,,1 S,0,247954,,0.5 R,0,247954,,4.18879 S,19,247954,248069,0.25,0.7 F,0,248069,,0
Sprite,Foreground,Centre,"sb\f\_00d.png",253.6047,218.3333 F,0,248069,,1 S,0,248069,,0.5 R,0,248069,,4.18879 S,19,248069,248300,0.25,0.7 S,18,248300,248531,0.7,0.25 F,0,248531,,0
Sprite,Foreground,Centre,"sb\f\_00e.png",253.6047,218.3333 F,0,248531,,1 S,0,248531,,0.5 R,0,248531,,4.18879 S,19,248531,248762,0.25,0.7 S,18,248762,248992,0.7,0.25 F,0,248992,,0
Sprite,Foreground,Centre,"sb\f\_00f.png",300,103.3333 F,0,265607,,1 S,0,265607,,0.5 R,0,265607,,6.383185 S,19,265607,266068,0,0.5 F,0,266530,,0
Sprite,Foreground,Centre,"sb\f\_007.png",335,130.3333 F,0,266068,,1 S,0,266068,,0.5 R,0,266068,,6.183186 S,19,266068,266530,0,0.5 F,0,266530,,0
Sprite,Foreground,Centre,"sb\f\_004.png",320,103.3333 F,0,266530,,1 S,0,266530,,0.5 R,0,266530,,6.283185 S,19,266530,266992,1,0.8 F,0,266992,,0
Sprite,Foreground,Centre,"sb\f\_00f.png",396.3953,201.0128 F,0,265607,,1 S,0,265607,,0.5 R,0,265607,,2.194395 S,19,265607,266068,0,0.5 F,0,266530,,0
Sprite,Foreground,Centre,"sb\f\_007.png",355.5126,217.8237 F,0,266068,,1 S,0,266068,,0.5 R,0,266068,,1.994395 S,19,266068,266530,0,0.5 F,0,266530,,0
Sprite,Foreground,Centre,"sb\f\_004.png",386.3953,218.3334 F,0,266530,,1 S,0,266530,,0.5 R,0,266530,,2.094395 S,19,266530,266992,1,0.8 F,0,266992,,0
Sprite,Foreground,Centre,"sb\f\_00f.png",263.6047,235.6538 F,0,265607,,1 S,0,265607,,0.5 R,0,265607,,4.28879 S,19,265607,266068,0,0.5 F,0,266530,,0
Sprite,Foreground,Centre,"sb\f\_007.png",269.4874,191.8429 F,0,266068,,1 S,0,266068,,0.5 R,0,266068,,4.08879 S,19,266068,266530,0,0.5 F,0,266530,,0
Sprite,Foreground,Centre,"sb\f\_004.png",253.6047,218.3333 F,0,266530,,1 S,0,266530,,0.5 R,0,266530,,4.18879 S,19,266530,266992,1,0.8 F,0,266992,,0
Sprite,Foreground,Centre,"sb\flash_gradient.png",320,240 F,0,0,,0 C,0,0,,139,0,0 P,0,0,314414,A F,3,46782,47182,0.5,0 F,3,50532,50932,0.5,0 F,3,54166,54566,0.5,0 F,3,57859,58259,0.5,0 F,3,61551,61951,0.5,0 F,3,65301,65701,0.5,0 F,3,68935,69335,0.5,0 F,3,89301,89701,0.5,0 F,3,92993,93393,0.5,0 F,3,96685,97085,0.5,0 F,3,104070,104470,0.5,0 F,3,107762,108162,0.5,0 F,3,111454,111854,0.5,0 F,3,115147,115547,0.5,0 F,3,118839,119239,0.5,0 F,3,122532,122932,0.5,0 F,3,126224,126624,0.5,0 F,3,129916,130316,0.5,0 F,3,133608,134008,0.5,0 F,3,140993,141393,0.5,0 F,3,144685,145085,0.5,0 F,3,148378,148778,0.5,0 F,3,150224,150624,0.5,0 F,3,152070,152470,0.5,0 F,3,153916,154316,0.5,0 F,3,157609,158009,0.5,0 F,3,161301,161701,0.5,0 F,3,190839,191239,0.5,0 F,3,194532,194932,0.5,0 F,3,198224,198624,0.5,0 F,3,201916,202316,0.5,0 F,3,221300,221700,0.5,0 F,3,224992,225392,0.5,0 F,3,228685,229085,0.5,0 F,3,232377,232777,0.5,0 F,3,236300,236700,0.5,0 F,3,243685,244085,0.5,0 F,3,247377,247777,0.5,0 F,3,250838,251238,0.5,0 F,3,252685,253085,0.5,0 F,3,254531,254931,0.5,0 F,3,256377,256777,0.5,0 F,3,258223,258623,0.5,0 F,3,260069,260469,0.5,0 F,3,261915,262315,0.5,0 F,3,263761,264161,0.5,0
Sprite,Foreground,Centre,"sb\pl2.png",0,0 C,0,11301,,255,15,21 M,0,11301,11358,373,202,389.3127,232.6263 F,2,11301,11616,1,0 S,2,11301,11616,1,0.2 P,0,11301,11616,A M,0,11358,11416,389.3127,232.6263,390.1464,267.3318
Sprite,Foreground,Centre,"sb\pl2.png",0,0 C,0,11531,,255,15,21 M,0,11531,11588,255,297,240.2019,265.7159 F,2,11531,11846,1,0 S,2,11531,11846,1,0.2 P,0,11531,11846,A M,0,11588,11646,240.2019,265.7159,241.3832,230.9689
Sprite,Foreground,Centre,"sb\pl2.png",0,0 C,0,15166,,255,15,21 M,0,15166,15223,430,113,394.2682,109.9833 F,2,15166,15596,1,0 S,2,15166,15596,1,0.2 P,0,15166,15596,A M,0,15223,15281,394.2682,109.9833,359.0616,116.6498 M,0,15281,15339,359.0616,116.6498,326.9281,132.491 M,0,15339,15396,326.9281,132.491,300.3816,156.5594
Sprite,Foreground,Centre,"sb\pl2.png",0,0 C,0,18224,,255,15,21 M,0,18224,18281,352,203,372.5537,229.8396 F,2,18224,18654,1,0 S,2,18224,18654,1,0.2 P,0,18224,18654,A M,0,18281,18339,372.5537,229.8396,382.5424,262.1857 M,0,18339,18397,382.5424,262.1857,376.7685,265.6552 M,0,18397,18454,376.7685,265.6552,351.0981,243.8895
Sprite,Foreground,Centre,"sb\pl2.png",0,0 C,0,18570,,255,15,21 M,0,18570,18627,245,225,257.8085,193.7322 F,2,18570,19000,1,0 S,2,18570,19000,1,0.2 P,0,18570,19000,A M,0,18627,18685,257.8085,193.7322,280.8466,168.9232 M,0,18685,18743,280.8466,168.9232,286.0237,173.0218 M,0,18743,18800,286.0237,173.0218,280.4043,206.2178
Sprite,Foreground,Centre,"sb\pl2.png",0,0 C,0,18916,,255,15,21 M,0,18916,18973,319,310,285.4989,314.5979 F,2,18916,19346,1,0 S,2,18916,19346,1,0.2 P,0,18916,19346,A M,0,18973,19031,285.4989,314.5979,252.3954,307.5012 M,0,19031,19089,252.3954,307.5012,251.8891,300.769 M,0,19089,19146,251.8891,300.769,283.4109,289.0024
Sprite,Foreground,Centre,"sb\pl2.png",0,0 C,0,22551,,255,15,21 M,0,22551,22608,97,387,126.6971,366.8354 F,2,22551,22981,1,0 S,2,22551,22981,1,0.2 P,0,22551,22981,A M,0,22608,22666,126.6971,366.8354,160.256,354.1534 M,0,22666,22724,160.256,354.1534,195.8351,349.5217 M,0,22724,22781,195.8351,349.5217,231.4848,353.6043
Sprite,Foreground,Centre,"sb\pl2.png",0,0 C,0,25608,,255,15,21 M,0,25608,25665,191,373,219.532,394.483 F,2,25608,25923,1,0 S,2,25608,25923,1,0.2 P,0,25608,25923,A M,0,25665,25723,219.532,394.483,253.9721,403.9969
Sprite,Foreground,Centre,"sb\pl2.png",0,0 C,0,25839,,255,15,21 M,0,25839,25896,231,254,266.7452,254.1868 F,2,25839,26154,1,0 S,2,25839,26154,1,0.2 P,0,25839,26154,A M,0,25896,25954,266.7452,254.1868,299,268
Sprite,Foreground,Centre,"sb\pl2.png",0,0 C,0,26070,,255,15,21 M,0,26070,26127,139,426,121.9179,394.5872 F,2,26070,26385,1,0 S,2,26070,26385,1,0.2 P,0,26070,26385,A M,0,26127,26185,121.9179,394.5872,118,360
Sprite,Foreground,Centre,"sb\pl2.png",0,0 C,0,26301,,255,15,21 M,0,26301,26358,222,177,189.0727,191.0101 F,2,26301,26616,1,0 S,2,26301,26616,1,0.2 P,0,26301,26616,A M,0,26358,26416,189.0727,191.0101,164,215
Sprite,Foreground,Centre,"sb\pl2.png",0,0 C,0,32993,,255,15,21 M,0,32993,33050,412,200,378.6954,194.5031 F,2,32993,33423,1,0 S,2,32993,33423,1,0.2 P,0,32993,33423,A M,0,33050,33108,378.6954,194.5031,352.0334,174.0427 M,0,33108,33166,352.0334,174.0427,374.0917,148.7061 M,0,33166,33223,374.0917,148.7061,405.0385,135.0465
Sprite,Foreground,Centre,"sb\pl2.png",0,0 C,0,33339,,255,15,21 M,0,33339,33396,531,183,542.5667,214.7285 F,2,33339,33769,1,0 S,2,33339,33769,1,0.2 P,0,33339,33769,A M,0,33396,33454,542.5667,214.7285,537.9875,248.001 M,0,33454,33512,537.9875,248.001,504.7351,242.8828 M,0,33512,33569,504.7351,242.8828,478.1523,222.1829
Sprite,Foreground,Centre,"sb\pl2.png",0,0 C,0,33685,,255,15,21 M,0,33685,33742,456,89,477.4053,62.94154 F,2,33685,34115,1,0 S,2,33685,34115,1,0.2 P,0,33685,34115,A M,0,33742,33800,477.4053,62.94154,508.4303,51.63267 M,0,33800,33858,508.4303,51.63267,519.8925,83.24153 M,0,33858,33915,519.8925,83.24153,515,116
Sprite,Foreground,Centre,"sb\pl2.png",0,0 C,0,46551,,255,15,21 M,0,46551,46608,249,383,218.7545,363.7108 F,2,46551,46981,1,0 S,2,46551,46981,1,0.2 P,0,46551,46981,A M,0,46608,46666,218.7545,363.7108,184.6023,352.8159 M,0,46666,46724,184.6023,352.8159,148.8036,350.9491 M,0,46724,46781,148.8036,350.9491,113.7111,358.4201
Sprite,Foreground,Centre,"sb\pl2.png",0,0 C,0,49608,,255,15,21 M,0,49608,49665,392,201,417.6979,179.8316 F,2,49608,50038,1,0 S,2,49608,50038,1,0.2 P,0,49608,50038,A M,0,49665,49723,417.6979,179.8316,427.8047,147.6195 M,0,49723,49781,427.8047,147.6195,460.0746,143.7417 M,0,49781,49838,460.0746,143.7417,484.3867,121.6839
Sprite,Foreground,Centre,"sb\pl2.png",0,0 C,0,49954,,255,15,21 M,0,49954,50011,429,286,398.2348,273.1714 F,2,49954,50384,1,0 S,2,49954,50384,1,0.2 P,0,49954,50384,A M,0,50011,50069,398.2348,273.1714,365.2294,280.0245 M,0,50069,50127,365.2294,280.0245,345.4184,254.9988 M,0,50127,50184,345.4184,254.9988,314.5073,243.7543
Sprite,Foreground,Centre,"sb\pl2.png",0,0 C,0,50301,,255,15,21 M,0,50301,50358,485,215,489.85,247.8504 F,2,50301,50731,1,0 S,2,50301,50731,1,0.2 P,0,50301,50731,A M,0,50358,50416,489.85,247.8504,511.4341,272.8284 M,0,50416,50474,511.4341,272.8284,497.9952,303.7554 M,0,50474,50531,497.9952,303.7554,506.8264,335.5045
Sprite,Foreground,Centre,"sb\pl2.png",0,0 C,0,53935,,255,15,21 M,0,53935,53992,329,289,358.4464,268.4822 F,2,53935,54365,1,0 S,2,53935,54365,1,0.2 P,0,53935,54365,A M,0,53992,54050,358.4464,268.4822,391.9026,255.5489 M,0,54050,54108,391.9026,255.5489,427.4666,250.9232 M,0,54108,54165,427.4666,250.9232,463.093,255.0896
Sprite,Foreground,Centre,"sb\pl2.png",0,0 C,0,57628,,255,15,21 M,0,57628,57685,327,140,300.5015,164.0647 F,2,57628,58058,1,0 S,2,57628,58058,1,0.2 P,0,57628,58058,A M,0,57685,57743,300.5015,164.0647,267.7111,178.3234 M,0,57743,57801,267.7111,178.3234,232.0887,181.3026 M,0,57801,57858,232.0887,181.3026,197.4617,172.3846
Sprite,Foreground,Centre,"sb\pl2.png",0,0 C,0,61320,,255,15,21 M,0,61320,61377,405,303,376.898,280.7903 F,2,61320,61750,1,0 S,2,61320,61750,1,0.2 P,0,61320,61750,A M,0,61377,61435,376.898,280.7903,343.3613,268.3132 M,0,61435,61493,343.3613,268.3132,307.6042,266.5156 M,0,61493,61550,307.6042,266.5156,273.0817,276.121
Sprite,Foreground,Centre,"sb\pl2.png",0,0 C,0,64378,,255,15,21 M,0,64378,64435,270,113,289.5118,88.71704 F,2,64378,64808,1,0 S,2,64378,64808,1,0.2 P,0,64378,64808,A M,0,64435,64493,289.5118,88.71704,315.2083,109.5976 M,0,64493,64551,315.2083,109.5976,318.6386,142.6804 M,0,64551,64608,318.6386,142.6804,306.0095,174.1183
Sprite,Foreground,Centre,"sb\pl2.png",0,0 C,0,64724,,255,15,21 M,0,64724,64781,205,240,173.8239,235.5642 F,2,64724,65154,1,0 S,2,64724,65154,1,0.2 P,0,64724,65154,A M,0,64781,64839,173.8239,235.5642,178.0283,202.8577 M,0,64839,64897,178.0283,202.8577,204.6038,182.9084 M,0,64897,64954,204.6038,182.9084,238.1135,177.9596
Sprite,Foreground,Centre,"sb\pl2.png",0,0 C,0,65070,,255,15,21 M,0,65070,65127,352,237,362.551,266.0333 F,2,65070,65500,1,0 S,2,65070,65500,1,0.2 P,0,65070,65500,A M,0,65127,65185,362.551,266.0333,331.4331,277.3038 M,0,65185,65243,331.4331,277.3038,301.3092,263.142 M,0,65243,65300,301.3092,263.142,280.5959,236.3237
Sprite,Foreground,Centre,"sb\pl2.png",0,0 C,0,68704,,255,15,21 M,0,68704,68761,115,369,137.9978,341.4639 F,2,68704,69134,1,0 S,2,68704,69134,1,0.2 P,0,68704,69134,A M,0,68761,68819,137.9978,341.4639,153.029,308.9134 M,0,68819,68877,153.029,308.9134,159.0699,273.588 M,0,68877,68934,159.0699,273.588,156,238
Sprite,Foreground,Centre,"sb\pl2.png",0,0 C,0,89070,,255,15,21 M,0,89070,89127,237,330,203.0385,383.5081 F,2,89070,89443,1,0 S,2,89070,89443,1,0.2 P,0,89070,89443,A M,0,89127,89185,203.0385,383.5081,146.5604,355.3681 M,0,89185,89243,146.5604,355.3681,169.3575,296.134
Sprite,Foreground,Centre,"sb\pl2.png",0,0 C,0,92762,,255,15,21 M,0,92762,92819,509,209,523.7261,270.5684 F,2,92762,93135,1,0 S,2,92762,93135,1,0.2 P,0,92762,93135,A M,0,92819,92877,523.7261,270.5684,463.9829,290.1024 M,0,92877,92935,463.9829,290.1024,439.5327,232.1832
Sprite,Foreground,Centre,"sb\pl2.png",0,0 C,0,96454,,255,15,21 M,0,96454,96511,244,346,221.762,286.5883 F,2,96454,96827,1,0 S,2,96454,96827,1,0.2 P,0,96454,96827,A M,0,96511,96569,221.762,286.5883,278.1624,258.0581 M,0,96569,96627,278.1624,258.0581,311.7985,311.5345
Sprite,Foreground,Centre,"sb\pl2.png",0,0 C,0,104070,,255,15,21 M,0,104070,104127,362,298,354.5621,363.001 F,2,104070,104500,1,0 S,2,104070,104500,1,0.2 P,0,104070,104500,A M,0,104127,104185,354.5621,363.001,291.2604,378.7623 M,0,104185,104243,291.2604,378.7623,254.5661,324.502 M,0,104243,104300,254.5661,324.502,293.4088,271.9106
Sprite,Foreground,Centre,"sb\pl2.png",0,0 C,0,107762,,255,15,21 M,0,107762,107819,315,408,275.9254,355.523 F,2,107762,108192,1,0 S,2,107762,108192,1,0.2 P,0,107762,108192,A M,0,107819,107877,275.9254,355.523,311.2534,300.7122 M,0,107877,107935,311.2534,300.7122,375.075,315.0862 M,0,107935,107992,375.075,315.0862,383.3794,380.1748
Sprite,Foreground,Centre,"sb\pl2.png",0,0 C,0,111454,,255,15,21 M,0,111454,111511,167,399,101.9077,391.7503 F,2,111454,111884,1,0 S,2,111454,111884,1,0.2 P,0,111454,111884,A M,0,111511,111569,101.9077,391.7503,85.3387,328.5693 M,0,111569,111627,85.3387,328.5693,138.8672,290.6381 M,0,111627,111684,138.8672,290.6381,193.078,327.7782
Sprite,Foreground,Centre,"sb\pl2.png",0,0 C,0,115147,,255,15,21 M,0,115147,115204,277,308,229.4662,262.9805 F,2,115147,115577,1,0 S,2,115147,115577,1,0.2 P,0,115147,115577,A M,0,115204,115262,229.4662,262.9805,254.5368,202.7217 M,0,115262,115320,254.5368,202.7217,319.9924,205.1806 M,0,115320,115377,319.9924,205.1806,340.3522,267.6096
Sprite,Foreground,Centre,"sb\pl2.png",0,0 C,0,118608,,255,15,21 M,0,118608,118665,261,123,277.2316,91.1351 F,2,118608,118981,1,0 S,2,118608,118981,1,0.2 P,0,118608,118981,A M,0,118665,118723,277.2316,91.1351,310.5417,102.1757 M,0,118723,118781,310.5417,102.1757,303.623,136.9379
Sprite,Foreground,Centre,"sb\pl2.png",0,0 C,0,122301,,255,15,21 M,0,122301,122358,472,221,454.7616,252.428 F,2,122301,122674,1,0 S,2,122301,122674,1,0.2 P,0,122301,122674,A M,0,122358,122416,454.7616,252.428,421.6198,240.753 M,0,122416,122474,421.6198,240.753,428.4482,205.6073
Sprite,Foreground,Centre,"sb\pl2.png",0,0 C,0,125993,,255,15,21 M,0,125993,126050,395,203,386.7041,168.0771 F,2,125993,126366,1,0 S,2,125993,126366,1,0.2 P,0,125993,126366,A M,0,126050,126108,386.7041,168.0771,419.0592,154.0743 M,0,126108,126166,419.0592,154.0743,438.24,184.4665
Sprite,Foreground,Centre,"sb\pl2.png",0,0 C,0,129685,,255,15,21 M,0,129685,129742,315,329,324.5078,362.0748 F,2,129685,130058,1,0 S,2,129685,130058,1,0.2 P,0,129685,130058,A M,0,129742,129800,324.5078,362.0748,294.9149,379.0775 M,0,129800,129858,294.9149,379.0775,272.9686,353.0111
Sprite,Foreground,Centre,"sb\pl2.png",0,0 C,0,133608,,255,15,21 M,0,133608,133665,529,330,552.3939,389.5836 F,2,133608,133981,1,0 S,2,133608,133981,1,0.2 P,0,133608,133981,A M,0,133665,133723,552.3939,389.5836,498.0952,423.0242 M,0,133723,133781,498.0952,423.0242,455.7307,374.884
Sprite,Foreground,Centre,"sb\pl2.png",0,0 C,0,140993,,255,15,21 M,0,140993,141050,494,143,530.3835,90.25586 F,2,140993,141366,1,0 S,2,140993,141366,1,0.2 P,0,140993,141366,A M,0,141050,141108,530.3835,90.25586,588.7946,116.2683 M,0,141108,141166,588.7946,116.2683,572.7855,178.1234
Sprite,Foreground,Centre,"sb\pl2.png",0,0 C,0,144685,,255,15,21 M,0,144685,144742,401,344,364.6165,396.7441 F,2,144685,145058,1,0 S,2,144685,145058,1,0.2 P,0,144685,145058,A M,0,144742,144800,364.6165,396.7441,306.2054,370.7317 M,0,144800,144858,306.2054,370.7317,322.2145,308.8766
Sprite,Foreground,Centre,"sb\pl2.png",0,0 C,0,148147,,255,15,21 M,0,148147,148204,450,301,430.268,266.4174 F,2,148147,148520,1,0 S,2,148147,148520,1,0.2 P,0,148147,148520,A M,0,148204,148262,430.268,266.4174,421.2632,227.668 M,0,148262,148320,421.2632,227.668,423.9726,187.9697
Sprite,Foreground,Centre,"sb\pl2.png",0,0 C,0,149993,,255,15,21 M,0,149993,150050,141,184,172.5616,208.2994 F,2,149993,150366,1,0 S,2,149993,150366,1,0.2 P,0,149993,150366,A M,0,150050,150108,172.5616,208.2994,209.5505,222.99 M,0,150108,150166,209.5505,222.99,249.1773,226.7298
Sprite,Foreground,Centre,"sb\pl2.png",0,0 C,0,151839,,255,15,21 M,0,151839,151896,112,304,136.2994,272.4384 F,2,151839,152212,1,0 S,2,151839,152212,1,0.2 P,0,151839,152212,A M,0,151896,151954,136.2994,272.4384,150.99,235.4495 M,0,151954,152012,150.99,235.4495,154.7298,195.8227
Sprite,Foreground,Centre,"sb\pl2.png",0,0 C,0,153685,,255,15,21 M,0,153685,153742,201,307,232.4849,331.3745 F,2,153685,154058,1,0 S,2,153685,154058,1,0.2 P,0,153685,154058,A M,0,153742,153800,232.4849,331.3745,269.5586,345.8398 M,0,153800,153858,269.5586,345.8398,309,349
Sprite,Foreground,Centre,"sb\pl2.png",0,0 C,0,157378,,255,15,21 M,0,157378,157435,358,121,388.956,95.98891 F,2,157378,157751,1,0 S,2,157378,157751,1,0.2 P,0,157378,157751,A M,0,157435,157493,388.956,95.98891,425.9932,81.53629 M,0,157493,157551,425.9932,81.53629,465.7075,78.97964
Sprite,Foreground,Centre,"sb\pl2.png",0,0 C,0,161070,,255,15,21 M,0,161070,161127,131,335,133.0859,372.4273 F,2,161070,161443,1,0 S,2,161070,161443,1,0.2 P,0,161070,161443,A M,0,161127,161185,133.0859,372.4273,166.7513,388.0132 M,0,161185,161243,166.7513,388.0132,196.283,364.8367
Sprite,Foreground,Centre,"sb\pl2.png",0,0 C,0,170531,,255,15,21 M,0,170531,170588,249,351,251.0362,392.8492 F,2,170531,170846,1,0 S,2,170531,170846,1,0.2 P,0,170531,170846,A M,0,170588,170646,251.0362,392.8492,281.7762,364.4266
Sprite,Foreground,Centre,"sb\pl2.png",0,0 C,0,170762,,255,15,21 M,0,170762,170819,220,226,183.4513,205.1949 F,2,170762,171077,1,0 S,2,170762,171077,1,0.2 P,0,170762,171077,A M,0,170819,170877,183.4513,205.1949,190.8593,245.3605
Sprite,Foreground,Centre,"sb\pl2.png",0,0 C,0,170993,,255,15,21 M,0,170993,171050,349,268,383.5654,244.515 F,2,170993,171308,1,0 S,2,170993,171308,1,0.2 P,0,170993,171308,A M,0,171050,171108,383.5654,244.515,343.6225,233.4795
Sprite,Foreground,Centre,"sb\pl2.png",168,323 C,0,171224,,255,15,21 F,2,171224,171424,1,0 S,2,171224,171424,1,0.2 P,0,171224,171424,A
Sprite,Foreground,Centre,"sb\pl2.png",109,266 C,0,171339,,255,15,21 F,2,171339,171539,1,0 S,2,171339,171539,1,0.2 P,0,171339,171539,A
Sprite,Foreground,Centre,"sb\pl2.png",0,0 C,0,171454,,255,15,21 M,0,171454,171511,103,351,128.3324,303.7138 F,2,171454,171769,1,0 S,2,171454,171769,1,0.2 P,0,171454,171769,A M,0,171511,171569,128.3324,303.7138,134.8475,250.4612
Sprite,Foreground,Centre,"sb\pl2.png",0,0 C,0,171685,,255,15,21 M,0,171685,171742,225,100,226.8224,153.6143 F,2,171685,172000,1,0 S,2,171685,172000,1,0.2 P,0,171685,172000,A M,0,171742,171800,226.8224,153.6143,248.3412,202.7125
Sprite,Foreground,Centre,"sb\pl2.png",0,0 C,0,171916,,255,15,21 M,0,171916,171973,531,157,482.1424,134.2742 F,2,171916,172346,1,0 S,2,171916,172346,1,0.2 P,0,171916,172346,A M,0,171973,172031,482.1424,134.2742,429.613,122.2683 M,0,172031,172089,429.613,122.2683,375.7326,121.8846 M,0,172089,172146,375.7326,121.8846,322.9689,132.7978
Sprite,Foreground,Centre,"sb\pl2.png",480,93 C,0,172262,,255,15,21 F,2,172262,172462,1,0 S,2,172262,172462,1,0.2 P,0,172262,172462,A
Sprite,Foreground,Centre,"sb\pl2.png",0,0 C,0,177916,,255,15,21 M,0,177916,177973,553,285,561.7162,244.0643 F,2,177916,178231,1,0 S,2,177916,178231,1,0.2 P,0,177916,178231,A M,0,177973,178031,561.7162,244.0643,525.0393,264.2308
Sprite,Foreground,Centre,"sb\pl2.png",0,0 C,0,178147,,255,15,21 M,0,178147,178204,396,306,360.8137,283.0638 F,2,178147,178462,1,0 S,2,178147,178462,1,0.2 P,0,178147,178462,A M,0,178204,178262,360.8137,283.0638,401.0006,271.0777
Sprite,Foreground,Centre,"sb\pl2.png",0,0 C,0,178378,,255,15,21 M,0,178378,178435,495,389,495.5669,431.4696 F,2,178378,178693,1,0 S,2,178378,178693,1,0.2 P,0,178378,178693,A M,0,178435,178493,495.5669,431.4696,462.3219,405.3924
Sprite,Foreground,Centre,"sb\pl2.png",331,386 C,0,178608,,255,15,21 F,2,178608,178808,1,0 S,2,178608,178808,1,0.2 P,0,178608,178808,A
Sprite,Foreground,Centre,"sb\pl2.png",251,338 C,0,178724,,255,15,21 F,2,178724,178924,1,0 S,2,178724,178924,1,0.2 P,0,178724,178924,A
Sprite,Foreground,Centre,"sb\pl2.png",0,0 C,0,178839,,255,15,21 M,0,178839,178896,321,306,294.0413,352.4057 F,2,178839,179154,1,0 S,2,178839,179154,1,0.2 P,0,178839,179154,A M,0,178896,178954,294.0413,352.4057,285,405
Sprite,Foreground,Centre,"sb\pl2.png",97,265 C,0,179070,,255,15,21 F,2,179070,179270,1,0 S,2,179070,179270,1,0.2 P,0,179070,179270,A
Sprite,Foreground,Centre,"sb\pl2.png",174,209 C,0,179186,,255,15,21 F,2,179186,179386,1,0 S,2,179186,179386,1,0.2 P,0,179186,179386,A
Sprite,Foreground,Centre,"sb\pl2.png",0,0 C,0,179301,,255,15,21 M,0,179301,179358,147,280,130.2777,229.3239 F,2,179301,179904,1,0 S,2,179301,179904,1,0.2 P,0,179301,179904,A M,0,179358,179416,130.2777,229.3239,147,280 M,0,179416,179474,147,280,130.2777,229.3239 M,0,179474,179531,130.2777,229.3239,147,280 M,0,179531,179589,147,280,130.2777,229.3239 M,0,179589,179647,130.2777,229.3239,147,280 M,0,179647,179704,147,280,130.2777,229.3239
Sprite,Foreground,Centre,"sb\pl2.png",0,0 C,0,272992,,255,15,21 M,0,272992,273049,300,325,258.5048,358.6091 F,2,272992,273307,1,0 S,2,272992,273307,1,0.2 P,0,272992,273307,A M,0,273049,273107,258.5048,358.6091,236.0038,348.6698
Sprite,Foreground,Centre,"sb\pl2.png",0,0 C,0,273223,,255,15,21 M,0,273223,273280,158,166,208.0687,184.5668 F,2,273223,273538,1,0 S,2,273223,273538,1,0.2 P,0,273223,273538,A M,0,273280,273338,208.0687,184.5668,209.5188,210.3248
Sprite,Foreground,Centre,"sb\pl2.png",0,0 C,0,273454,,255,15,21 M,0,273454,273511,97,363,88.52737,310.2346 F,2,273454,273769,1,0 S,2,273454,273769,1,0.2 P,0,273454,273769,A M,0,273511,273569,88.52737,310.2346,107.9869,295.3163
Sprite,Foreground,Centre,"sb\pl2.png",281,243 C,0,273684,,255,15,21 F,2,273684,273884,1,0 S,2,273684,273884,1,0.2 P,0,273684,273884,A
Sprite,Foreground,Centre,"sb\pl2.png",373,306 C,0,273800,,255,15,21 F,2,273800,274000,1,0 S,2,273800,274000,1,0.2 P,0,273800,274000,A
Sprite,Foreground,Centre,"sb\pl2.png",0,0 C,0,273915,,255,15,21 M,0,273915,273972,321,221,301.0298,270.8391 F,2,273915,274230,1,0 S,2,273915,274230,1,0.2 P,0,273915,274230,A M,0,273972,274030,301.0298,270.8391,299.0761,324.4946
Sprite,Foreground,Centre,"sb\pl2.png",0,0 C,0,274146,,255,15,21 M,0,274146,274203,514,421,511.9074,367.3336 F,2,274146,274461,1,0 S,2,274146,274461,1,0.2 P,0,274146,274461,A M,0,274203,274261,511.9074,367.3336,492.2111,317.364
Sprite,Foreground,Centre,"sb\pl2.png",0,0 C,0,274377,,255,15,21 M,0,274377,274434,273,159,320.7465,184.0612 F,2,274377,274807,1,0 S,2,274377,274807,1,0.2 P,0,274377,274807,A M,0,274434,274492,320.7465,184.0612,372.0599,200.6384 M,0,274492,274550,372.0599,200.6384,425.4874,207.9328 M,0,274550,274607,425.4874,207.9328,479.3784,206.0356
Sprite,Foreground,Centre,"sb\pl2.png",321,221 C,0,274723,,255,15,21 F,2,274723,274923,1,0 S,2,274723,274923,1,0.2 P,0,274723,274923,A
Sprite,Foreground,Centre,"sb\pl2.png",0,0 C,0,280377,,255,15,21 M,0,280377,280434,397,378,372.8867,341.0191 F,2,280377,280692,1,0 S,2,280377,280692,1,0.2 P,0,280377,280692,A M,0,280434,280492,372.8867,341.0191,341.982,298.76
Sprite,Foreground,Centre,"sb\pl2.png",0,0 C,0,280607,,255,15,21 M,0,280607,280664,390,125,369.9677,163.6849 F,2,280607,280922,1,0 S,2,280607,280922,1,0.2 P,0,280607,280922,A M,0,280664,280722,369.9677,163.6849,347.8144,210.9799
Sprite,Foreground,Centre,"sb\pl2.png",0,0 C,0,280838,,255,15,21 M,0,280838,280895,173,256,217.0077,252.9368 F,2,280838,281153,1,0 S,2,280838,281153,1,0.2 P,0,280838,281153,A M,0,280895,280953,217.0077,252.9368,269.0488,248.4381
Sprite,Foreground,Centre,"sb\pl2.png",421,262 C,0,281069,,255,15,21 F,2,281069,281269,1,0 S,2,281069,281269,1,0.2 P,0,281069,281269,A
Sprite,Foreground,Centre,"sb\pl2.png",331,198 C,0,281184,,255,15,21 F,2,281184,281384,1,0 S,2,281184,281384,1,0.2 P,0,281184,281384,A
Sprite,Foreground,Centre,"sb\pl2.png",0,0 C,0,281300,,255,15,21 M,0,281300,281357,329,314,349.4848,264.5289 F,2,281300,281615,1,0 S,2,281300,281615,1,0.2 P,0,281300,281615,A M,0,281357,281415,349.4848,264.5289,348.0711,211.0421
Sprite,Foreground,Centre,"sb\pl2.png",151,166 C,0,281530,,255,15,21 F,2,281530,281730,1,0 S,2,281530,281730,1,0.2 P,0,281530,281730,A
Sprite,Foreground,Centre,"sb\pl2.png",240,102 C,0,281645,,255,15,21 F,2,281645,281845,1,0 S,2,281645,281845,1,0.2 P,0,281645,281845,A
Sprite,Foreground,Centre,"sb\pl2.png",0,0 C,0,281761,,255,15,21 M,0,281761,281818,130,56,119.2173,108.7177 F,2,281761,282191,1,0 S,2,281761,282191,1,0.2 P,0,281761,282191,A M,0,281818,281876,119.2173,108.7177,122.9329,162.3986 M,0,281876,281934,122.9329,162.3986,141.3336,212.9602 M,0,281934,281991,141.3336,212.9602,172.6079,256.7424
Sprite,Foreground,Centre,"sb\pl2.png",77,122 C,0,282107,,255,15,21 F,2,282107,282307,1,0 S,2,282107,282307,1,0.2 P,0,282107,282307,A
Sprite,Foreground,Centre,"sb\pl2.png",0,0 C,0,287761,,255,15,21 M,0,287761,287818,183,188,187.8804,142.9274 F,2,287761,288076,1,0 S,2,287761,288076,1,0.2 P,0,287761,288076,A M,0,287818,287876,187.8804,142.9274,227.8054,162.4095
Sprite,Foreground,Centre,"sb\pl2.png",0,0 C,0,287992,,255,15,21 M,0,287992,288049,286,341,243.6447,355.548 F,2,287992,288307,1,0 S,2,287992,288307,1,0.2 P,0,287992,288307,A M,0,288049,288107,243.6447,355.548,245.7071,311.4855
Sprite,Foreground,Centre,"sb\pl2.png",0,0 C,0,288223,,255,15,21 M,0,288223,288280,368,171,402.8179,199.3525 F,2,288223,288538,1,0 S,2,288223,288538,1,0.2 P,0,288223,288538,A M,0,288280,288338,402.8179,199.3525,364.1159,221.5743
Sprite,Foreground,Centre,"sb\pl2.png",228,162 C,0,288454,,255,15,21 F,2,288454,288654,1,0 S,2,288454,288654,1,0.2 P,0,288454,288654,A
Sprite,Foreground,Centre,"sb\pl2.png",156,96 C,0,288569,,255,15,21 F,2,288569,288769,1,0 S,2,288569,288769,1,0.2 P,0,288569,288769,A
Sprite,Foreground,Centre,"sb\pl2.png",0,0 C,0,288684,,255,15,21 M,0,288684,288741,183,188,203.3701,138.4998 F,2,288684,288999,1,0 S,2,288684,288999,1,0.2 P,0,288684,288999,A M,0,288741,288799,203.3701,138.4998,201.1354,85.07047
Sprite,Foreground,Centre,"sb\pl2.png",0,0 C,0,288915,,255,15,21 M,0,288915,288972,364,222,361.2885,275.4178 F,2,288915,289230,1,0 S,2,288915,289230,1,0.2 P,0,288915,289230,A M,0,288972,289030,361.2885,275.4178,381.8638,324.7975
Sprite,Foreground,Centre,"sb\pl2.png",0,0 C,0,289146,,255,15,21 M,0,289146,289203,558,166,511.1341,139.5263 F,2,289146,289576,1,0 S,2,289146,289576,1,0.2 P,0,289146,289576,A M,0,289203,289261,511.1341,139.5263,459.069,125.9055 M,0,289261,289319,459.069,125.9055,405.2552,126.3827 M,0,289319,289376,405.2552,126.3827,353.3448,140.5925
Sprite,Foreground,Centre,"sb\pl2.png",516,98 C,0,289492,,255,15,21 F,2,289492,289692,1,0 S,2,289492,289692,1,0.2 P,0,289492,289692,A
Sprite,Foreground,Centre,"sb\pl2.png",0,0 C,0,295146,,255,15,21 M,0,295146,295203,64,368,100.9403,340.0092 F,2,295146,295461,1,0 S,2,295146,295461,1,0.2 P,0,295146,295461,A M,0,295203,295261,100.9403,340.0092,116.1245,305.5559
Sprite,Foreground,Centre,"sb\pl2.png",0,0 C,0,295377,,255,15,21 M,0,295377,295434,225,194,229.949,240.1438 F,2,295377,295692,1,0 S,2,295377,295692,1,0.2 P,0,295377,295692,A M,0,295434,295492,229.949,240.1438,253.162,269.9628
Sprite,Foreground,Centre,"sb\pl2.png",0,0 C,0,295607,,255,15,21 M,0,295607,295664,299,422,256.3623,403.4602 F,2,295607,295922,1,0 S,2,295607,295922,1,0.2 P,0,295607,295922,A M,0,295664,295722,256.3623,403.4602,218.4982,406.9508
Sprite,Foreground,Centre,"sb\pl2.png",116,305 C,0,295838,,255,15,21 F,2,295838,296038,1,0 S,2,295838,296038,1,0.2 P,0,295838,296038,A
Sprite,Foreground,Centre,"sb\pl2.png",211,242 C,0,295954,,255,15,21 F,2,295954,296154,1,0 S,2,295954,296154,1,0.2 P,0,295954,296154,A
Sprite,Foreground,Centre,"sb\pl2.png",0,0 C,0,296069,,255,15,21 M,0,296069,296126,97,224,135.1479,260.9971 F,2,296069,296384,1,0 S,2,296069,296384,1,0.2 P,0,296069,296384,A M,0,296126,296184,135.1479,260.9971,187.2432,271.2607
Sprite,Foreground,Centre,"sb\pl2.png",330,178 C,0,296300,,255,15,21 F,2,296300,296500,1,0 S,2,296300,296500,1,0.2 P,0,296300,296500,A
Sprite,Foreground,Centre,"sb\pl2.png",447,229 C,0,296416,,255,15,21 F,2,296416,296616,1,0 S,2,296416,296616,1,0.2 P,0,296416,296616,A
Sprite,Foreground,Centre,"sb\pl2.png",0,0 C,0,296530,,255,15,21 M,0,296530,296587,356,205,407,194 F,2,296530,297133,1,0 S,2,296530,297133,1,0.2 P,0,296530,297133,A M,0,296587,296645,407,194,356,205 M,0,296645,296703,356,205,407,194 M,0,296703,296760,407,194,356,205 M,0,296760,296818,356,205,407,194 M,0,296818,296876,407,194,356,205 M,0,296876,296933,356,205,407,194
Sprite,Foreground,Centre,"sb\pl2.png",0,0 C,0,190608,,255,15,21 M,0,190608,190665,276,266,252.9444,216.4899 F,2,190608,190981,1,0 S,2,190608,190981,1,0.2 P,0,190608,190981,A M,0,190665,190723,252.9444,216.4899,298.3994,187.0397 M,0,190723,190781,298.3994,187.0397,334.3372,227.876
Sprite,Foreground,Centre,"sb\pl2.png",0,0 C,0,194301,,255,15,21 M,0,194301,194358,540,248,563.0557,297.5101 F,2,194301,194674,1,0 S,2,194301,194674,1,0.2 P,0,194301,194674,A M,0,194358,194416,563.0557,297.5101,517.6006,326.9603 M,0,194416,194474,517.6006,326.9603,481.6628,286.124
Sprite,Foreground,Centre,"sb\pl2.png",0,0 C,0,197993,,255,15,21 M,0,197993,198050,256,163,206.9548,138.5949 F,2,197993,198366,1,0 S,2,197993,198366,1,0.2 P,0,197993,198366,A M,0,198050,198108,206.9548,138.5949,175.9598,183.3222 M,0,198108,198166,175.9598,183.3222,215.612,220.812
Sprite,Foreground,Centre,"sb\pl2.png",0,0 C,0,201685,,255,15,21 M,0,201685,201742,504,175,454.9547,150.5949 F,2,201685,202058,1,0 S,2,201685,202058,1,0.2 P,0,201685,202058,A M,0,201742,201800,454.9547,150.5949,423.9598,195.3222 M,0,201800,201858,423.9598,195.3222,463.612,232.812
Sprite,Foreground,Centre,"sb\pl2.png",0,0 C,0,221069,,255,15,21 M,0,221069,221126,112,365,95.76845,396.8649 F,2,221069,221442,1,0 S,2,221069,221442,1,0.2 P,0,221069,221442,A M,0,221126,221184,95.76845,396.8649,62.45831,385.8243 M,0,221184,221242,62.45831,385.8243,69.37695,351.0621
Sprite,Foreground,Centre,"sb\pl2.png",0,0 C,0,224761,,255,15,21 M,0,224761,224818,328,170,318.1093,136.1081 F,2,224761,225134,1,0 S,2,224761,225134,1,0.2 P,0,224761,225134,A M,0,224818,224876,318.1093,136.1081,284.3727,143.4306 M,0,224876,224934,284.3727,143.4306,290.2942,177.7132
Sprite,Foreground,Centre,"sb\pl2.png",0,0 C,0,228454,,255,15,21 M,0,228454,228511,423,298,435.6334,331.5428 F,2,228454,228827,1,0 S,2,228454,228827,1,0.2 P,0,228454,228827,A M,0,228511,228569,435.6334,331.5428,405.1954,349.2683 M,0,228569,228627,405.1954,349.2683,383.1518,321.2434
Sprite,Foreground,Centre,"sb\pl2.png",0,0 C,0,232146,,255,15,21 M,0,232146,232203,190,346,177.3666,312.4572 F,2,232146,232519,1,0 S,2,232146,232519,1,0.2 P,0,232146,232519,A M,0,232203,232261,177.3666,312.4572,207.8046,294.7317 M,0,232261,232319,207.8046,294.7317,229.8482,322.7566
Sprite,Foreground,Centre,"sb\pl2.png",0,0 C,0,236069,,255,15,21 M,0,236069,236126,175,151,151.606,91.41638 F,2,236069,236442,1,0 S,2,236069,236442,1,0.2 P,0,236069,236442,A M,0,236126,236184,151.606,91.41638,205.9048,57.97583 M,0,236184,236242,205.9048,57.97583,248.2693,106.116
Sprite,Foreground,Centre,"sb\pl2.png",0,0 C,0,243454,,255,15,21 M,0,243454,243511,271,376,313.6019,423.7406 F,2,243454,243827,1,0 S,2,243454,243827,1,0.2 P,0,243454,243827,A M,0,243511,243569,313.6019,423.7406,367.8131,390.2125 M,0,243569,243627,367.8131,390.2125,344,331
Sprite,Foreground,Centre,"sb\pl2.png",0,0 C,0,247146,,255,15,21 M,0,247146,247203,488,358,504.6842,296.1863 F,2,247146,247519,1,0 S,2,247146,247519,1,0.2 P,0,247146,247519,A M,0,247203,247261,504.6842,296.1863,447.0554,268.8323 M,0,247261,247319,447.0554,268.8323,410,321
Sprite,Foreground,Centre,"sb\pl2.png",0,0 C,0,250607,,255,15,21 M,0,250607,250664,380,243,404.2993,211.4398 F,2,250607,250980,1,0 S,2,250607,250980,1,0.2 P,0,250607,250980,A M,0,250664,250722,404.2993,211.4398,419.0789,174.4735 M,0,250722,250780,419.0789,174.4735,423,135
Sprite,Foreground,Centre,"sb\pl2.png",0,0 C,0,252454,,255,15,21 M,0,252454,252511,304,214,272.4398,238.2993 F,2,252454,252827,1,0 S,2,252454,252827,1,0.2 P,0,252454,252827,A M,0,252511,252569,272.4398,238.2993,235.4735,253.0789 M,0,252569,252627,235.4735,253.0789,196,257
Sprite,Foreground,Centre,"sb\pl2.png",0,0 C,0,254300,,255,15,21 M,0,254300,254357,381,204,356.1427,172.8849 F,2,254300,254673,1,0 S,2,254300,254673,1,0.2 P,0,254300,254673,A M,0,254357,254415,356.1427,172.8849,341.0698,136.0599 M,0,254415,254473,341.0698,136.0599,336.9899,96.44547
Sprite,Foreground,Centre,"sb\pl2.png",0,0 C,0,256146,,255,15,21 M,0,256146,256203,392,283,422.8918,257.8878 F,2,256146,256519,1,0 S,2,256146,256519,1,0.2 P,0,256146,256519,A M,0,256203,256261,422.8918,257.8878,459.6776,242.7239 M,0,256261,256319,459.6776,242.7239,499,239
Sprite,Foreground,Centre,"sb\pl2.png",0,0 C,0,257992,,255,15,21 M,0,257992,258049,69,245,108.6274,248.6575 F,2,257992,258365,1,0 S,2,257992,258365,1,0.2 P,0,257992,258365,A M,0,258049,258107,108.6274,248.6575,145.3249,263.9812 M,0,258107,258165,145.3249,263.9812,175,289
Sprite,Foreground,Centre,"sb\pl2.png",0,0 C,0,259838,,255,15,21 M,0,259838,259895,292,269,309.9301,304.5526 F,2,259838,260211,1,0 S,2,259838,260211,1,0.2 P,0,259838,260211,A M,0,259895,259953,309.9301,304.5526,317.0709,343.699 M,0,259953,260011,317.0709,343.699,313,382
Sprite,Foreground,Centre,"sb\pl2.png",0,0 C,0,261684,,255,15,21 M,0,261684,261741,169,201,204.5526,218.9301 F,2,261684,262057,1,0 S,2,261684,262057,1,0.2 P,0,261684,262057,A M,0,261741,261799,204.5526,218.9301,243.699,226.0708 M,0,261799,261857,243.699,226.0708,282,222
Sprite,Foreground,Centre,"sb\pl2.png",0,0 C,0,263530,,255,15,21 M,0,263530,263587,568,293,555.353,257.238 F,2,263530,263903,1,0 S,2,263530,263903,1,0.2 P,0,263530,263903,A M,0,263587,263645,555.353,257.238,518.9425,248.0526 M,0,263645,263703,518.9425,248.0526,491.0982,273.7583
Sprite,Foreground,Centre,"sb\ring.png",136,207 F,0,131301,,1 S,0,131301,131801,0.2,0.8 F,7,131801,132301,1,0 S,7,131801,132301,0.8,1.4
Sprite,Foreground,Centre,"sb\ring.png",152,330 F,0,203301,,1 S,0,203301,203801,0.2,0.8 F,7,203801,204301,1,0 S,7,203801,204301,0.8,1.4
Sprite,Foreground,Centre,"sb\ring.png",503,146 F,0,314414,,1 S,0,314414,316014,0.2,1.6 F,7,315214,316014,1,0
Sprite,Foreground,Centre,"sb\pl.png",553,206 C,0,303453,,128,128,128 S,19,303453,303968,0,3 F,2,303453,306768,0.1,0 R,0,303453,306768,0,0.5 P,0,303453,306768,A S,2,303968,306768,3,2
Sprite,Foreground,Centre,"sb\pl.png",272,244 C,0,307145,,128,128,128 S,19,307145,307660,0,3 F,2,307145,310460,0.1,0 R,0,307145,310460,0,0.5 P,0,307145,310460,A S,2,307660,310460,3,2
Sprite,Foreground,Centre,"sb\pl.png",231,312 C,0,310837,,128,128,128 S,19,310837,311352,0,3 F,2,310837,314152,0.1,0 R,0,310837,314152,0,0.5 P,0,310837,314152,A S,2,311352,314152,3,2
Sprite,Foreground,Centre,"sb\ring.png",0,0 M,0,299761,,534,268 C,0,299761,,193,193,193 M,0,299761,299876,534,268,480.2758,262.5497 F,2,299761,300276,1,0 S,29,299761,300276,0.4273757,0.09086627 P,0,299761,300276,A M,0,300453,300452,432.2099,261.76 M,0,300453,,432.2099,261.76 C,0,300453,,193,193,193 F,2,300453,300852,1,0 S,29,300453,300852,0.4708094,0.07336573 P,0,300453,300852,A M,0,300914,,372.0023,178.2833 C,0,300914,,193,193,193 M,0,300914,301145,372.0023,178.2833,301,185 F,2,300914,301545,1,0 S,29,300914,301545,0.413763,0.09976736 P,0,300914,301545,A M,0,301607,,384,415 C,0,301607,,152,173,201 M,0,301607,301837,384,415,276.4509,405.1413 F,2,301607,302237,1,0 S,29,301607,302237,0.4065981,0.08438101 P,0,301607,302237,A M,0,302414,,171.1906,236.1742 M,0,302414,,171.1906,236.1742,171.5491,236.1413 C,0,302414,,152,173,201 F,2,302414,302814,1,0 S,29,302414,302814,0.4357302,0.08814818 P,0,302414,302814,A M,0,302991,,268.7438,140.3361 M,0,302991,,268.7438,140.3361,268.9457,140.6341 C,0,302991,,152,173,201 F,2,302991,303391,1,0 S,29,302991,303391,0.4881042,0.06367257 P,0,302991,303391,A M,0,303453,,553,206 C,0,303453,,193,193,193 M,0,303453,303568,553,206,546,259 F,2,303453,303968,1,0 S,29,303453,303968,0.4853175,0.06106574 P,0,303453,303968,A M,0,304145,304144,452.7421,328.5409 M,0,304145,,452.7421,328.5409 C,0,304145,,193,193,193 F,2,304145,304544,1,0 S,29,304145,304544,0.4141781,0.08398745 P,0,304145,304544,A M,0,304607,,385.1024,208.8068 C,0,304607,,193,193,193 M,0,304607,304837,385.1024,208.8068,396,280 F,2,304607,305237,1,0 S,29,304607,305237,0.491342,0.09192895 P,0,304607,305237,A M,0,305299,,268,345 C,0,305299,,152,173,201 M,0,305299,305529,268,345,160.2579,337.5409 F,2,305299,305929,1,0 S,29,305299,305929,0.4190537,0.05504677 P,0,305299,305929,A M,0,306107,306106,395.2579,279.4591 M,0,306107,,395.2579,279.4591 C,0,306107,,152,173,201 F,2,306107,306506,1,0 S,29,306107,306506,0.4459205,0.06627504 P,0,306107,306506,A M,0,306684,306683,398.8586,134.89 M,0,306684,,398.8586,134.89 C,0,306684,,152,173,201 F,2,306684,307083,1,0 S,29,306684,307083,0.4062459,0.06474984 P,0,306684,307083,A M,0,307145,,272,244 C,0,307145,,193,193,193 M,0,307145,307260,272,244,267,297 F,2,307145,307660,1,0 S,29,307145,307660,0.417939,0.0611259 P,0,307145,307660,A M,0,307837,,71.77903,407.5114 M,0,307837,,71.77903,407.5114,71.42043,407.4797 C,0,307837,,193,193,193 F,2,307837,308237,1,0 S,29,307837,308237,0.4933479,0.09500521 P,0,307837,308237,A M,0,308299,,133.66,227.9957 C,0,308299,,193,193,193 M,0,308299,308529,133.66,227.9957,126,301 F,2,308299,308929,1,0 S,29,308299,308929,0.439013,0.09765214 P,0,308299,308929,A M,0,308991,,330,391 C,0,308991,,152,173,201 M,0,308991,309221,330,391,437.5796,381.4797 F,2,308991,309621,1,0 S,29,308991,309621,0.4149515,0.05311542 P,0,308991,309621,A M,0,309799,309798,504.4797,435.5796 M,0,309799,,504.4797,435.5796 C,0,309799,,152,173,201 F,2,309799,310198,1,0 S,29,309799,310198,0.4719675,0.0753288 P,0,309799,310198,A M,0,310376,310375,292,359 M,0,310376,,292,359 C,0,310376,,152,173,201 F,2,310376,310775,1,0 S,29,310376,310775,0.4895841,0.08711645 P,0,310376,310775,A M,0,310837,,231,312 C,0,310837,,193,193,193 M,0,310837,310952,231,312,223.2272,258.5623 F,2,310837,311352,1,0 S,29,310837,311352,0.4384592,0.09152839 P,0,310837,311352,A M,0,311530,311529,375.5796,201.5203 M,0,311530,,375.5796,201.5203 C,0,311530,,193,193,193 F,2,311530,311929,1,0 S,29,311530,311929,0.4936563,0.06318419 P,0,311530,311929,A M,0,311991,,427,339 C,0,311991,,193,193,193 M,0,311991,312222,427,339,407,272 F,2,311991,312622,1,0 S,29,311991,312622,0.4029873,0.05388546 P,0,311991,312622,A M,0,312684,,416,136 C,0,312684,,152,173,201 M,0,312684,312914,416,136,308.46,126.0426 F,2,312684,313314,1,0 S,29,312684,313314,0.4698359,0.05322268 P,0,312684,313314,A M,0,313491,,254,205 M,0,313491,,254,205 C,0,313491,,152,173,201 F,2,313491,313891,1,0 S,29,313491,313891,0.45531,0.07255397 P,0,313491,313891,A M,0,314068,314067,268,348 M,0,314068,,268,348 C,0,314068,,152,173,201 F,2,314068,314467,1,0 S,29,314068,314467,0.4490539,0.09814448 P,0,314068,314467,A
Sprite,Foreground,Centre,"sb\ring.png",0,0 M,0,299876,,480.4548,262.5679 M,0,299876,,480.4548,262.5679,480.2758,262.5497 C,0,299876,,193,193,193 F,2,299876,300276,1,0 S,29,299876,300276,0.4231977,0.07790806 P,0,299876,300276,A M,0,300568,,441,148 C,0,300568,,193,193,193 F,2,300568,300968,1,0 S,29,300568,300968,0.4367341,0.07347559 P,0,300568,300968,A M,0,301145,,301.2495,185.0356 M,0,301145,,301.2495,185.0356,301,185 C,0,301145,,193,193,193 F,2,301145,301545,1,0 S,29,301145,301545,0.4322819,0.06572959 P,0,301145,301545,A M,0,301837,,276.8094,405.1742 M,0,301837,,276.8094,405.1742,276.4509,405.1413 C,0,301837,,152,173,201 F,2,301837,302237,1,0 S,29,301837,302237,0.4453185,0.0540555 P,0,301837,302237,A M,0,302530,,236,285 C,0,302530,,152,173,201 M,0,302530,302645,236,285,229.1975,338.5698 F,2,302530,303045,1,0 S,29,302530,303045,0.4969606,0.06905022 P,0,302530,303045,A M,0,303222,,478,416 C,0,303222,,152,173,201 M,0,303222,303337,478,416,471.0581,362.4481 F,2,303222,303737,1,0 S,29,303222,303737,0.4092902,0.08973828 P,0,303222,303737,A M,0,303799,,396,280 C,0,303799,,193,193,193 F,2,303799,304199,1,0 S,29,303799,304199,0.4805087,0.09390958 P,0,303799,304199,A M,0,304261,,268,345 C,0,304261,,193,193,193 F,2,304261,304661,1,0 S,29,304261,304661,0.4375134,0.06092034 P,0,304261,304661,A M,0,304837,,396.0207,279.7488 M,0,304837,,396.0207,279.7488,396,280 C,0,304837,,193,193,193 F,2,304837,305237,1,0 S,29,304837,305237,0.4829857,0.08220576 P,0,304837,305237,A M,0,305530,305529,160.2579,337.5409 M,0,305530,,160.2579,337.5409 C,0,305530,,152,173,201 F,2,305530,305929,1,0 S,29,305530,305929,0.4270906,0.08592253 P,0,305530,305929,A M,0,306222,,326,248 C,0,306222,,152,173,201 M,0,306222,306337,326,248,272.1325,244.2198 F,2,306222,306737,1,0 S,29,306222,306737,0.4328963,0.07341988 P,0,306222,306737,A M,0,306914,,407,406 C,0,306914,,152,173,201 M,0,306914,307029,407,406,402.322,352.203 F,2,306914,307429,1,0 S,29,306914,307429,0.4477215,0.08316964 P,0,306914,307429,A M,0,307491,,205,343 C,0,307491,,193,193,193 F,2,307491,307891,1,0 S,29,307491,307891,0.4369605,0.09638187 P,0,307491,307891,A M,0,307953,,134,376 C,0,307953,,193,193,193 F,2,307953,308353,1,0 S,29,307953,308353,0.4321494,0.0546989 P,0,307953,308353,A M,0,308530,308529,126,301 M,0,308530,,126,301 C,0,308530,,193,193,193 F,2,308530,308929,1,0 S,29,308530,308929,0.4509375,0.05740281 P,0,308530,308929,A M,0,309222,309221,437.5796,381.4797 M,0,309222,,437.5796,381.4797 C,0,309222,,152,173,201 F,2,309222,309621,1,0 S,29,309222,309621,0.4718353,0.0852488 P,0,309222,309621,A M,0,309914,,437,381 C,0,309914,,152,173,201 M,0,309914,310029,437,381,383.2066,385.7187 F,2,309914,310429,1,0 S,29,309914,310429,0.4468421,0.05285042 P,0,309914,310429,A M,0,310607,,113,433 C,0,310607,,152,173,201 M,0,310607,310722,113,433,120.7728,379.5623 F,2,310607,311122,1,0 S,29,310607,311122,0.4598124,0.09666963 P,0,310607,311122,A M,0,311184,,190,185 C,0,311184,,193,193,193 F,2,311184,311584,1,0 S,29,311184,311584,0.4390889,0.06253742 P,0,311184,311584,A M,0,311645,,452,208 C,0,311645,,193,193,193 F,2,311645,312045,1,0 S,29,311645,312045,0.415744,0.0784043 P,0,311645,312045,A M,0,312222,,407.0207,272.2512 M,0,312222,,407.0207,272.2512,407,272 C,0,312222,,193,193,193 F,2,312222,312622,1,0 S,29,312222,312622,0.4487033,0.05778827 P,0,312222,312622,A M,0,312914,,308.8185,126.0758 M,0,312914,,308.8185,126.0758,308.46,126.0426 C,0,312914,,152,173,201 F,2,312914,313314,1,0 S,29,312914,313314,0.4534297,0.07415371 P,0,312914,313314,A M,0,313607,,329,201 C,0,313607,,152,173,201 M,0,313607,313722,329,201,320.8569,254.3825 F,2,313607,314122,1,0 S,29,313607,314122,0.4980151,0.06944189 P,0,313607,314122,A M,0,314299,,503,146 C,0,314299,,152,173,201 F,2,314299,314699,1,0 S,29,314299,314699,0.4006428,0.0508435 P,0,314299,314699,A
Sprite,Foreground,Centre,"sb\ring.png",0,0 M,0,299991,,386,318 C,0,299991,,193,193,193 F,2,299991,300391,1,0 S,29,299991,300391,0.4793967,0.07794424 P,0,299991,300391,A M,0,300684,,301,185 C,0,300684,,193,193,193 M,0,300684,300914,301,185,371.7969,177.9876 F,2,300684,301545,1,0 S,29,300684,301545,0.4017849,0.05151835 P,0,300684,301545,A M,0,300914,301145,371.7969,177.9876,301,185 M,0,302068,,151,214 C,0,302068,,152,173,201 F,2,302068,302468,1,0 S,29,302068,302468,0.4812875,0.07266636 P,0,302068,302468,A M,0,302645,,229.2202,338.3913 M,0,302645,,229.2202,338.3913,229.1975,338.5698 C,0,302645,,152,173,201 F,2,302645,303045,1,0 S,29,302645,303045,0.4656858,0.09787276 P,0,302645,303045,A M,0,303337,,471.0812,362.6266 M,0,303337,,471.0812,362.6266,471.0581,362.4481 C,0,303337,,152,173,201 F,2,303337,303737,1,0 S,29,303337,303737,0.466284,0.07286044 P,0,303337,303737,A M,0,303914,,345,336 C,0,303914,,193,193,193 M,0,303914,304144,345,336,452.7421,328.5409 F,2,303914,304544,1,0 S,29,303914,304544,0.4174577,0.08676987 P,0,303914,304544,A M,0,305068,,209,392 C,0,305068,,193,193,193 M,0,305068,305183,209,392 F,2,305068,305583,1,0 S,29,305068,305583,0.4173186,0.06095938 P,0,305068,305583,A M,0,305761,,410,257 C,0,305761,,152,173,201 F,2,305761,306161,1,0 S,29,305761,306161,0.4874473,0.09525882 P,0,305761,306161,A M,0,306337,,272.312,244.2324 M,0,306337,,272.312,244.2324,272.1325,244.2198 C,0,306337,,152,173,201 F,2,306337,306737,1,0 S,29,306337,306737,0.4166503,0.09046019 P,0,306337,306737,A M,0,307030,307029,402.322,352.203 M,0,307030,,402.322,352.203 C,0,307030,,152,173,201 F,2,307030,307429,1,0 S,29,307030,307429,0.4667411,0.06433612 P,0,307030,307429,A M,0,307607,,179,417 C,0,307607,,193,193,193 M,0,307607,307837,179,417,71.42043,407.4797 F,2,307607,308237,1,0 S,29,307607,308237,0.4778658,0.09643538 P,0,307607,308237,A M,0,308761,,258,403 C,0,308761,,193,193,193 M,0,308761,308876,258,403 F,2,308761,309276,1,0 S,29,308761,309276,0.4322388,0.07849309 P,0,308761,309276,A M,0,309453,,520,250 C,0,309453,,152,173,201 F,2,309453,309853,1,0 S,29,309453,309853,0.404142,0.09944062 P,0,309453,309853,A M,0,310030,310029,383.2066,385.7187 M,0,310030,,383.2066,385.7187 C,0,310030,,152,173,201 F,2,310030,310429,1,0 S,29,310030,310429,0.4719446,0.07480394 P,0,310030,310429,A M,0,310722,,120.7468,379.7404 M,0,310722,,120.7468,379.7404,120.7728,379.5623 C,0,310722,,152,173,201 F,2,310722,311122,1,0 S,29,310722,311122,0.4869302,0.08498262 P,0,310722,311122,A M,0,311299,,268,192 C,0,311299,,193,193,193 M,0,311299,311529,268,192,375.5796,201.5203 F,2,311299,311929,1,0 S,29,311299,311929,0.4002885,0.07843447 P,0,311299,311929,A M,0,312453,,495,141 C,0,312453,,193,193,193 M,0,312453,312568,495,141 F,2,312453,312968,1,0 S,29,312453,312968,0.4186347,0.08212607 P,0,312453,312968,A M,0,313145,,73,224 C,0,313145,,152,173,201 F,2,313145,313545,1,0 S,29,313145,313545,0.4783694,0.05358448 P,0,313145,313545,A M,0,313722,,320.8841,254.2045 M,0,313722,,320.8841,254.2045,320.8569,254.3825 C,0,313722,,152,173,201 F,2,313722,314122,1,0 S,29,313722,314122,0.4183955,0.06013021 P,0,313722,314122,A M,0,314414,,503,146 C,0,314414,,152,173,201 F,2,314414,314814,1,0 S,29,314414,314814,0.4346481,0.06391647 P,0,314414,314814,A
Sprite,Foreground,Centre,"sb\ring.png",0,0 M,0,300107,,452,238 C,0,300107,,193,193,193 F,2,300107,300507,1,0 S,29,300107,300507,0.4093973,0.07210889 P,0,300107,300507,A M,0,301376,,445,369 C,0,301376,,193,193,193 M,0,301376,301491,445,369 F,2,301376,301891,1,0 S,29,301376,301891,0.4183092,0.09240259 P,0,301376,301891,A M,0,302184,,64,246 C,0,302184,,152,173,201 M,0,302184,302414,64,246,171.5491,236.1413 F,2,302184,302814,1,0 S,29,302184,302814,0.4702828,0.09942719 P,0,302184,302814,A M,0,303568,,546,259 M,0,303568,,546,259 C,0,303568,,193,193,193 F,2,303568,303968,1,0 S,29,303568,303968,0.4589927,0.08593635 P,0,303568,303968,A M,0,304376,,396,280 C,0,304376,,193,193,193 M,0,304376,304606,396,280,385.0168,208.8727 F,2,304376,305237,1,0 S,29,304376,305237,0.4104638,0.09482199 P,0,304376,305237,A M,0,304606,304837,385.0168,208.8727,396,280 M,0,305876,,503,272 C,0,305876,,152,173,201 M,0,305876,306106,503,272,395.2579,279.4591 F,2,305876,306506,1,0 S,29,305876,306506,0.4810876,0.07384049 P,0,305876,306506,A M,0,307261,307260,267,297 M,0,307261,,267,297 C,0,307261,,193,193,193 F,2,307261,307660,1,0 S,29,307261,307660,0.4813128,0.05342594 P,0,307261,307660,A M,0,308068,,126,301 C,0,308068,,193,193,193 M,0,308068,308298,126,301,133.7509,228.0541 F,2,308068,308929,1,0 S,29,308068,308929,0.4850903,0.05534862 P,0,308068,308929,A M,0,308298,308529,133.7509,228.0541,126,301 M,0,309568,,514,328 C,0,309568,,152,173,201 M,0,309568,309798,514,328,504.4797,435.5796 F,2,309568,310198,1,0 S,29,309568,310198,0.4612863,0.07613701 P,0,309568,310198,A M,0,310953,310952,223.2272,258.5623 M,0,310953,,223.2272,258.5623 C,0,310953,,193,193,193 F,2,310953,311352,1,0 S,29,310953,311352,0.4314874,0.07848712 P,0,310953,311352,A M,0,311761,,407,272 C,0,311761,,193,193,193 M,0,311761,311991,407,272,427,339 F,2,311761,312622,1,0 S,29,311761,312622,0.435401,0.07581831 P,0,311761,312622,A M,0,311991,312222,427,339,407,272 M,0,313261,,147,215 C,0,313261,,152,173,201 M,0,313261,313491,147,215,254,205 F,2,313261,313891,1,0 S,29,313261,313891,0.4769759,0.05754163 P,0,313261,313891,A
Sprite,Foreground,Centre,"sb\ring.png",0,0 M,0,300222,,445,369 C,0,300222,,193,193,193 M,0,300222,300452,445,369,432.2099,261.76 F,2,300222,300852,1,0 S,29,300222,300852,0.402245,0.06368522 P,0,300222,300852,A M,0,301434,,471,363 C,0,301434,,193,193,193 M,0,301434,301491,471,363,445,369 F,2,301434,301891,1,0 S,29,301434,301891,0.4008098,0.05163126 P,0,301434,301891,A M,0,302761,,246,209 C,0,302761,,152,173,201 M,0,302761,302991,246,209,268.9457,140.6341 F,2,302761,303391,1,0 S,29,302761,303391,0.4494871,0.08579863 P,0,302761,303391,A M,0,303684,,471,362 C,0,303684,,193,193,193 F,2,303684,304084,1,0 S,29,303684,304084,0.438017,0.07439841 P,0,303684,304084,A M,0,305126,,213,418 C,0,305126,,193,193,193 M,0,305126,305183,213,418,209,392 F,2,305126,305583,1,0 S,29,305126,305583,0.4000027,0.07406829 P,0,305126,305583,A M,0,306453,,389,206 C,0,306453,,152,173,201 M,0,306453,306683,389,206,398.8586,134.89 F,2,306453,307083,1,0 S,29,306453,307083,0.420637,0.0882253 P,0,306453,307083,A M,0,307376,,258,403 C,0,307376,,193,193,193 F,2,307376,307776,1,0 S,29,307376,307776,0.4375377,0.08465225 P,0,307376,307776,A M,0,308818,,254.3302,429.4224 C,0,308818,,193,193,193 M,0,308818,308876,254.3302,429.4224,258,403 F,2,308818,309276,1,0 S,29,308818,309276,0.4774597,0.08090911 P,0,308818,309276,A M,0,310145,,316,426 C,0,310145,,152,173,201 M,0,310145,310375,316,426,292,359 F,2,310145,310775,1,0 S,29,310145,310775,0.4153585,0.08065789 P,0,310145,310775,A M,0,311068,,236,119 C,0,311068,,193,193,193 F,2,311068,311468,1,0 S,29,311068,311468,0.4827232,0.05922664 P,0,311068,311468,A M,0,312511,,491.0162,114.4411 C,0,312511,,193,193,193 M,0,312511,312568,491.0162,114.4411,495,141 F,2,312511,312968,1,0 S,29,312511,312968,0.4424607,0.07764309 P,0,312511,312968,A M,0,313837,,248,281 C,0,313837,,152,173,201 M,0,313837,314067,248,281,268,348 F,2,313837,314467,1,0 S,29,313837,314467,0.4086371,0.05147885 P,0,313837,314467,A
Sprite,Foreground,Centre,"sb\ring.png",0,0 M,0,301491,,445.1754,368.9595 M,0,301491,,445.1754,368.9595,445,369 C,0,301491,,193,193,193 F,2,301491,301891,1,0 S,29,301491,301891,0.4300058,0.0763142 P,0,301491,301891,A M,0,305184,305183,209,392 M,0,305184,,209,392 C,0,305184,,193,193,193 F,2,305184,305583,1,0 S,29,305184,305583,0.4347795,0.0859863 P,0,305184,305583,A M,0,308876,,257.9752,403.1783 M,0,308876,,257.9752,403.1783,258,403 C,0,308876,,193,193,193 F,2,308876,309276,1,0 S,29,308876,309276,0.4994918,0.06804695 P,0,308876,309276,A M,0,312568,,494.9733,140.822 M,0,312568,,494.9733,140.822,495,141 C,0,312568,,193,193,193 F,2,312568,312968,1,0 S,29,312568,312968,0.4327511,0.09972733 P,0,312568,312968,A
Sprite,Foreground,Centre,"sb\pl2.png",0,0 C,0,181608,,193,193,193 M,0,181608,181665,221,157,218.0719,183.8408 F,2,181608,181923,1,0 S,2,181608,181923,0.75,0.15 P,0,181608,181923,A M,0,181665,181723,218.0719,183.8408,215.1438,210.6815
Sprite,Foreground,Centre,"sb\pl2.png",239,318 C,0,181839,,193,193,193 F,2,181839,182039,1,0 S,2,181839,182039,0.75,0.15 P,0,181839,182039,A
Sprite,Foreground,Centre,"sb\pl2.png",195,246 C,0,181954,,193,193,193 F,2,181954,182154,1,0 S,2,181954,182154,0.75,0.15 P,0,181954,182154,A
Sprite,Foreground,Centre,"sb\pl2.png",0,0 C,0,182070,,193,193,193 M,0,182070,182127,286,263,259.1652,265.9817 F,2,182070,182500,1,0 S,2,182070,182500,0.75,0.15 P,0,182070,182500,A M,0,182127,182185,259.1652,265.9817,232.3303,268.9633 M,0,182185,182243,232.3303,268.9633,205.4954,271.9449 M,0,182243,182300,205.4954,271.9449,178.6606,274.9266
Sprite,Foreground,Centre,"sb\pl2.png",362,256 C,0,182416,,193,193,193 F,2,182416,182616,1,0 S,2,182416,182616,0.75,0.15 P,0,182416,182616,A
Sprite,Foreground,Centre,"sb\pl2.png",0,0 C,0,182531,,193,193,193 M,0,182531,182588,344,417,347.1185,390.1807 F,2,182531,183192,1,0 S,2,182531,183192,0.75,0.15 P,0,182531,183192,A M,0,182588,182646,347.1185,390.1807,350.2371,363.3614 M,0,182646,182704,350.2371,363.3614,353.3556,336.5421 M,0,182704,182761,353.3556,336.5421,366.1612,348.6337 M,0,182761,182819,366.1612,348.6337,353.3556,336.5421 M,0,182819,182877,353.3556,336.5421,350.2371,363.3614 M,0,182877,182934,350.2371,363.3614,347.1185,390.1807 M,0,182934,182992,347.1185,390.1807,344,417
Sprite,Foreground,Centre,"sb\pl2.png",0,0 C,0,183224,,193,193,193 M,0,183224,183281,489,292,484.9553,265.3047 F,2,183224,183539,1,0 S,2,183224,183539,0.75,0.15 P,0,183224,183539,A M,0,183281,183339,484.9553,265.3047,489,292
Sprite,Foreground,Centre,"sb\pl2.png",0,0 C,0,183454,,152,173,201 M,0,183454,183511,519,330,515.6234,303.212 F,2,183454,183884,1,0 S,2,183454,183884,0.75,0.15 P,0,183454,183884,A M,0,183511,183569,515.6234,303.212,512.2467,276.424 M,0,183569,183627,512.2467,276.424,508.8701,249.6359 M,0,183627,183684,508.8701,249.6359,505.4934,222.8479
Sprite,Foreground,Centre,"sb\pl2.png",330,275 C,0,183916,,152,173,201 F,2,183916,184116,1,0 S,2,183916,184116,0.75,0.15 P,0,183916,184116,A
Sprite,Foreground,Centre,"sb\pl2.png",0,0 C,0,184031,,152,173,201 M,0,184031,184088,254,242,280.8029,245.2564 F,2,184031,184461,1,0 S,2,184031,184461,0.75,0.15 P,0,184031,184461,A M,0,184088,184146,280.8029,245.2564,307.6058,248.5128 M,0,184146,184204,307.6058,248.5128,334.4087,251.7693 M,0,184204,184261,334.4087,251.7693,361,255
Sprite,Foreground,Centre,"sb\pl2.png",0,0 C,0,184378,,152,173,201 M,0,184378,184435,416,307,420,333 F,2,184378,184693,1,0 S,2,184378,184693,0.75,0.15 P,0,184378,184693,A M,0,184435,184493,420,333,416,307
Sprite,Foreground,Centre,"sb\pl2.png",0,0 C,0,184608,,152,173,201 M,0,184608,184665,434,231,430.2687,204.2591 F,2,184608,185038,1,0 S,2,184608,185038,0.75,0.15 P,0,184608,185038,A M,0,184665,184723,430.2687,204.2591,426.5374,177.5181 M,0,184723,184781,426.5374,177.5181,422.8061,150.7772 M,0,184781,184838,422.8061,150.7772,413.5839,164.4217
Sprite,Foreground,Centre,"sb\pl2.png",0,0 C,0,185070,,152,173,201 M,0,185070,185127,232,374,235.7527,347.2621 F,2,185070,185385,1,0 S,2,185070,185385,0.75,0.15 P,0,185070,185385,A M,0,185127,185185,235.7527,347.2621,239.5054,320.5241
Sprite,Foreground,Centre,"sb\pl2.png",0,0 C,0,185301,,193,193,193 M,0,185301,185358,261,188,256.9702,214.6976 F,2,185301,185616,1,0 S,2,185301,185616,0.75,0.15 P,0,185301,185616,A M,0,185358,185416,256.9702,214.6976,253,241
Sprite,Foreground,Centre,"sb\pl2.png",175,264 C,0,185531,,193,193,193 F,2,185531,185731,1,0 S,2,185531,185731,0.75,0.15 P,0,185531,185731,A
Sprite,Foreground,Centre,"sb\pl2.png",239,320 C,0,185647,,193,193,193 F,2,185647,185847,1,0 S,2,185647,185847,0.75,0.15 P,0,185647,185847,A
Sprite,Foreground,Centre,"sb\pl2.png",0,0 C,0,185762,,193,193,193 M,0,185762,185819,154,298,180.7718,294.4971 F,2,185762,186192,1,0 S,2,185762,186192,0.75,0.15 P,0,185762,186192,A M,0,185819,185877,180.7718,294.4971,207.5436,290.9943 M,0,185877,185935,207.5436,290.9943,234.3154,287.4915 M,0,185935,185992,234.3154,287.4915,261,284
Sprite,Foreground,Centre,"sb\pl2.png",408,315 C,0,186108,,193,193,193 F,2,186108,186308,1,0 S,2,186108,186308,0.75,0.15 P,0,186108,186308,A
Sprite,Foreground,Centre,"sb\pl2.png",0,0 C,0,186224,,193,193,193 M,0,186224,186281,339,263,335.2687,289.7409 F,2,186224,186885,1,0 S,2,186224,186885,0.75,0.15 P,0,186224,186885,A M,0,186281,186339,335.2687,289.7409,331.5374,316.4819 M,0,186339,186397,331.5374,316.4819,327.8061,343.2228 M,0,186397,186454,327.8061,343.2228,318.5839,329.5782 M,0,186454,186512,318.5839,329.5782,327.8061,343.2228 M,0,186512,186570,327.8061,343.2228,331.5374,316.4819 M,0,186570,186627,331.5374,316.4819,335.2687,289.7409 M,0,186627,186685,335.2687,289.7409,339,263
Sprite,Foreground,Centre,"sb\pl2.png",0,0 C,0,186916,,193,193,193 M,0,186916,186973,146,192,147.5855,218.9534 F,2,186916,187231,1,0 S,2,186916,187231,0.75,0.15 P,0,186916,187231,A M,0,186973,187031,147.5855,218.9534,146,192
Sprite,Foreground,Centre,"sb\pl2.png",0,0 C,0,187147,,152,173,201 M,0,187147,187204,101,139,127.8029,142.2564 F,2,187147,187577,1,0 S,2,187147,187577,0.75,0.15 P,0,187147,187577,A M,0,187204,187262,127.8029,142.2564,154.6058,145.5128 M,0,187262,187320,154.6058,145.5128,181.4087,148.7693 M,0,187320,187377,181.4087,148.7693,208,152
Sprite,Foreground,Centre,"sb\pl2.png",365,285 C,0,187608,,152,173,201 F,2,187608,187808,1,0 S,2,187608,187808,0.75,0.15 P,0,187608,187808,A
Sprite,Foreground,Centre,"sb\pl2.png",0,0 C,0,187724,,152,173,201 M,0,187724,187781,446,249,419.1935,252.2267 F,2,187724,188154,1,0 S,2,187724,188154,0.75,0.15 P,0,187724,188154,A M,0,187781,187839,419.1935,252.2267,392.387,255.4534 M,0,187839,187897,392.387,255.4534,365.5805,258.6801 M,0,187897,187954,365.5805,258.6801,338.774,261.9068
Sprite,Foreground,Centre,"sb\pl2.png",0,0 C,0,188070,,152,173,201 M,0,188070,188127,278,215,281.9568,188.2915 F,2,188070,188385,1,0 S,2,188070,188385,0.75,0.15 P,0,188070,188385,A M,0,188127,188185,281.9568,188.2915,278,215
Sprite,Foreground,Centre,"sb\pl2.png",0,0 C,0,188301,,152,173,201 M,0,188301,188358,266,289,262.2687,315.7409 F,2,188301,188731,1,0 S,2,188301,188731,0.75,0.15 P,0,188301,188731,A M,0,188358,188416,262.2687,315.7409,258.5374,342.4819 M,0,188416,188474,258.5374,342.4819,254.8061,369.2228 M,0,188474,188531,254.8061,369.2228,245.5839,355.5782
Sprite,Foreground,Centre,"sb\pl2.png",0,0 C,0,188762,,152,173,201 M,0,188762,188819,101,139,104.8864,165.7188 F,2,188762,189077,1,0 S,2,188762,189077,0.75,0.15 P,0,188762,189077,A M,0,188819,188877,104.8864,165.7188,108.7728,192.4377
Sprite,Foreground,Centre,"sb\pl2.png",0,0 C,0,138685,,223,164,223 M,0,138685,138742,447,395,482.3382,388.1287 F,2,138685,139342,1,0 S,2,138685,139342,1,0.2 P,0,138685,139342,A
Sprite,Foreground,Centre,"sb\pl2.png",0,0 C,0,138916,,223,164,223 M,0,138916,138973,381,342,408.3333,318.5715 F,2,138916,139573,1,0 S,2,138916,139573,1,0.2 P,0,138916,139573,A
Sprite,Foreground,Centre,"sb\pl2.png",0,0 C,0,139147,,131,239,209 M,0,139147,139204,282,401,294.7401,367.3297 F,2,139147,139977,1,0 S,2,139147,139977,1,0.2 P,0,139147,139977,A M,0,139204,139262,294.7401,367.3297,307.4802,333.6594 M,0,139262,139320,307.4802,333.6594,320.2203,299.9891 M,0,139320,139377,320.2203,299.9891,332.9604,266.3188
Sprite,Foreground,Centre,"sb\pl2.png",0,0 C,0,241146,,223,164,223 M,0,241146,241203,433,398,452,368 F,2,241146,241803,1,0 S,2,241146,241803,1,0.2 P,0,241146,241803,A
Sprite,Foreground,Centre,"sb\pl2.png",0,0 C,0,241377,,223,164,223 M,0,241377,241434,339,352,374,344 F,2,241377,242034,1,0 S,2,241377,242034,1,0.2 P,0,241377,242034,A
Sprite,Foreground,Centre,"sb\pl2.png",0,0 C,0,241607,,131,239,209 M,0,241607,241664,199,264,234.9108,266.5322 F,2,241607,242437,1,0 S,2,241607,242437,1,0.2 P,0,241607,242437,A M,0,241664,241722,234.9108,266.5322,270.8217,269.0643 M,0,241722,241780,270.8217,269.0643,306.7325,271.5965 M,0,241780,241837,306.7325,271.5965,342.6433,274.1287
//Storyboard Sound Samples

[TimingPoints]
4378,461.538461538462,4,2,1,50,1,0
4378,-125,4,2,1,50,0,0
11301,-57.1428571428571,4,2,1,50,0,0
11416,-57.1428571428571,4,2,99,5,0,0
11531,-57.1428571428571,4,2,1,50,0,0
11647,-57.1428571428571,4,2,99,5,0,0
11762,-100,4,2,1,60,0,0
15166,-55.5555555555556,4,2,1,60,0,0
15397,-58.8235294117647,4,2,99,5,0,0
15454,-100,4,2,1,60,0,0
17301,-200,4,2,1,60,0,0
18108,-200,4,2,99,5,0,0
18224,-58.8235294117647,4,2,50,60,0,0
18454,-58.8235294117647,4,2,1,60,0,0
18570,-58.8235294117647,4,2,50,60,0,0
18801,-58.8235294117647,4,2,1,60,0,0
18916,-58.8235294117647,4,2,50,60,0,0
19147,-58.8235294117647,4,2,1,60,0,0
19378,-100,4,2,1,60,0,0
22551,-55.5555555555556,4,2,1,60,0,0
22781,-58.8235294117647,4,2,99,5,0,0
22839,-100,4,2,1,60,0,0
25608,-55.5555555555556,4,2,1,60,0,0
26531,-90.9090909090909,4,2,1,60,0,0
32993,-58.8235294117647,4,2,50,60,0,0
33224,-58.8235294117647,4,2,1,60,0,0
33339,-58.8235294117647,4,2,50,60,0,0
33570,-58.8235294117647,4,2,1,60,0,0
33685,-58.8235294117647,4,2,50,60,0,0
33916,-90.9090909090909,4,2,1,60,0,0
43147,-100,4,2,1,60,0,0
46551,-55.5555555555556,4,2,1,60,0,0
46781,-58.8235294117647,4,2,99,5,0,0
46839,-100,4,2,1,60,0,0
49608,-58.8235294117647,4,2,50,60,0,0
49839,-58.8235294117647,4,2,1,60,0,0
49954,-58.8235294117647,4,2,50,60,0,0
50185,-58.8235294117647,4,2,1,60,0,0
50301,-58.8235294117647,4,2,50,60,0,0
50531,-100,4,2,1,60,0,0
53935,-55.5555555555556,4,2,1,60,0,0
54166,-58.8235294117647,4,2,99,5,0,0
54224,-100,4,2,1,60,0,0
57628,-55.5555555555556,4,2,1,60,0,0
57858,-58.8235294117647,4,2,99,5,0,0
57916,-100,4,2,1,60,0,0
61320,-55.5555555555556,4,2,1,60,0,0
61551,-58.8235294117647,4,2,99,5,0,0
61608,-100,4,2,1,60,0,0
64378,-58.8235294117647,4,2,50,60,0,0
64608,-58.8235294117647,4,2,1,60,0,0
64724,-58.8235294117647,4,2,50,60,0,0
64954,-58.8235294117647,4,2,1,60,0,0
65070,-58.8235294117647,4,2,50,60,0,0
65301,-100,4,2,1,60,0,0
68704,-55.5555555555556,4,2,1,60,0,0
68935,-58.8235294117647,4,2,99,5,0,0
68993,-100,4,2,1,60,0,0
72685,-74.0740740740741,4,2,2,60,0,0
87454,-66.6666666666667,4,2,2,70,0,0
89070,-28.5714285714286,4,2,2,70,0,0
89243,-50,4,2,99,5,0,0
89301,-66.6666666666667,4,2,2,70,0,0
90685,-1000,4,2,2,70,0,0
91089,-1000,4,2,99,5,0,0
91147,-66.6666666666667,4,2,2,70,0,0
92762,-28.5714285714286,4,2,2,70,0,0
92935,-52.6315789473684,4,2,99,5,0,0
92993,-66.6666666666667,4,2,2,70,0,0
94378,-1000,4,2,2,70,0,0
94781,-1000,4,2,99,5,0,0
94839,-66.6666666666667,4,2,2,70,0,0
96454,-28.5714285714286,4,2,2,70,0,0
96628,-28.5714285714286,4,2,99,5,0,0
96685,-66.6666666666667,4,2,2,70,0,0
98070,-1000,4,2,2,70,0,0
98474,-1000,4,2,99,5,0,0
98531,-66.6666666666667,4,2,2,70,0,0
99743,-71.4285714285714,4,2,99,5,0,0
99916,-71.4285714285714,4,2,2,70,0,0
99974,-71.4285714285714,4,2,99,5,0,0
100147,-71.4285714285714,4,2,2,70,0,0
100204,-71.4285714285714,4,2,99,5,0,0
100378,-400,4,2,2,70,0,0
100724,-400,4,2,2,30,0,0
102166,-400,4,2,99,5,0,0
102224,-55.5555555555556,4,2,2,70,0,0
104070,-28.5714285714286,4,2,2,70,0,0
104301,-55.5555555555556,4,2,2,70,0,0
105454,-999.99999999999,4,2,2,70,0,0
105858,-111.111111111111,4,2,100,5,0,0
105916,-55.5555555555556,4,2,2,70,0,0
107762,-28.5714285714286,4,2,2,70,0,0
107993,-55.5555555555556,4,2,2,70,0,0
111454,-28.5714285714286,4,2,2,70,0,0
111916,-55.5555555555556,4,2,2,70,0,0
112839,-999.99999999999,4,2,2,70,0,0
113243,-111.111111111111,4,2,99,5,0,0
113301,-55.5555555555556,4,2,2,70,0,0
115147,-28.5714285714286,4,2,2,70,0,0
115378,-55.5555555555556,4,2,2,70,0,0
116070,-400,4,2,2,30,0,0
116993,-66.6666666666667,4,2,2,60,0,0
118608,-50,4,2,2,60,0,0
118781,-50,4,2,99,5,0,0
118839,-66.6666666666667,4,2,2,60,0,0
120224,-1000,4,2,2,60,0,0
120628,-1000,4,2,99,5,0,0
120685,-66.6666666666667,4,2,2,60,0,0
122301,-50,4,2,2,60,0,0
122474,-50,4,2,99,5,0,0
122531,-66.6666666666667,4,2,2,60,0,0
123916,-999.99999999999,4,2,2,60,0,0
124378,-66.6666666666667,4,2,2,70,0,0
125993,-50,4,2,2,70,0,0
126166,-54.054054054054,4,2,99,70,0,0
126224,-66.6666666666667,4,2,2,70,0,0
127608,-999.99999999999,4,2,2,70,0,0
128070,-66.6666666666667,4,2,2,70,0,0
129685,-52.6315789473684,4,2,2,70,0,0
129858,-52.6315789473684,4,2,99,5,0,0
129916,-400,4,2,2,70,0,0
130262,-400,4,2,2,30,0,0
130839,-400,4,2,2,70,0,0
131762,-55.5555555555556,4,2,2,70,0,0
133608,-28.5714285714286,4,2,2,70,0,0
133781,-28.5714285714286,4,2,99,5,0,0
133839,-55.5555555555556,4,2,2,70,0,0
137301,-400,4,2,2,70,0,0
137762,-55.5555555555556,4,2,2,70,0,0
138743,-55.5555555555556,4,2,99,5,0,0
138916,-55.5555555555556,4,2,2,70,0,0
138974,-55.5555555555556,4,2,99,5,0,0
139147,-55.5555555555556,4,2,2,70,0,0
140993,-28.5714285714286,4,2,2,70,0,0
141166,-28.5714285714286,4,2,99,5,0,0
141224,-55.5555555555556,4,2,2,70,0,0
144685,-28.5714285714286,4,2,2,70,0,0
144858,-28.5714285714286,4,2,99,5,0,0
144916,-55.5555555555556,4,2,2,70,0,0
146531,-100,4,2,2,50,0,0
148147,-50,4,2,2,50,0,0
148320,-50,4,2,99,5,0,0
148378,-100,4,2,2,50,0,0
149993,-50,4,2,2,50,0,0
150166,-50,4,2,99,5,0,0
150224,-100,4,2,2,50,0,0
151839,-50,4,2,2,50,0,0
152012,-50,4,2,99,5,0,0
152070,-100,4,2,2,50,0,0
153685,-50,4,2,2,50,0,0
153858,-50,4,2,99,5,0,0
153916,-100,4,2,2,50,0,0
157378,-50,4,2,2,50,0,0
157551,-50,4,2,99,5,0,0
157608,-100,4,2,2,50,0,0
161070,-50,4,2,2,50,0,0
161243,-50,4,2,99,5,0,0
161301,-55.5555555555556,4,2,2,60,0,0
163147,-400,4,2,2,60,0,0
163493,-400,4,2,2,30,0,0
164993,-55.5555555555556,4,2,2,70,0,1
165108,-55.5555555555556,4,2,2,70,0,0
166839,-55.5555555555556,4,2,2,70,0,1
166954,-55.5555555555556,4,2,2,70,0,0
168685,-55.5555555555556,4,2,2,70,0,1
168801,-55.5555555555556,4,2,2,70,0,0
170531,-37.037037037037,4,2,2,70,0,1
172262,-37.037037037037,4,2,2,70,0,0
172378,-55.5555555555556,4,2,2,70,0,1
172493,-55.5555555555556,4,2,2,70,0,0
174224,-55.5555555555556,4,2,2,70,0,1
174339,-55.5555555555556,4,2,2,70,0,0
176070,-55.5555555555556,4,2,2,70,0,1
176185,-55.5555555555556,4,2,2,70,0,0
177916,-37.037037037037,4,2,2,70,0,1
179762,-100,4,2,2,50,0,0
181608,-74.0740740740741,4,2,2,60,0,0
188993,-66.6666666666667,4,2,2,60,0,0
190608,-33.3333333333333,4,2,2,60,0,0
190781,-33.3333333333333,4,2,99,5,0,0
190839,-66.6666666666667,4,2,2,60,0,0
192224,-999.99999999999,4,2,2,60,0,0
192628,-999.99999999999,4,2,99,5,0,0
192685,-66.6666666666667,4,2,2,60,0,0
194301,-33.3333333333333,4,2,2,60,0,0
194474,-33.3333333333333,4,2,99,5,0,0
194531,-66.6666666666667,4,2,2,60,0,0
195916,-999.99999999999,4,2,2,60,0,0
196320,-999.99999999999,4,2,99,5,0,0
196378,-66.6666666666667,4,2,2,60,0,0
197993,-33.3333333333333,4,2,2,60,0,0
198166,-33.3333333333333,4,2,99,5,0,0
198224,-66.6666666666667,4,2,2,60,0,0
199608,-999.99999999999,4,2,2,60,0,0
200012,-999.99999999999,4,2,99,5,0,0
200070,-66.6666666666667,4,2,2,60,0,0
201685,-33.3333333333333,4,2,2,60,0,0
201858,-33.3333333333333,4,2,99,5,0,0
201916,-54.054054054054,4,2,2,60,0,0
203762,-60.6060606060606,4,2,2,60,0,0
210685,-121.951219512195,4,2,2,60,0,0
211147,-60.6060606060606,4,2,2,60,0,0
219454,461.538461538462,4,2,2,60,1,0
219454,-66.6666666666667,4,2,2,60,0,0
221069,-50,4,2,2,60,0,0
221242,-50,4,2,99,5,0,0
221300,-66.6666666666667,4,2,2,60,0,0
222684,-999.99999999999,4,2,2,60,0,0
223088,-999.99999999999,4,2,99,5,0,0
223146,-66.6666666666667,4,2,2,60,0,0
224761,-50,4,2,2,60,0,0
224934,-50,4,2,99,5,0,0
224992,-66.6666666666667,4,2,2,60,0,0
226377,-999.99999999999,4,2,2,60,0,0
226838,-66.6666666666667,4,2,2,70,0,0
228454,-50,4,2,2,70,0,0
228627,-50,4,2,99,5,0,0
228684,-66.6666666666667,4,2,2,70,0,0
230069,-999.99999999999,4,2,2,70,0,0
230530,-66.6666666666667,4,2,2,70,0,0
232146,-50,4,2,2,70,0,0
232319,-50,4,2,99,5,0,0
232377,-400,4,2,2,70,0,0
232723,-400,4,2,2,30,0,0
232954,-83.3333333333333,4,2,2,30,0,0
234223,-55.5555555555556,4,2,2,70,0,0
236069,-28.5714285714286,4,2,2,70,0,0
236242,-28.5714285714286,4,2,99,5,0,0
236300,-55.5555555555556,4,2,2,70,0,0
239761,-400,4,2,2,70,0,0
240223,-55.5555555555556,4,2,2,70,0,0
241204,-55.5555555555556,4,2,99,5,0,0
241377,-55.5555555555556,4,2,2,70,0,0
241434,-55.5555555555556,4,2,99,5,0,0
241607,-55.5555555555556,4,2,2,70,0,0
243454,-28.5714285714286,4,2,2,70,0,0
243627,-28.5714285714286,4,2,99,5,0,0
243684,-55.5555555555556,4,2,2,70,0,0
247146,-28.5714285714286,4,2,2,70,0,0
247319,-28.5714285714286,4,2,99,5,0,0
247377,-55.5555555555556,4,2,2,70,0,0
248992,-100,4,2,2,50,0,0
250607,-50,4,2,2,50,0,0
250780,-50,4,2,99,5,0,0
250838,-100,4,2,2,50,0,0
252454,-50,4,2,2,50,0,0
252627,-50,4,2,99,5,0,0
252684,-100,4,2,2,50,0,0
254300,-50,4,2,2,50,0,0
254473,-50,4,2,99,5,0,0
254530,-100,4,2,2,50,0,0
256146,-50,4,2,2,50,0,0
256319,-50,4,2,99,5,0,0
256377,-100,4,2,2,50,0,0
257992,-50,4,2,2,50,0,0
258165,-50,4,2,99,5,0,0
258223,-100,4,2,2,50,0,0
259838,-50,4,2,2,50,0,0
260011,-50,4,2,99,5,0,0
260069,-100,4,2,2,50,0,0
261684,-50,4,2,2,50,0,0
261857,-50,4,2,99,5,0,0
261915,-100,4,2,2,50,0,0
263530,-50,4,2,2,50,0,0
263704,-50,4,2,99,5,0,0
263761,-55.5555555555556,4,2,2,60,0,0
265607,-400,4,2,2,60,0,0
265954,-400,4,2,2,30,0,0
267454,-55.5555555555556,4,2,2,70,0,1
267569,-55.5555555555556,4,2,2,70,0,0
269300,-55.5555555555556,4,2,2,70,0,1
269415,-55.5555555555556,4,2,2,70,0,0
271146,-55.5555555555556,4,2,2,70,0,1
271261,-55.5555555555556,4,2,2,70,0,0
272992,-37.037037037037,4,2,2,70,0,1
274723,-37.037037037037,4,2,2,70,0,0
274838,-55.5555555555556,4,2,2,70,0,1
274954,-55.5555555555556,4,2,2,70,0,0
276684,-55.5555555555556,4,2,2,70,0,1
276800,-55.5555555555556,4,2,2,70,0,0
278530,-55.5555555555556,4,2,2,70,0,1
278646,-55.5555555555556,4,2,2,70,0,0
280377,-37.037037037037,4,2,2,70,0,1
282107,-37.037037037037,4,2,2,70,0,0
282223,-55.5555555555556,4,2,2,70,0,1
282338,-55.5555555555556,4,2,2,70,0,0
284069,-55.5555555555556,4,2,2,70,0,1
284184,-55.5555555555556,4,2,2,70,0,0
285915,-55.5555555555556,4,2,2,70,0,1
286030,-55.5555555555556,4,2,2,70,0,0
287761,-37.037037037037,4,2,2,70,0,1
289492,-37.037037037037,4,2,2,70,0,0
289607,-55.5555555555556,4,2,2,70,0,1
289723,-55.5555555555556,4,2,2,70,0,0
291454,-55.5555555555556,4,2,2,70,0,1
291569,-55.5555555555556,4,2,2,70,0,0
293300,-55.5555555555556,4,2,2,70,0,1
293415,-55.5555555555556,4,2,2,70,0,0
295146,-37.037037037037,4,2,2,70,0,1
296992,461.538461538462,6,2,2,50,1,0
296992,-52.6315789473684,4,2,2,50,0,0
299761,461.538461538462,4,2,2,60,1,0
299761,-74.0740740740741,4,2,2,60,0,0
307145,-74.0740740740741,4,2,2,50,0,0

[Colours]
Combo1 : 131,239,209
Combo2 : 193,193,193
Combo3 : 152,173,201
Combo4 : 45,169,230
Combo5 : 255,15,21
Combo6 : 112,171,165
Combo7 : 223,164,223

[HitObjects]
261,47,4378,6,0,L|271:142,1,96,6|0,0:0|0:0,0:0:0:0:
213,188,4839,2,0,L|210:222,1,32,2|0,0:3|0:0,0:0:0:0:
243,215,5070,2,0,L|247:278,2,64,2|8|2,0:0|0:0|0:0,0:0:0:0:
343,118,5762,1,2,0:3:0:0:
343,118,5878,1,2,0:0:0:0:
495,161,6224,2,0,L|389:156,1,96,2|2,0:0|0:0,0:0:0:0:
343,118,6685,2,0,L|300:116,1,32,0|0,0:0|0:0,0:0:0:0:
328,153,6916,2,0,L|259:150,2,64,2|8|2,0:0|0:0|0:0,0:0:0:0:
145,320,8070,6,0,L|110:226,1,96,6|0,0:0|0:0,0:0:0:0:
145,165,8531,2,0,L|130:121,1,32,2|0,0:3|0:0,0:0:0:0:
175,132,8762,2,0,L|188:62,2,64,2|8|2,0:0|0:0|0:0,0:0:0:0:
236,214,9454,1,2,0:3:0:0:
236,214,9570,1,2,0:0:0:0:
373,140,9916,2,0,L|303:147,1,64,2|2,0:0|0:0,0:0:0:0:
454,105,10378,2,0,L|319:72,1,128,2|8,0:0|0:0,0:0:0:0:
329,74,11070,1,2,0:0:0:0:
309,146,11301,22,0,B|337:179|323:224,1,70.000000667572,8|0,0:3|0:0,0:0:0:0:
191,241,11531,2,0,B|166:211|180:165,1,70.000000667572,8|0,0:3|0:0,0:0:0:0:
333,287,11762,54,0,L|254:281,1,80,6|2,0:0|0:0,0:0:0:0:
191,241,12108,1,0,0:0:0:0:
95,271,12224,2,0,L|174:262,1,80,2|2,0:3|0:0,0:0:0:0:
10,374,12685,2,0,B|25:283,1,80,8|2,0:0|0:0,0:0:0:0:
95,271,13031,2,0,B|110:180,1,80,0|2,0:0|0:0,0:0:0:0:
51,140,13378,1,2,0:0:0:0:
51,140,13608,6,0,B|137:152|137:152|176:137,1,120,6|2,0:0|0:0,0:0:0:0:
123,78,14070,2,0,L|33:65,1,80,0|2,0:0|0:0,0:0:0:0:
316,112,14531,2,0,L|226:99,1,80,8|2,0:0|0:0,0:0:0:0:
366,57,15166,22,0,P|327:54|231:107,1,143.999995605469,4|0,0:3|0:0,0:0:0:0:
254,133,15454,54,0,L|333:126,1,80,6|0,0:0|0:0,0:0:0:0:
410,120,15801,1,0,0:0:0:0:
420,187,15916,2,0,L|429:101,1,80,2|2,0:3|0:0,0:0:0:0:
322,301,16378,2,0,L|313:221,1,80,8|2,0:0|0:0,0:0:0:0:
389,260,16724,2,0,L|468:268,1,80,0|2,0:0|0:0,0:0:0:0:
322,301,17070,2,0,L|242:292,1,80,0|6,0:0|0:0,0:0:0:0:
104,242,17531,5,2,0:0:0:0:
104,242,17762,2,0,L|147:234,1,40,2|0,0:3|0:0,0:0:0:0:
288,147,18224,22,0,B|319:175|320:224|320:224|311:198|281:185,1,136.000002593994,10|2,0:0|0:0,0:0:0:0:
181,169,18570,2,0,B|189:129|231:103|231:103|213:124|217:157,1,136.000002593994,2|0,0:0|0:0,0:0:0:0:
255,254,18916,2,0,B|215:267|172:244|172:244|199:249|225:229,1,136.000002593994,2|6,0:0|0:0,0:0:0:0:
299,71,19378,54,0,L|392:87,1,80,0|2,0:0|0:3,0:0:0:0:
439,123,19724,1,0,0:0:0:0:
398,63,19839,1,2,0:0:0:0:
137,136,20070,2,0,L|215:149,2,80,10|2|2,0:0|0:0|0:3,0:0:0:0:
75,90,20647,1,2,0:0:0:0:
55,161,20762,2,0,L|43:81,1,80,0|6,0:0|0:0,0:0:0:0:
154,254,21224,5,0,0:0:0:0:
154,254,21339,2,0,L|134:121,1,120,2|2,0:0|0:0,0:0:0:0:
82,337,21916,2,0,L|70:257,1,80,8|2,0:0|0:0,0:0:0:0:
33,331,22551,22,0,P|66:309|186:303,1,143.999995605469,4|0,0:3|0:0,0:0:0:0:
194,324,22839,54,0,L|275:321,1,80,6|0,0:0|0:0,0:0:0:0:
350,317,23185,1,0,0:0:0:0:
380,221,23301,2,0,L|370:307,1,80,2|2,0:3|0:0,0:0:0:0:
449,93,23762,2,0,L|439:179,1,80,8|2,0:0|0:0,0:0:0:0:
380,221,24108,1,0,0:0:0:0:
366,153,24224,2,0,L|361:197,1,40,2|2,0:3|0:0,0:0:0:0:
348,83,24454,1,8,0:0:0:0:
74,232,24685,5,2,0:2:0:0:
74,232,24916,1,2,0:0:0:0:
74,232,25147,1,2,0:0:0:0:
74,232,25378,1,2,0:0:0:0:
127,317,25608,22,0,P|156:339|190:348,1,71.9999978027344,8|8,0:0|0:0,0:0:0:0:
167,198,25839,2,0,P|202:198|235:212,1,71.9999978027344,8|8,0:0|0:0,0:0:0:0:
75,370,26070,2,0,P|58:339|54:304,1,71.9999978027344,8|8,0:0|0:0,0:0:0:0:
158,121,26301,2,0,P|125:135|100:159,1,71.9999978027344,8|8,0:0|0:0,0:0:0:0:
74,232,26531,54,0,L|205:240,1,132.00000402832,6|0,0:0|0:0,0:0:0:0:
273,208,26993,2,0,L|280:255,1,44.0000013427735,2|0,0:3|0:0,0:0:0:0:
346,285,27224,2,0,L|365:196,1,88.000002685547,2|8,0:0|0:0,0:0:0:0:
401,133,27570,1,0,0:0:0:0:
436,198,27685,2,0,L|429:154,1,44.0000013427735,2|0,0:0|0:0,0:0:0:0:
447,79,27916,1,2,0:3:0:0:
501,124,28031,2,0,L|359:111,1,132.00000402832,2|6,0:0|0:0,0:0:0:0:
232,210,28608,5,0,0:0:0:0:
232,210,28724,2,0,L|379:197,1,132.00000402832,2|2,0:0|0:0,0:0:0:0:
153,32,29301,2,0,L|140:90,1,44.0000013427735,8|0,0:0|0:0,0:0:0:0:
126,147,29531,1,2,0:0:0:0:
105,102,29647,1,0,0:0:0:0:
58,151,29762,2,0,L|47:54,1,88.000002685547,2|0,0:3|0:0,0:0:0:0:
426,371,30224,86,0,L|444:226,1,132.00000402832,6|0,0:0|0:0,0:0:0:0:
405,175,30685,2,0,L|414:237,1,44.0000013427735,2|0,0:3|0:0,0:0:0:0:
369,281,30916,2,0,L|271:268,1,88.000002685547,2|8,0:0|0:0,0:0:0:0:
207,256,31262,1,0,0:0:0:0:
139,290,31378,2,0,L|199:281,1,44.0000013427735,2|0,0:0|0:0,0:0:0:0:
238,328,31608,1,2,0:3:0:0:
308,354,31724,2,0,L|172:376,1,132.00000402832,2|6,0:0|0:0,0:0:0:0:
160,135,32301,6,0,L|149:225,1,88.000002685547,2|2,0:0|0:0,0:0:0:0:
269,81,32762,1,0,0:0:0:0:
280,118,32878,1,0,0:0:0:0:
348,144,32993,22,0,B|309:145|288:118|288:118|304:86|350:77,1,136.000002593994,10|2,0:0|0:0,0:0:0:0:
467,127,33339,2,0,B|487:161|474:192|474:192|438:195|414:166,1,136.000002593994,2|0,0:0|0:0,0:0:0:0:
392,33,33685,2,0,B|410:-1|444:-5|444:-5|464:24|451:60,1,136.000002593994,2|6,0:0|0:0,0:0:0:0:
183,153,34378,54,0,L|232:161,1,44.0000013427735,2|0,0:3|0:0,0:0:0:0:
299,174,34608,2,0,L|192:186,1,88.000002685547,2|8,0:0|0:0,0:0:0:0:
156,234,34954,1,0,0:0:0:0:
163,308,35070,2,0,L|173:256,1,44.0000013427735,2|0,0:0|0:0,0:0:0:0:
245,254,35301,1,2,0:3:0:0:
269,324,35416,2,0,L|293:191,1,132.00000402832,2|6,0:0|0:0,0:0:0:0:
512,271,35993,5,0,0:0:0:0:
512,271,36108,2,0,L|376:280,1,132.00000402832,2|2,0:0|0:0,0:0:0:0:
174,178,36685,2,0,L|224:185,1,44.0000013427735,8|0,0:0|0:0,0:0:0:0:
292,194,36916,1,2,0:0:0:0:
257,162,37031,1,0,0:0:0:0:
306,117,37147,2,0,L|216:105,1,88.000002685547,2|0,0:3|0:0,0:0:0:0:
512,271,37608,86,0,L|376:280,1,132.00000402832,6|0,0:0|0:0,0:0:0:0:
309,305,38070,2,0,L|317:248,1,44.0000013427735,2|0,0:3|0:0,0:0:0:0:
281,150,38301,2,0,L|297:241,1,88.000002685547,2|8,0:0|0:0,0:0:0:0:
238,284,38647,1,0,0:0:0:0:
177,241,38762,2,0,L|229:249,1,44.0000013427735,2|0,0:0|0:0,0:0:0:0:
76,286,38993,2,0,L|128:294,1,44.0000013427735,2|2,0:3|0:0,0:0:0:0:
238,284,39224,1,8,0:0:0:0:
83,84,39454,6,0,L|106:221,1,132.00000402832,6|2,0:0|0:0,0:0:0:0:
33,206,39916,2,0,L|17:112,1,88.000002685547,0|2,0:0|0:0,0:0:0:0:
240,100,40378,2,0,L|224:6,1,88.000002685547,8|2,0:0|0:0,0:0:0:0:
432,217,40839,1,8,0:0:0:0:
411,143,40954,1,8,0:0:0:0:
408,185,41070,1,8,0:0:0:0:
436,123,41185,1,8,0:0:0:0:
98,293,43147,38,0,L|178:284,1,80,6|0,0:0|0:0,0:0:0:0:
110,256,43493,1,0,0:0:0:0:
248,309,43724,1,0,0:0:0:0:
153,160,43954,1,0,0:0:0:0:
187,95,44070,2,0,L|178:134,1,40,8|0,0:0|0:0,0:0:0:0:
210,198,44301,1,2,0:0:0:0:
257,144,44416,1,0,0:0:0:0:
186,172,44531,1,2,0:3:0:0:
352,155,44762,1,0,0:0:0:0:
377,223,44878,1,0,0:0:0:0:
318,193,44993,54,0,L|401:185,1,80,6|0,0:0|0:0,0:0:0:0:
394,257,45339,2,0,L|477:249,1,80,2|0,0:0|0:0,0:0:0:0:
307,334,45801,1,0,0:0:0:0:
277,267,45916,2,0,L|286:322,1,40,8|0,0:0|0:0,0:0:0:0:
244,368,46147,1,2,0:0:0:0:
307,334,46262,1,0,0:0:0:0:
288,377,46378,1,2,0:3:0:0:
185,327,46551,22,0,P|144:303|48:303,1,143.999995605469,4|0,0:3|0:0,0:0:0:0:
38,324,46839,6,0,L|130:313,1,80,6|0,0:0|0:0,0:0:0:0:
49,302,47185,1,0,0:0:0:0:
185,327,47416,1,0,0:0:0:0:
96,203,47647,1,0,0:0:0:0:
161,171,47762,2,0,L|103:180,1,40,8|0,0:0|0:0,0:0:0:0:
49,187,47993,1,2,0:0:0:0:
108,146,48108,1,0,0:0:0:0:
31,161,48224,1,2,0:3:0:0:
257,105,48454,1,0,0:0:0:0:
186,82,48570,1,0,0:0:0:0:
228,139,48685,54,0,L|221:59,1,80,6|2,0:0|0:0,0:0:0:0:
289,83,49031,2,0,L|295:3,1,80,0|0,0:0|0:0,0:0:0:0:
394,131,49493,1,0,0:0:0:0:
328,145,49608,22,0,B|359:134|364:90|364:90|415:95|423:57,1,136.000002593994,10|2,0:0|0:0,0:0:0:0:
365,230,49954,2,0,B|339:207|299:225|299:225|277:178|240:190,1,136.000002593994,2|0,0:0|0:0,0:0:0:0:
421,159,50301,2,0,B|414:190|448:216|448:216|419:258|448:285,1,136.000002593994,2|6,0:0|0:0,0:0:0:0:
310,358,50762,5,0,0:0:0:0:
330,288,50878,1,0,0:0:0:0:
239,380,51108,1,0,0:0:0:0:
125,318,51339,1,0,0:0:0:0:
59,292,51454,2,0,L|112:297,1,40,8|0,0:0|0:0,0:0:0:0:
170,303,51685,1,2,0:0:0:0:
106,267,51801,1,0,0:0:0:0:
176,280,51916,1,2,0:3:0:0:
171,101,52147,1,0,0:0:0:0:
134,168,52262,1,0,0:0:0:0:
198,139,52378,54,0,L|103:131,1,80,6|0,0:0|0:0,0:0:0:0:
88,66,52724,2,0,L|1:76,1,80,2|0,0:0|0:0,0:0:0:0:
273,95,53185,1,0,0:0:0:0:
262,26,53301,2,0,L|254:75,1,40,8|0,0:0|0:0,0:0:0:0:
243,136,53531,1,2,0:0:0:0:
304,174,53647,1,0,0:0:0:0:
273,95,53762,1,2,0:3:0:0:
265,233,53935,22,0,P|301:209|407:201,1,143.999995605469,4|0,0:3|0:0,0:0:0:0:
411,220,54224,6,0,L|325:213,1,80,6|0,0:0|0:0,0:0:0:0:
399,198,54570,1,0,0:0:0:0:
265,233,54801,1,0,0:0:0:0:
382,294,55031,1,0,0:0:0:0:
393,365,55147,2,0,L|398:311,1,40,8|0,0:0|0:0,0:0:0:0:
461,292,55378,1,2,0:0:0:0:
382,294,55493,1,0,0:0:0:0:
445,327,55608,2,0,L|492:324,1,40,2|2,0:3|0:0,0:0:0:0:
382,294,55839,1,8,0:0:0:0:
326,339,55954,1,0,0:0:0:0:
253,337,56070,54,0,L|161:333,1,80,2|0,0:3|0:0,0:0:0:0:
201,266,56416,2,0,L|109:262,1,80,2|0,0:0|0:0,0:0:0:0:
295,176,56878,1,0,0:0:0:0:
360,161,56993,2,0,L|302:157,1,40,8|0,0:0|0:0,0:0:0:0:
247,153,57224,1,2,0:0:0:0:
316,135,57339,1,0,0:0:0:0:
385,117,57454,1,2,0:3:0:0:
263,84,57628,22,0,P|237:108|119:109,1,143.999995605469,4|0,0:3|0:0,0:0:0:0:
118,103,57916,6,0,L|203:100,1,80,6|0,0:0|0:0,0:0:0:0:
248,48,58262,2,0,L|333:45,1,80,0|0,0:0|0:0,0:0:0:0:
266,222,58724,1,0,0:0:0:0:
247,153,58840,2,0,L|242:192,1,40,8|0,0:0|0:0,0:0:0:0:
282,252,59070,2,0,L|277:291,1,40,2|0,0:0|0:0,0:0:0:0:
213,325,59301,2,0,L|292:318,1,80,2|0,0:3|0:0,0:0:0:0:
364,308,59647,1,0,0:0:0:0:
392,210,59762,54,0,L|385:289,1,80,6|0,0:0|0:0,0:0:0:0:
457,296,60108,2,0,L|463:216,1,80,2|0,0:0|0:0,0:0:0:0:
291,108,60570,1,0,0:0:0:0:
321,177,60685,2,0,L|312:120,1,40,8|0,0:0|0:0,0:0:0:0:
355,77,60916,1,2,0:0:0:0:
291,108,61031,1,0,0:0:0:0:
391,140,61147,1,2,0:3:0:0:
341,247,61320,22,0,P|310:223|205:222,1,143.999995605469,4|0,0:3|0:0,0:0:0:0:
182,244,61608,6,0,L|98:237,1,80,6|0,0:0|0:0,0:0:0:0:
66,174,61954,2,0,L|150:167,1,80,0|0,0:0|0:0,0:0:0:0:
243,73,62416,1,0,0:0:0:0:
277,5,62531,2,0,L|270:62,1,40,8|0,0:0|0:0,0:0:0:0:
225,99,62762,2,0,L|232:156,1,40,2|0,0:0|0:0,0:0:0:0:
300,120,62993,2,0,L|397:127,1,80,2|0,0:3|0:0,0:0:0:0:
451,134,63339,1,0,0:0:0:0:
443,242,63454,54,0,L|433:150,1,80,6|2,0:0|0:0,0:0:0:0:
361,170,63801,2,0,L|369:249,1,80,0|0,0:0|0:0,0:0:0:0:
175,122,64262,1,0,0:0:0:0:
206,57,64378,22,0,B|214:25|232:35|232:35|277:61|238:125,1,136.000002593994,10|2,0:0|0:0,0:0:0:0:
141,184,64724,2,0,B|109:193|108:172|108:172|108:120|183:122,1,136.000002593994,2|0,0:0|0:0,0:0:0:0:
288,181,65070,2,0,B|311:203|294:214|294:214|249:240|213:174,1,136.000002593994,2|6,0:0|0:0,0:0:0:0:
372,76,65531,5,0,0:0:0:0:
436,109,65647,1,0,0:0:0:0:
364,6,65878,1,0,0:0:0:0:
303,125,66108,1,0,0:0:0:0:
233,104,66224,2,0,L|278:107,1,40,8|0,0:0|0:0,0:0:0:0:
332,146,66454,2,0,L|377:149,1,40,2|0,0:0|0:0,0:0:0:0:
436,109,66685,2,0,L|445:203,1,80,2|0,0:3|0:0,0:0:0:0:
453,260,67031,1,0,0:0:0:0:
371,148,67147,54,0,L|362:242,1,80,6|0,0:0|0:0,0:0:0:0:
302,267,67493,2,0,L|293:361,1,80,2|0,0:0|0:0,0:0:0:0:
165,236,67954,1,0,0:0:0:0:
101,268,68070,2,0,L|147:261,1,40,8|0,0:0|0:0,0:0:0:0:
211,246,68301,1,2,0:0:0:0:
153,288,68416,1,0,0:0:0:0:
189,213,68531,1,2,0:3:0:0:
51,313,68704,22,0,P|78:279|92:182,1,143.999995605469,4|0,0:3|0:0,0:0:0:0:
61,160,68993,6,0,L|70:73,1,80,6|0,0:0|0:0,0:0:0:0:
141,88,69339,2,0,L|132:1,1,80,0|0,0:0|0:0,0:0:0:0:
286,108,69801,1,0,0:0:0:0:
215,118,69916,2,0,L|260:123,1,40,8|0,0:0|0:0,0:0:0:0:
321,94,70147,2,0,L|366:89,1,40,2|0,0:0|0:0,0:0:0:0:
432,78,70378,1,2,0:3:0:0:
364,55,70493,1,2,0:0:0:0:
471,60,70608,1,8,0:0:0:0:
301,330,72685,38,0,L|308:262,1,54.0000002059937,14|8,0:0|0:0,0:0:0:0:
325,191,72916,1,8,0:0:0:0:
281,252,73031,1,8,0:0:0:0:
358,217,73147,2,0,L|250:225,1,108.000000411987,10|8,0:0|0:0,0:0:0:0:
133,180,73493,1,8,0:0:0:0:
175,237,73608,2,0,B|191:154|191:154|209:186,2,108.000000411987,10|8|10,0:0|0:0|0:0,0:0:0:0:
333,118,74301,2,0,L|343:154,2,27.0000001029968,8|8|8,0:0|0:0|0:0,0:0:0:0:
280,73,74531,6,0,L|390:82,1,108.000000411987,10|8,0:0|0:0,0:0:0:0:
131,201,74993,1,10,0:0:0:0:
202,174,75108,2,0,L|94:182,1,108.000000411987,8|8,0:0|0:0,0:0:0:0:
26,213,75454,2,0,L|-10:205,2,27.0000001029968,10|8|8,0:0|0:0|0:0,0:0:0:0:
87,254,75685,2,0,B|94:339|94:339|113:308,1,108.000000411987,8|2,0:0|0:0,0:0:0:0:
278,159,76147,2,0,L|267:218,1,54.0000002059937,8|8,0:0|0:0,0:0:0:0:
246,337,76378,86,0,L|255:283,1,54.0000002059937,14|8,0:0|0:0,0:0:0:0:
339,247,76608,1,8,0:0:0:0:
376,314,76724,1,8,0:0:0:0:
429,269,76839,2,0,L|314:275,1,108.000000411987,10|8,0:0|0:0,0:0:0:0:
254,283,77185,1,8,0:0:0:0:
348,212,77301,2,0,B|332:295|332:295|320:274,2,108.000000411987,10|8|10,0:0|0:0|0:0,0:0:0:0:
450,74,77993,2,0,L|444:45,2,27.0000001029968,8|8|8,0:0|0:0|0:0,0:0:0:0:
500,125,78224,6,0,L|368:113,1,108.000000411987,10|8,0:0|0:0,0:0:0:0:
206,100,78685,1,10,0:0:0:0:
209,22,78800,2,0,L|227:138,1,108.000000411987,8|8,0:0|0:0,0:0:0:0:
219,205,79147,2,0,L|211:245,2,27.0000001029968,10|8|8,0:0|0:0|0:0,0:0:0:0:
287,171,79378,2,0,B|370:178|370:178|342:200,1,108.000000411987,8|2,0:0|0:0,0:0:0:0:
104,153,79839,2,0,L|169:158,1,54.0000002059937,8|8,0:0|0:0,0:0:0:0:
369,287,80070,86,0,L|315:282,1,54.0000002059937,14|8,0:0|0:0,0:0:0:0:
187,314,80301,1,8,0:0:0:0:
243,255,80416,1,8,0:0:0:0:
223,339,80531,2,0,L|213:224,1,108.000000411987,10|8,0:0|0:0,0:0:0:0:
194,98,80878,1,8,0:0:0:0:
157,157,80993,2,0,B|240:142|240:142|224:160,2,108.000000411987,10|8|10,0:0|0:0|0:0,0:0:0:0:
369,287,81685,2,0,L|342:284,2,27.0000001029968,8|8|8,0:0|0:0|0:0,0:0:0:0:
407,348,81916,6,0,L|422:239,1,108.000000411987,10|8,0:0|0:0,0:0:0:0:
225,160,82378,1,10,0:0:0:0:
229,71,82493,2,0,L|243:179,1,108.000000411987,8|8,0:0|0:0,0:0:0:0:
317,195,82839,2,0,L|350:198,2,27.0000001029968,10|8|8,0:0|0:0|0:0,0:0:0:0:
265,251,83070,2,0,B|178:245|178:245|203:269,1,108.000000411987,8|2,0:0|0:0,0:0:0:0:
446,266,83531,2,0,L|392:262,1,54.0000002059937,8|8,0:0|0:0,0:0:0:0:
243,177,83762,86,0,L|189:173,1,54.0000002059937,14|8,0:0|0:0,0:0:0:0:
108,235,83993,1,8,0:0:0:0:
169,289,84108,1,8,0:0:0:0:
85,269,84224,2,0,L|196:259,1,108.000000411987,10|8,0:0|0:0,0:0:0:0:
327,292,84570,1,8,0:0:0:0:
268,330,84685,2,0,B|282:246|282:246|264:262,2,108.000000411987,10|8|10,0:0|0:0|0:0,0:0:0:0:
97,164,85378,2,0,L|93:138,2,27.0000001029968,8|8|8,0:0|0:0|0:0,0:0:0:0:
447,135,87454,70,0,L|516:130,2,60.0000022888184,14|8|8,0:0|0:0|0:0,0:0:0:0:
335,124,87801,1,8,0:0:0:0:
388,197,87916,2,0,B|408:117|408:117|395:81,1,120.000004577637,10|8,0:0|0:0,0:0:0:0:
361,17,88262,1,8,0:0:0:0:
335,124,88378,2,0,L|275:117,1,60.0000022888184,10|0,0:0|0:0,0:0:0:0:
167,203,88608,2,0,L|202:154,1,60.0000022888184,8|0,0:0|0:0,0:0:0:0:
185,18,88839,2,0,L|209:72,1,60.0000022888184,10|0,0:0|0:0,0:0:0:0:
173,274,89070,70,0,P|170:301|151:242,1,210.000002002716,8|0,0:0|0:0,0:0:0:0:
167,203,89301,38,0,L|293:220,1,120.000004577637,10|8,0:0|0:3,0:0:0:0:
428,238,89647,1,0,0:0:0:0:
365,273,89762,2,0,B|356:244|356:244|360:212,1,60.0000022888184,10|8,0:0|0:0,0:0:0:0:
433,111,89993,1,8,0:0:0:0:
474,176,90108,1,8,0:0:0:0:
376,143,90224,2,0,L|435:153,1,60.0000022888184,10|8,0:0|0:0,0:0:0:0:
246,120,90454,2,0,L|305:130,1,60.0000022888184,8|0,0:0|0:0,0:0:0:0:
74,87,90685,38,0,L|87:89,1,14,8|0,0:0|0:0,0:0:0:0:
157,62,91147,38,0,L|164:136,1,60.0000022888184,14|8,0:0|0:0,0:0:0:0:
173,258,91378,1,8,0:0:0:0:
202,185,91493,1,8,0:0:0:0:
135,240,91608,2,0,B|217:228|217:228|261:250,1,120.000004577637,10|8,0:0|0:0,0:0:0:0:
313,287,91954,1,8,0:0:0:0:
240,380,92070,2,0,L|245:320,1,60.0000022888184,10|0,0:0|0:0,0:0:0:0:
383,250,92301,2,0,L|388:309,1,60.0000022888184,8|0,0:0|0:0,0:0:0:0:
250,244,92531,2,0,L|255:184,1,60.0000022888184,10|0,0:0|0:0,0:0:0:0:
445,153,92762,70,0,P|466:194|387:158,1,210.000002002716,8|0,0:0|0:0,0:0:0:0:
389,102,92993,38,0,L|519:119,1,120.000004577637,10|8,0:0|0:3,0:0:0:0:
315,90,93339,1,0,0:0:0:0:
241,79,93454,2,0,L|181:71,1,60.0000022888184,10|8,0:0|0:0,0:0:0:0:
37,92,93685,1,0,0:0:0:0:
92,28,93801,1,8,0:0:0:0:
115,113,93916,2,0,L|107:53,1,60.0000022888184,2|8,0:0|0:0,0:0:0:0:
55,224,94147,2,0,L|47:164,1,60.0000022888184,8|0,0:0|0:0,0:0:0:0:
124,353,94378,38,0,L|122:340,1,14,8|0,0:0|0:0,0:0:0:0:
185,314,94839,38,0,L|66:298,1,120.000004577637,14|8,0:0|0:0,0:0:0:0:
125,354,95185,1,8,0:0:0:0:
273,319,95301,2,0,B|260:346|260:346|249:256,1,120.000004577637,10|8,0:0|0:0,0:0:0:0:
240,184,95647,1,8,0:0:0:0:
371,204,95762,2,0,L|311:196,1,60.0000022888184,10|0,0:0|0:0,0:0:0:0:
248,110,95993,2,0,L|256:51,1,60.0000022888184,8|0,0:0|0:0,0:0:0:0:
106,167,96224,2,0,L|165:174,1,60.0000022888184,10|0,0:0|0:0,0:0:0:0:
180,290,96454,70,0,P|154:249|243:271,1,210.000002002716
243,332,96685,38,0,L|121:345,1,120.000004577637,10|8,0:0|0:3,0:0:0:0:
319,321,97031,1,0,0:0:0:0:
359,180,97147,2,0,B|349:156|349:156|332:249,1,120.000004577637,10|0,0:0|0:0,0:0:0:0:
319,321,97493,1,0,0:0:0:0:
454,305,97608,2,0,L|378:313,1,60.0000022888184,10|0,0:0|0:0,0:0:0:0:
188,262,97839,2,0,L|247:255,1,60.0000022888184,8|0,0:0|0:0,0:0:0:0:
454,305,98070,38,0,L|441:306,1,14,10|0,0:0|0:0,0:0:0:0:
384,371,98531,38,0,L|409:232,1,120.000004577637,14|8,0:0|0:0,0:0:0:0:
431,119,98878,1,8,0:3:0:0:
483,203,98993,2,0,B|397:183|397:183|367:194,1,120.000004577637,10|8,0:0|0:0,0:0:0:0:
334,256,99339,1,8,0:0:0:0:
196,295,99454,2,0,L|134:281,1,60.0000022888184,10|0,0:0|0:0,0:0:0:0:
264,313,99685,6,0,L|293:319,1,30.0000011444092,2|2,0:0|0:0,0:0:0:0:
221,212,99916,2,0,L|193:222,1,27.9999991455078,2|0,0:0|0:0,0:0:0:0:
64,192,100147,2,0,L|83:169,1,27.9999991455078,2|0,0:0|0:0,0:0:0:0:
264,313,100378,6,0,L|293:319,1,30,6|0,0:0|0:0,0:0:0:0:
364,335,101070,1,0,0:0:0:0:
194,297,101301,2,0,L|172:292,1,20,0|0,0:0|0:0,0:0:0:0:
364,335,101762,2,0,L|400:344,1,35,0|0,0:0|0:0,0:0:0:0:
300,379,102224,70,0,B|286:338|286:338|311:236,1,143.999995605469,6|0,0:0|0:0,0:0:0:0:
327,168,102570,1,0,0:0:0:0:
174,292,102685,2,0,B|74:300|74:300|112:266,1,143.999995605469,8|2,0:3|0:3,0:0:0:0:
158,220,103031,2,0,L|238:216,1,71.9999978027344,0|2,0:0|0:0,0:0:0:0:
87,202,103262,1,8,0:3:0:0:
150,81,103378,2,0,L|135:161,1,71.9999978027344,2|0,0:3|0:0,0:0:0:0:
39,375,103608,2,0,L|21:232,1,143.999995605469,8|2,0:3|0:3,0:0:0:0:
10,162,103954,1,0,0:0:0:0:
298,242,104070,70,0,P|303:285|239:213,1,280.000002670288,2|2,0:0|0:3,0:0:0:0:
398,123,104416,37,0,0:0:0:0:
378,297,104531,2,0,B|390:192|390:192|363:228,1,143.999995605469,8|2,0:3|0:3,0:0:0:0:
248,270,104878,1,8,0:3:0:0:
105,289,104993,2,0,L|176:279,2,71.9999978027344,2|8|2,0:0|0:3|0:3,0:0:0:0:
503,140,105454,38,0,L|490:139,1,14,8|0,0:3|0:0,0:0:0:0:
440,71,105916,38,0,L|457:225,1,143.999995605469,6|0,0:0|0:0,0:0:0:0:
465,287,106262,1,0,0:0:0:0:
270,145,106378,2,0,B|375:156|375:156|318:180,1,143.999995605469,8|2,0:3|0:3,0:0:0:0:
282,217,106724,2,0,L|207:207,1,71.9999978027344,0|2,0:0|0:0,0:0:0:0:
71,186,106954,1,8,0:3:0:0:
148,152,107070,2,0,L|140:224,1,71.9999978027344,2|0,0:3|0:0,0:0:0:0:
123,367,107301,2,0,L|140:222,1,143.999995605469,8|2,0:3|0:3,0:0:0:0:
148,153,107647,1,0,0:0:0:0:
251,352,107762,70,0,P|248:244|319:325,1,280.000002670288,2|2,0:0|0:3,0:0:0:0:
123,367,108108,37,0,0:0:0:0:
2,234,108224,2,0,B|110:209|110:209|150:229,1,143.999995605469,8|2,0:3|0:3,0:0:0:0:
269,298,108570,1,8,0:3:0:0:
415,319,108685,2,0,L|344:310,2,71.9999978027344,2|8|2,0:0|0:3|0:3,0:0:0:0:
245,133,109147,2,0,B|262:165|262:165|255:200,1,71.9999978027344,8|0,0:3|0:0,0:0:0:0:
139,223,109378,2,0,B|122:191|122:191|128:155,1,71.9999978027344,2|0,0:3|0:0,0:0:0:0:
336,190,109608,86,0,L|192:177,1,143.999995605469,6|0,0:0|0:0,0:0:0:0:
260,217,109954,1,0,0:0:0:0:
429,202,110070,2,0,B|412:235|412:235|397:129,1,143.999995605469,8|2,0:3|0:3,0:0:0:0:
365,56,110416,2,0,L|445:63,1,71.9999978027344,0|2,0:0|0:0,0:0:0:0:
290,49,110647,1,8,0:3:0:0:
216,42,110762,2,0,L|144:35,1,71.9999978027344,2|0,0:3|0:0,0:0:0:0:
0,113,110993,2,0,B|108:102|108:102|140:124,1,143.999995605469,8|2,0:3|0:3,0:0:0:0:
190,171,111339,1,0,0:0:0:0:
103,343,111454,70,0,P|22:270|130:274,1,280.000002670288,2|2,0:0|0:3,0:0:0:0:
220,370,111801,37,0,0:0:0:0:
347,258,111916,2,0,B|241:233|241:233|208:244,1,143.999995605469,8|2,0:3|0:3,0:0:0:0:
75,292,112262,1,8,0:3:0:0:
95,145,112377,2,0,L|86:216,2,71.9999978027344,2|8|2,0:0|0:3|0:3,0:0:0:0:
348,349,112839,38,0,L|346:336,1,14,8|0,0:3|0:0,0:0:0:0:
280,287,113301,38,0,L|423:301,1,143.999995605469,6|0,0:0|0:0,0:0:0:0:
498,308,113647,1,0,0:0:0:0:
396,118,113762,2,0,B|414:224|414:224|435:184,1,143.999995605469,8|2,0:3|0:3,0:0:0:0:
471,131,114108,2,0,L|458:55,1,71.9999978027344,0|2,0:0|0:0,0:0:0:0:
504,200,114339,1,8,0:3:0:0:
396,118,114454,2,0,L|323:111,1,71.9999978027344,2|0,0:3|0:0,0:0:0:0:
280,287,114685,2,0,L|423:301,1,143.999995605469,8|2,0:3|0:3,0:0:0:0:
345,335,115031,1,0,0:0:0:0:
213,252,115147,70,0,P|191:146|276:213,1,280.000002670288,2|2,0:0|0:3,0:0:0:0:
214,327,115493,38,0,L|133:319,1,71.9999978027344,0|2,0:0|0:0,0:0:0:0:
66,313,115724,1,8,0:3:0:0:
280,287,115839,1,2,0:0:0:0:
280,287,116070,6,0,L|286:309,1,20
324,225,116416,2,0,L|328:216,1,10,0|0,0:0|0:0,0:0:0:0:
294,148,116647,2,0,L|292:138,2,10,0|0|0,0:0|0:0|0:0,0:0:0:0:
247,221,116993,6,0,L|172:229,2,60.0000022888184,14|8|8,0:0|0:0|0:0,0:0:0:0:
328,215,117339,1,8,0:0:0:0:
412,254,117454,2,0,B|391:271|391:271|410:164,1,120.000004577637,10|8,0:0|0:0,0:0:0:0:
421,106,117801,1,8,0:0:0:0:
510,116,117916,2,0,L|435:124,1,60.0000022888184,10|0,0:0|0:0,0:0:0:0:
357,29,118147,2,0,L|417:23,1,60.0000022888184,8|0,0:0|0:0,0:0:0:0:
346,135,118378,2,0,L|271:143,1,60.0000022888184,10|0,0:0|0:0,0:0:0:0:
197,67,118608,22,0,P|203:41|211:84,1,120,8|0,0:0|0:0,0:0:0:0:
210,152,118839,6,0,L|88:163,1,120.000004577637,10|8,0:0|0:3,0:0:0:0:
287,141,119185,1,0,0:0:0:0:
264,269,119301,2,0,B|254:242|254:242|263:196,1,60.0000022888184,2|8,0:0|0:0,0:0:0:0:
355,110,119531,2,0,B|365:137|365:137|357:182,1,60.0000022888184,0|8,0:0|0:0,0:0:0:0:
394,320,119762,1,10,0:0:0:0:
382,245,119877,1,8,0:0:0:0:
433,191,119993,1,8,0:0:0:0:
45,266,120224,70,0,L|32:264,1,14,2|0,0:0|0:0,0:0:0:0:
99,333,120685,86,0,L|162:328,1,60.0000022888184,14|8,0:0|0:0,0:0:0:0:
124,255,120916,2,0,L|188:250,1,60.0000022888184,8|8,0:0|0:0,0:0:0:0:
91,102,121147,2,0,B|78:192|78:192|113:166,1,120.000004577637,10|8,0:0|0:0,0:0:0:0:
161,131,121493,1,8,0:0:0:0:
172,48,121608,2,0,L|183:117,1,60.0000022888184,10|0,0:0|0:0,0:0:0:0:
256,198,121839,2,0,L|265:138,1,60.0000022888184,8|0,0:0|0:0,0:0:0:0:
326,19,122070,2,0,L|337:88,1,60.0000022888184,10|0,0:0|0:0,0:0:0:0:
408,165,122301,22,0,P|372:198|368:147,1,120,8|0,0:0|0:0,0:0:0:0:
409,89,122531,6,0,B|501:100|501:100|464:116,1,120.000004577637,10|8,0:0|0:3,0:0:0:0:
335,78,122878,1,0,0:0:0:0:
261,68,122993,2,0,L|202:61,1,60.0000022888184,10|0,0:0|0:0,0:0:0:0:
128,49,123224,2,0,L|68:41,1,60.0000022888184,8|8,0:0|0:0,0:0:0:0:
167,178,123454,1,10,0:0:0:0:
116,124,123570,1,8,0:0:0:0:
128,49,123685,1,8,0:0:0:0:
93,245,123916,70,0,L|92:252,1,8,10|0,0:0|0:0,0:0:0:0:
174,297,124378,86,0,L|165:161,1,120.000004577637,6|0,0:0|0:0,0:0:0:0:
238,197,124724,2,0,L|242:268,1,60.0000022888184,8|2,0:0|0:0,0:0:0:0:
246,331,124954,1,0,0:0:0:0:
246,331,125070,2,0,L|300:359,1,60.0000022888184,8|8,0:0|0:0,0:0:0:0:
395,278,125301,2,0,B|309:285|309:285|336:253,1,120.000004577637,2|8,0:0|0:0,0:0:0:0:
381,204,125647,2,0,B|467:197|467:197|440:229,1,120.000004577637
331,147,125993,22,0,P|336:98|373:134,1,120,8|0,0:0|0:0,0:0:0:0:
381,204,126224,6,0,L|375:278,1,60.0000022888184,10|8,0:0|0:0,0:0:0:0:
316,358,126454,1,8,0:0:0:0:
316,358,126570,2,0,L|308:298,1,60.0000022888184,8|10,0:0|0:0,0:0:0:0:
253,163,126801,1,0,0:0:0:0:
286,232,126916,2,0,B|251:240|251:240|169:218,1,120.000004577637,8|10,0:0|0:0,0:0:0:0:
376,263,127262,2,0,B|411:255|411:255|494:277,1,120.000004577637,8|8,0:0|0:0,0:0:0:0:
316,358,127608,70,0,L|315:350,1,8,2|0,0:0|0:0,0:0:0:0:
273,36,128070,86,0,L|290:163,1,120.000004577637,10|0,0:0|0:0,0:0:0:0:
214,145,128416,2,0,L|206:81,1,60.0000022888184,8|0,0:0|0:0,0:0:0:0:
198,12,128647,1,8,0:0:0:0:
135,61,128762,2,0,L|65:55,1,60.0000022888184,0|8,0:0|0:0,0:0:0:0:
0,120,128993,2,0,B|92:129|92:129|56:153,1,120.000004577637,10|8,0:0|0:0,0:0:0:0:
195,220,129339,2,0,B|103:211|103:211|139:187,1,120.000004577637,8|0,0:0|0:0,0:0:0:0:
251,273,129685,22,0,P|246:322|209:288,1,113.999996955872,2|0,0:0|0:0,0:0:0:0:
194,219,129916,54,0,L|200:187,1,30,6|0,0:0|0:0,0:0:0:0:
214,117,130608,1,0,0:0:0:0:
372,326,130839,37,8,0:3:0:0:
269,168,130993,1,8,0:3:0:0:
351,0,131147,1,8,0:3:0:0:
72,151,131301,1,2,0:0:0:0:
63,125,131762,22,0,B|165:113|165:113|204:130,1,143.999995605469,6|0,0:0|0:0,0:0:0:0:
269,168,132108,1,0,0:0:0:0:
144,263,132224,2,0,L|154:176,1,71.9999978027344,8|0,0:3|0:0,0:0:0:0:
278,96,132454,2,0,L|269:167,1,71.9999978027344,2|0,0:3|0:0,0:0:0:0:
460,230,132685,1,2,0:0:0:0:
487,153,132801,2,0,L|416:162,1,71.9999978027344,8|2,0:3|0:3,0:0:0:0:
278,96,133031,1,0,0:0:0:0:
234,28,133147,2,0,L|305:19,1,71.9999978027344,8|0,0:3|0:0,0:0:0:0:
259,238,133378,2,0,L|268:167,1,71.9999978027344,2|0,0:3|0:0,0:0:0:0:
465,274,133608,70,0,P|490:306|401:289,1,210.000002002716,2|0,0:0|0:0,0:0:0:0:
468,292,133839,38,0,P|458:353|403:325,1,143.999995605469,2|8,0:3|0:3,0:0:0:0:
406,166,134185,2,0,L|397:238,1,71.9999978027344,0|2,0:0|0:3,0:0:0:0:
417,91,134416,1,8,0:3:0:0:
326,75,134531,2,0,L|413:65,1,71.9999978027344,2|8,0:0|0:3,0:0:0:0:
180,92,134762,2,0,L|267:82,1,71.9999978027344,2|0,0:3|0:0,0:0:0:0:
508,78,134993,2,0,B|396:66|396:66|423:97,1,143.999995605469,8|2,0:3|0:3,0:0:0:0:
119,326,135454,86,0,B|7:337|7:337|34:306,1,143.999995605469,6|0,0:0|0:0,0:0:0:0:
81,257,135801,1,0,0:0:0:0:
195,350,135916,2,0,L|185:263,1,71.9999978027344,8|0,0:3|0:0,0:0:0:0:
259,139,136147,2,0,L|268:211,1,71.9999978027344,2|0,0:3|0:0,0:0:0:0:
486,245,136378,1,2,0:0:0:0:
410,268,136493,2,0,L|419:196,1,71.9999978027344,8|2,0:3|0:3,0:0:0:0:
174,127,136724,1,0,0:0:0:0:
129,194,136839,2,0,L|205:203,1,71.9999978027344,8|0,0:3|0:0,0:0:0:0:
340,219,137070,2,0,L|269:211,1,71.9999978027344,2|0,0:3|0:0,0:0:0:0:
129,194,137301,22,0,L|99:191,1,30,2|2,0:0|0:0,0:0:0:0:
340,219,137762,86,0,L|491:236,1,143.999995605469,8|2,0:3|0:3,0:0:0:0:
269,211,138108,1,8,0:3:0:0:
129,194,138224,2,0,L|200:202,1,71.9999978027344,2|8,0:0|0:3,0:0:0:0:
55,185,138454,1,2,0:3:0:0:
383,339,138685,86,0,L|419:332,1,35.9999989013672,8|0,0:3|0:0,0:0:0:0:
317,286,138916,2,0,L|345:262,1,35.9999989013672,2|0,0:0|0:0,0:0:0:0:
218,345,139147,6,0,L|274:197,1,143.999995605469,6|0,0:0|0:0,0:0:0:0:
296,140,139493,1,0,0:0:0:0:
317,286,139608,2,0,L|329:378,1,71.9999978027344,8|0,0:3|0:0,0:0:0:0:
259,139,139839,2,0,L|269:211,1,71.9999978027344,2|0,0:3|0:0,0:0:0:0:
79,259,140070,1,2,0:0:0:0:
56,180,140185,2,0,L|128:190,1,71.9999978027344,8|2,0:3|0:3,0:0:0:0:
394,229,140416,1,0,0:0:0:0:
440,165,140531,2,0,L|368:155,1,71.9999978027344,8|0,0:3|0:0,0:0:0:0:
198,199,140762,2,0,L|126:189,1,71.9999978027344,2|0,0:3|0:0,0:0:0:0:
430,87,140993,54,0,P|443:48|477:132,1,210.000002002716,2|0,0:0|0:0,0:0:0:0:
443,73,141224,22,0,P|499:47|505:109,1,143.999995605469,2|8,0:3|0:3,0:0:0:0:
430,236,141570,2,0,L|440:164,1,71.9999978027344,0|2,0:0|0:3,0:0:0:0:
417,314,141801,1,8,0:3:0:0:
317,306,141916,2,0,L|404:296,1,71.9999978027344,2|8,0:0|0:3,0:0:0:0:
171,323,142147,2,0,L|258:313,1,71.9999978027344,2|0,0:3|0:0,0:0:0:0:
335,199,142378,2,0,B|317:307|317:307|295:265,1,143.999995605469,8|2,0:3|0:3,0:0:0:0:
58,19,142839,6,0,B|76:127|76:127|98:85,1,143.999995605469,6|0,0:0|0:0,0:0:0:0:
136,37,143185,1,0,0:0:0:0:
145,149,143301,2,0,L|217:159,1,71.9999978027344,8|0,0:3|0:0,0:0:0:0:
358,68,143531,2,0,L|286:58,1,71.9999978027344,2|0,0:3|0:0,0:0:0:0:
456,283,143762,1,2,0:0:0:0:
479,205,143878,2,0,L|407:215,1,71.9999978027344,8|2,0:3|0:3,0:0:0:0:
84,271,144108,1,0,0:0:0:0:
162,298,144224,2,0,L|152:226,1,71.9999978027344,8|0,0:3|0:0,0:0:0:0:
11,246,144454,2,0,L|1:174,1,71.9999978027344,2|0,0:3|0:0,0:0:0:0:
337,288,144685,54,0,P|324:327|290:243,1,210.000002002716,2|0,0:0|0:0,0:0:0:0:
323,301,144916,22,0,P|267:326|261:265,1,143.999995605469,2|8,0:3|0:3,0:0:0:0:
455,53,145378,2,0,L|445:125,1,71.9999978027344,2|8,0:0|0:3,0:0:0:0:
346,51,145608,1,2,0:0:0:0:
351,89,145724,1,8,0:3:0:0:
298,151,145839,1,8,0:3:0:0:
303,189,145955,1,8,0:3:0:0:
261,265,146070,2,0,L|271:337,1,71.9999978027344,2|2,0:0|0:0,0:0:0:0:
180,232,146301,1,8,0:3:0:0:
175,270,146417,1,8,0:3:0:0:
134,331,146531,22,0,L|117:203,1,120,6|2,0:0|0:0,0:0:0:0:
106,140,146993,1,0,0:0:0:0:
106,140,147224,1,2,0:0:0:0:
238,53,147454,1,8,0:3:0:0:
221,171,147570,2,0,L|239:45,1,120,2|2,0:0|0:0,0:0:0:0:
386,245,148147,38,0,P|364:205|363:120,1,120,2|0,0:0|0:0,0:0:0:0:
402,126,148378,70,0,L|385:244,1,120,6|2,0:0|0:0,0:0:0:0:
373,319,148839,1,0,0:0:0:0:
373,319,149070,1,2,0:0:0:0:
192,279,149301,1,8,0:3:0:0:
312,268,149416,2,0,L|188:279,1,120,2|2,0:0|0:0,0:0:0:0:
77,128,149993,22,0,P|113:155|196:170,1,120,2|0,0:0|0:0,0:0:0:0:
197,139,150224,54,0,L|73:128,1,120,6|2,0:0|0:0,0:0:0:0:
1,120,150685,1,0,0:0:0:0:
1,120,150916,1,2,0:0:0:0:
282,77,151147,1,8,0:3:0:0:
292,196,151262,2,0,L|282:77,1,120,2|2,0:0|0:0,0:0:0:0:
48,248,151839,38,0,P|75:212|90:129,1,120,2|0,0:0|0:0,0:0:0:0:
58,128,152070,70,0,L|48:247,1,120,6|2,0:0|0:0,0:0:0:0:
42,328,152531,1,0,0:0:0:0:
42,328,152762,1,2,0:0:0:0:
255,279,152993,1,8,0:3:0:0:
136,289,153108,2,0,L|255:279,1,120,2|6,0:0|0:0,0:0:0:0:
137,251,153685,22,0,P|186:284|245:293,1,120,2|0,0:0|0:0,0:0:0:0:
255,279,153916,53,6,0:0:0:0:
264,266,154147,1,0,0:0:0:0:
273,253,154378,1,0,0:0:0:0:
282,240,154608,1,2,0:0:0:0:
179,74,154839,1,8,0:3:0:0:
182,89,155070,1,0,0:0:0:0:
185,104,155300,1,2,0:0:0:0:
188,119,155531,1,2,0:0:0:0:
449,239,155762,5,6,0:0:0:0:
455,224,155993,1,0,0:0:0:0:
462,209,156224,1,0,0:0:0:0:
469,194,156454,1,2,0:0:0:0:
415,41,156685,1,8,0:3:0:0:
295,28,156801,2,0,L|423:41,1,120,2|2,0:0|0:0,0:0:0:0:
294,65,157378,22,0,P|343:31|402:23,1,120,2|0,0:0|0:0,0:0:0:0:
414,40,157608,54,0,L|295:28,1,120,6|2,0:0|0:0,0:0:0:0:
283,38,158070,1,0,0:0:0:0:
271,47,158301,1,2,0:0:0:0:
182,162,158531,1,8,0:3:0:0:
175,147,158762,1,0,0:0:0:0:
167,133,158993,1,2,0:0:0:0:
160,118,159224,1,2,0:0:0:0:
24,2,159454,5,6,0:0:0:0:
21,17,159685,1,0,0:0:0:0:
18,32,159916,1,0,0:0:0:0:
15,47,160147,1,2,0:0:0:0:
130,233,160378,1,8,0:3:0:0:
249,221,160493,2,0,L|129:233,1,120,2|2,0:0|0:0,0:0:0:0:
67,279,161070,22,0,P|97:333|134:303,1,120,2|0,0:0|0:0,0:0:0:0:
130,233,161301,6,0,L|141:154,1,71.9999978027344,14|8,0:0|0:0,0:0:0:0:
240,178,161531,2,0,L|251:96,1,71.9999978027344,8|8,0:0|0:0,0:0:0:0:
440,147,161762,2,0,B|328:160|328:160|360:173,1,143.999995605469,10|8,0:0|0:0,0:0:0:0:
420,225,162108,1,8,0:0:0:0:
426,54,162224,2,0,B|394:67|394:67|502:83,1,143.999995605469,10|8,0:0|0:0,0:0:0:0:
502,83,162685,1,10,0:0:0:0:
101,31,162916,1,2,0:3:0:0:
178,40,163147,38,0,L|208:44,1,30,2|0,0:3|0:0,0:0:0:0:
101,31,163839,1,0,0:0:0:0:
284,55,164070,2,0,L|326:60,1,40,0|0,0:0|0:0,0:0:0:0:
512,104,164993,70,0,L|347:121,1,143.999995605469,6|0,0:0|0:0,0:0:0:0:
293,126,165339,1,0,0:0:0:0:
277,275,165454,2,0,L|285:203,1,71.9999978027344,8|0,0:3|0:0,0:0:0:0:
176,63,165685,1,2,0:3:0:0:
146,139,165801,2,0,L|217:133,1,71.9999978027344,0|2,0:0|0:0,0:0:0:0:
368,118,166031,1,8,0:3:0:0:
512,104,166147,2,0,L|441:110,1,71.9999978027344,2|0,0:3|0:0,0:0:0:0:
200,285,166378,2,0,L|208:213,1,71.9999978027344,8|0,0:3|0:0,0:0:0:0:
351,266,166608,2,0,L|359:194,1,71.9999978027344,2|0,0:3|0:0,0:0:0:0:
96,40,166839,6,0,B|206:48|206:48|164:70,1,143.999995605469,6|0,0:0|0:0,0:0:0:0:
120,115,167185,1,0,0:0:0:0:
350,61,167301,2,0,L|279:55,1,71.9999978027344,8|0,0:3|0:0,0:0:0:0:
206,48,167531,1,2,0:3:0:0:
499,78,167647,2,0,L|428:72,1,71.9999978027344,8|2,0:3|0:0,0:0:0:0:
59,36,167878,2,0,L|134:42,1,71.9999978027344,8|2,0:3|0:3,0:0:0:0:
206,48,168108,1,0,0:0:0:0:
217,235,168224,2,0,B|209:125|209:125|187:167,1,143.999995605469,8|2,0:3|0:3,0:0:0:0:
139,214,168570,1,0,0:0:0:0:
400,160,168685,86,0,B|409:48|409:48|430:90,1,143.999995605469,6|0,0:0|0:0,0:0:0:0:
478,138,169031,1,0,0:0:0:0:
387,303,169147,2,0,L|400:153,1,143.999995605469,8|2,0:3|0:3,0:0:0:0:
387,303,169493,2,0,L|380:374,1,71.9999978027344,2|2,0:0|0:0,0:0:0:0:
399,159,169724,1,8,0:3:0:0:
405,88,169839,2,0,L|411:12,1,71.9999978027344,2|0,0:3|0:0,0:0:0:0:
465,225,170070,2,0,L|394:232,1,71.9999978027344,8|0,0:3|0:0,0:0:0:0:
332,95,170301,2,0,L|260:101,1,71.9999978027344,2|0,0:3|0:0,0:0:0:0:
185,295,170531,70,0,P|183:336|208:296,1,108.000000411987,6|0,0:0|0:0,0:0:0:0:
156,170,170762,2,0,P|121:147|143:189,1,108.000000411987,2|0,0:3|0:0,0:0:0:0:
285,212,170993,2,0,P|321:193|274:191,1,108.000000411987,8|0,0:3|0:0,0:0:0:0:
104,267,171224,1,2,0:3:0:0:
45,210,171339,1,8,0:3:0:0:
39,295,171454,2,0,P|62:255|67:170,1,108.000000411987,2|8,0:0|0:3,0:0:0:0:
161,44,171685,2,0,P|164:103|191:156,1,108.000000411987,10|0,0:3|0:0,0:0:0:0:
467,101,171916,2,0,P|426:81|237:85,1,216.000000823975,8|8,0:3|0:3,0:0:0:0:
416,37,172262,1,8,0:3:0:0:
397,325,172378,22,0,L|384:175,1,143.999995605469,6|0,0:0|0:0,0:0:0:0:
377,107,172724,1,0,0:0:0:0:
237,170,172839,2,0,L|320:177,1,71.9999978027344,8|0,0:3|0:0,0:0:0:0:
468,286,173070,1,2,0:3:0:0:
397,325,173185,2,0,L|390:242,1,71.9999978027344,2|2,0:0|0:0,0:0:0:0:
377,107,173416,1,8,0:3:0:0:
315,250,173531,2,0,L|322:322,1,71.9999978027344,2|0,0:3|0:0,0:0:0:0:
159,161,173762,2,0,L|88:155,1,71.9999978027344,8|0,0:3|0:0,0:0:0:0:
300,98,173993,2,0,L|228:91,1,71.9999978027344,2|0,0:3|0:0,0:0:0:0:
465,334,174224,6,0,L|315:321,1,143.999995605469,6|0,0:0|0:0,0:0:0:0:
246,314,174570,1,0,0:0:0:0:
23,292,174685,2,0,L|94:298,1,71.9999978027344,8|0,0:3|0:0,0:0:0:0:
170,306,174916,1,2,0:3:0:0:
159,161,175031,2,0,L|165:232,1,71.9999978027344,8|2,0:3|0:0,0:0:0:0:
308,178,175262,2,0,L|314:249,1,71.9999978027344,8|2,0:3|0:3,0:0:0:0:
321,321,175493,1,0,0:0:0:0:
496,217,175608,2,0,B|386:207|386:207|428:185,1,143.999995605469,8|2,0:3|0:3,0:0:0:0:
49,171,176070,86,0,B|158:161|158:161|116:139,1,143.999995605469,6|0,0:0|0:0,0:0:0:0:
72,90,176416,1,0,0:0:0:0:
415,120,176531,2,0,L|271:132,1,143.999995605469,8|2,0:3|0:3,0:0:0:0:
415,120,176878,2,0,L|486:114,1,71.9999978027344,2|2,0:0|0:0,0:0:0:0:
271,132,177108,1,8,0:3:0:0:
199,138,177224,2,0,L|128:144,1,71.9999978027344,2|0,0:3|0:0,0:0:0:0:
349,54,177454,2,0,L|343:125,1,71.9999978027344,8|0,0:3|0:0,0:0:0:0:
194,211,177685,2,0,L|188:282,1,71.9999978027344,2|0,0:3|0:0,0:0:0:0:
489,229,177916,70,0,P|498:187|461:209,1,108.000000411987,6|0,0:0|0:0,0:0:0:0:
332,250,178147,2,0,P|296:226|338:216,1,108.000000411987,2|0,0:3|0:0,0:0:0:0:
431,333,178378,2,0,P|430:377|399:346,1,108.000000411987,2|8,0:0|0:3,0:0:0:0:
267,330,178608,1,8,0:3:0:0:
187,282,178724,1,8,0:3:0:0:
257,250,178839,2,0,P|230:296|221:349,1,108.000000411987,8|8,0:3|0:3,0:0:0:0:
33,209,179070,1,8,0:3:0:0:
110,153,179186,1,8,0:3:0:0:
83,224,179301,2,0,P|73:185|50:153,7,54.0000002059937,8|8|8|8|8|8|8|8,0:0|0:0|0:0|0:0|0:0|0:0|0:0|0:0,0:0:0:0:
0,136,179762,85,6,0:0:0:0:
512,65,180224,1,6,0:0:0:0:
512,65,180685,1,6,0:0:0:0:
298,200,181147,1,6,0:0:0:0:
298,200,181378,1,6,0:0:0:0:
157,101,181608,70,0,L|151:156,1,54.0000002059937,14|8,0:0|0:0,0:0:0:0:
175,262,181839,1,8,0:0:0:0:
131,190,181954,1,8,0:0:0:0:
222,207,182070,2,0,L|114:219,1,108.000000411987,10|8,0:0|0:0,0:0:0:0:
298,200,182416,1,8,0:0:0:0:
280,361,182531,2,0,B|290:275|290:275|310:304,2,108.000000411987,10|8|10,0:0|0:0|0:0,0:0:0:0:
425,236,183224,2,0,L|420:203,2,27.0000001029968,8|8|8,0:0|0:0|0:0,0:0:0:0:
455,274,183454,6,0,L|440:155,1,108.000000411987,10|8,0:0|0:0,0:0:0:0:
266,219,183916,1,10,0:0:0:0:
190,186,184031,2,0,L|297:199,1,108.000000411987,8|8,0:0|0:0,0:0:0:0:
352,251,184378,2,0,L|356:277,2,27.0000001029968,10|8|8,0:0|0:0|0:0,0:0:0:0:
370,175,184608,2,0,B|358:89|358:89|345:119,1,108.000000411987,8|2,0:0|0:0,0:0:0:0:
168,318,185070,2,0,L|176:261,1,54.0000002059937,8|8,0:0|0:0,0:0:0:0:
197,132,185301,86,0,L|189:185,1,54.0000002059937,14|8,0:0|0:0,0:0:0:0:
111,208,185531,1,8,0:0:0:0:
175,264,185647,1,8,0:0:0:0:
90,242,185762,2,0,L|197:228,1,108.000000411987,10|8,0:0|0:0,0:0:0:0:
344,259,186108,1,8,0:0:0:0:
275,207,186224,2,0,B|263:293|263:293|250:263,2,108.000000411987,10|8|10,0:0|0:0|0:0,0:0:0:0:
82,136,186916,2,0,L|84:170,2,27.0000001029968,8|8|8,0:0|0:0|0:0,0:0:0:0:
37,83,187147,6,0,L|144:96,1,108.000000411987,10|8,0:0|0:0,0:0:0:0:
301,229,187608,1,10,0:0:0:0:
382,193,187724,2,0,L|274:206,1,108.000000411987,8|8,0:0|0:0,0:0:0:0:
214,159,188070,2,0,L|218:132,2,27.0000001029968,10|8|8,0:0|0:0|0:0,0:0:0:0:
202,233,188301,2,0,B|190:319|190:319|177:289,1,108.000000411987,8|2,0:0|0:0,0:0:0:0:
37,83,188762,2,0,L|45:138,1,54.0000002059937,8|8,0:0|0:0,0:0:0:0:
208,119,188993,38,0,L|217:59,2,60.0000022888184,14|8|8,0:0|0:0|0:0,0:0:0:0:
202,233,189339,1,8,0:0:0:0:
156,176,189454,2,0,B|189:159|189:159|288:176,1,120.000004577637,10|8,0:0|0:0,0:0:0:0:
342,187,189801,1,8,0:0:0:0:
355,260,189916,2,0,L|365:320,1,60.0000022888184,10|0,0:0|0:0,0:0:0:0:
350,110,190147,2,0,L|359:50,1,60.0000022888184,8|0,0:0|0:0,0:0:0:0:
417,176,190378,2,0,L|476:166,1,60.0000022888184,10|0,0:0|0:0,0:0:0:0:
212,210,190608,86,0,P|194:195|270:178,1,180.000006866455,8|0,0:0|0:0,0:0:0:0:
279,244,190839,70,0,L|263:365,1,120.000004577637,10|8,0:0|0:3,0:0:0:0:
103,320,191185,1,0,0:0:0:0:
171,277,191301,2,0,L|180:337,1,60.0000022888184,10|0,0:0|0:0,0:0:0:0:
212,210,191531,2,0,L|203:150,1,60.0000022888184,0|8,0:0|0:0,0:0:0:0:
193,76,191762,1,2,0:0:0:0:
163,144,191878,1,8,0:0:0:0:
134,208,191993,1,8,0:0:0:0:
38,21,192224,6,0,L|34:7,1,14,10|0,0:0|0:0,0:0:0:0:
0,93,192685,22,0,L|60:102,1,60.0000022888184,14|8,0:0|0:0,0:0:0:0:
133,67,192916,2,0,L|193:76,1,60.0000022888184,8|8,0:0|0:0,0:0:0:0:
258,16,193147,2,0,L|273:134,1,120.000004577637,10|8,0:0|0:0,0:0:0:0:
284,207,193493,1,8,0:0:0:0:
359,221,193608,2,0,L|419:230,1,60.0000022888184,10|0,0:0|0:0,0:0:0:0:
209,193,193839,2,0,L|149:184,1,60.0000022888184,8|0,0:0|0:0,0:0:0:0:
295,281,194070,2,0,L|304:341,1,60.0000022888184,10|0,0:0|0:0,0:0:0:0:
476,192,194301,86,0,P|494:207|418:224,1,180.000006866455,8|0,0:0|0:0,0:0:0:0:
410,158,194531,70,0,L|425:39,1,120.000004577637,10|8,0:0|0:3,0:0:0:0:
211,109,194878,1,0,0:0:0:0:
285,99,194993,2,0,L|345:90,1,60.0000022888184,2|8,0:0|0:0,0:0:0:0:
131,126,195224,2,0,L|71:135,1,60.0000022888184,8|8,0:0|0:0,0:0:0:0:
211,109,195454,1,10,0:0:0:0:
285,130,195570,1,8,0:0:0:0:
359,153,195685,1,8,0:0:0:0:
83,61,195916,6,0,L|69:56,1,14,10|0,0:0|0:0,0:0:0:0:
131,126,196378,22,0,L|122:186,1,60.0000022888184,14|8,0:0|0:0,0:0:0:0:
170,249,196608,2,0,L|161:309,1,60.0000022888184,8|8,0:0|0:0,0:0:0:0:
336,231,196839,2,0,B|242:244|242:244|264:255,1,120.000004577637,10|8,0:0|0:0,0:0:0:0:
322,308,197185,1,8,0:0:0:0:
350,156,197301,2,0,L|359:96,1,60.0000022888184,10|0,0:0|0:0,0:0:0:0:
418,266,197531,2,0,L|409:206,1,60.0000022888184,8|0,0:0|0:0,0:0:0:0:
314,368,197762,2,0,L|323:308,1,60.0000022888184,10|0,0:0|0:0,0:0:0:0:
192,107,197993,86,0,P|118:100|154:165,1,180.000006866455,8|0,0:0|0:0,0:0:0:0:
230,171,198224,70,0,L|349:156,1,120.000004577637,10|8,0:0|0:3,0:0:0:0:
432,341,198570,1,8,0:0:0:0:
477,274,198685,2,0,L|417:265,1,60.0000022888184,2|0,0:0|0:0,0:0:0:0:
263,299,198916,2,0,L|323:308,1,60.0000022888184,8|8,0:0|0:0,0:0:0:0:
491,242,199147,1,10,0:0:0:0:
417,265,199262,1,8,0:0:0:0:
343,286,199378,1,8,0:0:0:0:
104,146,199608,6,0,L|109:132,1,14,10|0,0:0|0:0,0:0:0:0:
25,138,200070,22,0,L|34:198,1,60.0000022888184,14|8,0:0|0:0,0:0:0:0:
105,224,200301,2,0,L|96:284,1,60.0000022888184,8|8,0:0|0:0,0:0:0:0:
43,336,200531,2,0,L|162:321,1,120.000004577637,10|8,0:0|0:0,0:0:0:0:
236,311,200878,1,8,0:0:0:0:
257,173,200993,2,0,L|248:233,1,60.0000022888184,10|0,0:0|0:0,0:0:0:0:
371,292,201224,2,0,L|311:301,1,60.0000022888184,8|0,0:0|0:0,0:0:0:0:
268,98,201454,2,0,L|277:38,1,60.0000022888184,10|0,0:0|0:0,0:0:0:0:
440,119,201685,86,0,P|366:112|402:177,1,180.000006866455,8|0,0:0|0:0,0:0:0:0:
470,184,201916,69,8,0:3:0:0:
88,274,203301,85,2,0:0:0:0:
362,70,203762,70,0,L|344:206,1,132.00000125885,6|2,0:0|0:0,0:0:0:0:
333,275,204108,1,2,0:0:0:0:
454,133,204224,2,0,L|388:141,1,66.0000006294251,8|2,0:3|0:0,0:0:0:0:
267,199,204454,1,0,0:0:0:0:
307,132,204570,1,8,0:3:0:0:
344,200,204685,6,0,L|328:66,1,132.00000125885,6|0,0:0|0:0,0:0:0:0:
208,142,205031,1,2,0:0:0:0:
131,133,205147,2,0,L|-1:117,1,132.00000125885,8|2,0:3|0:0,0:0:0:0:
208,142,205493,1,8,0:3:0:0:
193,273,205608,86,0,L|208:141,1,132.00000125885,6|2,0:0|0:0,0:0:0:0:
217,66,205954,1,2,0:0:0:0:
278,209,206070,2,0,L|343:200,1,66.0000006294251,8|2,0:3|0:0,0:0:0:0:
482,213,206301,1,0,0:0:0:0:
420,164,206416,1,8,0:3:0:0:
409,245,206531,6,0,L|393:113,1,132.00000125885,6|0,0:0|0:0,0:0:0:0:
303,0,206878,1,2,0:0:0:0:
293,77,206993,2,0,L|277:209,1,132.00000125885,8|2,0:3|0:0,0:0:0:0:
303,0,207339,1,8,0:3:0:0:
87,101,207454,86,0,L|219:85,1,132.00000125885,6|2,0:0|0:0,0:0:0:0:
293,77,207801,1,2,0:0:0:0:
203,197,207916,2,0,L|138:188,1,66.0000006294251,8|2,0:3|0:0,0:0:0:0:
0,195,208147,1,0,0:0:0:0:
68,149,208262,1,8,0:3:0:0:
72,233,208378,6,0,L|56:365,1,132.00000125885,6|0,0:0|0:0,0:0:0:0:
192,119,208724,1,2,0:0:0:0:
203,197,208839,2,0,L|219:329,1,132.00000125885,8|2,0:3|0:0,0:0:0:0:
192,119,209185,1,8,0:3:0:0:
401,148,209301,86,0,L|269:132,1,132.00000125885,6|2,0:0|0:0,0:0:0:0:
192,119,209647,1,2,0:0:0:0:
326,32,209762,2,0,L|335:97,1,66.0000006294251,8|2,0:3|0:0,0:0:0:0:
388,230,209993,1,0,0:0:0:0:
324,180,210108,1,8,0:3:0:0:
401,148,210224,6,0,L|466:156,1,66.0000006294251,6|2,0:0|0:0,0:0:0:0:
258,171,210454,2,0,L|323:179,1,66.0000006294251,0|2,0:0|0:0,0:0:0:0:
118,199,210685,38,0,L|183:207,1,66.0000006294251,8|2,0:3|0:0,0:0:0:0:
0,232,211031,1,8,0:3:0:0:
133,330,211147,38,0,L|117:198,1,132.00000125885,6|2,0:0|0:0,0:0:0:0:
108,123,211493,1,2,0:0:0:0:
370,75,211608,2,0,L|305:67,1,66.0000006294251,8|2,0:3|0:0,0:0:0:0:
171,76,211839,1,0,0:0:0:0:
235,32,211954,1,8,0:3:0:0:
240,109,212070,6,0,L|224:241,1,132.00000125885,6|0,0:0|0:0,0:0:0:0:
421,292,212416,1,2,0:0:0:0:
348,303,212531,2,0,L|216:319,1,132.00000125885,8|2,0:3|0:0,0:0:0:0:
421,292,212878,1,8,0:3:0:0:
224,240,212993,86,0,L|92:224,1,132.00000125885,6|2,0:0|0:0,0:0:0:0:
15,216,213339,1,2,0:0:0:0:
74,85,213454,2,0,L|82:150,1,66.0000006294251,8|2,0:3|0:0,0:0:0:0:
151,272,213685,1,0,0:0:0:0:
92,224,213801,1,8,0:3:0:0:
161,196,213916,6,0,L|293:180,1,132.00000125885,6|0,0:0|0:0,0:0:0:0:
349,331,214262,1,2,0:0:0:0:
357,257,214378,2,0,L|373:125,1,132.00000125885,8|2,0:3|0:0,0:0:0:0:
349,331,214724,1,8,0:3:0:0:
488,241,214839,86,0,L|356:257,1,132.00000125885,6|2,0:0|0:0,0:0:0:0:
284,266,215185,1,2,0:0:0:0:
83,161,215301,2,0,L|91:226,1,66.0000006294251,8|2,0:3|0:0,0:0:0:0:
138,358,215531,1,0,0:0:0:0:
78,307,215647,1,8,0:3:0:0:
152,281,215762,6,0,L|284:265,1,132.00000125885,6|0,0:0|0:0,0:0:0:0:
7,152,216108,1,2,0:0:0:0:
83,161,216224,2,0,L|215:177,1,132.00000125885,8|2,0:3|0:0,0:0:0:0:
7,152,216570,1,8,0:3:0:0:
198,45,216685,86,0,L|214:177,1,132.00000125885,6|2,0:0|0:0,0:0:0:0:
224,252,217031,1,2,0:0:0:0:
431,240,217147,2,0,L|366:232,1,66.0000006294251,8|2,0:3|0:0,0:0:0:0:
224,252,217378,1,0,0:0:0:0:
289,200,217493,1,8,0:3:0:0:
300,282,217608,6,0,L|308:347,1,66.0000006294251,6|0,0:0|0:0,0:0:0:0:
357,166,217839,2,0,L|365:231,1,66.0000006294251,0|2,0:0|0:0,0:0:0:0:
408,69,218070,1,8,0:3:0:0:
359,135,218185,1,8,0:3:0:0:
324,57,218301,1,8,0:3:0:0:
275,123,218416,1,8,0:3:0:0:
240,44,218531,5,2,0:0:0:0:
275,123,218878,1,2,0:0:0:0:
308,201,219224,1,2,0:0:0:0:
232,103,219454,6,0,L|240:44,1,60.0000022888184,14|8,0:0|0:0,0:0:0:0:
154,133,219684,2,0,L|161:73,1,60.0000022888184,8|8,0:0|0:0,0:0:0:0:
79,154,219915,2,0,B|90:60|90:60|66:86,1,120.000004577637,10|8,0:0|0:0,0:0:0:0:
10,124,220261,1,8,0:0:0:0:
57,233,220377,2,0,L|116:225,1,60.0000022888184,10|0,0:0|0:0,0:0:0:0:
187,291,220607,2,0,L|195:351,1,60.0000022888184,8|0,0:0|0:0,0:0:0:0:
309,200,220838,2,0,L|249:207,1,60.0000022888184,10|0,0:0|0:0,0:0:0:0:
48,309,221069,22,0,P|42:335|34:292,1,120,8|0,0:0|0:0,0:0:0:0:
57,233,221300,6,0,L|183:217,1,120.000004577637,10|8,0:0|0:3,0:0:0:0:
385,190,221646,1,0,0:0:0:0:
302,272,221761,2,0,L|295:332,1,60.0000022888184,10|8,0:0|0:0,0:0:0:0:
309,199,221992,2,0,L|317:140,1,60.0000022888184,8|8,0:0|0:0,0:0:0:0:
269,204,222223,1,10,0:0:0:0:
302,272,222338,1,8,0:0:0:0:
337,339,222454,1,8,0:0:0:0:
233,136,222684,70,0,L|227:122,1,14,10|0,0:0|0:0,0:0:0:0:
205,49,223146,86,0,L|264:57,1,60.0000022888184,14|8,0:0|0:0,0:0:0:0:
95,100,223377,2,0,L|154:108,1,60.0000022888184,8|8,0:0|0:0,0:0:0:0:
171,259,223607,2,0,B|188:277|188:277|177:183,1,120.000004577637,10|8,0:0|0:0,0:0:0:0:
107,213,223954,1,8,0:0:0:0:
90,346,224069,2,0,L|98:287,1,60.0000022888184,10|0,0:0|0:0,0:0:0:0:
259,252,224300,2,0,L|251:193,1,60.0000022888184,8|0,0:0|0:0,0:0:0:0:
396,342,224530,2,0,L|404:283,1,60.0000022888184,10|0,0:0|0:0,0:0:0:0:
264,114,224761,22,0,P|263:87|246:127,1,120,8|0,0:0|0:0,0:0:0:0:
250,192,224992,6,0,L|376:208,1,120.000004577637,10|8,0:0|0:3,0:0:0:0:
176,182,225338,1,0,0:0:0:0:
103,165,225454,2,0,L|95:106,1,60.0000022888184,10|8,0:0|0:0,0:0:0:0:
114,237,225684,2,0,L|122:296,1,60.0000022888184,8|8,0:0|0:0,0:0:0:0:
70,233,225915,1,10,0:0:0:0:
103,165,226030,1,8,0:0:0:0:
137,97,226146,1,8,0:0:0:0:
135,366,226377,70,0,L|136:374,1,8,10|0,0:0|0:0,0:0:0:0:
54,352,226838,86,0,L|70:226,1,120.000004577637,6|8,0:0|0:0,0:0:0:0:
28,171,227184,2,0,L|36:112,1,60.0000022888184,8|8,0:0|0:3,0:0:0:0:
162,158,227415,1,0,0:0:0:0:
162,158,227530,2,0,L|80:167,1,60.0000022888184,8|8,0:0|0:0,0:0:0:0:
143,232,227761,2,0,B|233:223|233:223|209:253,1,120.000004577637,10|10,0:0|0:0,0:0:0:0:
239,318,228107,2,0,B|149:327|149:327|173:297,1,120.000004577637,0|0,0:0|0:0,0:0:0:0:
359,242,228454,22,0,P|374:263|336:241,1,120,8|0,0:0|0:0,0:0:0:0:
311,190,228684,6,0,L|319:131,1,60.0000022888184,6|0,0:0|0:0,0:0:0:0:
371,23,228915,1,8,0:0:0:0:
371,23,229030,2,0,L|379:82,1,60.0000022888184,0|8,0:0|0:3,0:0:0:0:
491,180,229261,1,8,0:0:0:0:
435,134,229377,2,0,B|335:120|335:120|312:133,1,120.000004577637,2|10,0:0|0:0,0:0:0:0:
175,60,229723,2,0,B|274:73|274:73|298:61,1,120.000004577637,2|0,0:0|0:0,0:0:0:0:
352,195,230069,70,0,L|353:203,1,8,10|0,0:0|0:0,0:0:0:0:
106,5,230530,86,0,L|90:124,1,120.000004577637,6|8,0:0|0:0,0:0:0:0:
166,119,230877,2,0,L|174:60,1,60.0000022888184,8|0,0:0|0:0,0:0:0:0:
157,196,231107,1,8,0:0:0:0:
232,187,231223,2,0,L|296:181,1,60.0000022888184,8|2,0:0|0:0,0:0:0:0:
82,203,231454,2,0,B|-8:212|-8:212|16:182,1,120.000004577637,2|0,0:0|0:0,0:0:0:0:
232,187,231800,2,0,B|322:178|322:178|298:208,1,120.000004577637,0|0,0:0|0:0,0:0:0:0:
126,290,232146,22,0,P|111:269|149:291,1,120,8|0,0:0|0:0,0:0:0:0:
184,338,232377,54,0,L|180:368,1,30,6|0,0:0|0:0,0:0:0:0:
303,201,233040,2,0,L|306:219,9,11.9999996337891
467,293,233790,1,0,0:0:0:0:
452,311,234223,70,0,B|458:196|458:196|445:169,1,143.999995605469,6|0,0:0|0:0,0:0:0:0:
401,112,234569,1,0,0:0:0:0:
312,219,234684,2,0,L|383:213,1,71.9999978027344,8|0,0:3|0:0,0:0:0:0:
249,118,234915,2,0,L|178:124,1,71.9999978027344,2|0,0:3|0:0,0:0:0:0:
401,112,235146,1,2,0:0:0:0:
445,40,235261,2,0,L|373:34,1,71.9999978027344,8|2,0:3|0:3,0:0:0:0:
239,246,235492,1,0,0:0:0:0:
307,290,235607,2,0,L|312:218,1,71.9999978027344,8|0,0:3|0:0,0:0:0:0:
163,348,235838,2,0,L|168:276,1,71.9999978027344,2|0,0:3|0:0,0:0:0:0:
111,95,236069,70,0,P|86:63|175:80,1,210.000002002716,2|0,0:0|0:0,0:0:0:0:
108,77,236300,38,0,P|118:16|173:44,1,143.999995605469,2|8,0:3|0:3,0:0:0:0:
174,196,236646,2,0,L|179:124,1,71.9999978027344,0|2,0:0|0:3,0:0:0:0:
168,276,236877,1,8,0:3:0:0:
259,300,236992,2,0,L|187:305,1,71.9999978027344,2|8,0:0|0:3,0:0:0:0:
410,288,237223,2,0,L|338:293,1,71.9999978027344,2|0,0:3|0:0,0:0:0:0:
0,226,237454,2,0,B|104:232|104:232|62:259,1,143.999995605469,8|2,0:3|0:3,0:0:0:0:
480,315,237915,86,0,B|376:309|376:309|418:282,1,143.999995605469,6|0,0:0|0:0,0:0:0:0:
472,237,238261,1,0,0:0:0:0:
460,90,238377,2,0,L|465:162,1,71.9999978027344,8|0,0:3|0:0,0:0:0:0:
337,282,238607,2,0,L|409:287,1,71.9999978027344,2|0,0:3|0:0,0:0:0:0:
226,73,238838,1,2,0:0:0:0:
195,148,238954,2,0,L|267:143,1,71.9999978027344,8|2,0:3|0:3,0:0:0:0:
234,335,239184,1,0,0:0:0:0:
157,368,239300,2,0,L|162:296,1,71.9999978027344,8|0,0:3|0:0,0:0:0:0:
67,239,239530,2,0,L|72:167,1,71.9999978027344,2|0,0:3|0:0,0:0:0:0:
223,43,239761,22,0,L|225:72,1,30,2|2,0:0|0:0,0:0:0:0:
72,167,240223,86,0,L|81:22,1,143.999995605469,8|2,0:3|0:3,0:0:0:0:
67,238,240569,1,8,0:3:0:0:
57,381,240684,2,0,L|62:309,1,71.9999978027344,2|8,0:0|0:3,0:0:0:0:
72,167,240915,1,2,0:3:0:0:
369,342,241146,86,0,L|388:312,1,35.9999989013672,8|0,0:3|0:0,0:0:0:0:
275,296,241377,2,0,L|310:288,1,35.9999989013672,2|0,0:0|0:0,0:0:0:0:
135,208,241607,6,0,L|291:219,1,143.999995605469,6|0,0:0|0:0,0:0:0:0:
351,224,241954,1,0,0:0:0:0:
468,344,242069,2,0,L|463:272,1,71.9999978027344,8|0,0:3|0:0,0:0:0:0:
360,76,242300,2,0,L|355:148,1,71.9999978027344,2|0,0:3|0:0,0:0:0:0:
135,208,242530,1,2,0:0:0:0:
209,242,242646,2,0,L|204:170,1,71.9999978027344,8|2,0:3|0:3,0:0:0:0:
399,7,242877,1,0,0:0:0:0:
432,81,242992,2,0,L|360:76,1,71.9999978027344,8|0,0:3|0:0,0:0:0:0:
198,92,243223,2,0,L|126:87,1,71.9999978027344,2|0,0:3|0:0,0:0:0:0:
207,320,243454,54,0,P|282:362|280:275,1,210.000002002716,2|0,0:0|0:0,0:0:0:0:
218,325,243684,22,0,P|272:353|283:292,1,143.999995605469,2|8,0:3|0:3,0:0:0:0:
204,170,244030,2,0,L|209:242,1,71.9999978027344,0|2,0:0|0:3,0:0:0:0:
198,92,244261,1,8,0:3:0:0:
285,76,244377,2,0,L|213:71,1,71.9999978027344,2|8,0:0|0:3,0:0:0:0:
435,89,244607,2,0,L|363:84,1,71.9999978027344,2|0,0:3|0:0,0:0:0:0:
96,67,244838,2,0,B|107:170|107:170|132:127,1,143.999995605469,8|2,0:3|0:3,0:0:0:0:
509,83,245300,6,0,B|497:186|497:186|472:143,1,143.999995605469,6|0,0:0|0:0,0:0:0:0:
435,89,245646,1,0,0:0:0:0:
345,205,245761,2,0,L|417:197,1,71.9999978027344,8|0,0:3|0:0,0:0:0:0:
435,89,245992,2,0,L|443:17,1,71.9999978027344,2|0,0:3|0:0,0:0:0:0:
190,225,246223,1,2,0:0:0:0:
269,255,246338,2,0,L|261:183,1,71.9999978027344,8|2,0:3|0:3,0:0:0:0:
330,5,246569,1,0,0:0:0:0:
357,81,246684,2,0,L|285:73,1,71.9999978027344,8|0,0:3|0:0,0:0:0:0:
193,148,246915,2,0,L|121:140,1,71.9999978027344,2|0,0:3|0:0,0:0:0:0:
424,302,247146,54,0,P|418:216|346:265,1,210.000002002716,2|0,0:0|0:0,0:0:0:0:
422,290,247377,22,0,P|416:229|358:253,1,143.999995605469,2|8,0:3|0:3,0:0:0:0:
54,341,247838,2,0,L|126:333,1,71.9999978027344,2|8,0:3|0:3,0:0:0:0:
182,273,248069,1,2,0:0:0:0:
219,282,248184,1,8,0:3:0:0:
242,210,248300,1,8,0:3:0:0:
279,219,248415,1,8,0:3:0:0:
297,147,248530,2,0,L|369:139,1,71.9999978027344,2|8,0:0|0:3,0:0:0:0:
411,69,248761,1,8,0:3:0:0:
448,78,248876,1,8,0:3:0:0:
512,40,248992,22,0,L|391:24,1,120,6|2,0:0|0:0,0:0:0:0:
332,69,249454,2,0,L|242:57,1,80,0|2,0:0|0:0,0:0:0:0:
77,167,249915,1,8,0:3:0:0:
62,49,250030,2,0,L|77:167,1,120,2|2,0:0|0:0,0:0:0:0:
316,187,250607,38,0,P|349:138|359:79,1,120,0|0,0:0|0:0,0:0:0:0:
332,69,250838,70,0,L|316:187,1,120,6|2,0:0|0:0,0:0:0:0:
258,238,251300,2,0,L|268:317,1,80,0|2,0:0|0:0,0:0:0:0:
501,235,251761,1,8,0:3:0:0:
383,220,251876,2,0,L|501:235,1,120,2|2,0:0|0:0,0:0:0:0:
240,158,252454,22,0,P|191:191|132:201,1,120,2|0,0:0|0:0,0:0:0:0:
122,174,252685,54,0,L|240:158,1,120,6|2,0:0|0:0,0:0:0:0:
317,148,253146,1,0,0:0:0:0:
317,148,253377,1,2,0:0:0:0:
51,123,253607,1,8,0:3:0:0:
36,241,253722,2,0,L|51:122,1,120,2|2,0:0|0:0,0:0:0:0:
317,148,254300,38,0,P|283:99|273:40,1,120
301,30,254531,70,0,L|316:148,1,120,6|2,0:0|0:0,0:0:0:0:
328,227,254992,1,0,0:0:0:0:
328,227,255223,1,2,0:0:0:0:
51,122,255454,1,8,0:3:0:0:
169,137,255569,2,0,L|50:121,1,120,2|2,0:0|0:0,0:0:0:0:
328,227,256146,22,0,P|376:193|435:183,1,120,2|0,0:0|0:0,0:0:0:0:
458,215,256377,53,6,0:0:0:0:
343,155,256608,1,0,0:0:0:0:
229,97,256839,1,0,0:0:0:0:
115,40,257069,1,2,0:0:0:0:
457,98,257300,1,8,0:3:0:0:
343,155,257530,1,0,0:0:0:0:
229,213,257761,1,2,0:0:0:0:
5,189,257992,38,0,P|62:198|111:233,1,120
103,266,258223,69,6,0:0:0:0:
229,213,258454,1,0,0:0:0:0:
343,155,258685,1,0,0:0:0:0:
457,98,258915,1,2,0:0:0:0:
214,331,259146,1,8,0:3:0:0:
229,213,259261,2,0,L|213:332,1,120,2|2,0:0|0:0,0:0:0:0:
228,213,259838,22,0,P|251:267|249:326,1,120,2|0,0:0|0:0,0:0:0:0:
213,332,260069,54,0,L|229:213,1,120,6|2,0:0|0:0,0:0:0:0:
239,135,260530,1,0,0:0:0:0:
301,260,260761,1,2,0:0:0:0:
480,129,260992,1,8,0:3:0:0:
418,254,261223,1,0,0:0:0:0:
352,369,261454,1,2,0:0:0:0:
105,145,261684,38,0,P|159:168|218:166,1,120
239,135,261915,69,6,0:0:0:0:
114,69,262146,1,0,0:0:0:0:
9,158,262377,1,0,0:0:0:0:
70,290,262608,1,2,0:0:0:0:
239,135,262838,1,8,0:3:0:0:
357,119,262953,2,0,L|238:135,1,120,2|2,0:0|0:0,0:0:0:0:
504,237,263530,22,0,P|480:193|426:221,1,120,2|0,0:0|0:0,0:0:0:0:
403,287,263761,6,0,L|411:359,1,71.9999978027344,14|8,0:0|0:0,0:0:0:0:
304,208,263992,2,0,L|296:280,1,71.9999978027344,8|8,0:0|0:0,0:0:0:0:
49,321,264223,2,0,B|156:333|156:333|125:304,1,143.999995605469,10|8,0:0|0:0,0:0:0:0:
80,247,264569,1,8,0:0:0:0:
296,279,264684,2,0,B|188:266|188:266|219:295,1,143.999995605469,10|8,0:0|0:0,0:0:0:0:
214,291,265146,1,10,0:0:0:0:
445,99,265377,1,2,0:3:0:0:
366,112,265607,38,0,L|335:115,1,30,2|0,0:3|0:0,0:0:0:0:
445,99,266300,1,0,0:0:0:0:
262,126,266530,2,0,L|223:131,1,40,0|0,0:0|0:0,0:0:0:0:
0,262,267454,70,0,L|165:279,1,143.999995605469,6|0,0:0|0:0,0:0:0:0:
218,287,267800,1,0,0:0:0:0:
348,154,267915,2,0,L|356:226,1,71.9999978027344,8|0,0:3|0:0,0:0:0:0:
245,364,268146,1,2,0:3:0:0:
218,287,268261,2,0,L|308:296,1,71.9999978027344,0|2,0:0|0:0,0:0:0:0:
512,316,268492,1,8,0:3:0:0:
365,300,268607,2,0,L|436:307,1,71.9999978027344,2|0,0:3|0:0,0:0:0:0:
151,348,268838,2,0,L|143:276,1,71.9999978027344,8|0,0:3|0:0,0:0:0:0:
280,220,269069,2,0,L|272:148,1,71.9999978027344,2|0,0:3|0:0,0:0:0:0:
450,383,269300,6,0,B|460:277|460:277|429:315,1,143.999995605469,6|0,0:0|0:0,0:0:0:0:
377,356,269646,1,0,0:0:0:0:
469,205,269761,2,0,L|476:128,1,71.9999978027344,8|0,0:3|0:0,0:0:0:0:
482,60,269992,1,2,0:3:0:0:
328,149,270107,2,0,L|400:141,1,71.9999978027344,8|2,0:3|0:0,0:0:0:0:
173,164,270338,2,0,L|101:172,1,71.9999978027344,8|2,0:3|0:3,0:0:0:0:
28,181,270569,1,0,0:0:0:0:
247,137,270684,2,0,B|257:243|257:243|226:205,1,143.999995605469,8|2,0:3|0:3,0:0:0:0:
173,164,271030,1,0,0:0:0:0:
414,0,271146,86,0,L|399:143,1,143.999995605469,6|0,0:0|0:0,0:0:0:0:
387,220,271492,1,0,0:0:0:0:
172,269,271607,2,0,L|312:239,1,143.999995605469,8|2,0:3|0:3,0:0:0:0:
447,271,271954,2,0,L|503:322,1,71.9999978027344,0|2,0:0|0:0,0:0:0:0:
387,220,272184,1,8,0:3:0:0:
330,163,272300,2,0,L|276:114,1,71.9999978027344,2|0,0:3|0:0,0:0:0:0:
377,298,272530,2,0,L|369:370,1,71.9999978027344,8|0,0:3|0:0,0:0:0:0:
399,143,272761,2,0,L|407:71,1,71.9999978027344,2|0,0:3|0:0,0:0:0:0:
236,269,272992,70,0,B|198:287|184:322|184:322|179:298|164:283,1,108.000000411987,6|0,0:0|0:0,0:0:0:0:
94,110,273223,2,0,B|128:133|165:128|165:128|147:144|142:165,1,108.000000411987,2|0,0:3|0:0,0:0:0:0:
33,307,273454,2,0,B|36:265|13:235|13:235|36:243|56:237,1,108.000000411987,8|2,0:3|0:0,0:0:0:0:
217,187,273684,1,2,0:0:0:0:
309,250,273800,1,8,0:3:0:0:
257,165,273915,2,0,P|239:206|243:300,1,108.000000411987,2|8,0:0|0:3,0:0:0:0:
450,365,274146,2,0,P|448:311|428:261,1,108.000000411987,2|0,0:3|0:0,0:0:0:0:
209,103,274377,2,0,P|269:133|423:149,1,216.000000823975,8|8,0:3|0:3,0:0:0:0:
257,165,274723,1,8,0:3:0:0:
282,384,274838,38,0,L|265:219,1,143.999995605469,6|0,0:0|0:0,0:0:0:0:
257,165,275184,1,0,0:0:0:0:
49,215,275300,2,0,L|121:223,1,71.9999978027344,8|0,0:3|0:0,0:0:0:0:
343,249,275530,1,2,0:3:0:0:
267,240,275646,2,0,L|195:232,1,71.9999978027344,0|2,0:0|0:0,0:0:0:0:
422,259,275877,1,8,0:3:0:0:
408,113,275992,2,0,L|416:185,1,71.9999978027344,2|0,0:3|0:0,0:0:0:0:
283,384,276223,2,0,L|275:312,1,71.9999978027344,8|0,0:3|0:0,0:0:0:0:
120,222,276454,2,0,L|112:150,1,71.9999978027344,2|0,0:3|0:0,0:0:0:0:
497,289,276684,86,0,B|507:183|507:183|476:221,1,143.999995605469,6|0,0:0|0:0,0:0:0:0:
422,259,277030,1,0,0:0:0:0:
195,232,277146,2,0,L|267:240,1,71.9999978027344,8|2,0:3|0:0,0:0:0:0:
343,251,277377,1,2,0:0:0:0:
408,113,277492,2,0,L|416:185,1,71.9999978027344,8|2,0:3|0:0,0:0:0:0:
254,92,277723,2,0,L|262:164,1,71.9999978027344,8|2,0:3|0:3,0:0:0:0:
266,239,277954,1,0,0:0:0:0:
14,210,278069,2,0,B|120:220|120:220|82:189,1,143.999995605469,8|2,0:3|0:3,0:0:0:0:
452,335,278530,6,0,B|346:345|346:345|384:314,1,143.999995605469,6|0,0:0|0:0,0:0:0:0:
422,259,278877,1,0,0:0:0:0:
400,42,278992,2,0,L|417:207,1,143.999995605469,8|2,0:3|0:3,0:0:0:0:
278,243,279338,2,0,L|350:251,1,71.9999978027344,0|2,0:0|0:0,0:0:0:0:
58,219,279569,1,8,0:3:0:0:
130,227,279684,2,0,L|202:235,1,71.9999978027344,2|0,0:3|0:0,0:0:0:0:
422,259,279915,2,0,L|350:251,1,71.9999978027344,8|0,0:3|0:0,0:0:0:0:
130,227,280146,2,0,L|58:219,1,71.9999978027344,2|0,0:3|0:0,0:0:0:0:
333,322,280377,54,0,B|347:301|321:291|321:291|282:275|277:237,1,108.000000411987,6|0,0:0|0:0,0:0:0:0:
326,69,280607,2,0,B|301:66|305:94|305:94|311:135|280:158,1,108.000000411987,2|2,0:3|0:0,0:0:0:0:
109,200,280838,2,0,B|119:222|141:205|141:205|174:179|209:194,1,108.000000411987,8|8,0:3|0:3,0:0:0:0:
357,206,281069,1,10,0:3:0:0:
267,142,281184,1,8,0:3:0:0:
265,258,281300,2,0,P|286:207|278:136,1,108.000000411987,8|8,0:3|0:3,0:0:0:0:
87,110,281530,1,10,0:3:0:0:
176,46,281645,1,8,0:3:0:0:
66,0,281761,2,0,P|55:54|126:217,1,216.000000823975,8|10,0:3|0:3,0:0:0:0:
13,66,282107,1,8,0:3:0:0:
252,53,282223,22,0,L|395:67,1,143.999995605469,6|0,0:0|0:0,0:0:0:0:
469,78,282569,1,0,0:0:0:0:
176,46,282684,2,0,L|103:39,1,71.9999978027344,8|0,0:3|0:0,0:0:0:0:
257,146,282915,1,2,0:3:0:0:
188,191,283030,2,0,L|181:118,1,71.9999978027344,0|2,0:0|0:0,0:0:0:0:
205,336,283261,1,8,0:3:0:0:
269,269,283377,2,0,L|197:262,1,71.9999978027344,2|0,0:3|0:0,0:0:0:0:
52,245,283607,2,0,L|124:252,1,71.9999978027344,8|0,0:3|0:0,0:0:0:0:
348,278,283838,2,0,L|420:285,1,71.9999978027344,2|0,0:3|0:0,0:0:0:0:
38,321,284069,6,0,B|28:215|28:215|59:253,1,143.999995605469,6|0,0:0|0:0,0:0:0:0:
112,292,284415,1,0,0:0:0:0:
205,187,284530,2,0,L|212:115,1,71.9999978027344,8|0,0:3|0:0,0:0:0:0:
218,43,284761,1,2,0:3:0:0:
190,333,284877,2,0,L|197:261,1,71.9999978027344,8|2,0:3|0:0,0:0:0:0:
218,43,285107,2,0,L|211:115,1,71.9999978027344,8|2,0:3|0:3,0:0:0:0:
205,187,285338,1,0,0:0:0:0:
402,26,285454,2,0,B|296:36|296:36|334:5,1,143.999995605469,8|2,0:3|0:3,0:0:0:0:
7,316,285915,86,0,B|113:326|113:326|75:295,1,143.999995605469,6|0,0:0|0:0,0:0:0:0:
35,242,286261,1,0,0:0:0:0:
186,335,286377,2,0,L|329:349,1,143.999995605469,8|2,0:3|0:3,0:0:0:0:
404,357,286723,2,0,L|476:364,1,71.9999978027344,0|2,0:0|0:0,0:0:0:0:
186,335,286954,1,8,0:3:0:0:
180,257,287069,2,0,L|173:185,1,71.9999978027344,2|0,0:3|0:0,0:0:0:0:
322,275,287300,2,0,L|315:203,1,71.9999978027344,8|0,0:3|0:0,0:0:0:0:
462,217,287530,2,0,L|469:289,1,71.9999978027344,2|0,0:3|0:0,0:0:0:0:
119,132,287761,70,0,P|110:104|162:124,1,108.000000411987,6|0,0:0|0:0,0:0:0:0:
222,285,287992,2,0,P|202:305|193:251,1,108.000000411987,2|0,0:3|0:0,0:0:0:0:
304,115,288223,2,0,P|331:121|289:156,1,108.000000411987,8|0,0:3|0:0,0:0:0:0:
164,106,288454,1,2,0:3:0:0:
92,40,288569,1,8,0:3:0:0:
119,132,288684,2,0,P|138:90|132:13,1,108.000000411987,2|8,0:0|0:3,0:0:0:0:
300,166,288915,2,0,P|297:219|318:269,1,108.000000411987,2|0,0:3|0:0,0:0:0:0:
494,110,289146,2,0,P|441:81|286:86,1,216.000000823975,8|8,0:3|0:3,0:0:0:0:
452,42,289492,1,8,0:3:0:0:
233,17,289607,38,0,L|376:31,1,143.999995605469,6|0,0:0|0:0,0:0:0:0:
452,42,289954,1,0,0:0:0:0:
469,188,290069,2,0,L|476:260,1,71.9999978027344,8|0,0:3|0:0,0:0:0:0:
460,115,290300,1,2,0:3:0:0:
314,102,290415,2,0,L|386:109,1,71.9999978027344,0|2,0:0|0:0,0:0:0:0:
96,78,290646,1,8,0:3:0:0:
242,92,290761,2,0,L|170:85,1,71.9999978027344,2|0,0:3|0:0,0:0:0:0:
26,147,290992,2,0,L|19:75,1,71.9999978027344,8|0,0:3|0:0,0:0:0:0:
184,233,291223,2,0,L|177:161,1,71.9999978027344,2|0,0:3|0:0,0:0:0:0:
475,259,291454,86,0,L|461:116,1,143.999995605469,6|0,0:0|0:0,0:0:0:0:
452,42,291800,1,0,0:0:0:0:
241,94,291915,2,0,L|313:101,1,71.9999978027344,8|2,0:3|0:0,0:0:0:0:
388,108,292146,1,2,0:3:0:0:
92,76,292261,2,0,L|164:83,1,71.9999978027344,8|2,0:3|0:0,0:0:0:0:
460,115,292492,2,0,L|388:108,1,71.9999978027344,8|2,0:3|0:3,0:0:0:0:
312,100,292723,1,0,0:0:0:0:
109,258,292838,2,0,B|99:152|99:152|130:190,1,143.999995605469,8|2,0:3|0:3,0:0:0:0:
442,300,293300,6,0,B|452:194|452:194|421:232,1,143.999995605469,6|0,0:0|0:0,0:0:0:0:
369,272,293646,1,0,0:0:0:0:
259,367,293761,2,0,L|245:224,1,143.999995605469,8|2,0:3|0:3,0:0:0:0:
229,71,294107,2,0,L|222:-2,1,71.9999978027344,0|2,0:0|0:0,0:0:0:0:
244,223,294338,1,8,0:3:0:0:
90,132,294454,2,0,L|163:139,1,71.9999978027344,2|0,0:3|0:0,0:0:0:0:
457,167,294684,2,0,L|385:160,1,71.9999978027344,8|0,0:3|0:0,0:0:0:0:
237,145,294915,2,0,L|309:152,1,71.9999978027344,2|0,0:3|0:0,0:0:0:0:
0,312,295146,54,0,B|-9:291|37:284|37:284|84:276|44:242,1,108.000000411987,6|0,0:0|0:0,0:0:0:0:
161,138,295377,2,0,B|183:140|166:184|166:184|150:228|199:211,1,108.000000411987,2|0,0:3|0:0,0:0:0:0:
235,366,295607,2,0,B|221:384|192:347|192:347|161:311|152:362,1,108.000000411987,2|8,0:0|0:3,0:0:0:0:
52,249,295838,1,10,0:3:0:0:
147,186,295954,1,8,0:3:0:0:
33,168,296069,2,0,P|79:209|137:213,1,108.000000411987,8|8,0:3|0:3,0:0:0:0:
266,122,296300,1,10,0:3:0:0:
383,173,296416,1,8,0:3:0:0:
292,149,296530,2,0,P|316:138|343:138,7,54.0000002059937,8|8|8|8|8|8|8|8,0:0|0:0|0:0|0:0|0:0|0:0|0:0|0:0,0:0:0:0:
325,222,296992,85,6,0:0:0:0:
33,168,297453,1,6,0:0:0:0:
33,168,297915,1,6,0:0:0:0:
33,168,298376,1,6,0:0:0:0:
33,168,298838,1,6,0:0:0:0:
33,168,299299,1,6,0:0:0:0:
470,212,299761,70,0,L|401:205,1,54.0000002059937,14|8,0:0|0:0,0:0:0:0:
322,262,299991,1,8,0:0:0:0:
388,182,300107,1,8,0:0:0:0:
381,313,300222,2,0,L|368:204,1,108.000000411987,10|8,0:0|0:0,0:0:0:0:
377,92,300568,1,8,0:0:0:0:
237,129,300684,2,0,B|321:141|321:141|296:105,2,108.000000411987,10|8|10,0:0|0:0|0:0,0:0:0:0:
381,313,301376,2,0,L|407:307,2,27.0000001029968,8|8|8,0:0|0:0|0:0,0:0:0:0:
320,359,301607,6,0,L|200:348,1,108.000000411987,10|8,0:0|0:0,0:0:0:0:
87,158,302068,1,10,0:0:0:0:
0,190,302184,2,0,L|120:179,1,108.000000411987,8|8,0:0|0:0,0:0:0:0:
172,229,302530,2,0,L|164:292,1,54.0000002059937,10|8,0:0|0:0,0:0:0:0:
182,153,302761,2,0,B|193:67|193:67|214:98,1,108.000000411987,8|2,0:0|0:0,0:0:0:0:
414,360,303222,2,0,L|407:306,1,54.0000002059937,8|8,0:0|0:0,0:0:0:0:
489,150,303453,86,0,L|482:203,1,54.0000002059937,14|8,0:0|0:0,0:0:0:0:
407,306,303684,1,8,0:0:0:0:
332,224,303799,1,8,0:0:0:0:
281,280,303914,2,0,L|411:271,1,108.000000411987,10|8,0:0|0:0,0:0:0:0:
204,289,304261,1,8,0:0:0:0:
332,224,304376,2,0,B|339:139|339:139|304:166,2,108.000000411987,10|8|10,0:0|0:0|0:0,0:0:0:0:
145,336,305068,2,0,L|149:362,2,27.0000001029968,8|8|8,0:0|0:0|0:0,0:0:0:0:
204,289,305299,6,0,L|74:280,1,108.000000411987,10|8,0:0|0:0,0:0:0:0:
346,201,305761,1,10,0:0:0:0:
439,216,305876,2,0,L|309:225,1,108.000000411987,8|8,0:0|0:0,0:0:0:0:
262,192,306222,2,0,L|205:188,1,54.0000002059937,10|8,0:0|0:0,0:0:0:0:
325,150,306453,2,0,B|317:65|317:65|335:79,1,108.000000411987,8|2,0:0|0:0,0:0:0:0:
343,350,306914,2,0,L|337:281,1,54.0000002059937,8|8,0:0|0:0,0:0:0:0:
208,188,307145,86,0,L|203:241,1,54.0000002059937,14|8,0:0|0:0,0:0:0:0:
194,347,307376,1,8,0:0:0:0:
141,287,307491,1,8,0:0:0:0:
115,361,307607,2,0,L|2:351,1,108.000000411987,10|8,0:0|0:0,0:0:0:0:
70,320,307953,1,8,0:0:0:0:
62,245,308068,2,0,B|51:160|51:160|79:178,2,108.000000411987,10|8|10,0:0|0:0|0:0,0:0:0:0:
194,347,308761,2,0,L|189:383,2,27.0000001029968,8|8|8,0:0|0:0|0:0,0:0:0:0:
266,335,308991,6,0,L|379:325,1,108.000000411987,10|8,0:0|0:0,0:0:0:0:
456,194,309453,1,10,0:0:0:0:
450,272,309568,2,0,L|440:385,1,108.000000411987,8|8,0:0|0:0,0:0:0:0:
373,325,309914,2,0,L|316:330,1,54.0000002059937,10|8,0:0|0:0,0:0:0:0:
252,370,310145,2,0,B|240:285|240:285|228:303,1,108.000000411987,8|2,0:0|0:0,0:0:0:0:
49,377,310607,2,0,L|57:322,1,54.0000002059937,8|8,0:0|0:0,0:0:0:0:
167,256,310837,86,0,L|159:201,1,54.0000002059937,14|8,0:0|0:0,0:0:0:0:
172,63,311068,1,8,0:0:0:0:
126,129,311184,1,8,0:0:0:0:
204,136,311299,2,0,L|317:146,1,108.000000411987,10|8,0:0|0:0,0:0:0:0:
388,152,311645,1,8,0:0:0:0:
343,216,311761,2,0,B|350:301|350:301|363:283,2,108.000000411987,10|8|10,0:0|0:0|0:0,0:0:0:0:
431,85,312453,2,0,L|425:45,2,27.0000001029968,8|8|8,0:0|0:0|0:0,0:0:0:0:
352,80,312684,6,0,L|244:70,1,108.000000411987,10|8,0:0|0:0,0:0:0:0:
9,168,313145,1,10,0:0:0:0:
83,159,313261,2,0,L|190:149,1,108.000000411987,8|8,0:0|0:0,0:0:0:0:
265,145,313607,2,0,L|256:204,1,54.0000002059937,10|8,0:0|0:0,0:0:0:0:
184,225,313837,2,0,B|191:310|191:310|204:292,1,108.000000411987,8|2,0:0|0:0,0:0:0:0:
439,90,314299,1,8,0:0:0:0:
439,90,314414,1,8,0:3:0:0:
