osu file format v14

[General]
AudioFilename: audio.mp3
AudioLeadIn: 0
PreviewTime: 58064
Countdown: 0
SampleSet: Soft
StackLeniency: 0.3
Mode: 0
LetterboxInBreaks: 0
WidescreenStoryboard: 1

[Editor]
Bookmarks: 8939,10139,19739,38939,58139,67739,77339,96539,113339,132539,151739,170939,187739,205589
DistanceSpacing: 3
BeatDivisor: 4
GridSize: 16
TimelineZoom: 1.7

[Metadata]
Title:DEVOURING ONE ANOTHER
TitleUnicode:DEVOURING ONE ANOTHER
Artist:the GazettE
ArtistUnicode:the GazettE
Creator:Vell
Version:Insane
Source:
Tags:japanese english rock j-rock visual kei metal ruki uruha aoi reita kai beautiful deformity gazetto ルキ 麗 葵 れいた 戒
BeatmapID:4033145
BeatmapSetID:1948209

[Difficulty]
HPDrainRate:6
CircleSize:4.8
OverallDifficulty:7.7
ApproachRate:9
SliderMultiplier:2.99999990463257
SliderTickRate:2

[Events]
//Background and Video events
0,0,"bg.png",0,0
//Break Periods
//Storyboard Layer 0 (Background)
//Storyboard Layer 1 (Fail)
//Storyboard Layer 2 (Pass)
//Storyboard Layer 3 (Foreground)
//Storyboard Layer 4 (Overlay)
//Storyboard Sound Samples

[TimingPoints]
539,600,4,2,1,90,1,0
10139,-100,4,2,2,90,0,0
10289,-100,4,2,1,90,0,0
10739,-66.6666666666667,4,2,1,90,0,0
11039,-66.6666666666667,4,2,2,90,0,0
11189,-100,4,2,1,90,0,0
11639,-66.6666666666667,4,2,1,90,0,0
12539,-100,4,2,2,90,0,0
12689,-100,4,2,1,90,0,0
13139,-66.6666666666667,4,2,1,90,0,0
13439,-66.6666666666667,4,2,2,90,0,0
13589,-100,4,2,1,90,0,0
14039,-66.6666666666667,4,2,1,90,0,0
14939,-66.6666666666667,4,2,2,90,0,0
15089,-100,4,2,1,90,0,0
15539,-66.6666666666667,4,2,1,90,0,0
15839,-66.6666666666667,4,2,2,90,0,0
15989,-100,4,2,1,90,0,0
16439,-66.6666666666667,4,2,1,90,0,0
17339,-100,4,2,1,90,0,0
17939,-66.6666666666667,4,2,1,90,0,0
18389,-66.6666666666667,4,2,2,90,0,0
18689,-66.6666666666667,4,2,1,90,0,0
19739,-200,4,2,1,70,0,0
21539,-100,4,2,1,70,0,0
21839,-200,4,2,1,70,0,0
23939,-100,4,2,1,70,0,0
24239,-200,4,2,1,70,0,0
26339,-100,4,2,1,70,0,0
26639,-200,4,2,1,70,0,0
28739,-100,4,2,1,70,0,0
29039,-200,4,2,1,70,0,0
31139,-100,4,2,1,70,0,0
31439,-200,4,2,1,70,0,0
33539,-100,4,2,1,70,0,0
33839,-200,4,2,1,70,0,0
35939,-100,4,2,1,70,0,0
36239,-200,4,2,1,70,0,0
37139,-100,4,2,1,90,0,0
38939,-100,4,2,2,90,0,1
39089,-100,4,2,1,90,0,1
39539,-66.6666666666667,4,2,1,90,0,1
39839,-66.6666666666667,4,2,2,90,0,1
39989,-66.6666666666667,4,2,1,90,0,1
41339,-66.6666666666667,4,2,2,90,0,1
41489,-100,4,2,1,90,0,1
41939,-66.6666666666667,4,2,1,90,0,1
42239,-66.6666666666667,4,2,2,90,0,1
42389,-66.6666666666667,4,2,1,90,0,1
43739,-100,4,2,2,90,0,1
43889,-100,4,2,1,90,0,1
44639,-100,4,2,2,90,0,1
44789,-100,4,2,1,90,0,1
45239,-66.6666666666667,4,2,1,90,0,1
46289,-100,4,2,1,90,0,1
46739,-66.6666666666667,4,2,1,90,0,1
47189,-66.6666666666667,4,2,2,90,0,1
47489,-66.6666666666667,4,2,1,90,0,1
48539,-66.6666666666667,4,2,2,90,0,1
48689,-100,4,2,1,90,0,1
49139,-66.6666666666667,4,2,1,90,0,1
49439,-66.6666666666667,4,2,2,90,0,1
49589,-66.6666666666667,4,2,1,90,0,1
50939,-66.6666666666667,4,2,2,90,0,1
51089,-100,4,2,1,90,0,1
51539,-66.6666666666667,4,2,1,90,0,1
51839,-66.6666666666667,4,2,2,90,0,1
51989,-66.6666666666667,4,2,1,90,0,1
53339,-66.6666666666667,4,2,2,90,0,1
53489,-100,4,2,1,90,0,1
54239,-100,4,2,2,90,0,1
54389,-100,4,2,1,90,0,1
54839,-66.6666666666667,4,2,1,90,0,1
55889,-100,4,2,1,90,0,1
56339,-66.6666666666667,4,2,1,90,0,1
56789,-66.6666666666667,4,2,2,90,0,1
56939,-66.6666666666667,4,2,1,90,0,1
58139,-200,4,2,1,70,0,0
58739,-100,4,2,1,70,0,0
59039,-200,4,2,1,70,0,0
63539,-100,4,2,1,70,0,0
63839,-200,4,2,1,70,0,0
64739,-100,4,2,1,70,0,0
65039,-200,4,2,1,70,0,0
67139,-100,4,2,1,70,0,0
68039,-200,4,2,1,70,0,0
68339,-100,4,2,1,70,0,0
68639,-200,4,2,1,70,0,0
69539,-100,4,2,1,70,0,0
69839,-200,4,2,1,70,0,0
70739,-100,4,2,1,70,0,0
71039,-200,4,2,1,70,0,0
71939,-100,4,2,1,70,0,0
72239,-200,4,2,1,70,0,0
73139,-100,4,2,1,70,0,0
73439,-200,4,2,1,70,0,0
74339,-100,4,2,1,70,0,0
74639,-200,4,2,1,70,0,0
75539,-100,4,2,1,90,0,0
77339,-100,4,2,2,90,0,1
77489,-100,4,2,1,90,0,1
77939,-66.6666666666667,4,2,1,90,0,1
78241,-66.6666666666667,4,2,2,90,0,1
78389,-66.6666666666667,4,2,1,90,0,1
79739,-66.6666666666667,4,2,2,90,0,1
79889,-100,4,2,1,90,0,1
80339,-66.6666666666667,4,2,1,90,0,1
80639,-66.6666666666667,4,2,2,90,0,1
80789,-66.6666666666667,4,2,1,90,0,1
82139,-66.6666666666667,4,2,2,90,0,1
82289,-100,4,2,1,90,0,1
83039,-100,4,2,2,90,0,1
83189,-100,4,2,1,90,0,1
83639,-66.6666666666667,4,2,1,90,0,1
84539,-66.6666666666667,4,2,2,90,0,1
84689,-100,4,2,1,90,0,1
85139,-66.6666666666667,4,2,1,90,0,1
85589,-66.6666666666667,4,2,2,90,0,1
85739,-66.6666666666667,4,2,1,90,0,1
86939,-66.6666666666667,4,2,2,90,0,1
87089,-100,4,2,1,90,0,1
87539,-66.6666666666667,4,2,1,90,0,1
87839,-66.6666666666667,4,2,2,90,0,1
87989,-66.6666666666667,4,2,1,90,0,1
89339,-66.6666666666667,4,2,2,90,0,1
89489,-100,4,2,1,90,0,1
89939,-66.6666666666667,4,2,1,90,0,1
90239,-66.6666666666667,4,2,2,90,0,1
90389,-66.6666666666667,4,2,1,90,0,1
91739,-66.6666666666667,4,2,2,90,0,1
91889,-100,4,2,1,90,0,1
92339,-66.6666666666667,4,2,1,90,0,1
92639,-66.6666666666667,4,2,2,90,0,1
92789,-100,4,2,1,90,0,1
93239,-66.6666666666667,4,2,1,90,0,1
94139,-100,4,2,2,90,0,1
94289,-100,4,2,1,90,0,1
94739,-66.6666666666667,4,2,1,90,0,1
96539,-100,4,2,2,90,0,0
96689,-100,4,2,1,90,0,0
97139,-66.6666666666667,4,2,1,90,0,0
97439,-100,4,2,1,90,0,0
98339,-66.6666666666667,4,2,1,90,0,0
98639,-100,4,2,1,90,0,0
98939,-100,4,2,2,90,0,0
99089,-100,4,2,1,90,0,0
99539,-66.6666666666667,4,2,1,90,0,0
99989,-100,4,2,1,90,0,0
100739,-66.6666666666667,4,2,1,90,0,0
101339,-66.6666666666667,4,2,2,90,0,0
101489,-100,4,2,1,90,0,0
101939,-66.6666666666667,4,2,1,90,0,0
102389,-100,4,2,1,90,0,0
103139,-66.6666666666667,4,2,1,90,0,0
103439,-100,4,2,1,90,0,0
103739,-100,4,2,2,90,0,0
103889,-100,4,2,1,90,0,0
104339,-66.6666666666667,4,2,1,90,0,0
104789,-100,4,2,1,90,0,0
105539,-66.6666666666667,4,2,1,90,0,0
106139,-100,4,2,2,90,0,0
106289,-100,4,2,1,90,0,0
106739,-66.6666666666667,4,2,1,90,0,0
107039,-100,4,2,1,90,0,0
107939,-66.6666666666667,4,2,1,90,0,0
108239,-100,4,2,1,90,0,0
108539,-100,4,2,2,90,0,0
108689,-100,4,2,1,90,0,0
109139,-66.6666666666667,4,2,1,90,0,0
109589,-100,4,2,1,90,0,0
110339,-66.6666666666667,4,2,1,90,0,0
110939,-100,4,2,2,90,0,0
111089,-100,4,2,1,90,0,0
111539,-66.6666666666667,4,2,1,90,0,0
111839,-100,4,2,1,90,0,0
112739,-66.6666666666667,4,2,1,90,0,0
113039,-100,4,2,1,90,0,0
113339,-100,4,2,2,90,0,0
118139,-333.333333333333,4,2,1,40,0,0
132539,-66.6666666666667,4,2,1,90,0,0
132839,-100,4,2,1,90,0,0
133739,-66.6666666666667,4,2,2,90,0,0
134039,-100,4,2,1,90,0,0
134339,-66.6666666666667,4,2,1,90,0,0
134639,-100,4,2,1,90,0,0
136139,-66.6666666666667,4,2,2,90,0,0
136439,-66.6666666666667,4,2,1,90,0,0
137039,-100,4,2,1,90,0,0
137339,-66.6666666666667,4,2,1,90,0,0
137639,-100,4,2,1,90,0,0
138539,-66.6666666666667,4,2,2,90,0,0
138839,-100,4,2,1,90,0,0
139139,-66.6666666666667,4,2,1,90,0,0
140039,-100,4,2,1,90,0,0
140939,-66.6666666666667,4,2,2,90,0,0
141239,-100,4,2,1,90,0,0
141539,-66.6666666666667,4,2,1,90,0,0
142439,-100,4,2,1,90,0,0
143339,-66.6666666666667,4,2,2,90,0,0
143639,-100,4,2,1,90,0,0
143939,-66.6666666666667,4,2,1,90,0,0
144239,-100,4,2,1,90,0,0
145739,-66.6666666666667,4,2,2,90,0,0
146039,-100,4,2,1,90,0,0
146339,-66.6666666666667,4,2,1,90,0,0
146639,-100,4,2,1,90,0,0
146939,-66.6666666666667,4,2,1,90,0,0
147239,-100,4,2,1,90,0,0
148139,-66.6666666666667,4,2,2,90,0,0
148439,-66.6666666666667,4,2,1,90,0,0
149039,-100,4,2,1,90,0,0
149939,-66.6666666666667,4,2,1,90,0,0
150239,-100,4,2,1,90,0,0
150539,-66.6666666666667,4,2,2,90,0,0
150689,-66.6666666666667,4,2,1,90,0,0
150839,-100,4,2,1,90,0,0
151739,-100,4,2,2,90,0,1
151889,-100,4,2,1,90,0,1
152339,-66.6666666666667,4,2,1,90,0,1
152639,-66.6666666666667,4,2,2,90,0,1
152789,-66.6666666666667,4,2,1,90,0,1
154139,-66.6666666666667,4,2,2,90,0,1
154289,-100,4,2,1,90,0,1
154739,-66.6666666666667,4,2,1,90,0,1
155039,-66.6666666666667,4,2,2,90,0,1
155189,-66.6666666666667,4,2,1,90,0,1
156539,-66.6666666666667,4,2,2,90,0,1
156689,-100,4,2,1,90,0,1
157439,-100,4,2,2,90,0,1
157589,-100,4,2,1,90,0,1
158039,-66.6666666666667,4,2,1,90,0,1
158939,-66.6666666666667,4,2,2,90,0,1
159089,-100,4,2,1,90,0,1
159539,-66.6666666666667,4,2,1,90,0,1
159989,-66.6666666666667,4,2,2,90,0,1
160139,-66.6666666666667,4,2,1,90,0,1
161339,-66.6666666666667,4,2,2,90,0,1
161489,-100,4,2,1,90,0,1
161939,-66.6666666666667,4,2,1,90,0,1
162239,-66.6666666666667,4,2,2,90,0,1
162389,-66.6666666666667,4,2,1,90,0,1
163739,-66.6666666666667,4,2,2,90,0,1
163889,-100,4,2,1,90,0,1
164339,-66.6666666666667,4,2,1,90,0,1
164639,-66.6666666666667,4,2,2,90,0,1
164789,-66.6666666666667,4,2,1,90,0,1
166139,-66.6666666666667,4,2,2,90,0,1
166289,-100,4,2,1,90,0,1
166739,-66.6666666666667,4,2,1,90,0,1
167039,-66.6666666666667,4,2,2,90,0,1
167189,-100,4,2,1,90,0,1
167489,-66.6666666666667,4,2,1,90,0,1
168539,-100,4,2,2,90,0,1
168689,-100,4,2,1,90,0,1
169139,-66.6666666666667,4,2,1,90,0,1
170939,-100,4,2,2,90,0,0
171089,-100,4,2,1,90,0,0
171539,-66.6666666666667,4,2,1,90,0,0
171839,-100,4,2,1,90,0,0
172739,-66.6666666666667,4,2,1,90,0,0
173039,-100,4,2,1,90,0,0
173339,-100,4,2,2,90,0,0
173489,-100,4,2,1,90,0,0
173939,-66.6666666666667,4,2,1,90,0,0
174389,-100,4,2,1,90,0,0
175139,-66.6666666666667,4,2,1,90,0,0
175739,-66.6666666666667,4,2,2,90,0,0
175889,-100,4,2,1,90,0,0
176339,-66.6666666666667,4,2,1,90,0,0
176789,-100,4,2,1,90,0,0
177539,-66.6666666666667,4,2,1,90,0,0
177839,-100,4,2,1,90,0,0
178139,-100,4,2,2,90,0,0
178289,-100,4,2,1,90,0,0
178739,-66.6666666666667,4,2,1,90,0,0
179189,-100,4,2,1,90,0,0
179939,-66.6666666666667,4,2,1,90,0,0
180539,-100,4,2,2,90,0,0
180689,-100,4,2,1,90,0,0
181139,-66.6666666666667,4,2,1,90,0,0
181439,-100,4,2,1,90,0,0
182339,-66.6666666666667,4,2,1,90,0,0
182639,-100,4,2,1,90,0,0
182939,-100,4,2,2,90,0,0
183089,-100,4,2,1,90,0,0
183539,-66.6666666666667,4,2,1,90,0,0
183989,-100,4,2,1,90,0,0
184739,-66.6666666666667,4,2,1,90,0,0
185339,-100,4,2,2,90,0,0
185489,-100,4,2,1,90,0,0
185939,-66.6666666666667,4,2,1,90,0,0
186239,-100,4,2,1,90,0,0
187139,-66.6666666666667,4,2,1,90,0,0
187439,-100,4,2,1,90,0,0
187739,-100,4,2,2,90,0,0
197339,-333.333333333333,4,2,1,40,0,0

[Colours]
Combo1 : 12,116,243
Combo2 : 137,156,184
Combo3 : 128,153,151
Combo4 : 159,157,174
Combo5 : 192,192,192
Combo6 : 143,143,143

[HitObjects]
86,56,8939,53,2,0:3:0:0:
165,39,9239,1,2,0:3:0:0:
256,103,9539,1,2,0:3:0:0:
161,64,9689,1,2,0:3:0:0:
285,32,9839,1,2,0:3:0:0:
266,134,9989,1,2,0:3:0:0:
158,89,10139,37,12,0:1:0:0:
39,156,10289,2,0,L|116:149,1,74.9999976158143,8|2,0:0|0:1,0:0:0:0:
184,163,10589,1,8,0:0:0:0:
301,254,10739,2,0,L|422:267,1,112.500000715256,8|0,0:1|0:0,0:0:0:0:
234,282,11039,1,12,0:1:0:0:
191,380,11189,2,0,P|168:337|175:293,1,74.9999976158143,8|2,0:0|0:1,0:0:0:0:
177,238,11489,1,8,0:0:0:0:
29,342,11639,2,0,P|90:313|111:254,1,112.500000715256,8|0,0:1|0:0,0:0:0:0:
0,199,11939,5,12,0:0:0:0:
61,126,12089,1,8,0:0:0:0:
32,259,12239,2,0,L|41:147,1,112.500000715256,8|0,0:1|0:0,0:0:0:0:
178,108,12539,5,12,0:1:0:0:
309,149,12689,2,0,L|227:156,1,74.9999976158143,8|2,0:0|0:1,0:0:0:0:
167,184,12989,1,8,0:0:0:0:
302,296,13139,2,0,P|252:234|198:227,1,112.500000715256,8|0,0:1|0:0,0:0:0:0:
374,266,13439,1,12,0:1:0:0:
335,372,13589,2,0,P|362:347|398:339,1,74.9999976158143,8|2,0:0|0:1,0:0:0:0:
463,377,13889,1,8,0:0:0:0:
471,193,14039,54,0,P|479:254|457:315,1,112.500000715256,8|0,0:1|0:0,0:0:0:0:
309,201,14339,2,0,P|357:163|421:152,1,112.500000715256,8|8,0:1|0:0,0:0:0:0:
398,338,14639,2,0,P|341:314|299:264,1,112.500000715256,8|0,0:1|0:0,0:0:0:0:
468,117,14939,5,12,0:1:0:0:
401,226,15089,2,0,L|406:149,1,74.9999976158143,8|2,0:0|0:1,0:0:0:0:
404,77,15389,1,8,0:0:0:0:
244,20,15539,2,0,L|258:143,1,112.500000715256,8|0,0:1|0:0,0:0:0:0:
154,276,15839,1,12,0:1:0:0:
30,302,15989,2,0,P|61:322|116:324,1,74.9999976158143,8|2,0:0|0:1,0:0:0:0:
165,351,16289,1,8,0:0:0:0:
329,328,16439,2,0,P|267:301|193:319,1,112.500000715256,8|0,0:1|0:0,0:0:0:0:
143,200,16739,5,8,0:0:0:0:
256,131,16889,1,8,0:0:0:0:
218,203,17039,1,8,0:3:0:0:
146,169,17189,1,8,0:3:0:0:
287,238,17339,54,0,L|375:228,1,74.9999976158143,12|8,0:0|0:0,0:0:0:0:
474,302,17639,2,0,L|386:292,1,74.9999976158143,2|8,0:0|0:0,0:0:0:0:
429,118,17939,2,0,P|448:166|415:245,1,112.500000715256,8|0,0:1|0:0,0:0:0:0:
365,77,18239,1,8,0:1:0:0:
273,155,18389,2,0,L|160:145,1,112.500000715256,12|0,0:1|0:0,0:0:0:0:
86,138,18689,1,8,0:0:0:0:
21,253,18839,2,0,P|78:212|129:211,1,112.500000715256,8|0,0:1|0:0,0:0:0:0:
209,298,19139,5,8,0:0:0:0:
98,288,19289,1,8,0:1:0:0:
190,218,19439,1,8,0:1:0:0:
283,306,19589,1,8,0:1:0:0:
118,209,19739,22,0,L|111:79,1,112.499996423721,12|0,0:0|0:0,0:0:0:0:
182,18,20339,2,0,L|171:64,1,37.4999988079071,2|0,0:1|0:0,0:0:0:0:
183,127,20639,2,0,L|212:122,2,18.7499994039536,8|0|0,0:0|0:0|0:0,0:0:0:0:
247,67,20939,2,0,L|291:73,1,37.4999988079071,2|0,0:0|0:0,0:0:0:0:
337,165,21239,2,0,L|331:127,1,37.4999988079071,8|0,0:0|0:0,0:0:0:0:
422,30,21539,22,0,P|380:56|343:56,1,74.9999976158143,8|0,0:1|0:0,0:0:0:0:
436,140,21839,70,0,P|411:127|397:112,1,37.4999988079071,2|0,0:0|0:0,0:0:0:0:
332,202,22139,70,0,L|338:152,1,37.4999988079071,8|8,0:0|0:0,0:0:0:0:
398,247,22439,2,0,L|402:209,1,37.4999988079071,2|0,0:1|0:0,0:0:0:0:
460,329,22739,2,0,L|468:243,1,74.9999976158143,0|8,0:0|0:0,0:0:0:0:
386,358,23189,2,0,L|398:244,1,112.499996423721,0|8,0:0|0:0,0:0:0:0:
162,302,23939,22,0,P|206:278|258:281,1,74.9999976158143,8|0,0:1|0:0,0:0:0:0:
247,377,24239,70,0,P|227:355|212:351,1,37.4999988079071,8|0,0:0|0:0,0:0:0:0:
99,346,24539,69,12,0:0:0:0:
99,346,24689,2,0,L|20:337,1,74.9999976158143,8|0,0:0|0:0,0:0:0:0:
0,266,25139,2,0,L|43:270,1,37.4999988079071,2|0,0:1|0:0,0:0:0:0:
101,229,25439,1,8,0:0:0:0:
101,229,25589,2,0,P|114:200|114:154,1,74.9999976158143,0|0,0:0|0:0,0:0:0:0:
54,112,26039,2,0,P|42:133|47:158,1,37.4999988079071,8|0,0:0|0:0,0:0:0:0:
179,126,26339,22,0,L|264:132,1,74.9999976158143,8|0,0:1|0:0,0:0:0:0:
335,60,26639,70,0,L|317:101,1,37.4999988079071,2|0,0:0|0:0,0:0:0:0:
337,203,26939,2,0,L|314:172,1,37.4999988079071,8|8,0:0|0:0,0:0:0:0:
258,265,27239,2,0,L|263:226,1,37.4999988079071,2|0,0:1|0:0,0:0:0:0:
180,320,27539,2,0,L|192:236,2,74.9999976158143,0|8|0,0:0|0:0|0:0,0:0:0:0:
331,276,28439,1,8,0:0:0:0:
464,295,28739,6,0,P|418:317|383:314,1,74.9999976158143,8|0,0:1|0:0,0:0:0:0:
336,238,29039,54,0,L|331:276,1,37.4999988079071,8|0,0:0|0:0,0:0:0:0:
390,190,29339,5,12,0:0:0:0:
390,190,29489,2,0,L|465:196,1,74.9999976158143,8|0,0:0|0:0,0:0:0:0:
368,119,29939,2,0,L|451:126,1,74.9999976158143,2|8,0:1|0:0,0:0:0:0:
305,46,30389,2,0,L|428:55,1,112.499996423721,0|8,0:0|0:0,0:0:0:0:
285,135,31139,6,0,P|249:107|207:103,1,74.9999976158143,8|0,0:1|0:0,0:0:0:0:
152,24,31439,54,0,L|161:73,1,37.4999988079071,2|0,0:0|0:0,0:0:0:0:
217,174,31739,5,8,0:0:0:0:
217,174,31889,2,0,L|199:254,1,74.9999976158143,8|0,0:0|0:0,0:0:0:0:
236,341,32339,2,0,P|251:305|283:275,1,74.9999976158143,0|8,0:0|0:0,0:0:0:0:
342,314,32789,2,0,L|416:312,1,74.9999976158143,0|0,0:0|0:0,0:0:0:0:
450,244,33239,2,0,P|421:235|399:235,1,37.4999988079071,8|0,0:0|0:0,0:0:0:0:
275,279,33539,6,0,L|198:273,1,74.9999976158143,8|0,0:1|0:0,0:0:0:0:
125,352,33839,54,0,L|137:308,1,37.4999988079071,8|0,0:0|0:0,0:0:0:0:
51,372,34139,5,12,0:0:0:0:
51,372,34289,2,0,L|42:294,1,74.9999976158143,8|0,0:0|0:0,0:0:0:0:
94,243,34739,2,0,P|112:216|115:197,2,37.4999988079071,2|0|8,0:1|0:0|0:0,0:0:0:0:
20,229,35189,2,0,L|-22:222,1,37.4999988079071,0|2,0:0|0:1,0:0:0:0:
57,164,35489,2,0,L|21:158,1,37.4999988079071,0|8,0:0|0:0,0:0:0:0:
99,102,35789,1,0,0:0:0:0:
220,115,35939,6,0,P|184:142|140:146,1,74.9999976158143,8|0,0:1|0:0,0:0:0:0:
147,45,36239,54,0,P|168:46|194:54,1,37.4999988079071,2|0,0:0|0:0,0:0:0:0:
281,160,36539,1,8,0:0:0:0:
281,160,36689,2,0,L|368:152,1,74.9999976158143,8|8,0:0|0:0,0:0:0:0:
480,98,37139,22,0,L|318:80,1,149.999995231629,8|8,0:1|0:0,0:0:0:0:
512,198,37739,69,8,0:1:0:0:
435,176,37889,1,8,0:0:0:0:
335,238,38039,1,8,0:3:0:0:
505,218,38339,69,8,0:0:0:0:
346,260,38489,1,8,0:1:0:0:
357,160,38639,1,8,0:0:0:0:
497,238,38789,1,8,0:1:0:0:
358,280,38939,69,12,0:1:0:0:
487,335,39089,2,0,L|412:331,1,74.9999976158143,8|2,0:0|0:1,0:0:0:0:
341,354,39389,1,8,0:0:0:0:
196,316,39539,2,0,P|178:281|187:198,1,112.500000715256,8|0,0:1|0:0,0:0:0:0:
373,208,39839,1,12,0:1:0:0:
248,263,39989,2,0,P|246:229|308:290,1,225.000001430512,8|8,0:0|0:0,0:0:0:0:
135,360,40439,54,0,L|11:347,1,112.500000715256,8|0,0:1|0:0,0:0:0:0:
75,211,40739,1,8,0:0:0:0:
105,283,40889,1,8,0:0:0:0:
166,114,41039,2,0,P|171:169|147:219,1,112.500000715256,8|0,0:1|0:0,0:0:0:0:
298,219,41339,5,12,0:1:0:0:
184,290,41489,2,0,L|267:281,1,74.9999976158143,8|2,0:0|0:1,0:0:0:0:
332,287,41789,1,8,0:0:0:0:
479,367,41939,2,0,L|357:352,1,112.500000715256,8|0,0:1|0:0,0:0:0:0:
375,162,42239,1,12,0:1:0:0:
469,257,42389,2,0,B|380:186|380:186|328:293,1,225.000001430512,8|8,0:0|0:0,0:0:0:0:
198,306,42839,6,0,P|233:345|309:349,1,112.500000715256,8|0,0:1|0:0,0:0:0:0:
120,275,43139,2,0,P|117:327|168:383,1,112.500000715256,8|8,0:1|0:0,0:0:0:0:
87,196,43439,2,0,P|47:231|44:307,1,112.500000715256,8|0,0:1|0:0,0:0:0:0:
198,306,43739,53,12,0:1:0:0:
340,273,43889,2,0,L|253:277,1,74.9999976158143,8|2,0:0|0:1,0:0:0:0:
473,318,44189,2,0,L|386:322,1,74.9999976158143,8|8,0:0|0:1,0:0:0:0:
353,197,44489,1,0,0:0:0:0:
485,243,44639,2,0,L|398:247,1,74.9999976158143,12|8,0:1|0:0,0:0:0:0:
331,349,44939,2,0,L|244:353,1,74.9999976158143,2|8,0:1|0:0,0:0:0:0:
161,209,45239,6,0,L|277:204,1,112.500000715256,8|0,0:1|0:0,0:0:0:0:
410,246,45539,1,8,0:0:0:0:
306,137,45689,1,8,0:1:0:0:
368,180,45839,1,8,0:3:0:0:
441,172,45989,1,8,0:3:0:0:
320,117,46139,5,12,0:0:0:0:
404,38,46289,2,0,P|410:87|393:120,1,74.9999976158143,8|2,0:0|0:0,0:0:0:0:
368,180,46589,1,8,0:0:0:0:
215,141,46739,2,0,P|278:112|334:122,1,112.500000715256,8|0,0:1|0:0,0:0:0:0:
196,216,47039,1,8,0:1:0:0:
247,303,47189,2,0,P|271:244|262:182,1,112.500000715256,12|0,0:1|0:0,0:0:0:0:
142,161,47489,1,8,0:0:0:0:
9,240,47639,2,0,L|132:234,1,112.500000715256,8|0,0:1|0:0,0:0:0:0:
158,88,47939,53,8,0:0:0:0:
196,216,48089,1,8,0:1:0:0:
142,161,48239,1,8,0:0:0:0:
267,196,48389,1,8,0:1:0:0:
119,156,48539,5,12,0:1:0:0:
91,18,48689,2,0,L|82:100,1,74.9999976158143,8|2,0:0|0:1,0:0:0:0:
43,154,48989,1,8,0:0:0:0:
127,268,49139,2,0,L|117:134,1,112.500000715256,8|0,0:1|0:0,0:0:0:0:
281,60,49439,1,12,0:1:0:0:
154,92,49589,2,0,B|289:137|289:137|319:123|319:123|367:137,1,225.000001430512,8|8,0:0|0:0,0:0:0:0:
443,7,50039,6,0,P|411:49|331:50,1,112.500000715256,8|0,0:1|0:0,0:0:0:0:
327,202,50339,1,8,0:0:0:0:
348,275,50489,1,8,0:0:0:0:
450,132,50639,2,0,P|408:164|407:244,1,112.500000715256,8|0,0:1|0:0,0:0:0:0:
511,333,50939,53,12,0:1:0:0:
468,207,51089,2,0,L|456:292,1,74.9999976158143,8|2,0:0|0:1,0:0:0:0:
441,355,51389,1,8,0:0:0:0:
285,337,51539,2,0,P|326:307|406:311,1,112.500000715256,8|0,0:1|0:0,0:0:0:0:
185,254,51839,1,12,0:1:0:0:
290,187,51989,2,0,P|285:240|211:171,1,225.000001430512,8|8,0:0|0:0,0:0:0:0:
86,230,52439,6,0,P|130:264|149:317,1,112.500000715256,8|0,0:1|0:0,0:0:0:0:
112,129,52739,2,0,P|167:136|210:173,1,112.500000715256,8|0,0:1|0:0,0:0:0:0:
94,25,53039,2,0,P|145:4|200:15,1,112.500000715256,8|0,0:1|0:0,0:0:0:0:
44,168,53339,5,12,0:1:0:0:
79,304,53489,2,0,L|86:219,1,74.9999976158143,8|2,0:0|0:1,0:0:0:0:
148,316,53789,2,0,L|155:231,1,74.9999976158143,8|8,0:0|0:1,0:0:0:0:
288,335,54089,1,0,0:0:0:0:
224,252,54239,2,0,L|217:326,1,74.9999976158143,12|8,0:1|0:0,0:0:0:0:
366,268,54539,2,0,L|359:342,1,74.9999976158143,2|8,0:1|0:0,0:0:0:0:
305,146,54839,54,0,L|295:263,1,112.500000715256,8|0,0:1|0:0,0:0:0:0:
432,353,55139,1,8,0:0:0:0:
512,282,55289,1,8,0:0:0:0:
453,332,55439,1,8,0:3:0:0:
414,268,55589,1,8,0:3:0:0:
295,258,55739,5,12,0:0:0:0:
176,323,55889,2,0,L|260:315,1,74.9999976158143,8|2,0:0|0:0,0:0:0:0:
322,329,56189,1,8,0:0:0:0:
338,165,56339,2,0,P|295:211|298:267,1,112.500000715256,8|0,0:1|0:0,0:0:0:0:
484,269,56639,1,8,0:1:0:0:
362,235,56789,2,0,L|497:250,1,112.500000715256,12|0,0:1|0:0,0:0:0:0:
348,306,57089,1,8,0:0:0:0:
449,177,57239,2,0,L|337:164,1,112.500000715256,8|0,0:1|0:0,0:0:0:0:
205,184,57539,5,8,0:0:0:0:
253,61,57689,1,8,0:3:0:0:
265,136,57839,1,8,0:0:0:0:
192,110,57989,1,8,0:3:0:0:
324,91,58139,22,0,P|327:48|308:8,1,74.9999976158143,12|2,0:0|0:0,0:0:0:0:
253,61,58589,1,2,0:0:0:0:
132,157,58739,6,0,L|44:149,1,74.9999976158143,8|0,0:1|0:0,0:0:0:0:
124,85,59039,54,0,L|86:81,1,37.4999988079071,2|2,0:0|0:0,0:0:0:0:
192,110,59339,2,0,P|208:150|200:188,2,74.9999976158143,8|10|8,0:0|0:0|0:1,0:0:0:0:
57,150,60239,2,0,L|66:195,1,37.4999988079071,2|2,0:0|0:0,0:0:0:0:
128,243,60539,2,0,L|136:207,1,37.4999988079071,8|0,0:0|0:0,0:0:0:0:
63,186,60839,2,0,L|51:260,1,74.9999976158143,2|8,0:0|0:1,0:0:0:0:
103,314,61289,5,0,0:0:0:0:
0,318,61439,2,0,P|11:330|30:333,1,37.4999988079071,2|0,0:0|0:0,0:0:0:0:
79,238,61739,2,0,P|61:244|51:260,1,37.4999988079071,8|0,0:0|0:0,0:0:0:0:
105,349,62039,2,0,P|109:331|103:314,1,37.4999988079071,10|2,0:0|0:0,0:0:0:0:
223,280,62339,1,8,0:1:0:0:
152,258,62489,1,8,0:3:0:0:
211,305,62639,1,8,0:3:0:0:
281,172,62939,70,0,L|288:257,1,74.9999976158143,12|2,0:0|0:0,0:0:0:0:
421,304,63539,22,0,L|347:296,1,74.9999976158143,8|0,0:1|0:0,0:0:0:0:
386,194,63839,70,0,L|359:223,1,37.4999988079071,2|2,0:0|0:0,0:0:0:0:
287,246,64139,2,0,P|263:233|213:233,1,74.9999976158143,8|10,0:0|0:0,0:0:0:0:
126,349,64739,6,0,P|152:321|159:284,1,74.9999976158143,8|0,0:1|0:0,0:0:0:0:
141,212,65039,54,0,L|100:208,1,37.4999988079071,2|2,0:0|0:0,0:0:0:0:
238,156,65339,2,0,L|197:160,1,37.4999988079071,8|0,0:0|0:0,0:0:0:0:
324,249,65639,2,0,L|283:245,1,37.4999988079071,2|0,0:0|0:0,0:0:0:0:
385,143,65939,2,0,L|307:149,1,74.9999976158143,8|2,0:1|0:0,0:0:0:0:
472,265,66539,2,0,L|394:259,1,74.9999976158143,8|12,0:0|0:0,0:0:0:0:
235,155,67139,22,0,L|324:147,1,74.9999976158143,8|8,0:1|0:0,0:0:0:0:
450,183,67439,69,8,0:1:0:0:
384,141,67589,1,8,0:1:0:0:
411,33,67739,69,12,0:0:0:0:
411,33,68039,2,0,L|414:81,1,37.4999988079071,2|0,0:0|0:0,0:0:0:0:
272,51,68339,22,0,P|318:62|344:89,1,74.9999976158143,8|0,0:1|0:0,0:0:0:0:
243,128,68639,70,0,L|281:123,1,37.4999988079071,2|0,0:0|0:0,0:0:0:0:
218,205,68939,2,0,L|293:193,1,74.9999976158143,8|10,0:0|0:0,0:0:0:0:
420,258,69539,6,0,L|335:248,1,74.9999976158143,8|0,0:1|0:0,0:0:0:0:
290,342,69839,54,0,L|296:297,1,37.4999988079071,2|0,0:0|0:0,0:0:0:0:
218,205,70139,1,12,0:0:0:0:
218,205,70439,2,0,L|213:242,1,37.4999988079071,2|0,0:0|0:0,0:0:0:0:
192,354,70739,22,0,P|173:308|132:277,1,74.9999976158143,8|0,0:1|0:0,0:0:0:0:
110,355,71039,70,0,P|99:339|83:329,1,37.4999988079071,2|0,0:0|0:0,0:0:0:0:
93,249,71339,2,0,L|7:258,1,74.9999976158143,8|8,0:0|0:0,0:0:0:0:
180,145,71939,6,0,L|80:128,1,74.9999976158143,8|0,0:1|0:0,0:0:0:0:
212,81,72239,54,0,L|165:74,1,37.4999988079071,2|0,0:0|0:0,0:0:0:0:
222,207,72539,5,12,0:0:0:0:
222,207,72839,2,0,L|269:214,1,37.4999988079071,2|0,0:0|0:0,0:0:0:0:
412,262,73139,6,0,P|364:278|342:308,1,74.9999976158143,8|0,0:1|0:0,0:0:0:0:
429,364,73439,54,0,P|420:343|405:328,1,37.4999988079071,2|0,0:0|0:0,0:0:0:0:
478,299,73739,2,0,L|488:216,1,74.9999976158143,8|10,0:0|0:0,0:0:0:0:
390,112,74339,22,0,L|404:208,1,74.9999976158143,8|0,0:1|0:0,0:0:0:0:
319,101,74639,70,0,L|325:145,1,37.4999988079071,2|0,0:0|0:0,0:0:0:0:
249,84,74939,1,12,0:0:0:0:
249,84,75089,2,0,L|262:168,1,74.9999976158143,0|2,0:0|0:1,0:0:0:0:
179,71,75539,6,0,L|193:167,1,74.9999976158143,8|0,0:1|0:0,0:0:0:0:
111,61,75839,2,0,L|125:157,1,74.9999976158143,2|0,0:0|0:0,0:0:0:0:
249,84,76139,53,8,0:0:0:0:
423,44,76289,22,0,P|357:36|319:106,1,149.999995231629,8|8,0:1|0:1,0:0:0:0:
326,119,76664,1,8,0:1:0:0:
333,134,76739,2,0,L|416:130,1,74.9999976158143,8|8,0:0|0:1,0:0:0:0:
502,225,77039,69,8,0:0:0:0:
428,145,77189,1,8,0:1:0:0:
400,274,77339,21,12,0:1:0:0:
461,384,77489,2,0,L|465:301,1,74.9999976158143,8|2,0:0|0:1,0:0:0:0:
463,238,77789,1,8,0:0:0:0:
299,308,77939,2,0,P|352:306|407:259,1,112.500000715256,8|0,0:1|0:0,0:0:0:0:
246,249,78239,1,12,0:1:0:0:
332,139,78389,2,0,P|362:174|265:167,1,225.000001430512,8|8,0:0|0:0,0:0:0:0:
428,138,78839,6,0,P|399:93|331:68,1,112.500000715256,8|0,0:1|0:0,0:0:0:0:
193,86,79139,1,8,0:0:0:0:
263,110,79289,1,8,0:0:0:0:
104,82,79439,2,0,L|233:55,1,112.500000715256,8|0,0:1|0:0,0:0:0:0:
57,142,79739,5,12,0:1:0:0:
119,229,79889,2,0,L|129:150,1,74.9999976158143,8|2,0:0|0:1,0:0:0:0:
104,82,80189,1,8,0:0:0:0:
43,253,80339,2,0,L|59:125,1,112.500000715256,8|0,0:1|0:0,0:0:0:0:
98,301,80639,1,12,0:1:0:0:
212,290,80789,2,0,B|99:303|99:303|143:367|143:367|183:362,1,225.000001430512,8|8,0:0|0:0,0:0:0:0:
285,275,81239,54,0,P|255:229|202:217,1,112.500000715256,8|0,0:1|0:0,0:0:0:0:
386,241,81539,2,0,P|360:289|376:342,1,112.500000715256,8|8,0:1|0:0,0:0:0:0:
313,169,81839,2,0,P|367:166|405:126,1,112.500000715256,8|0,0:1|0:0,0:0:0:0:
431,296,82139,5,12,0:1:0:0:
301,332,82289,2,0,L|375:340,1,74.9999976158143,8|2,0:0|0:1,0:0:0:0:
229,322,82589,2,0,L|237:247,1,74.9999976158143,8|8,0:0|0:1,0:0:0:0:
35,252,82889,1,0,0:0:0:0:
158,313,83039,2,0,L|83:304,1,74.9999976158143,12|0,0:1|0:0,0:0:0:0:
237,247,83339,2,0,L|162:238,1,74.9999976158143,2|8,0:1|0:0,0:0:0:0:
412,346,83639,6,0,L|295:331,1,112.500000715256,8|0,0:1|0:0,0:0:0:0:
170,339,83939,1,8,0:0:0:0:
237,247,84089,1,8,0:1:0:0:
285,310,84239,1,8,0:3:0:0:
344,262,84389,1,8,0:3:0:0:
162,238,84539,53,12,0:1:0:0:
43,321,84689,2,0,P|71:300|122:293,1,74.9999976158143,8|2,0:0|0:0,0:0:0:0:
176,313,84989,1,8,0:0:0:0:
89,218,85139,2,0,P|91:162|67:112,1,112.500000715256,8|0,0:1|0:0,0:0:0:0:
21,244,85439,1,8,0:1:0:0:
162,238,85589,2,0,L|294:250,1,112.500000715256,12|0,0:1|0:0,0:0:0:0:
332,117,85889,1,8,0:0:0:0:
428,230,86039,2,0,P|375:232|328:187,1,112.500000715256,8|0,0:1|0:0,0:0:0:0:
473,163,86339,5,8,0:0:0:0:
396,161,86489,1,8,0:1:0:0:
504,234,86639,1,8,0:0:0:0:
406,132,86789,1,8,0:1:0:0:
266,157,86939,5,12,0:1:0:0:
325,42,87089,2,0,L|332:122,1,74.9999976158143,8|2,0:0|0:1,0:0:0:0:
331,195,87389,1,8,0:0:0:0:
153,147,87539,2,0,L|270:157,1,112.500000715256,8|0,0:1|0:0,0:0:0:0:
353,271,87839,1,12,0:1:0:0:
440,149,87989,2,0,B|460:204|419:254|419:254|350:249|330:193,1,225.000001430512,8|8,0:0|0:0,0:0:0:0:
415,75,88439,54,0,P|485:85|513:121,1,112.500000715256,8|0,0:1|0:0,0:0:0:0:
369,134,88739,1,8,0:0:0:0:
338,62,88889,1,8,0:0:0:0:
256,218,89039,2,0,P|266:148|302:120,1,112.500000715256,8|0,0:1|0:0,0:0:0:0:
313,266,89339,5,12,0:1:0:0:
188,249,89489,2,0,P|212:283|248:294,1,74.9999976158143,8|2,0:0|0:1,0:0:0:0:
301,339,89789,1,8,0:0:0:0:
424,255,89939,2,0,L|289:268,1,112.500000715256,8|0,0:1|0:0,0:0:0:0:
195,171,90239,1,12,0:1:0:0:
60,267,90389,2,0,B|15:183|45:113|119:116|167:188|95:241,1,225.000001430512,8|8,0:0|0:0,0:0:0:0:
130,84,90839,6,0,P|175:121|196:186,1,112.500000715256,8|0,0:1|0:0,0:0:0:0:
271,111,91139,2,0,P|276:168|245:229,1,112.500000715256,8|8,0:1|0:0,0:0:0:0:
366,222,91439,2,0,P|329:267|264:288,1,112.500000715256,8|0,0:1|0:0,0:0:0:0:
194,170,91739,53,12,0:1:0:0:
50,194,91889,2,0,L|131:199,1,74.9999976158143,8|2,0:0|0:1,0:0:0:0:
185,246,92189,1,8,0:0:0:0:
244,115,92339,2,0,P|268:158|250:222,1,112.500000715256,8|0,0:1|0:0,0:0:0:0:
114,273,92639,1,12,0:1:0:0:
247,320,92789,2,0,L|172:322,1,74.9999976158143,8|2,0:0|0:1,0:0:0:0:
102,350,93089,1,8,0:0:0:0:
88,200,93239,2,0,P|121:232|211:238,1,112.500000715256,8|0,0:1|0:0,0:0:0:0:
324,183,93539,5,8,0:0:0:0:
244,295,93689,1,8,0:1:0:0:
253,216,93839,1,8,0:3:0:0:
316,264,93989,1,8,0:3:0:0:
319,108,94139,6,0,L|324:183,1,74.9999976158143,12|8,0:1|0:0,0:0:0:0:
248,141,94439,2,0,L|253:216,1,74.9999976158143,2|8,0:0|0:0,0:0:0:0:
173,83,94739,2,0,L|180:195,1,112.500000715256,8|8,0:1|0:0,0:0:0:0:
99,59,95039,2,0,L|106:171,1,112.500000715256,8|0,0:1|0:0,0:0:0:0:
31,36,95339,53,12,0:0:0:0:
67,119,95489,1,8,0:0:0:0:
182,57,95639,1,8,0:3:0:0:
191,34,95939,5,8,0:0:0:0:
248,141,96089,1,8,0:1:0:0:
262,6,96239,1,8,0:0:0:0:
232,123,96389,1,8,0:1:0:0:
368,58,96539,6,0,L|456:52,1,74.9999976158143,12|8,0:1|0:0,0:0:0:0:
492,187,96839,2,0,L|498:112,1,74.9999976158143,2|8,0:1|0:0,0:0:0:0:
341,141,97139,54,0,P|388:159|418:224,1,112.500000715256,8|0,0:1|0:0,0:0:0:0:
268,229,97439,6,0,P|303:217|352:224,1,74.9999976158143,8|8,0:0|0:0,0:0:0:0:
300,323,97739,1,2,0:1:0:0:
452,325,97889,2,0,P|385:294|311:298,1,149.999995231629
243,119,98339,6,0,L|270:239,1,112.500000715256,8|0,0:1|0:0,0:0:0:0:
219,376,98639,54,0,L|230:301,1,74.9999976158143,8|0,0:0|0:0,0:0:0:0:
115,199,98939,1,12,0:1:0:0:
126,278,99089,2,0,P|173:254|190:224,1,74.9999976158143,8|2,0:0|0:1,0:0:0:0:
181,161,99389,1,8,0:0:0:0:
37,188,99539,6,0,P|64:139|115:120,1,112.500000715256,8|0,0:1|0:0,0:0:0:0:
49,262,99839,1,8,0:0:0:0:
126,278,99989,6,0,L|200:266,1,74.9999976158143,8|2,0:0|0:1,0:0:0:0:
325,208,100289,2,0,L|251:198,1,74.9999976158143,0|8,0:0|0:0,0:0:0:0:
278,279,100589,1,0,0:0:0:0:
466,284,100739,54,0,L|334:296,1,112.500000715256,8|8,0:1|0:0,0:0:0:0:
250,198,101039,1,8,0:1:0:0:
370,275,101189,1,8,0:1:0:0:
297,135,101339,5,12,0:1:0:0:
419,90,101489,2,0,P|401:126|369:146,1,74.9999976158143,8|2,0:0|0:1,0:0:0:0:
345,73,101789,1,0,0:0:0:0:
167,45,101939,6,0,P|221:34|269:60,1,112.500000715256,8|0,0:1|0:0,0:0:0:0:
138,112,102239,1,8,0:0:0:0:
199,179,102389,54,0,L|210:105,1,74.9999976158143,8|2,0:0|0:1,0:0:0:0:
46,129,102689,2,0,L|120:139,1,74.9999976158143,0|8,0:0|0:0,0:0:0:0:
199,179,102989,1,0,0:0:0:0:
133,330,103139,6,0,L|126:218,1,112.500000715256,8|0,0:1|0:0,0:0:0:0:
268,209,103439,6,0,P|240:244|202:252,1,74.9999976158143,8|0,0:0|0:0,0:0:0:0:
401,204,103739,1,12,0:1:0:0:
354,320,103889,2,0,P|337:278|349:241,1,74.9999976158143,8|2,0:0|0:1,0:0:0:0:
393,130,104189,1,8,0:0:0:0:
412,276,104339,54,0,P|451:315|506:317,1,112.500000715256,8|0,0:1|0:0,0:0:0:0:
463,159,104639,1,0,0:0:0:0:
479,249,104789,6,0,L|495:100,1,149.999995231629,8|0,0:0|0:0,0:0:0:0:
376,46,105239,2,0,L|462:36,1,74.9999976158143,8|0,0:0|0:0,0:0:0:0:
296,165,105539,6,0,P|339:128|395:130,1,112.500000715256,8|8,0:1|0:1,0:0:0:0:
229,137,105839,1,8,0:3:0:0:
358,203,105989,1,8,0:3:0:0:
233,284,106139,54,0,L|239:209,1,74.9999976158143,12|8,0:1|0:0,0:0:0:0:
157,113,106439,2,0,L|163:188,1,74.9999976158143,2|8,0:1|0:0,0:0:0:0:
302,52,106739,6,0,L|294:182,1,112.500000715256,8|0,0:1|0:0,0:0:0:0:
363,277,107039,6,0,L|357:202,1,74.9999976158143,8|8,0:0|0:0,0:0:0:0:
445,228,107339,1,2,0:1:0:0:
496,102,107489,2,0,P|431:138|436:212,1,149.999995231629,2|0,0:1|0:0,0:0:0:0:
504,279,107939,54,0,P|518:225|497:174,1,112.500000715256,8|0,0:1|0:0,0:0:0:0:
363,277,108239,6,0,L|354:359,1,74.9999976158143,8|0,0:0|0:0,0:0:0:0:
233,199,108539,1,12,0:1:0:0:
243,122,108689,2,0,P|282:137|302:169,1,74.9999976158143,8|2,0:0|0:1,0:0:0:0:
299,236,108989,1,8,0:0:0:0:
124,284,109139,6,0,L|257:274,1,112.500000715256,8|0,0:1|0:0,0:0:0:0:
80,344,109439,1,8,0:0:0:0:
48,273,109589,54,0,P|64:234|101:211,1,74.9999976158143,8|2,0:0|0:1,0:0:0:0:
0,134,109889,2,0,P|34:147|71:141,1,74.9999976158143,2|8,0:1|0:0,0:0:0:0:
222,56,110189,1,0,0:0:0:0:
43,71,110339,6,0,L|177:85,1,112.500000715256,8|8,0:1|0:0,0:0:0:0:
309,39,110639,1,8,0:1:0:0:
214,130,110789,1,8,0:1:0:0:
274,256,110939,6,0,L|269:178,1,74.9999976158143,12|8,0:1|0:0,0:0:0:0:
309,39,111239,2,0,L|313:113,1,74.9999976158143,2|8,0:1|0:0,0:0:0:0:
343,290,111539,54,0,P|356:231|335:162,1,112.500000715256,8|0,0:1|0:0,0:0:0:0:
204,227,111839,6,0,P|198:265|211:299,1,74.9999976158143,8|8,0:0|0:0,0:0:0:0:
343,291,112139,2,0,L|422:280,1,74.9999976158143,2|0,0:1|0:0,0:0:0:0:
276,338,112439,2,0,L|339:386,1,74.9999976158143,8|0,0:0|0:0,0:0:0:0:
105,337,112739,6,0,L|215:296,1,112.500000715256,8|0,0:1|0:0,0:0:0:0:
141,173,113039,54,0,L|126:252,1,74.9999976158143,8|0,0:3|0:0,0:0:0:0:
117,101,113339,1,12,0:1:0:0:
256,192,113489,12,8,118139,0:0:0:0:
355,227,118289,38,0,L|311:224,1,44.9999971961976,8|2,0:0|0:1,0:0:0:0:
256,269,118739,2,0,L|261:298,1,22.4999985980988,2|2,0:0|0:1,0:0:0:0:
189,289,119039,2,0,L|193:312,1,22.4999985980988,0|2,0:0|0:1,0:0:0:0:
123,316,119339,2,0,L|93:310,2,22.4999985980988,2|0|0,0:0|0:0|0:0,0:0:0:0:
134,246,119789,1,0,0:0:0:0:
64,255,119939,1,2,0:1:0:0:
69,185,120089,2,0,L|73:138,1,44.9999971961976,2|0,0:1|0:0,0:0:0:0:
205,235,120539,5,8,0:0:0:0:
254,186,120689,2,0,L|301:190,1,44.9999971961976,8|2,0:0|0:1,0:0:0:0:
343,244,121139,2,0,L|374:236,1,22.4999985980988,2|0,0:0|0:0,0:0:0:0:
432,221,121439,1,0,0:0:0:0:
450,288,121589,2,0,L|455:309,2,22.4999985980988,2|2|0,0:1|0:0|0:0,0:0:0:0:
388,328,122039,2,0,L|382:306,1,22.4999985980988,0|2,0:0|0:1,0:0:0:0:
364,238,122339,1,2,0:1:0:0:
432,221,122489,2,0,L|453:215,2,22.4999985980988,2|0|0,0:1|0:0|0:0,0:0:0:0:
242,190,122939,69,12,0:0:0:0:
311,186,123089,2,0,L|322:138,1,44.9999971961976,8|2,0:0|0:1,0:0:0:0:
386,116,123539,2,0,L|409:110,1,22.4999985980988,2|0,0:0|0:0,0:0:0:0:
381,45,123839,2,0,L|359:50,1,22.4999985980988,0|2,0:0|0:1,0:0:0:0:
294,76,124139,2,0,L|265:66,2,22.4999985980988,2|0|0,0:0|0:0|0:0,0:0:0:0:
321,142,124589,1,0,0:0:0:0:
251,137,124739,1,2,0:1:0:0:
204,85,124889,2,0,L|152:93,1,44.9999971961976,2|0,0:1|0:0,0:0:0:0:
58,143,125339,5,8,0:0:0:0:
126,155,125489,2,0,L|178:163,1,44.9999971961976,8|2,0:0|0:1,0:0:0:0:
234,190,125939,2,0,L|239:214,1,22.4999985980988,2|0,0:0|0:0,0:0:0:0:
171,232,126239,1,0,0:0:0:0:
190,298,126389,2,0,L|195:322,2,22.4999985980988,2|2|0,0:1|0:0|0:0,0:0:0:0:
260,301,126839,2,0,L|255:278,1,22.4999985980988,0|0,0:0|0:0,0:0:0:0:
238,212,127139,1,2,0:1:0:0:
304,231,127289,2,0,L|333:233,2,22.4999985980988,2|0|0,0:1|0:0|0:0,0:0:0:0:
170,197,127739,69,8,0:0:0:0:
114,154,127889,2,0,L|66:160,1,44.9999971961976,8|2,0:0|0:1,0:0:0:0:
50,227,128339,2,0,L|18:231,1,22.4999985980988,2|0,0:0|0:0,0:0:0:0:
33,299,128639,2,0,L|1:303,1,22.4999985980988,0|2,0:0|0:1,0:0:0:0:
21,371,128939,2,0,L|-11:375,2,22.4999985980988,2|0|0,0:0|0:0|0:0,0:0:0:0:
87,349,129389,1,0,0:0:0:0:
106,281,129539,1,2,0:1:0:0:
155,329,129689,2,0,L|207:335,1,44.9999971961976,2|0,0:1|0:0,0:0:0:0:
341,310,130139,5,8,0:0:0:0:
284,268,130289,2,0,L|232:274,1,44.9999971961976,8|2,0:0|0:1,0:0:0:0:
189,224,130739,2,0,L|194:196,1,22.4999985980988,2|0,0:0|0:0,0:0:0:0:
204,133,131039,1,0,0:0:0:0:
204,133,131189,1,2,0:0:0:0:
388,294,132539,38,0,L|411:153,1,112.500000715256,12|8,0:1|0:0,0:0:0:0:
259,251,132839,6,0,P|295:249|326:228,1,74.9999976158143,8|8,0:0|0:0,0:0:0:0:
197,345,133139,1,8,0:1:0:0:
274,346,133289,2,0,P|259:299|157:277,1,149.999995231629,8|8,0:0|0:0,0:0:0:0:
16,310,133739,54,0,P|69:332|143:321,1,112.500000715256,12|0,0:1|0:0,0:0:0:0:
93,185,134039,6,0,L|98:277,1,74.9999976158143,8|8,0:0|0:0,0:0:0:0:
187,87,134339,6,0,L|164:204,1,112.500000715256,12|8,0:1|0:0,0:0:0:0:
27,144,134639,54,0,P|61:112|105:111,1,74.9999976158143,2|8,0:0|0:0,0:0:0:0:
228,229,134939,5,12,0:1:0:0:
350,186,135089,2,0,L|276:175,1,74.9999976158143,8|8,0:0|0:0,0:0:0:0:
423,201,135389,1,8,0:0:0:0:
353,337,135539,1,10,0:0:0:0:
279,306,135689,2,0,P|347:262|420:293,1,149.999995231629,8|8,0:0|0:0,0:0:0:0:
509,151,136139,6,0,P|484:191|413:196,1,112.500000715256,12|0,0:1|0:0,0:0:0:0:
306,106,136439,1,8,0:0:0:0:
366,154,136589,1,8,0:0:0:0:
440,131,136739,54,0,L|300:118,1,112.500000715256,12|8,0:1|0:0,0:0:0:0:
270,258,137039,6,0,L|300:181,1,74.9999976158143,2|8,0:1|0:0,0:0:0:0:
209,33,137339,6,0,P|251:81|245:141,1,112.500000715256,12|8,0:1|0:0,0:0:0:0:
103,92,137639,54,0,L|192:105,1,74.9999976158143,8|8,0:0|0:0,0:0:0:0:
75,195,137939,1,8,0:1:0:0:
194,178,138089,2,0,L|38:154,1,149.999995231629,8|8,0:0|0:0,0:0:0:0:
211,255,138539,6,0,L|94:237,1,112.500000715256,12|0,0:1|0:0,0:0:0:0:
114,365,138839,6,0,P|147:329|184:324,1,74.9999976158143,8|8,0:0|0:0,0:0:0:0:
348,347,139139,54,0,P|300:356|242:323,1,112.500000715256,12|8,0:1|0:0,0:0:0:0:
273,210,139439,1,2,0:0:0:0:
307,278,139589,1,8,0:0:0:0:
316,144,139739,6,0,L|325:256,1,112.500000715256,12|8,0:1|0:0,0:0:0:0:
467,304,140039,6,0,L|390:283,1,74.9999976158143,8|8,0:0|0:0,0:0:0:0:
467,143,140339,1,8,0:1:0:0:
394,155,140489,2,0,P|417:198|511:206,1,149.999995231629,8|8,0:0|0:0,0:0:0:0:
488,39,140939,54,0,P|459:99|474:156,1,112.500000715256,12|0,0:1|0:0,0:0:0:0:
390,47,141239,6,0,P|355:16|321:11,1,74.9999976158143,8|8,0:0|0:0,0:0:0:0:
227,126,141539,6,0,P|282:84|335:85,1,112.500000715256,8|0,0:1|0:0,0:0:0:0:
266,260,141839,2,0,P|275:191|313:154,1,112.500000715256,8|8,0:1|0:0,0:0:0:0:
382,332,142139,2,0,P|340:277|341:224,1,112.500000715256,12|8,0:1|0:0,0:0:0:0:
489,268,142439,54,0,L|408:257,1,74.9999976158143,8|8,0:0|0:0,0:0:0:0:
312,322,142739,1,8,0:1:0:0:
232,345,142889,2,0,L|381:331,1,149.999995231629,8|8,0:0|0:0,0:0:0:0:
207,271,143339,6,0,P|160:314|157:360,1,112.500000715256,12|0,0:1|0:0,0:0:0:0:
60,266,143639,6,0,P|107:251|128:224,1,74.9999976158143,8|8,0:0|0:0,0:0:0:0:
58,86,143939,54,0,P|77:153|45:207,1,112.500000715256,12|8,0:1|0:0,0:0:0:0:
211,188,144239,6,0,P|168:177|147:151,1,74.9999976158143,2|8,0:1|0:0,0:0:0:0:
278,146,144539,5,12,0:1:0:0:
205,42,144689,2,0,L|213:136,1,74.9999976158143,8|8,0:0|0:0,0:0:0:0:
277,220,144989,1,8,0:0:0:0:
343,108,145139,1,8,0:1:0:0:
427,155,145289,2,0,L|262:145,1,149.999995231629,8|8,0:0|0:0,0:0:0:0:
398,23,145739,54,0,P|378:89|310:106,1,112.500000715256,12|0,0:1|0:0,0:0:0:0:
250,32,146039,6,0,L|328:37,1,74.9999976158143,8|8,0:0|0:0,0:0:0:0:
359,178,146339,6,0,L|481:157,1,112.500000715256,12|8,0:1|0:0,0:0:0:0:
374,249,146639,54,0,P|330:244|298:217,1,74.9999976158143,2|8,0:0|0:0,0:0:0:0:
443,327,146939,6,0,P|386:319|330:354,1,112.500000715256,12|8,0:1|0:0,0:0:0:0:
238,267,147239,6,0,P|263:303|260:351,1,74.9999976158143,8|8,0:0|0:0,0:0:0:0:
122,291,147539,1,8,0:1:0:0:
190,325,147689,2,0,L|27:308,1,149.999995231629,8|8,0:0|0:0,0:0:0:0:
124,141,148139,54,0,P|130:196|171:231,1,112.500000715256,12|0,0:1|0:0,0:0:0:0:
272,175,148439,1,8,0:0:0:0:
197,158,148589,1,8,0:0:0:0:
340,126,148739,2,0,L|205:138,1,112.500000715256,8|8,0:1|0:0,0:0:0:0:
417,212,149039,6,0,L|337:195,1,74.9999976158143,2|8,0:1|0:0,0:0:0:0:
338,56,149339,1,12,0:1:0:0:
486,112,149489,2,0,L|405:120,1,74.9999976158143,8|8,0:0|0:0,0:0:0:0:
340,126,149789,1,8,0:0:0:0:
227,35,149939,6,0,L|347:57,1,112.500000715256,8|8,0:1|0:0,0:0:0:0:
274,184,150239,54,0,L|259:106,1,74.9999976158143,2|8,0:1|0:0,0:0:0:0:
85,110,150539,6,0,P|149:126|193:90,1,112.500000715256,12|0,0:1|0:0,0:0:0:0:
210,233,150839,6,0,P|172:205|120:207,1,74.9999976158143,8|8,0:0|0:1,0:0:0:0:
130,216,151064,1,8,0:1:0:0:
114,229,151139,2,0,L|39:219,1,74.9999976158143,8|8,0:1|0:1,0:0:0:0:
175,300,151439,1,12,0:0:0:0:
18,240,151589,1,8,0:1:0:0:
161,185,151739,53,12,0:1:0:0:
200,56,151889,2,0,L|210:131,1,74.9999976158143,8|2,0:0|0:1,0:0:0:0:
234,200,152189,1,8,0:0:0:0:
393,151,152339,6,0,L|258:138,1,112.500000715256,8|0,0:1|0:0,0:0:0:0:
161,185,152639,1,12,0:1:0:0:
34,274,152789,2,0,B|96:273|96:273|177:204|177:204|242:199,1,225.000001430512,8|8,0:0|0:0,0:0:0:0:
306,321,153239,6,0,P|263:280|201:282,1,112.500000715256,8|0,0:1|0:0,0:0:0:0:
143,384,153539,1,8,0:0:0:0:
231,348,153689,1,8,0:0:0:0:
130,361,153839,2,0,L|241:371,1,112.500000715256,8|0,0:1|0:0,0:0:0:0:
375,289,154139,53,12,0:1:0:0:
512,261,154289,2,0,L|437:252,1,74.9999976158143,8|2,0:0|0:1,0:0:0:0:
375,213,154589,1,8,0:0:0:0:
419,80,154739,6,0,P|411:136|444:182,1,112.500000715256,8|0,0:1|0:0,0:0:0:0:
318,53,155039,1,12,0:1:0:0:
242,137,155189,2,0,P|285:77|266:170,1,225.000001430512,8|8,0:0|0:0,0:0:0:0:
173,96,155639,6,0,P|197:46|241:12,1,112.500000715256,8|0,0:1|0:0,0:0:0:0:
92,129,155939,2,0,P|89:73|111:22,1,112.500000715256,8|8,0:1|0:0,0:0:0:0:
37,195,156239,2,0,P|7:148|0:93,1,112.500000715256,8|0,0:1|0:0,0:0:0:0:
146,306,156539,53,12,0:1:0:0:
285,272,156689,2,0,L|210:264,1,74.9999976158143,8|2,0:0|0:1,0:0:0:0:
317,347,156989,2,0,L|242:339,1,74.9999976158143,8|8,0:0|0:1,0:0:0:0:
144,229,157289,1,0,0:0:0:0:
177,381,157439,2,0,L|102:373,1,74.9999976158143,12|8,0:1|0:0,0:0:0:0:
146,306,157739,2,0,L|71:298,1,74.9999976158143,2|8,0:1|0:0,0:0:0:0:
327,216,158039,6,0,L|215:203,1,112.500000715256,8|0,0:1|0:0,0:0:0:0:
77,201,158339,1,8,0:0:0:0:
220,169,158489,1,8,0:1:0:0:
142,153,158639,1,8,0:3:0:0:
157,79,158789,1,8,0:3:0:0:
294,140,158939,5,12,0:1:0:0:
248,19,159089,2,0,L|232:103,1,74.9999976158143,8|2,0:0|0:0,0:0:0:0:
220,169,159389,1,8,0:0:0:0:
393,119,159539,54,0,P|329:151|287:135,1,112.500000715256,8|0,0:1|0:0,0:0:0:0:
158,118,159839,1,8,0:1:0:0:
228,281,159989,2,0,L|219:162,1,112.500000715256,12|0,0:1|0:0,0:0:0:0:
332,77,160289,1,8,0:0:0:0:
301,251,160439,2,0,L|292:132,1,112.500000715256,8|0,0:1|0:0,0:0:0:0:
212,193,160739,5,8,0:0:0:0:
256,75,160889,1,8,0:1:0:0:
310,157,161039,1,8,0:0:0:0:
263,48,161189,1,8,0:1:0:0:
159,121,161339,5,12,0:1:0:0:
7,122,161489,2,0,L|92:129,1,74.9999976158143,8|2,0:0|0:1,0:0:0:0:
115,60,161789,1,8,0:0:0:0:
261,148,161939,54,0,P|209:118|131:134,1,112.500000715256,8|0,0:1|0:0,0:0:0:0:
70,202,162239,1,12,0:1:0:0:
192,192,162389,2,0,B|119:185|69:247|69:247|92:293|137:289,1,225.000001430512,8|8,0:0|0:0,0:0:0:0:
203,376,162839,6,0,P|221:319|196:245,1,112.500000715256,8|0,0:1|0:0,0:0:0:0:
335,250,163139,1,8,0:0:0:0:
265,217,163289,1,8,0:0:0:0:
440,167,163439,2,0,L|327:174,1,112.500000715256,8|0,0:1|0:0,0:0:0:0:
404,281,163739,5,12,0:1:0:0:
287,366,163889,2,0,P|317:332|347:324,1,74.9999976158143,8|2,0:0|0:1,0:0:0:0:
412,355,164189,1,8,0:0:0:0:
335,250,164339,54,0,L|223:235,1,112.500000715256,8|0,0:1|0:0,0:0:0:0:
85,213,164639,1,12,0:1:0:0:
194,306,164789,2,0,B|151:273|151:273|105:169|105:169|162:201,1,225.000001430512,8|8,0:0|0:0,0:0:0:0:
317,186,165239,6,0,P|277:225|223:235,1,112.500000715256,8|0,0:1|0:0,0:0:0:0:
383,227,165539,2,0,P|367:281|326:318,1,112.500000715256,8|8,0:1|0:0,0:0:0:0:
460,240,165839,2,0,P|473:294|456:347,1,112.500000715256,8|0,0:1|0:0,0:0:0:0:
317,186,166139,5,12,0:1:0:0:
393,80,166289,2,0,L|384:157,1,74.9999976158143,8|2,0:0|0:1,0:0:0:0:
383,228,166589,1,8,0:0:0:0:
204,191,166739,2,0,L|336:184,1,112.500000715256,8|0,0:1|0:0,0:0:0:0:
164,259,167039,1,12,0:1:0:0:
299,303,167189,2,0,P|272:273|234:263,1,74.9999976158143,8|2,0:0|0:1,0:0:0:0:
200,327,167489,1,8,0:0:0:0:
88,229,167639,2,0,P|86:284|120:327,1,112.500000715256,8|0,0:1|0:0,0:0:0:0:
204,191,167939,53,8,0:0:0:0:
164,259,168089,1,8,0:1:0:0:
281,197,168239,1,8,0:3:0:0:
250,128,168389,1,8,0:3:0:0:
100,131,168539,6,0,L|183:121,1,74.9999976158143,12|8,0:1|0:0,0:0:0:0:
72,62,168839,2,0,L|155:52,1,74.9999976158143,2|8,0:0|0:0,0:0:0:0:
92,205,169139,2,0,L|208:190,1,112.500000715256,8|8,0:1|0:0,0:0:0:0:
71,280,169439,2,0,L|187:265,1,112.500000715256,8|0,0:1|0:0,0:0:0:0:
48,351,169739,5,12,0:1:0:0:
168,296,169889,1,8,0:0:0:0:
227,355,170039,1,8,0:3:0:0:
234,383,170339,53,8,0:0:0:0:
273,273,170489,1,8,0:1:0:0:
368,316,170639,1,8,0:0:0:0:
264,294,170789,1,8,0:1:0:0:
324,173,170939,6,0,P|339:214|333:260,1,74.9999976158143,12|8,0:1|0:0,0:0:0:0:
447,111,171239,2,0,P|410:118|374:112,1,74.9999976158143,2|8,0:1|0:0,0:0:0:0:
223,105,171539,6,0,P|279:100|320:44,1,112.500000715256,8|0,0:1|0:0,0:0:0:0:
170,25,171839,54,0,L|249:34,1,74.9999976158143,8|8,0:0|0:0,0:0:0:0:
211,127,172139,1,2,0:1:0:0:
74,124,172289,2,0,L|245:102,1,149.999995231629
319,225,172739,6,0,P|271:186|198:196,1,112.500000715256,8|0,0:1|0:0,0:0:0:0:
249,332,173039,6,0,P|255:289|241:252,1,74.9999976158143,8|0,0:0|0:0,0:0:0:0:
34,308,173339,1,12,0:1:0:0:
182,299,173489,2,0,L|96:287,1,74.9999976158143,8|2,0:0|0:1,0:0:0:0:
0,228,173789,1,8,0:0:0:0:
181,223,173939,54,0,L|67:206,1,112.500000715256,8|0,0:1|0:0,0:0:0:0:
250,186,174239,1,8,0:0:0:0:
182,147,174389,6,0,P|212:117|250:109,1,74.9999976158143,8|2,0:0|0:1,0:0:0:0:
305,241,174689,2,0,P|322:208|321:171,1,74.9999976158143,0|8,0:0|0:0,0:0:0:0:
316,98,174989,1,8,0:0:0:0:
475,171,175139,6,0,P|414:166|380:116,1,112.500000715256,8|8,0:1|0:0,0:0:0:0:
508,240,175439,1,8,0:1:0:0:
450,100,175589,1,8,0:1:0:0:
385,236,175739,53,12,0:1:0:0:
488,320,175889,2,0,L|403:307,1,74.9999976158143,8|2,0:0|0:1,0:0:0:0:
341,300,176189,1,8,0:0:0:0:
197,239,176339,6,0,L|316:228,1,112.500000715256,8|0,0:1|0:0,0:0:0:0:
149,177,176639,1,8,0:0:0:0:
267,107,176789,6,0,P|240:152|208:164,1,74.9999976158143,8|2,0:0|0:1,0:0:0:0:
138,45,177089,2,0,P|158:75|192:90,1,74.9999976158143,0|8,0:0|0:0,0:0:0:0:
240,34,177389,1,0,0:0:0:0:
365,86,177539,54,0,P|300:79|259:121,1,112.500000715256,12|0,0:1|0:0,0:0:0:0:
439,80,177839,6,0,P|419:32|388:17,1,74.9999976158143,8|2,0:0|0:1,0:0:0:0:
327,148,178139,1,12,0:1:0:0:
381,266,178289,2,0,L|388:189,1,74.9999976158143,8|2,0:0|0:1,0:0:0:0:
266,106,178589,1,8,0:0:0:0:
148,190,178739,6,0,L|259:178,1,112.500000715256,12|0,0:1|0:0,0:0:0:0:
237,330,179039,1,8,0:0:0:0:
312,325,179189,54,0,P|275:263|204:263,1,149.999995231629,8|0,0:0|0:0,0:0:0:0:
165,326,179639,2,0,P|200:337|237:330,1,74.9999976158143,8|0,0:0|0:0,0:0:0:0:
121,146,179939,6,0,L|130:262,1,112.500000715256,12|8,0:1|0:0,0:0:0:0:
160,84,180239,1,8,0:3:0:0:
77,209,180389,1,8,0:3:0:0:
193,154,180539,6,0,L|271:160,1,74.9999976158143,12|8,0:1|0:0,0:0:0:0:
160,84,180839,2,0,L|234:89,1,74.9999976158143,2|8,0:1|0:0,0:0:0:0:
409,78,181139,54,0,P|350:71|302:105,1,112.500000715256,12|0,0:1|0:0,0:0:0:0:
308,226,181439,6,0,P|342:180|336:146,1,74.9999976158143,8|8,0:0|0:0,0:0:0:0:
244,181,181739,1,2,0:1:0:0:
117,170,181889,2,0,L|267:159,1,149.999995231629,2|0,0:1|0:0,0:0:0:0:
93,241,182339,6,0,P|38:245|0:285,1,112.500000715256,8|0,0:1|0:0,0:0:0:0:
176,363,182639,54,0,P|151:326|152:292,1,74.9999976158143,8|0,0:0|0:0,0:0:0:0:
355,265,182939,1,12,0:1:0:0:
222,305,183089,2,0,L|297:310,1,74.9999976158143,8|2,0:0|0:1,0:0:0:0:
363,339,183389,1,8,0:0:0:0:
466,248,183539,6,0,L|349:265,1,112.500000715256,12|0,0:1|0:0,0:0:0:0:
329,120,183839,1,8,0:0:0:0:
275,170,183989,6,0,P|309:190|361:189,1,74.9999976158143,8|2,0:0|0:1,0:0:0:0:
186,278,184289,2,0,P|206:244|205:192,1,74.9999976158143,0|8,0:0|0:0,0:0:0:0:
136,65,184589,1,0,0:0:0:0:
132,225,184739,54,0,P|130:166|73:118,1,112.500000715256,12|8,0:1|0:0,0:0:0:0:
110,297,185039,1,8,0:1:0:0:
54,199,185189,1,8,0:1:0:0:
110,297,185339,6,0,L|101:377,1,74.9999976158143,12|8,0:1|0:0,0:0:0:0:
216,174,185639,2,0,L|207:248,1,74.9999976158143,2|8,0:1|0:0,0:0:0:0:
379,247,185939,6,0,P|322:206|268:227,1,112.500000715256,12|0,0:1|0:0,0:0:0:0:
323,353,186239,54,0,L|316:268,1,74.9999976158143,8|8,0:0|0:0,0:0:0:0:
195,331,186539,2,0,L|243:273,1,74.9999976158143,2|0,0:1|0:0,0:0:0:0:
141,216,186839,2,0,L|215:209,1,74.9999976158143,8|0,0:0|0:0,0:0:0:0:
17,254,187139,6,0,L|137:294,1,112.500000715256,12|0,0:1|0:0,0:0:0:0:
65,114,187439,6,0,L|69:189,1,74.9999976158143,8|0,0:3|0:0,0:0:0:0:
100,43,187739,1,12,0:1:0:0:
256,192,187889,12,12,197339,0:0:0:0:
198,148,197489,6,0,L|192:196,1,44.9999971961976,8|0,0:0|0:0,0:0:0:0:
130,225,197939,2,0,L|136:252,1,22.4999985980988,2|0,0:0|0:0,0:0:0:0:
203,263,198239,2,0,L|207:284,1,22.4999985980988,0|2,0:0|0:1,0:0:0:0:
156,332,198539,2,0,L|162:359,2,22.4999985980988,2|0|0,0:0|0:0|0:0,0:0:0:0:
91,309,198989,1,2,0:1:0:0:
27,287,199139,1,2,0:1:0:0:
43,221,199289,2,0,L|49:198,2,22.4999985980988,2|0|0,0:1|0:0|0:0,0:0:0:0:
174,264,199739,5,8,0:0:0:0:
110,242,199889,2,0,L|123:198,1,44.9999971961976,8|0,0:0|0:0,0:0:0:0:
188,165,200339,2,0,L|180:143,1,22.4999985980988,2|0,0:0|0:0,0:0:0:0:
113,123,200639,1,0,0:0:0:0:
97,55,200789,2,0,L|90:27,2,22.4999985980988,2|2|0,0:1|0:0|0:0,0:0:0:0:
165,71,201239,2,0,L|194:72,1,22.4999985980988,0|0,0:0|0:0,0:0:0:0:
257,77,201539,1,2,0:1:0:0:
301,23,201689,2,0,L|329:27,2,22.4999985980988,2|0|0,0:1|0:0|0:0,0:0:0:0:
282,147,202139,69,8,0:0:0:0:
326,92,202289,2,0,L|374:102,1,44.9999971961976,8|2,0:0|0:1,0:0:0:0:
414,155,202739,2,0,L|422:184,1,22.4999985980988,2|2,0:0|0:1,0:0:0:0:
350,183,203039,2,0,L|358:212,1,22.4999985980988,2|2,0:1|0:1,0:0:0:0:
413,243,203339,2,0,L|421:272,2,22.4999985980988,2|0|0,0:0|0:0|0:0,0:0:0:0:
349,272,203789,1,0,0:0:0:0:
284,297,203939,1,2,0:1:0:0:
252,234,204089,2,0,L|222:228,2,22.4999985980988,0|0|0,0:0|0:0|0:0,0:0:0:0:
342,345,204539,5,8,0:0:0:0:
277,372,204689,2,0,L|227:361,1,44.9999971961976,8|2,0:0|0:1,0:0:0:0:
185,311,205139,2,0,L|156:318,1,22.4999985980988,2|2,0:0|0:1,0:0:0:0:
96,337,205439,1,2,0:1:0:0:
96,337,205589,1,2,0:0:0:0:
