osu file format v14

[General]
AudioFilename: audio.mp3
AudioLeadIn: 0
PreviewTime: 58064
Countdown: 0
SampleSet: Soft
StackLeniency: 0.2
Mode: 0
LetterboxInBreaks: 0
WidescreenStoryboard: 1

[Editor]
Bookmarks: 8939,10139,19739,38939,58139,67739,77339,96539,113339,132539,151739,170939,187739,205589
DistanceSpacing: 1.3
BeatDivisor: 8
GridSize: 16
TimelineZoom: 1.7

[Metadata]
Title:DEVOURING ONE ANOTHER
TitleUnicode:DEVOURING ONE ANOTHER
Artist:the GazettE
ArtistUnicode:the GazettE
Creator:Vell
Version:Hard
Source:
Tags:japanese english rock j-rock visual kei metal ruki uruha aoi reita kai beautiful deformity gazetto ルキ 麗 葵 れいた 戒
BeatmapID:4035906
BeatmapSetID:1948209

[Difficulty]
HPDrainRate:5
CircleSize:4
OverallDifficulty:6.5
ApproachRate:7.8
SliderMultiplier:2.49999990463257
SliderTickRate:2

[Events]
//Background and Video events
0,0,"bg.png",0,0
//Break Periods
2,118339,122039
2,123289,131639
//Storyboard Layer 0 (Background)
//Storyboard Layer 1 (Fail)
//Storyboard Layer 2 (Pass)
//Storyboard Layer 3 (Foreground)
//Storyboard Layer 4 (Overlay)
//Storyboard Sound Samples

[TimingPoints]
539,600,4,2,1,90,1,0
8939,-142.857142857143,4,2,1,90,0,0
10139,-100,4,2,2,90,0,0
10289,-100,4,2,1,90,0,0
11039,-100,4,2,2,90,0,0
11189,-100,4,2,1,90,0,0
12539,-100,4,2,2,90,0,0
12689,-100,4,2,1,90,0,0
13439,-100,4,2,2,90,0,0
13589,-100,4,2,1,90,0,0
14939,-100,4,2,2,90,0,0
15089,-100,4,2,1,90,0,0
15839,-100,4,2,2,90,0,0
15989,-100,4,2,1,90,0,0
18389,-100,4,2,2,90,0,0
18689,-100,4,2,1,90,0,0
19739,-142.857142857143,4,2,1,70,0,0
37139,-142.857142857143,4,2,1,90,0,0
38939,-100,4,2,2,90,0,1
39089,-100,4,2,1,90,0,1
39839,-100,4,2,2,90,0,1
39989,-100,4,2,1,90,0,1
41339,-100,4,2,2,90,0,1
41489,-100,4,2,1,90,0,1
42239,-100,4,2,2,90,0,1
42389,-100,4,2,1,90,0,1
43739,-100,4,2,2,90,0,1
43889,-100,4,2,1,90,0,1
44639,-100,4,2,2,90,0,1
44789,-100,4,2,1,90,0,1
47189,-100,4,2,2,90,0,1
47489,-100,4,2,1,90,0,1
48539,-100,4,2,2,90,0,1
48689,-100,4,2,1,90,0,1
49439,-100,4,2,2,90,0,1
49589,-100,4,2,1,90,0,1
50939,-100,4,2,2,90,0,1
51089,-100,4,2,1,90,0,1
51839,-100,4,2,2,90,0,1
51989,-100,4,2,1,90,0,1
53339,-100,4,2,2,90,0,1
53489,-100,4,2,1,90,0,1
54239,-100,4,2,2,90,0,1
54389,-100,4,2,1,90,0,1
56789,-100,4,2,2,90,0,1
56939,-100,4,2,1,90,0,1
58139,-142.857142857143,4,2,1,70,0,0
76289,-142.857142857143,4,2,1,90,0,0
77339,-100,4,2,2,90,0,1
77489,-100,4,2,1,90,0,1
78241,-100,4,2,2,90,0,1
78389,-100,4,2,1,90,0,1
79739,-100,4,2,2,90,0,1
79889,-100,4,2,1,90,0,1
80639,-100,4,2,2,90,0,1
80789,-100,4,2,1,90,0,1
82139,-100,4,2,2,90,0,1
82289,-100,4,2,1,90,0,1
83039,-100,4,2,2,90,0,1
83189,-100,4,2,1,90,0,1
84539,-100,4,2,2,90,0,1
84689,-100,4,2,1,90,0,1
85589,-100,4,2,2,90,0,1
85739,-100,4,2,1,90,0,1
86939,-100,4,2,2,90,0,1
87089,-100,4,2,1,90,0,1
87839,-100,4,2,2,90,0,1
87989,-100,4,2,1,90,0,1
89339,-100,4,2,2,90,0,1
89489,-100,4,2,1,90,0,1
90239,-100,4,2,2,90,0,1
90389,-100,4,2,1,90,0,1
91739,-100,4,2,2,90,0,1
91889,-100,4,2,1,90,0,1
92639,-100,4,2,2,90,0,1
92789,-100,4,2,1,90,0,1
94139,-100,4,2,2,90,0,1
94289,-100,4,2,1,90,0,1
96539,-100,4,2,2,90,0,0
96689,-100,4,2,1,90,0,0
98939,-100,4,2,2,90,0,0
99089,-100,4,2,1,90,0,0
101339,-100,4,2,2,90,0,0
101489,-100,4,2,1,90,0,0
103739,-100,4,2,2,90,0,0
103889,-100,4,2,1,90,0,0
106139,-100,4,2,2,90,0,0
106289,-100,4,2,1,90,0,0
108539,-100,4,2,2,90,0,0
108689,-100,4,2,1,90,0,0
110939,-100,4,2,2,90,0,0
111089,-100,4,2,1,90,0,0
113339,-100,4,2,2,90,0,0
118139,-100,4,2,1,40,0,0
132539,-100,4,2,1,90,0,0
133739,-100,4,2,2,90,0,0
134039,-100,4,2,1,90,0,0
136139,-100,4,2,2,90,0,0
136439,-100,4,2,1,90,0,0
138539,-100,4,2,2,90,0,0
138839,-100,4,2,1,90,0,0
140939,-100,4,2,2,90,0,0
141239,-100,4,2,1,90,0,0
143339,-100,4,2,2,90,0,0
143639,-100,4,2,1,90,0,0
145739,-100,4,2,2,90,0,0
146039,-100,4,2,1,90,0,0
148139,-100,4,2,2,90,0,0
148439,-100,4,2,1,90,0,0
150539,-100,4,2,2,90,0,0
150689,-100,4,2,1,90,0,0
151739,-100,4,2,2,90,0,1
151889,-100,4,2,1,90,0,1
152639,-100,4,2,2,90,0,1
152789,-100,4,2,1,90,0,1
154139,-100,4,2,2,90,0,1
154289,-100,4,2,1,90,0,1
155039,-100,4,2,2,90,0,1
155189,-100,4,2,1,90,0,1
156539,-100,4,2,2,90,0,1
156689,-100,4,2,1,90,0,1
157439,-100,4,2,2,90,0,1
157589,-100,4,2,1,90,0,1
158939,-100,4,2,2,90,0,1
159089,-100,4,2,1,90,0,1
159989,-100,4,2,2,90,0,1
160139,-100,4,2,1,90,0,1
161339,-100,4,2,2,90,0,1
161489,-100,4,2,1,90,0,1
162239,-100,4,2,2,90,0,1
162389,-100,4,2,1,90,0,1
163739,-100,4,2,2,90,0,1
163889,-100,4,2,1,90,0,1
164639,-100,4,2,2,90,0,1
164789,-100,4,2,1,90,0,1
166139,-100,4,2,2,90,0,1
166289,-100,4,2,1,90,0,1
167039,-100,4,2,2,90,0,1
167189,-100,4,2,1,90,0,1
168539,-100,4,2,2,90,0,1
168689,-100,4,2,1,90,0,1
170939,-100,4,2,2,90,0,0
171089,-100,4,2,1,90,0,0
173339,-100,4,2,2,90,0,0
173489,-100,4,2,1,90,0,0
175739,-100,4,2,2,90,0,0
175889,-100,4,2,1,90,0,0
178139,-100,4,2,2,90,0,0
178289,-100,4,2,1,90,0,0
180539,-100,4,2,2,90,0,0
180689,-100,4,2,1,90,0,0
182939,-100,4,2,2,90,0,0
183089,-100,4,2,1,90,0,0
185339,-100,4,2,2,90,0,0
185489,-100,4,2,1,90,0,0
187739,-100,4,2,2,90,0,0
197339,-100,4,2,1,40,0,0

[Colours]
Combo1 : 143,143,143
Combo2 : 137,156,184
Combo3 : 128,153,151
Combo4 : 159,157,174
Combo5 : 192,192,192

[HitObjects]
54,283,8939,53,2,0:3:0:0:
192,321,9239,1,2,0:3:0:0:
68,307,9539,2,0,L|122:299,1,43.749996995926,2|2,0:3|0:3,0:0:0:0:
173,350,9839,2,0,L|227:342,1,43.749996995926,2|2,0:3|0:3,0:0:0:0:
278,291,10139,21,12,0:1:0:0:
278,291,10289,2,0,P|327:263|411:255,1,124.999995231628,8|8,0:0|0:0,0:0:0:0:
456,306,10739,2,0,L|443:384,1,62.4999976158143,8|0,0:1|0:0,0:0:0:0:
507,239,11039,1,12,0:1:0:0:
507,239,11189,2,0,L|482:113,1,124.999995231628,8|8,0:0|0:0,0:0:0:0:
407,149,11639,2,0,P|378:136|348:128,1,62.4999976158143,8|0,0:1|0:0,0:0:0:0:
399,1,11939,2,0,P|411:29|419:59,1,62.4999976158143,12|8,0:0|0:0,0:0:0:0:
337,53,12239,2,0,L|253:65,1,62.4999976158143,8|0,0:1|0:0,0:0:0:0:
258,185,12539,5,12,0:1:0:0:
258,185,12689,2,0,L|110:158,1,124.999995231629,8|8,0:0|0:0,0:0:0:0:
80,222,13139,2,0,L|-1:234,1,62.4999976158143,8|0,0:1|0:0,0:0:0:0:
154,362,13439,1,12,0:1:0:0:
154,362,13589,2,0,P|168:296|148:230,1,124.999995231629,8|8,0:0|0:0,0:0:0:0:
51,305,14039,2,0,P|64:352|85:377,1,62.4999976158143,8|0,0:1|0:0,0:0:0:0:
214,306,14339,2,0,P|248:340|279:351,1,62.4999976158143,8|8,0:1|0:0,0:0:0:0:
328,237,14639,2,0,P|375:249|407:243,1,62.4999976158143,8|0,0:1|0:0,0:0:0:0:
369,330,14939,5,12,0:1:0:0:
369,330,15089,2,0,L|505:316,1,124.999995231629,8|8,0:0|0:0,0:0:0:0:
472,238,15539,2,0,L|486:160,1,62.4999976158143,8|0,0:1|0:0,0:0:0:0:
393,51,15839,1,12,0:1:0:0:
393,51,15989,2,0,P|409:125|405:186,1,124.999995231629,8|8,0:0|0:0,0:0:0:0:
327,191,16439,2,0,P|307:146|283:127,1,62.4999976158143,8|0,0:1|0:0,0:0:0:0:
247,200,16739,1,8,0:0:0:0:
259,119,16889,1,8,0:0:0:0:
217,31,17039,2,0,L|227:110,1,62.4999976158143,8|8,0:3|0:3,0:0:0:0:
87,53,17339,38,0,P|111:73|139:86,1,62.4999976158143,12|8,0:0|0:0,0:0:0:0:
117,194,17639,2,0,P|141:174|169:161,1,62.4999976158143,2|8,0:0|0:0,0:0:0:0:
215,318,17939,2,0,P|222:255|263:177,1,124.999995231629,8|8,0:1|0:1,0:0:0:0:
322,168,18389,2,0,L|465:183,1,124.999995231629,12|8,0:1|0:0,0:0:0:0:
511,132,18839,1,8,0:1:0:0:
490,293,19139,5,8,0:0:0:0:
417,255,19289,1,8,0:1:0:0:
336,267,19439,1,8,0:1:0:0:
283,328,19589,1,8,0:1:0:0:
203,343,19739,38,0,P|138:363|44:312,1,174.999987983704,12|2,0:0|0:1,0:0:0:0:
172,276,20639,2,0,P|136:254|106:208,2,87.4999939918521,8|2|8,0:0|0:1|0:0,0:0:0:0:
318,250,21539,1,8,0:1:0:0:
203,343,21839,2,0,L|251:346,1,43.749996995926,2|0,0:0|0:0,0:0:0:0:
316,373,22139,54,0,P|351:348|394:348,1,87.4999939918521,8|2,0:0|0:1,0:0:0:0:
465,384,22589,1,0,0:0:0:0:
505,321,22739,2,0,L|513:230,1,87.4999939918521,0|8,0:0|0:0,0:0:0:0:
399,239,23339,2,0,L|391:151,1,87.4999939918521,0|8,0:0|0:0,0:0:0:0:
310,328,23939,2,0,L|266:201,1,131.249990987778,8|0,0:1|0:0,0:0:0:0:
240,138,24539,5,12,0:0:0:0:
240,138,24689,1,8,0:0:0:0:
378,238,25139,2,0,P|380:197|395:139,1,87.4999939918521,2|8,0:1|0:0,0:0:0:0:
446,98,25589,1,0,0:0:0:0:
278,18,26039,1,8,0:0:0:0:
370,81,26339,2,0,L|320:74,1,43.749996995926,8|0,0:1|0:0,0:0:0:0:
256,91,26639,2,0,L|206:98,1,43.749996995926,2|0,0:0|0:0,0:0:0:0:
151,49,26939,54,0,P|120:33|56:29,2,87.4999939918521,8|2|0,0:0|0:1|0:0,0:0:0:0:
5,79,27839,1,8,0:0:0:0:
118,182,28139,2,0,P|103:133|66:94,1,87.4999939918521,0|8,0:0|0:0,0:0:0:0:
15,272,28739,2,0,P|28:244|31:218,1,43.749996995926,8|0,0:1|0:0,0:0:0:0:
29,352,29039,2,0,P|57:341|78:325,1,43.749996995926,8|0,0:0|0:0,0:0:0:0:
147,326,29339,5,12,0:0:0:0:
147,326,29489,2,0,L|241:335,1,87.4999939918521,8|0,0:0|0:0,0:0:0:0:
291,280,29939,2,0,L|384:263,1,87.4999939918521,2|8,0:1|0:0,0:0:0:0:
449,294,30389,2,0,P|460:265|459:192,1,87.4999939918521,0|0,0:0|0:0,0:0:0:0:
436,138,30839,1,8,0:0:0:0:
455,26,31139,2,0,L|404:36,1,43.749996995926,8|0,0:1|0:0,0:0:0:0:
372,98,31439,2,0,L|329:89,1,43.749996995926,2|0,0:0|0:0,0:0:0:0:
263,128,31739,54,0,P|233:104|184:84,1,87.4999939918521,8|0,0:0|0:0,0:0:0:0:
125,131,32189,2,0,L|133:229,2,87.4999939918521,0|0|0,0:0|0:0|0:0,0:0:0:0:
118,57,32939,1,2,0:1:0:0:
49,148,33239,1,8,0:0:0:0:
63,260,33539,2,0,P|46:293|34:306,1,43.749996995926,8|0,0:1|0:0,0:0:0:0:
79,367,33839,2,0,P|43:378|25:379,1,43.749996995926,8|0,0:0|0:0,0:0:0:0:
126,307,34139,6,0,P|163:292|308:283,1,174.999987983704,12|2,0:0|0:1,0:0:0:0:
350,226,34889,2,0,P|331:181|334:136,1,87.4999939918521,0|0,0:0|0:0,0:0:0:0:
405,169,35339,2,0,P|417:142|429:127,1,43.749996995926,2|0,0:1|0:0,0:0:0:0:
492,96,35639,1,8,0:0:0:0:
426,246,35939,2,0,P|460:237|514:240,2,87.4999939918521,8|2|8,0:1|0:0|0:0,0:0:0:0:
366,292,36689,2,0,L|373:382,1,87.4999939918521,8|8,0:0|0:0,0:0:0:0:
295,271,37139,54,0,L|288:361,1,87.4999939918521,8|8,0:1|0:0,0:0:0:0:
166,277,37739,1,8,0:1:0:0:
110,224,37889,1,8,0:0:0:0:
36,207,38039,1,8,0:3:0:0:
142,314,38339,6,0,L|89:309,1,43.749996995926,8|8,0:0|0:1,0:0:0:0:
46,249,38639,2,0,L|-7:244,1,43.749996995926,8|8,0:0|0:1,0:0:0:0:
97,189,38939,37,12,0:1:0:0:
97,189,39089,2,0,P|113:147|120:59,1,124.999995231629,8|8,0:0|0:0,0:0:0:0:
195,102,39539,2,0,L|232:160,1,62.4999976158143,8|0,0:1|0:0,0:0:0:0:
284,61,39839,1,12,0:1:0:0:
391,63,39989,2,0,P|336:84|259:77,1,124.999995231629,8|8,0:0|0:0,0:0:0:0:
375,171,40439,2,0,P|406:143|453:132,1,62.4999976158143,8|0,0:1|0:0,0:0:0:0:
503,157,40739,1,8,0:0:0:0:
448,217,40889,1,8,0:0:0:0:
454,319,41039,2,0,L|444:240,1,62.4999976158143,8|0,0:1|0:0,0:0:0:0:
369,251,41339,37,12,0:1:0:0:
369,251,41489,2,0,L|232:230,1,124.999995231629,8|8,0:0|0:0,0:0:0:0:
198,299,41939,2,0,P|151:314|125:344,1,62.4999976158143,8|0,0:1|0:0,0:0:0:0:
118,229,42239,1,12,0:1:0:0:
45,309,42389,2,0,P|73:280|100:195,1,124.999995231629,8|8,0:0|0:0,0:0:0:0:
43,138,42839,2,0,L|55:215,1,62.4999976158143,8|0,0:1|0:0,0:0:0:0:
150,135,43139,2,0,L|198:195,1,62.4999976158143,8|8,0:1|0:0,0:0:0:0:
198,44,43439,2,0,L|270:72,1,62.4999976158143,8|0,0:1|0:0,0:0:0:0:
271,147,43739,5,12,0:1:0:0:
271,147,43889,2,0,P|312:138|406:126,1,124.999995231629,8|8,0:0|0:0,0:0:0:0:
471,193,44339,2,0,L|403:203,1,62.4999976158143,8|0,0:1|0:0,0:0:0:0:
349,256,44639,1,12,0:1:0:0:
398,338,44789,2,0,P|405:308|438:276,1,62.4999976158143,8|2,0:0|0:1,0:0:0:0:
337,281,45089,1,8,0:0:0:0:
250,325,45239,2,0,P|279:335|301:357,1,62.4999976158143,8|0,0:1|0:0,0:0:0:0:
178,361,45539,5,8,0:0:0:0:
99,341,45689,1,8,0:1:0:0:
19,324,45839,2,0,L|99:312,1,62.4999976158143,8|8,0:3|0:3,0:0:0:0:
141,259,46139,37,12,0:0:0:0:
141,259,46289,2,0,P|158:225|145:131,1,124.999995231629,8|8,0:0|0:0,0:0:0:0:
75,171,46739,2,0,P|61:211|72:251,1,62.4999976158143,8|0,0:1|0:0,0:0:0:0:
80,314,47039,1,8,0:1:0:0:
221,276,47189,6,0,L|363:291,1,124.999995231629,12|8,0:1|0:0,0:0:0:0:
406,342,47639,2,0,P|447:298|462:291,1,62.4999976158143,8|0,0:1|0:0,0:0:0:0:
400,171,47939,2,0,P|396:201|401:232,1,62.4999976158143,8|8,0:0|0:1,0:0:0:0:
275,166,48239,2,0,P|294:190|319:208,1,62.4999976158143,8|8,0:0|0:1,0:0:0:0:
337,108,48539,5,12,0:1:0:0:
337,108,48689,2,0,L|465:127,1,124.999995231629,8|8,0:0|0:0,0:0:0:0:
450,207,49139,2,0,L|512:200,1,62.4999976158143,8|0,0:1|0:0,0:0:0:0:
388,261,49439,1,12,0:1:0:0:
463,351,49589,2,0,P|440:315|360:284,1,124.999995231629,8|8,0:0|0:0,0:0:0:0:
316,348,50039,2,0,P|288:343|247:353,1,62.4999976158143,8|0,0:1|0:0,0:0:0:0:
185,306,50339,1,8,0:0:0:0:
256,267,50489,1,8,0:0:0:0:
245,166,50639,2,0,L|234:240,1,62.4999976158143,8|0,0:1|0:0,0:0:0:0:
153,162,50939,37,12,0:1:0:0:
153,162,51089,2,0,P|76:149|8:139,1,124.999995231629,8|8,0:0|0:0,0:0:0:0:
65,69,51539,2,0,P|98:74|145:82,1,62.4999976158143,8|0,0:1|0:0,0:0:0:0:
217,18,51839,1,12,0:1:0:0:
307,92,51989,2,0,P|249:84|188:30,1,124.999995231629,8|8,0:0|0:0,0:0:0:0:
365,14,52439,6,0,P|338:42|308:54,1,62.4999976158143,8|0,0:1|0:0,0:0:0:0:
408,109,52739,2,0,P|408:147|395:177,1,62.4999976158143,8|0,0:1|0:0,0:0:0:0:
475,39,53039,2,0,P|503:65|515:95,1,62.4999976158143,8|0,0:1|0:0,0:0:0:0:
488,167,53339,5,12,0:1:0:0:
488,167,53489,2,0,L|500:298,1,124.999995231629,8|8,0:0|0:0,0:0:0:0:
429,334,53939,2,0,P|403:305|366:289,1,62.4999976158143,8|0,0:1|0:0,0:0:0:0:
300,290,54239,1,12,0:1:0:0:
231,246,54389,2,0,L|220:307,1,62.4999976158143,8|2,0:0|0:1,0:0:0:0:
144,285,54689,1,8,0:0:0:0:
138,374,54839,2,0,L|126:306,1,62.4999976158143,8|0,0:1|0:0,0:0:0:0:
58,267,55139,37,8,0:0:0:0:
78,188,55289,1,8,0:0:0:0:
120,118,55439,2,0,P|92:143|60:153,1,62.4999976158143,8|8,0:3|0:3,0:0:0:0:
193,88,55739,1,12,0:0:0:0:
193,88,55889,2,0,P|226:122|318:139,1,124.999995231629,8|8,0:0|0:0,0:0:0:0:
372,105,56339,2,0,L|358:24,1,62.4999976158143,8|0,0:1|0:0,0:0:0:0:
442,51,56639,1,8,0:1:0:0:
453,159,56789,6,0,L|473:31,1,124.999995231629,12|8,0:1|0:0,0:0:0:0:
508,108,57239,1,8,0:1:0:0:
330,238,57539,2,0,L|344:304,1,62.4999976158143,8|8,0:0|0:3,0:0:0:0:
470,301,57839,2,0,L|484:367,1,62.4999976158143,8|8,0:0|0:3,0:0:0:0:
403,349,58139,21,12,0:0:0:0:
403,349,58439,2,0,P|353:337|317:335,1,87.4999939918521,2|8,0:0|0:1,0:0:0:0:
259,287,58889,1,0,0:0:0:0:
206,340,59039,2,0,P|188:312|182:283,1,43.749996995926,2|2,0:0|0:0,0:0:0:0:
123,259,59339,2,0,P|111:305|120:362,2,87.4999939918521,8|10|8,0:0|0:0|0:1,0:0:0:0:
248,178,60239,2,0,L|300:184,1,43.749996995926,2|2,0:0|0:0,0:0:0:0:
337,241,60539,2,0,L|394:233,1,43.749996995926,8|0,0:0|0:0,0:0:0:0:
439,188,60839,2,0,P|458:216|472:268,1,87.4999939918521,2|8,0:0|0:1,0:0:0:0:
369,159,61439,5,2,0:0:0:0:
369,159,61739,2,0,P|382:117|387:58,1,87.4999939918521,8|10,0:0|0:0,0:0:0:0:
257,152,62339,2,0,P|285:136|299:118,2,43.749996995926,8|8|8,0:1|0:3|0:3,0:0:0:0:
123,85,62939,54,0,P|172:96|217:93,1,87.4999939918521,12|2,0:0|0:0,0:0:0:0:
68,144,63539,2,0,P|80:185|102:223,1,87.4999939918521,8|2,0:1|0:0,0:0:0:0:
66,287,63989,1,2,0:0:0:0:
116,342,64139,2,0,L|210:332,2,87.4999939918521,8|10|8,0:0|0:0|0:1,0:0:0:0:
176,206,65039,1,2,0:0:0:0:
305,278,65339,6,0,P|266:267|210:263,1,87.4999939918521,8|2,0:0|0:0,0:0:0:0:
337,207,65939,2,0,P|366:178|397:132,1,87.4999939918521,8|2,0:1|0:0,0:0:0:0:
381,270,66539,2,0,P|390:309|415:359,1,87.4999939918521,8|12,0:0|0:0,0:0:0:0:
265,315,67139,2,0,L|176:301,1,87.4999939918521,8|8,0:1|0:1,0:0:0:0:
108,326,67589,1,8,0:1:0:0:
36,258,67739,54,0,P|80:246|127:250,1,87.4999939918521,12|2,0:0|0:0,0:0:0:0:
182,204,68189,1,0,0:0:0:0:
111,125,68339,2,0,L|118:173,1,43.749996995926,8|0,0:1|0:0,0:0:0:0:
201,83,68639,2,0,L|194:131,1,43.749996995926,2|0,0:0|0:0,0:0:0:0:
261,173,68939,2,0,P|274:143|273:77,2,87.4999939918521,8|10|8,0:0|0:0|0:1,0:0:0:0:
339,46,69839,1,2,0:0:0:0:
479,95,70139,6,0,L|373:103,1,87.4999939918521,12|2,0:0|0:0,0:0:0:0:
361,169,70589,1,0,0:0:0:0:
340,238,70739,2,0,P|364:225|375:207,1,43.749996995926,8|0,0:1|0:0,0:0:0:0:
393,335,71039,2,0,P|369:320|348:320,1,43.749996995926,2|0,0:0|0:0,0:0:0:0:
451,222,71339,2,0,P|447:254|473:317,2,87.4999939918521,8|8|8,0:0|0:0|0:1,0:0:0:0:
315,160,72239,1,2,0:0:0:0:
166,173,72539,54,0,P|201:188|267:189,1,87.4999939918521,12|2,0:0|0:0,0:0:0:0:
250,117,72989,1,0,0:0:0:0:
351,99,73139,2,0,P|330:124|321:149,1,43.749996995926,8|0,0:1|0:0,0:0:0:0:
295,41,73439,2,0,P|273:41|251:36,1,43.749996995926,2|0,0:0|0:0,0:0:0:0:
187,74,73739,2,0,L|87:86,2,87.4999939918521,8|10|8,0:0|0:0|0:1,0:0:0:0:
43,33,74639,1,2,0:0:0:0:
127,155,74939,6,0,P|135:183|131:214,2,43.749996995926,12|0|2,0:0|0:0|0:1,0:0:0:0:
62,192,75389,1,2,0:1:0:0:
17,132,75539,2,0,P|-9:174|20:254,1,131.249990987778,8|0,0:1|0:0,0:0:0:0:
85,265,76139,1,8,0:0:0:0:
122,338,76289,2,0,L|113:247,1,87.4999939918521,8|8,0:1|0:1,0:0:0:0:
197,193,76739,54,0,L|191:248,1,43.749996995926,8|8,0:0|0:1,0:0:0:0:
237,301,77039,2,0,L|231:356,1,43.749996995926,8|8,0:0|0:1,0:0:0:0:
306,260,77339,53,12,0:1:0:0:
306,260,77489,2,0,P|342:252|441:248,1,124.999995231629,8|8,0:0|0:0,0:0:0:0:
489,302,77939,2,0,P|450:326|435:357,1,62.4999976158143,8|0,0:1|0:0,0:0:0:0:
504,226,78239,1,12,0:1:0:0:
448,102,78389,2,0,P|465:159|522:205,1,124.999995231629,8|8,0:0|0:0,0:0:0:0:
411,168,78839,2,0,P|387:165|345:140,1,62.4999976158143,8|0,0:1|0:0,0:0:0:0:
299,86,79139,1,8,0:0:0:0:
313,6,79289,1,8,0:0:0:0:
211,31,79439,2,0,L|287:18,1,62.4999976158143,8|0,0:1|0:0,0:0:0:0:
215,122,79739,37,12,0:1:0:0:
215,122,79889,2,0,L|82:107,1,124.999995231629,8|8,0:0|0:0,0:0:0:0:
36,168,80339,2,0,P|71:189|94:225,1,62.4999976158143,8|0,0:1|0:0,0:0:0:0:
191,227,80639,1,12,0:1:0:0:
126,312,80789,2,0,P|143:262|180:180,1,124.999995231629,8|8,0:0|0:0,0:0:0:0:
277,182,81239,2,0,P|255:204|241:232,1,62.4999976158143,8|0,0:1|0:0,0:0:0:0:
402,222,81539,2,0,P|370:222|341:232,1,62.4999976158143,8|8,0:1|0:0,0:0:0:0:
471,335,81839,2,0,P|448:313|420:299,1,62.4999976158143,8|0,0:1|0:0,0:0:0:0:
371,360,82139,5,12,0:1:0:0:
371,360,82289,2,0,P|305:337|241:348,1,124.999995231629,8|8,0:0|0:0,0:0:0:0:
171,360,82739,2,0,L|184:286,1,62.4999976158143,8|0,0:1|0:0,0:0:0:0:
121,243,83039,1,12,0:1:0:0:
40,330,83189,2,0,L|114:317,1,62.4999976158143,0|2,0:0|0:1,0:0:0:0:
106,225,83489,1,8,0:0:0:0:
4,263,83639,2,0,P|24:231|33:185,1,62.4999976158143,8|0,0:1|0:0,0:0:0:0:
86,148,83939,5,8,0:0:0:0:
72,67,84089,1,8,0:1:0:0:
123,4,84239,2,0,L|114:80,1,62.4999976158143,8|8,0:3|0:3,0:0:0:0:
167,132,84539,37,12,0:1:0:0:
167,132,84689,2,0,P|212:114|292:108,1,124.999995231629,8|8,0:0|0:0,0:0:0:0:
362,73,85139,2,0,P|340:50|326:22,1,62.4999976158143,8|0,0:1|0:0,0:0:0:0:
406,7,85439,1,8,0:1:0:0:
418,126,85589,2,0,L|401:260,1,124.999995231629,12|8,0:1|0:0,0:0:0:0:
341,304,86039,2,0,P|336:273|321:246,1,62.4999976158143,8|0,0:1|0:0,0:0:0:0:
258,363,86339,2,0,L|267:301,1,62.4999976158143,8|8,0:0|0:1,0:0:0:0:
154,358,86639,2,0,L|195:298,1,62.4999976158143,8|8,0:0|0:1,0:0:0:0:
150,226,86939,5,12,0:1:0:0:
150,226,87089,2,0,P|200:259|272:278,1,124.999995231629,8|8,0:0|0:0,0:0:0:0:
326,326,87539,2,0,P|359:290|392:277,1,62.4999976158143,8|0,0:1|0:0,0:0:0:0:
322,210,87839,1,12,0:1:0:0:
457,252,87989,2,0,L|330:236,1,124.999995231629,8|8,0:0|0:0,0:0:0:0:
270,184,88439,2,0,P|253:152|253:107,1,62.4999976158143,8|0,0:1|0:0,0:0:0:0:
331,135,88739,1,8,0:0:0:0:
408,109,88889,1,8,0:0:0:0:
481,76,89039,2,0,L|407:67,1,62.4999976158143,8|0,0:1|0:0,0:0:0:0:
340,25,89339,5,12,0:1:0:0:
340,25,89489,2,0,P|284:21|216:67,1,124.999995231629,8|8,0:0|0:0,0:0:0:0:
147,33,89939,2,0,P|134:70|113:100,1,62.4999976158143,8|0,0:1|0:0,0:0:0:0:
191,141,90239,1,12,0:1:0:0:
42,176,90389,2,0,L|168:164,1,124.999995231629,8|8,0:0|0:0,0:0:0:0:
174,263,90839,2,0,L|229:213,1,62.4999976158143,8|0,0:1|0:0,0:0:0:0:
267,324,91139,2,0,L|289:253,1,62.4999976158143,8|8,0:1|0:0,0:0:0:0:
379,333,91439,2,0,L|363:260,1,62.4999976158143,8|0,0:1|0:0,0:0:0:0:
461,355,91739,37,12,0:1:0:0:
461,355,91889,2,0,P|478:318|484:226,1,124.999995231629,8|8,0:0|0:0,0:0:0:0:
445,164,92339,2,0,P|478:135|490:92,1,62.4999976158143,8|0,0:1|0:0,0:0:0:0:
405,238,92639,2,0,P|376:205|333:193,2,62.4999976158143,12|8|2,0:1|0:0|0:1,0:0:0:0:
377,122,93089,1,8,0:0:0:0:
365,28,93239,2,0,L|347:97,1,62.4999976158143,8|0,0:1|0:0,0:0:0:0:
299,153,93539,1,8,0:0:0:0:
224,184,93689,1,8,0:1:0:0:
151,147,93839,2,0,L|223:153,1,62.4999976158143,8|8,0:3|0:3,0:0:0:0:
258,84,94139,6,0,P|224:55|187:49,1,62.4999976158143,12|8,0:1|0:0,0:0:0:0:
129,74,94439,2,0,P|84:77|54:99,1,62.4999976158143,2|8,0:0|0:0,0:0:0:0:
43,162,94739,2,0,P|14:195|8:232,1,62.4999976158143,8|8,0:1|0:0,0:0:0:0:
57,278,95039,2,0,P|60:322|82:352,1,62.4999976158143,8|0,0:1|0:0,0:0:0:0:
150,331,95339,1,12,0:0:0:0:
150,331,95489,2,0,L|282:322,1,124.999995231629,8|0,0:0|0:0,0:0:0:0:
327,259,95939,5,8,0:0:0:0:
353,335,96089,1,8,0:1:0:0:
425,371,96239,1,8,0:0:0:0:
505,364,96389,1,8,0:1:0:0:
484,286,96539,38,0,P|466:241|477:150,2,124.999995231629,12|2|8,0:1|0:1|0:1,0:0:0:0:
394,150,97439,2,0,P|369:193|339:208,1,62.4999976158143,8|8,0:0|0:0,0:0:0:0:
307,262,97739,1,2,0:1:0:0:
278,188,97889,2,0,P|224:163|135:174,1,124.999995231629,0|0,0:0|0:0,0:0:0:0:
100,220,98339,2,0,L|109:287,1,62.4999976158143,8|0,0:1|0:0,0:0:0:0:
188,299,98639,2,0,L|179:366,1,62.4999976158143,8|0,0:0|0:0,0:0:0:0:
101,365,98939,5,12,0:1:0:0:
101,365,99089,2,0,P|83:321|11:266,1,124.999995231629,8|8,0:0|0:0,0:0:0:0:
27,190,99539,2,0,P|69:179|101:155,1,62.4999976158143,8|0,0:1|0:0,0:0:0:0:
127,100,99839,1,8,0:0:0:0:
176,164,99989,2,0,L|164:22,1,124.999995231629,8|0,0:0|0:0,0:0:0:0:
242,64,100439,2,0,L|248:139,1,62.4999976158143,8|0,0:0|0:0,0:0:0:0:
362,205,100739,2,0,P|325:184|280:182,1,62.4999976158143,8|8,0:1|0:0,0:0:0:0:
378,65,101039,2,0,L|327:101,1,62.4999976158143,8|8,0:1|0:1,0:0:0:0:
297,265,101339,5,12,0:1:0:0:
297,265,101489,2,0,P|350:243|445:239,1,124.999995231629,8|0,0:0|0:0,0:0:0:0:
478,289,101939,2,0,P|494:250|521:222,1,62.4999976158143,8|0,0:1|0:0,0:0:0:0:
462,166,102239,1,8,0:0:0:0:
416,98,102389,2,0,P|455:82|494:7,2,124.999995231629,8|0|0,0:0|0:0|0:0,0:0:0:0:
359,39,103139,2,0,L|278:48,1,62.4999976158143,8|0,0:1|0:0,0:0:0:0:
304,126,103439,2,0,L|223:117,1,62.4999976158143,8|0,0:0|0:0,0:0:0:0:
176,167,103739,37,12,0:1:0:0:
176,167,103889,2,0,P|129:135|47:122,1,124.999995231629,8|8,0:0|0:0,0:0:0:0:
18,217,104339,2,0,P|65:200|88:199,1,62.4999976158143,8|0,0:1|0:0,0:0:0:0:
141,248,104639,1,0,0:0:0:0:
222,241,104789,2,0,P|180:278|183:353,1,124.999995231629,8|0,0:0|0:0,0:0:0:0:
254,315,105239,2,0,L|338:306,1,62.4999976158143,8|0,0:0|0:0,0:0:0:0:
428,381,105539,2,0,L|365:374,1,62.4999976158143,8|8,0:1|0:1,0:0:0:0:
395,298,105839,1,8,0:3:0:0:
444,233,105989,1,8,0:3:0:0:
363,222,106139,6,0,P|401:220|484:184,2,124.999995231629,12|2|8,0:1|0:1|0:1,0:0:0:0:
256,344,107039,2,0,L|274:263,1,62.4999976158143,8|8,0:0|0:0,0:0:0:0:
221,216,107339,1,2,0:1:0:0:
187,289,107489,2,0,L|57:305,1,124.999995231629,2|0,0:1|0:0,0:0:0:0:
5,246,107939,2,0,P|50:228|74:206,1,62.4999976158143,8|0,0:1|0:0,0:0:0:0:
141,207,108239,2,0,P|96:189|72:167,1,62.4999976158143,8|0,0:0|0:0,0:0:0:0:
59,103,108539,5,12,0:1:0:0:
59,103,108689,2,0,P|99:100|189:154,1,124.999995231629,8|8,0:0|0:0,0:0:0:0:
218,203,109139,2,0,L|288:197,1,62.4999976158143,8|0,0:1|0:0,0:0:0:0:
350,238,109439,1,8,0:0:0:0:
420,196,109589,2,0,P|434:156|436:64,1,124.999995231629,8|2,0:0|0:1,0:0:0:0:
357,87,110039,2,0,P|350:123|360:165,1,62.4999976158143,8|0,0:0|0:0,0:0:0:0:
302,23,110339,2,0,P|283:48|274:77,1,62.4999976158143,8|8,0:1|0:0,0:0:0:0:
198,109,110639,1,8,0:1:0:0:
118,90,110789,1,8,0:1:0:0:
64,151,110939,38,0,L|195:136,2,124.999995231629,12|2|8,0:1|0:1|0:1,0:0:0:0:
205,232,111839,2,0,L|131:220,1,62.4999976158143,8|8,0:0|0:0,0:0:0:0:
311,213,112139,2,0,L|252:165,1,62.4999976158143,2|0,0:1|0:0,0:0:0:0:
417,256,112439,2,0,L|390:185,1,62.4999976158143,8|0,0:0|0:0,0:0:0:0:
473,331,112739,1,8,0:1:0:0:
330,252,113039,1,8,0:3:0:0:
167,262,113339,1,12,0:1:0:0:
256,192,113489,12,8,118139,0:0:0:0:
189,235,122939,53,12,0:0:0:0:
189,235,123089,1,8,0:0:0:0:
388,292,132539,22,0,L|420:208,1,62.4999976158143,12|8,0:1|0:0,0:0:0:0:
307,292,132839,2,0,L|271:209,1,62.4999976158143,8|8,0:0|0:0,0:0:0:0:
246,350,133139,1,8,0:1:0:0:
246,350,133289,2,0,L|118:324,1,124.999995231629,8|8,0:0|0:0,0:0:0:0:
164,254,133739,2,0,P|152:214|130:183,2,62.4999976158143,12|0|8,0:1|0:0|0:0,0:0:0:0:
82,259,134189,1,8,0:0:0:0:
27,355,134339,2,0,P|51:306|50:234,1,124.999995231629,12|2,0:1|0:0,0:0:0:0:
9,166,134789,1,8,0:0:0:0:
140,134,134939,6,0,P|99:164|81:164,1,62.4999976158143,12|8,0:1|0:0,0:0:0:0:
19,73,135239,2,0,P|45:88|76:87,1,62.4999976158143,8|8,0:0|0:0,0:0:0:0:
133,24,135539,1,10,0:0:0:0:
133,24,135689,2,0,L|275:36,1,124.999995231629,8|8,0:0|0:0,0:0:0:0:
333,143,136139,2,0,L|321:73,1,62.4999976158143,12|0,0:1|0:0,0:0:0:0:
331,0,136439,1,8,0:0:0:0:
396,47,136589,1,8,0:0:0:0:
467,86,136739,2,0,L|396:77,1,62.4999976158143,12|8,0:1|0:0,0:0:0:0:
436,160,137039,2,0,P|409:176|395:203,1,62.4999976158143,2|8,0:1|0:0,0:0:0:0:
265,199,137339,37,12,0:1:0:0:
330,253,137489,2,0,L|338:323,2,62.4999976158143,8|8|8,0:0|0:0|0:0,0:0:0:0:
252,277,137939,1,8,0:1:0:0:
252,277,138089,2,0,P|210:261|109:249,1,124.999995231629,8|8,0:0|0:0,0:0:0:0:
105,326,138539,2,0,P|62:345|24:344,2,62.4999976158143,12|0|8,0:1|0:0|0:0,0:0:0:0:
48,267,138989,1,8,0:0:0:0:
21,127,139139,2,0,P|-3:192|26:251,1,124.999995231629,12|2,0:1|0:0,0:0:0:0:
76,187,139589,1,8,0:0:0:0:
160,105,139739,6,0,L|81:112,1,62.4999976158143,12|8,0:1|0:0,0:0:0:0:
219,188,140039,2,0,L|157:183,1,62.4999976158143,8|8,0:0|0:0,0:0:0:0:
269,252,140339,1,8,0:1:0:0:
269,252,140489,2,0,P|307:236|402:224,1,124.999995231629,8|8,0:0|0:0,0:0:0:0:
434,291,140939,2,0,P|433:335|444:363,2,62.4999976158143,12|0|8,0:1|0:0|0:0,0:0:0:0:
468,216,141389,1,8,0:0:0:0:
499,141,141539,2,0,L|510:222,1,62.4999976158143,8|0,0:1|0:0,0:0:0:0:
408,79,141839,2,0,L|397:160,1,62.4999976158143,8|8,0:1|0:0,0:0:0:0:
331,10,142139,6,0,L|297:84,2,62.4999976158143,12|8|8,0:1|0:0|0:0,0:0:0:0:
236,17,142589,1,8,0:0:0:0:
230,102,142739,1,8,0:1:0:0:
230,102,142889,2,0,P|183:95|89:89,1,124.999995231629,8|8,0:0|0:0,0:0:0:0:
120,169,143339,2,0,P|136:208|132:257,2,62.4999976158143,12|0|8,0:1|0:0|0:0,0:0:0:0:
42,141,143789,1,8,0:0:0:0:
0,225,143939,2,0,P|29:174|19:91,1,124.999995231629,12|2,0:1|0:1,0:0:0:0:
50,31,144389,1,8,0:0:0:0:
182,66,144539,38,0,L|101:72,1,62.4999976158143,12|8,0:1|0:0,0:0:0:0:
214,143,144839,2,0,L|146:188,1,62.4999976158143,8|8,0:0|0:0,0:0:0:0:
292,180,145139,1,8,0:1:0:0:
292,180,145289,2,0,P|349:164|443:159,1,124.999995231629,8|8,0:0|0:0,0:0:0:0:
487,103,145739,2,0,P|457:96|432:78,2,62.4999976158143,12|0|8,0:1|0:0|0:0,0:0:0:0:
493,185,146189,1,8,0:0:0:0:
457,281,146339,2,0,L|467:204,1,62.4999976158143,12|8,0:1|0:0,0:0:0:0:
319,254,146639,2,0,L|396:244,1,62.4999976158143,2|8,0:0|0:0,0:0:0:0:
426,356,146939,5,12,0:1:0:0:
327,340,147089,2,0,L|404:330,2,62.4999976158143,8|8|8,0:0|0:0|0:0,0:0:0:0:
255,300,147539,1,8,0:1:0:0:
255,300,147689,2,0,P|221:291|117:277,1,124.999995231629,8|8,0:0|0:0,0:0:0:0:
81,340,148139,2,0,P|50:306|15:295,1,62.4999976158143,12|0,0:1|0:0,0:0:0:0:
113,197,148439,2,0,P|72:219|35:218,1,62.4999976158143,8|8,0:0|0:0,0:0:0:0:
51,138,148739,1,8,0:1:0:0:
20,62,148889,2,0,L|29:143,2,62.4999976158143,8|2|8,0:0|0:1|0:0,0:0:0:0:
101,68,149339,6,0,P|142:92|221:101,2,124.999995231629,12|8|8,0:1|0:0|0:1,0:0:0:0:
51,138,150089,2,0,P|87:177|100:257,1,124.999995231629,8|8,0:0|0:0,0:0:0:0:
153,323,150539,2,0,P|160:292|179:268,1,62.4999976158143,12|0,0:1|0:0,0:0:0:0:
248,224,150839,2,0,L|257:295,1,62.4999976158143,8|8,0:0|0:1,0:0:0:0:
273,365,151139,37,8,0:1:0:0:
331,308,151289,1,8,0:1:0:0:
411,296,151439,1,12,0:0:0:0:
486,324,151589,1,8,0:1:0:0:
471,244,151739,5,12,0:1:0:0:
471,244,151889,2,0,P|477:198|466:110,1,124.999995231629,8|8,0:0|0:0,0:0:0:0:
400,75,152339,2,0,P|391:117|397:158,1,62.4999976158143,8|0,0:1|0:0,0:0:0:0:
380,254,152639,1,12,0:1:0:0:
270,236,152789,2,0,L|404:213,1,124.999995231629,8|8,0:0|0:0,0:0:0:0:
322,174,153239,2,0,L|248:164,1,62.4999976158143,8|0,0:1|0:0,0:0:0:0:
150,243,153539,1,8,0:0:0:0:
183,168,153689,1,8,0:0:0:0:
165,69,153839,2,0,L|193:134,1,62.4999976158143,8|0,0:1|0:0,0:0:0:0:
113,145,154139,5,12,0:1:0:0:
113,145,154289,2,0,P|71:116|-23:95,1,124.999995231629,8|8,0:0|0:0,0:0:0:0:
18,175,154739,2,0,P|34:214|33:259,1,62.4999976158143,8|0,0:1|0:0,0:0:0:0:
112,338,155039,1,12,0:1:0:0:
162,214,155189,2,0,P|122:257|92:337,1,124.999995231629,8|8,0:0|0:0,0:0:0:0:
252,307,155639,2,0,L|186:321,1,62.4999976158143,8|0,0:1|0:0,0:0:0:0:
291,219,155939,2,0,L|234:182,1,62.4999976158143,8|8,0:1|0:0,0:0:0:0:
370,164,156239,2,0,L|356:97,1,62.4999976158143,8|0,0:1|0:0,0:0:0:0:
444,206,156539,37,12,0:1:0:0:
444,206,156689,2,0,L|428:331,1,124.999995231629,8|8,0:0|0:0,0:0:0:0:
365,382,157139,2,0,L|336:299,1,62.4999976158143,8|0,0:1|0:0,0:0:0:0:
265,304,157439,1,12,0:1:0:0:
265,222,157589,2,0,P|301:237|345:242,1,62.4999976158143,8|2,0:0|0:1,0:0:0:0:
254,328,157889,1,8,0:0:0:0:
183,274,158039,2,0,P|178:313|160:353,1,62.4999976158143,8|0,0:1|0:0,0:0:0:0:
99,295,158339,5,8,0:0:0:0:
79,216,158489,1,8,0:1:0:0:
8,175,158639,2,0,L|89:188,1,62.4999976158143,8|8,0:3|0:3,0:0:0:0:
133,135,158939,1,12,0:1:0:0:
133,135,159089,2,0,L|278:123,1,124.999995231629,8|8,0:0|0:0,0:0:0:0:
308,188,159539,2,0,P|356:208|392:207,1,62.4999976158143,8|0,0:1|0:0,0:0:0:0:
446,201,159839,1,8,0:1:0:0:
503,111,159989,6,0,P|471:163|460:224,1,124.999995231629,12|8,0:1|0:0,0:0:0:0:
399,141,160439,2,0,P|380:99|378:71,1,62.4999976158143,8|0,0:1|0:0,0:0:0:0:
245,45,160739,2,0,L|318:57,1,62.4999976158143,8|8,0:0|0:1,0:0:0:0:
195,134,161039,2,0,L|268:122,1,62.4999976158143,8|8,0:0|0:1,0:0:0:0:
134,77,161339,37,12,0:1:0:0:
134,77,161489,2,0,P|107:128|89:212,1,124.999995231629,8|8,0:0|0:0,0:0:0:0:
143,255,161939,2,0,P|168:292|172:324,1,62.4999976158143,8|0,0:1|0:0,0:0:0:0:
65,279,162239,1,12,0:1:0:0:
27,374,162389,2,0,P|13:320|41:240,1,124.999995231629,8|8,0:0|0:0,0:0:0:0:
90,192,162839,2,0,L|80:120,1,62.4999976158143,8|0,0:1|0:0,0:0:0:0:
214,51,163139,1,8,0:0:0:0:
153,104,163289,1,8,0:0:0:0:
217,181,163438,2,0,P|188:169|164:149,1,62.4999976158143,8|0,0:1|0:0,0:0:0:0:
282,235,163739,5,12,0:1:0:0:
282,235,163889,2,0,L|417:223,1,124.999995231629,8|8,0:0|0:0,0:0:0:0:
448,153,164339,2,0,L|371:137,1,62.4999976158143,8|0,0:1|0:0,0:0:0:0:
488,227,164639,1,12,0:1:0:0:
447,343,164789,2,0,P|460:297|524:236,1,124.999995231629,8|8,0:0|0:0,0:0:0:0:
375,296,165239,2,0,P|373:256|354:212,1,62.4999976158143,8|0,0:1|0:0,0:0:0:0:
259,268,165539,2,0,P|237:234|198:205,1,62.4999976158143,8|8,0:1|0:0,0:0:0:0:
143,298,165839,2,0,P|107:279|59:274,1,62.4999976158143,8|0,0:1|0:0,0:0:0:0:
216,342,166139,5,12,0:1:0:0:
216,342,166289,2,0,L|85:359,1,124.999995231629,8|8,0:0|0:0,0:0:0:0:
11,373,166739,2,0,L|20:305,1,62.4999976158143,8|0,0:1|0:0,0:0:0:0:
77,212,167039,2,0,L|85:273,2,62.4999976158143,12|8|2,0:1|0:0|0:1,0:0:0:0:
166,251,167489,1,8,0:0:0:0:
251,232,167639,2,0,L|182:223,1,62.4999976158143,8|0,0:1|0:0,0:0:0:0:
139,158,167939,1,8,0:0:0:0:
86,96,168089,1,8,0:1:0:0:
12,130,168239,2,0,L|73:121,1,62.4999976158143,8|8,0:3|0:3,0:0:0:0:
102,16,168539,38,0,P|131:26|154:47,1,62.4999976158143,12|8,0:1|0:0,0:0:0:0:
233,26,168839,2,0,P|252:49|262:79,1,62.4999976158143,2|8,0:0|0:0,0:0:0:0:
343,89,169139,2,0,P|348:119|341:150,1,62.4999976158143,8|8,0:1|0:0,0:0:0:0:
408,197,169439,2,0,P|397:226|376:249,1,62.4999976158143,8|0,0:1|0:0,0:0:0:0:
333,319,169739,1,12,0:1:0:0:
333,319,169889,2,0,L|198:307,1,124.999995231629,8|0,0:0|0:0,0:0:0:0:
148,364,170339,5,8,0:0:0:0:
67,351,170489,1,8,0:1:0:0:
45,272,170639,1,8,0:0:0:0:
106,218,170789,1,8,0:1:0:0:
188,226,170939,6,0,P|185:164|157:108,2,124.999995231629,12|2|8,0:1|0:1|0:1,0:0:0:0:
292,101,171839,2,0,P|277:145|281:177,1,62.4999976158143,8|8,0:0|0:0,0:0:0:0:
304,237,172139,1,2,0:1:0:0:
359,177,172289,2,0,L|494:169,1,124.999995231629,0|0,0:0|0:0,0:0:0:0:
506,247,172739,2,0,L|425:250,1,62.4999976158143,8|0,0:1|0:0,0:0:0:0:
401,321,173039,2,0,L|482:324,1,62.4999976158143,8|0,0:0|0:0,0:0:0:0:
326,358,173339,37,12,0:1:0:0:
326,358,173489,2,0,P|323:297|291:214,1,124.999995231629,8|8,0:0|0:0,0:0:0:0:
222,244,173939,2,0,P|225:283|242:317,1,62.4999976158143,8|0,0:1|0:0,0:0:0:0:
157,331,174239,1,8,0:0:0:0:
78,353,174389,2,0,P|125:315|137:238,1,124.999995231629,8|0,0:0|0:0,0:0:0:0:
70,211,174839,2,0,L|57:293,1,62.4999976158143,8|8,0:0|0:0,0:0:0:0:
48,132,175139,2,0,L|-16:79,1,62.4999976158143,8|8,0:1|0:0,0:0:0:0:
126,148,175439,2,0,L|185:126,1,62.4999976158143,8|8,0:1|0:1,0:0:0:0:
273,238,175739,5,12,0:1:0:0:
273,238,175889,2,0,L|130:222,1,124.999995231629,8|8,0:0|0:0,0:0:0:0:
102,290,176339,2,0,P|131:300|154:321,1,62.4999976158143,8|0,0:1|0:0,0:0:0:0:
213,377,176639,1,8,0:0:0:0:
284,338,176789,2,0,P|331:308|416:307,2,124.999995231629,8|0|0,0:0|0:0|0:0,0:0:0:0:
318,264,177539,2,0,L|329:182,1,62.4999976158143,12|0,0:1|0:0,0:0:0:0:
406,217,177839,2,0,L|395:135,1,62.4999976158143,8|2,0:0|0:1,0:0:0:0:
477,268,178139,5,12,0:1:0:0:
477,268,178289,2,0,L|486:130,1,124.999995231629,8|8,0:0|0:0,0:0:0:0:
431,82,178739,2,0,P|402:69|379:48,1,62.4999976158143,12|0,0:1|0:0,0:0:0:0:
300,41,179039,1,8,0:0:0:0:
333,114,179189,2,0,P|294:135|213:142,1,124.999995231629,8|0,0:0|0:0,0:0:0:0:
153,89,179639,2,0,L|164:14,1,62.4999976158143,8|0,0:0|0:0,0:0:0:0:
84,137,179939,2,0,L|9:126,1,62.4999976158143,12|8,0:1|0:0,0:0:0:0:
40,207,180239,1,8,0:3:0:0:
54,286,180389,1,8,0:3:0:0:
118,236,180539,38,0,P|103:275|81:367,2,124.999995231629,12|2|12,0:1|0:1|0:1,0:0:0:0:
358,256,181439,2,0,L|284:266,1,62.4999976158143,8|8,0:0|0:0,0:0:0:0:
242,324,181739,1,2,0:1:0:0:
317,348,181889,2,0,L|454:358,1,124.999995231629,2|0,0:1|0:0,0:0:0:0:
498,299,182339,2,0,P|461:273|438:239,1,62.4999976158143,8|0,0:1|0:0,0:0:0:0:
467,158,182639,2,0,P|462:203|445:239,1,62.4999976158143,8|0,0:0|0:0,0:0:0:0:
380,240,182939,5,12,0:1:0:0:
380,240,183089,2,0,P|352:192|359:117,1,124.999995231629,8|8,0:0|0:0,0:0:0:0:
280,93,183539,2,0,P|255:126|212:139,1,62.4999976158143,12|0,0:1|0:0,0:0:0:0:
155,127,183839,1,8,0:0:0:0:
201,60,183989,2,0,P|160:48|62:48,1,124.999995231629,8|0,0:0|0:0,0:0:0:0:
26,108,184439,2,0,L|37:187,1,62.4999976158143,8|0,0:0|0:0,0:0:0:0:
100,262,184739,2,0,L|108:200,1,62.4999976158143,12|8,0:1|0:0,0:0:0:0:
155,127,185039,1,8,0:1:0:0:
217,178,185189,1,8,0:1:0:0:
288,139,185339,6,0,P|298:99|296:8,2,124.999995231629,12|2|12,0:1|0:1|0:1,0:0:0:0:
414,35,186239,2,0,P|399:63|379:88,1,62.4999976158143,8|8,0:0|0:0,0:0:0:0:
433,167,186539,2,0,P|403:175|372:179,1,62.4999976158143,2|0,0:1|0:0,0:0:0:0:
355,274,186839,2,0,P|327:259|302:239,1,62.4999976158143,8|0,0:0|0:0,0:0:0:0:
333,360,187139,1,12,0:1:0:0:
220,242,187439,1,8,0:3:0:0:
57,234,187739,1,12,0:1:0:0:
256,192,187889,12,12,197339,0:0:0:0:
