osu file format v14

[General]
AudioFilename: audio.mp3
AudioLeadIn: 0
PreviewTime: 58064
Countdown: 0
SampleSet: Soft
StackLeniency: 0.2
Mode: 0
LetterboxInBreaks: 0
WidescreenStoryboard: 1

[Editor]
Bookmarks: 8939,10139,19739,38939,58139,67739,77339,96539,113339,132539,151739,170939,187739,205589
DistanceSpacing: 1.1
BeatDivisor: 8
GridSize: 16
TimelineZoom: 1.7

[Metadata]
Title:DEVOURING ONE ANOTHER
TitleUnicode:DEVOURING ONE ANOTHER
Artist:the GazettE
ArtistUnicode:the GazettE
Creator:Vell
Version:Normal
Source:
Tags:japanese english rock j-rock visual kei metal ruki uruha aoi reita kai beautiful deformity gazetto ルキ 麗 葵 れいた 戒
BeatmapID:4227307
BeatmapSetID:1948209

[Difficulty]
HPDrainRate:4
CircleSize:2.8
OverallDifficulty:3.5
ApproachRate:5
SliderMultiplier:1.49999990463257
SliderTickRate:2

[Events]
//Background and Video events
0,0,"bg.png",0,0
//Break Periods
2,58339,66468
2,118339,131268
//Storyboard Layer 0 (Background)
//Storyboard Layer 1 (Fail)
//Storyboard Layer 2 (Pass)
//Storyboard Layer 3 (Foreground)
//Storyboard Layer 4 (Overlay)
//Storyboard Sound Samples

[TimingPoints]
539,600,4,2,1,90,1,0
8939,-117.647058823529,4,2,1,90,0,0
10139,-100,4,2,2,90,0,0
10289,-100,4,2,1,90,0,0
11039,-100,4,2,2,90,0,0
11189,-100,4,2,1,90,0,0
12539,-100,4,2,2,90,0,0
12689,-100,4,2,1,90,0,0
13439,-100,4,2,2,90,0,0
13589,-100,4,2,1,90,0,0
14939,-100,4,2,2,90,0,0
15089,-100,4,2,1,90,0,0
15839,-100,4,2,2,90,0,0
15989,-100,4,2,1,90,0,0
18389,-100,4,2,2,90,0,0
18689,-100,4,2,1,90,0,0
19739,-117.647058823529,4,2,1,70,0,0
37139,-117.647058823529,4,2,1,90,0,0
38939,-100,4,2,2,90,0,1
39089,-100,4,2,1,90,0,1
39839,-100,4,2,2,90,0,1
39989,-100,4,2,1,90,0,1
41339,-100,4,2,2,90,0,1
41489,-100,4,2,1,90,0,1
42239,-100,4,2,2,90,0,1
42389,-100,4,2,1,90,0,1
43739,-100,4,2,2,90,0,1
43889,-100,4,2,1,90,0,1
44639,-100,4,2,2,90,0,1
44789,-100,4,2,1,90,0,1
47189,-100,4,2,2,90,0,1
47489,-100,4,2,1,90,0,1
48539,-100,4,2,2,90,0,1
48689,-100,4,2,1,90,0,1
49439,-100,4,2,2,90,0,1
49589,-100,4,2,1,90,0,1
50939,-100,4,2,2,90,0,1
51089,-100,4,2,1,90,0,1
51839,-100,4,2,2,90,0,1
51989,-100,4,2,1,90,0,1
53339,-100,4,2,2,90,0,1
53489,-100,4,2,1,90,0,1
54239,-100,4,2,2,90,0,1
54389,-100,4,2,1,90,0,1
56789,-100,4,2,2,90,0,1
56939,-100,4,2,1,90,0,1
58139,-117.647058823529,4,2,1,70,0,0
76289,-117.647058823529,4,2,1,90,0,0
77339,-100,4,2,2,90,0,1
77489,-100,4,2,1,90,0,1
78241,-100,4,2,2,90,0,1
78389,-100,4,2,1,90,0,1
79739,-100,4,2,2,90,0,1
79889,-100,4,2,1,90,0,1
80639,-100,4,2,2,90,0,1
80789,-100,4,2,1,90,0,1
82139,-100,4,2,2,90,0,1
82289,-100,4,2,1,90,0,1
83039,-100,4,2,2,90,0,1
83189,-100,4,2,1,90,0,1
84539,-100,4,2,2,90,0,1
84689,-100,4,2,1,90,0,1
85589,-100,4,2,2,90,0,1
85739,-100,4,2,1,90,0,1
86939,-100,4,2,2,90,0,1
87089,-100,4,2,1,90,0,1
87839,-100,4,2,2,90,0,1
87989,-100,4,2,1,90,0,1
89339,-100,4,2,2,90,0,1
89489,-100,4,2,1,90,0,1
90239,-100,4,2,2,90,0,1
90389,-100,4,2,1,90,0,1
91739,-100,4,2,2,90,0,1
91889,-100,4,2,1,90,0,1
92639,-100,4,2,2,90,0,1
92789,-100,4,2,1,90,0,1
94139,-100,4,2,2,90,0,1
94289,-100,4,2,1,90,0,1
96539,-100,4,2,2,90,0,0
96689,-100,4,2,1,90,0,0
98939,-100,4,2,2,90,0,0
99089,-100,4,2,1,90,0,0
101339,-100,4,2,2,90,0,0
101489,-100,4,2,1,90,0,0
103739,-100,4,2,2,90,0,0
103889,-100,4,2,1,90,0,0
106139,-100,4,2,2,90,0,0
106289,-100,4,2,1,90,0,0
108539,-100,4,2,2,90,0,0
108689,-100,4,2,1,90,0,0
110939,-100,4,2,2,90,0,0
111089,-100,4,2,1,90,0,0
113339,-100,4,2,2,90,0,0
118139,-100,4,2,1,40,0,0
132539,-100,4,2,1,90,0,0
133739,-100,4,2,2,90,0,0
134039,-100,4,2,1,90,0,0
136139,-100,4,2,2,90,0,0
136439,-100,4,2,1,90,0,0
138539,-100,4,2,2,90,0,0
138839,-100,4,2,1,90,0,0
140939,-100,4,2,2,90,0,0
141239,-100,4,2,1,90,0,0
143339,-100,4,2,2,90,0,0
143639,-100,4,2,1,90,0,0
145739,-100,4,2,2,90,0,0
146039,-100,4,2,1,90,0,0
148139,-100,4,2,2,90,0,0
148439,-100,4,2,1,90,0,0
150539,-100,4,2,2,90,0,0
150689,-100,4,2,1,90,0,0
151739,-100,4,2,2,90,0,1
151889,-100,4,2,1,90,0,1
152639,-100,4,2,2,90,0,1
152789,-100,4,2,1,90,0,1
154139,-100,4,2,2,90,0,1
154289,-100,4,2,1,90,0,1
155039,-100,4,2,2,90,0,1
155189,-100,4,2,1,90,0,1
156539,-100,4,2,2,90,0,1
156689,-100,4,2,1,90,0,1
157439,-100,4,2,2,90,0,1
157589,-100,4,2,1,90,0,1
158939,-100,4,2,2,90,0,1
159089,-100,4,2,1,90,0,1
159989,-100,4,2,2,90,0,1
160139,-100,4,2,1,90,0,1
161339,-100,4,2,2,90,0,1
161489,-100,4,2,1,90,0,1
162239,-100,4,2,2,90,0,1
162389,-100,4,2,1,90,0,1
163739,-100,4,2,2,90,0,1
163889,-100,4,2,1,90,0,1
164639,-100,4,2,2,90,0,1
164789,-100,4,2,1,90,0,1
166139,-100,4,2,2,90,0,1
166289,-100,4,2,1,90,0,1
167039,-100,4,2,2,90,0,1
167189,-100,4,2,1,90,0,1
168539,-100,4,2,2,90,0,1
168689,-100,4,2,1,90,0,1
170939,-100,4,2,2,90,0,0
171089,-100,4,2,1,90,0,0
173339,-100,4,2,2,90,0,0
173489,-100,4,2,1,90,0,0
175739,-100,4,2,2,90,0,0
175889,-100,4,2,1,90,0,0
178139,-100,4,2,2,90,0,0
178289,-100,4,2,1,90,0,0
180539,-100,4,2,2,90,0,0
180689,-100,4,2,1,90,0,0
182939,-100,4,2,2,90,0,0
183089,-100,4,2,1,90,0,0
185339,-100,4,2,2,90,0,0
185489,-100,4,2,1,90,0,0
187739,-100,4,2,2,90,0,0
197339,-100,4,2,1,40,0,0

[Colours]
Combo1 : 143,143,143
Combo2 : 137,156,184
Combo3 : 128,153,151
Combo4 : 159,157,174
Combo5 : 192,192,192

[HitObjects]
178,58,8939,54,0,P|210:65|253:66,2,63.7499971628189,2|2|2,0:3|0:3|0:3,0:0:0:0:
106,101,9839,1,2,0:3:0:0:
26,79,10139,22,0,P|26:124|71:179,1,112.499992847443,12|8,0:1|0:0,0:0:0:0:
105,189,10739,1,8,0:1:0:0:
178,150,11039,2,0,P|208:142|297:142,1,112.499992847443,12|8,0:1|0:0,0:0:0:0:
325,163,11639,1,8,0:1:0:0:
386,108,11939,2,0,B|396:65|382:25,1,74.9999952316285,12|8,0:0|0:1,0:0:0:0:
465,18,12539,6,0,B|483:58|468:129,1,112.499992847443,12|8,0:1|0:0,0:0:0:0:
456,166,13139,1,8,0:1:0:0:
384,206,13439,2,0,P|382:260|396:321,1,112.499992847443,12|8,0:1|0:0,0:0:0:0:
416,351,14039,2,0,P|463:364|495:364,2,74.9999952316285,8|8|8,0:1|0:1|0:1,0:0:0:0:
337,376,14939,6,0,P|307:367|268:301,1,112.499992847443,12|8,0:1|0:0,0:0:0:0:
279,260,15539,1,8,0:1:0:0:
309,183,15839,2,0,P|347:181|430:199,1,112.499992847443,12|8,0:1|0:0,0:0:0:0:
447,225,16439,1,8,0:1:0:0:
501,163,16739,2,0,P|516:126|513:82,1,74.9999952316285,8|8,0:0|0:3,0:0:0:0:
451,39,17339,38,0,P|428:67|310:87,1,149.999990463257,12|8,0:0|0:1,0:0:0:0:
269,155,18239,1,8,0:1:0:0:
269,155,18389,2,0,P|225:111|171:86,1,112.499992847443,12|8,0:1|0:1,0:0:0:0:
109,46,19139,2,0,P|136:20|171:6,1,74.9999952316285,8|8,0:0|0:1,0:0:0:0:
249,30,19739,1,12,0:0:0:0:
40,217,20939,38,0,P|87:221|113:228,1,63.7499971628189,2|8,0:1|0:0,0:0:0:0:
145,296,21539,2,0,P|190:278|278:267,1,127.499994325638,8|8,0:1|0:0,0:0:0:0:
330,321,22439,1,2,0:1:0:0:
409,296,22739,2,0,P|412:329|409:372,2,63.7499971628189,0|8|0,0:0|0:0|0:0,0:0:0:0:
443,220,23639,1,8,0:0:0:0:
369,179,23939,2,0,P|400:128|460:139,1,127.499994325638,8|12,0:1|0:0,0:0:0:0:
225,373,25739,6,0,P|220:337|220:301,1,63.7499971628189,2|8,0:1|0:0,0:0:0:0:
165,246,26339,2,0,P|181:223|197:122,1,127.499994325638,8|8,0:1|0:0,0:0:0:0:
139,67,27239,1,2,0:1:0:0:
70,113,27539,2,0,P|60:86|72:18,2,95.6249957442284,0|0|8,0:0|0:0|0:0,0:0:0:0:
7,167,28739,2,0,P|28:222|87:221,1,127.499994325638,8|12,0:1|0:0,0:0:0:0:
387,75,30539,54,0,P|345:71|324:66,1,63.7499971628189,2|8,0:1|0:0,0:0:0:0:
252,109,31139,2,0,P|207:64|147:46,1,127.499994325638,8|8,0:1|0:0,0:0:0:0:
68,74,32039,1,0,0:0:0:0:
9,132,32339,2,0,P|36:147|132:127,1,127.499994325638,0|2,0:0|0:1,0:0:0:0:
197,174,33239,1,8,0:0:0:0:
252,109,33539,2,0,P|292:123|288:205,1,127.499994325638,8|12,0:1|0:0,0:0:0:0:
0,378,35339,6,0,P|9:335|12:301,1,63.7499971628189,0|8,0:0|0:0,0:0:0:0:
88,285,35939,2,0,P|80:238|71:215,1,63.7499971628189,8|8,0:1|0:0,0:0:0:0:
12,168,36539,2,0,P|31:135|121:111,1,127.499994325638,0|8,0:0|0:1,0:0:0:0:
148,183,37439,1,8,0:0:0:0:
216,228,37739,2,0,P|228:189|190:111,1,127.499994325638,8|8,0:1|0:1,0:0:0:0:
353,158,38939,6,0,P|389:142|416:63,1,112.499992847443,12|8,0:1|0:0,0:0:0:0:
402,39,39539,1,8,0:1:0:0:
320,25,39839,2,0,P|278:24|207:34,1,112.499992847443,12|8,0:1|0:0,0:0:0:0:
180,64,40439,1,8,0:1:0:0:
105,28,40739,2,0,P|98:63|106:105,1,74.9999952316285,8|8,0:0|0:1,0:0:0:0:
40,153,41339,6,0,P|66:203|71:265,1,112.499992847443,12|8,0:1|0:0,0:0:0:0:
57,296,41939,1,8,0:1:0:0:
15,367,42239,2,0,P|70:377|123:347,1,112.499992847443,12|8,0:1|0:0,0:0:0:0:
149,324,42839,2,0,P|157:288|153:247,2,74.9999952316285,8|8|8,0:1|0:1|0:1,0:0:0:0:
226,352,43739,6,0,P|237:306|233:229,1,112.499992847443,12|8,0:1|0:0,0:0:0:0:
223,201,44339,1,8,0:1:0:0:
305,198,44639,2,0,P|321:153|342:122,1,74.9999952316285,12|2,0:1|0:1,0:0:0:0:
397,185,45239,2,0,P|427:166|477:155,1,74.9999952316285,8|8,0:1|0:0,0:0:0:0:
462,238,45839,1,8,0:3:0:0:
511,303,46139,38,0,P|477:318|383:258,1,149.999990463257,12|8,0:0|0:1,0:0:0:0:
320,317,47039,1,8,0:1:0:0:
320,317,47189,2,0,P|271:297|204:289,1,112.499992847443,12|8,0:1|0:1,0:0:0:0:
151,345,47939,2,0,P|117:352|72:347,1,74.9999952316285,8|8,0:0|0:0,0:0:0:0:
20,288,48539,6,0,P|22:239|62:185,1,112.499992847443,12|8,0:1|0:0,0:0:0:0:
98,181,49139,1,8,0:1:0:0:
177,202,49439,2,0,P|223:212|297:208,1,112.499992847443,12|8,0:1|0:0,0:0:0:0:
325,192,50039,1,8,0:1:0:0:
400,158,50339,2,0,P|404:191|398:233,1,74.9999952316285,8|8,0:0|0:1,0:0:0:0:
478,250,50939,6,0,P|483:204|477:125,1,112.499992847443,12|8,0:1|0:0,0:0:0:0:
462,99,51539,1,8,0:1:0:0:
383,75,51839,2,0,P|345:87|263:82,1,112.499992847443,12|8,0:1|0:0,0:0:0:0:
235,67,52439,2,0,P|233:24|243:-12,2,74.9999952316285,8|8|8,0:1|0:1|0:1,0:0:0:0:
152,63,53339,38,0,P|112:97|49:111,1,112.499992847443,12|8,0:1|0:0,0:0:0:0:
14,100,53939,1,8,0:1:0:0:
11,182,54239,2,0,P|51:193|93:185,1,74.9999952316285,12|2,0:1|0:1,0:0:0:0:
83,271,54839,2,0,P|123:260|155:232,1,74.9999952316285,8|8,0:1|0:0,0:0:0:0:
230,255,55439,1,8,0:3:0:0:
305,287,55739,6,0,P|269:328|172:312,1,149.999990463257,12|8,0:0|0:1,0:0:0:0:
154,246,56639,1,8,0:1:0:0:
154,246,56789,2,0,P|164:205|163:135,1,112.499992847443,12|8,0:1|0:1,0:0:0:0:
80,144,57539,2,0,P|81:189|72:227,1,74.9999952316285,8|8,0:0|0:0,0:0:0:0:
2,177,58139,1,12,0:0:0:0:
185,278,67739,22,0,P|227:271|257:270,1,63.7499971628189,12|2,0:0|0:0,0:0:0:0:
310,324,68339,2,0,P|351:345|431:331,1,127.499994325638,8|8,0:1|0:0,0:0:0:0:
486,272,69239,1,10,0:0:0:0:
437,205,69539,2,0,P|433:161|435:133,1,63.7499971628189,8|2,0:1|0:0,0:0:0:0:
505,100,70139,6,0,P|481:76|442:57,1,63.7499971628189,12|2,0:0|0:0,0:0:0:0:
379,27,70739,2,0,P|328:71|257:72,1,127.499994325638,8|8,0:1|0:0,0:0:0:0:
198,34,71639,1,8,0:0:0:0:
120,62,71939,2,0,P|116:33|121:-5,1,63.7499971628189,8|2,0:1|0:0,0:0:0:0:
36,1,72539,54,0,P|32:32|36:64,1,63.7499971628189,12|2,0:0|0:0,0:0:0:0:
9,142,73139,2,0,P|60:177|123:173,1,127.499994325638,8|8,0:1|0:0,0:0:0:0:
196,133,74039,1,10,0:0:0:0:
235,205,74339,2,0,P|266:208|296:219,1,63.7499971628189,8|2,0:1|0:0,0:0:0:0:
342,150,74939,2,0,P|292:124|254:52,1,127.499994325638,12|8,0:0|0:1,0:0:0:0:
416,11,76139,5,8,0:0:0:0:
416,11,76289,2,0,P|407:56|414:115,1,95.6249957442284,8|8,0:1|0:0,0:0:0:0:
460,171,77039,1,8,0:0:0:0:
504,240,77339,38,0,P|465:252|392:213,1,112.499992847443,12|8,0:1|0:0,0:0:0:0:
376,191,77939,1,8,0:1:0:0:
331,260,78239,2,0,P|269:278|240:323,1,112.499992847443,12|8,0:1|0:0,0:0:0:0:
236,356,78839,1,8,0:1:0:0:
162,318,79139,2,0,P|161:288|181:235,1,74.9999952316285,8|8,0:0|0:1,0:0:0:0:
94,224,79739,38,0,P|85:180|41:126,1,112.499992847443,12|8,0:1|0:0,0:0:0:0:
2,123,80339,1,8,0:1:0:0:
35,47,80639,2,0,P|87:32|153:35,1,112.499992847443,12|8,0:1|0:0,0:0:0:0:
179,57,81239,2,0,P|219:61|259:53,2,74.9999952316285,8|8|8,0:1|0:1|0:1,0:0:0:0:
114,108,82139,6,0,P|100:150|102:222,1,112.499992847443,12|8,0:1|0:0,0:0:0:0:
118,255,82739,1,8,0:1:0:0:
168,320,83039,2,0,P|190:288|200:247,1,74.9999952316285,12|2,0:1|0:1,0:0:0:0:
272,215,83639,2,0,P|250:183|240:142,1,74.9999952316285,8|8,0:1|0:0,0:0:0:0:
283,77,84239,1,8,0:3:0:0:
343,20,84539,6,0,P|365:77|323:150,1,149.999990463257,12|8,0:1|0:1,0:0:0:0:
245,153,85439,1,8,0:1:0:0:
245,153,85589,2,0,P|210:145|130:145,1,112.499992847443,12|8,0:1|0:1,0:0:0:0:
88,75,86339,2,0,P|43:80|11:76,1,74.9999952316285,8|8,0:0|0:0,0:0:0:0:
6,158,86939,38,0,P|30:184|45:270,1,112.499992847443,12|8,0:1|0:0,0:0:0:0:
35,296,87539,1,8,0:1:0:0:
100,346,87839,2,0,P|138:364|223:369,1,112.499992847443,12|8,0:1|0:0,0:0:0:0:
246,356,88439,1,8,0:1:0:0:
260,274,88739,2,0,P|297:291|325:325,1,74.9999952316285,8|8,0:0|0:1,0:0:0:0:
384,367,89339,6,0,P|400:324|376:252,1,112.499992847443,12|8,0:1|0:0,0:0:0:0:
357,229,89939,1,8,0:1:0:0:
432,196,90239,2,0,P|451:150|435:81,1,112.499992847443,12|8,0:1|0:0,0:0:0:0:
407,63,90839,2,0,P|364:55|323:54,2,74.9999952316285,8|8|8,0:1|0:1|0:1,0:0:0:0:
370,137,91739,6,0,P|316:136|249:155,1,112.499992847443,12|8,0:1|0:0,0:0:0:0:
230,179,92339,1,8,0:1:0:0:
149,161,92639,2,0,P|167:123|194:101,1,74.9999952316285,12|2,0:1|0:1,0:0:0:0:
219,22,93239,2,0,P|181:20|147:33,1,74.9999952316285,8|8,0:1|0:0,0:0:0:0:
81,83,93839,1,8,0:3:0:0:
4,112,94139,38,0,P|1:78|16:31,2,74.9999952316285,12|2|8,0:1|0:0|0:1,0:0:0:0:
67,164,95039,1,8,0:1:0:0:
27,236,95339,2,0,P|38:276|130:331,1,149.999990463257,12|8,0:0|0:0,0:0:0:0:
202,301,96239,1,8,0:0:0:0:
258,360,96539,6,0,P|284:336|402:331,1,149.999990463257,12|8,0:1|0:1,0:0:0:0:
464,369,97439,1,8,0:0:0:0:
507,298,97739,2,0,P|516:254|501:175,1,112.499992847443,2|0,0:1|0:0,0:0:0:0:
478,156,98339,1,8,0:1:0:0:
360,40,98939,6,0,P|357:113|398:175,1,149.999990463257,12|8,0:1|0:1,0:0:0:0:
348,241,99839,1,8,0:0:0:0:
348,241,99989,2,0,P|302:224|233:215,1,112.499992847443,8|8,0:0|0:0,0:0:0:0:
187,279,100739,2,0,P|142:295|116:321,1,74.9999952316285,8|8,0:1|0:1,0:0:0:0:
53,267,101339,38,0,P|75:218|53:124,1,149.999990463257,12|8,0:1|0:1,0:0:0:0:
17,59,102239,1,8,0:0:0:0:
17,59,102389,2,0,P|59:48|119:80,1,112.499992847443,8|8,0:0|0:0,0:0:0:0:
171,141,103139,2,0,P|191:109|201:73,1,74.9999952316285,8|8,0:1|0:0,0:0:0:0:
276,109,103739,6,0,P|330:68|411:87,1,149.999990463257,12|8,0:1|0:1,0:0:0:0:
487,99,104639,2,0,P|466:142|364:153,1,149.999990463257,0|8,0:0|0:0,0:0:0:0:
320,222,105539,2,0,P|356:241|402:246,1,74.9999952316285,8|8,0:1|0:3,0:0:0:0:
362,324,106139,6,0,P|409:326|472:254,1,149.999990463257,12|8,0:1|0:1,0:0:0:0:
437,178,107039,1,8,0:0:0:0:
488,113,107339,2,0,P|462:69|405:41,1,112.499992847443,2|0,0:1|0:0,0:0:0:0:
369,55,107939,1,8,0:1:0:0:
242,160,108539,38,0,P|273:126|277:16,1,149.999990463257,12|8,0:1|0:1,0:0:0:0:
202,51,109439,1,8,0:0:0:0:
202,51,109589,2,0,P|136:73|81:74,1,112.499992847443,8|8,0:0|0:0,0:0:0:0:
74,155,110339,2,0,P|36:183|18:221,1,74.9999952316285,8|8,0:1|0:1,0:0:0:0:
99,235,110939,6,0,P|133:219|179:211,2,74.9999952316285,12|2|8,0:1|0:1|0:1,0:0:0:0:
114,315,111839,2,0,P|68:312|40:296,2,74.9999952316285,8|2|8,0:0|0:1|0:0,0:0:0:0:
176,369,112739,2,0,P|211:362|247:327,1,74.9999952316285,8|8,0:1|0:3,0:0:0:0:
286,268,113339,1,12,0:1:0:0:
256,192,113939,12,8,118139,0:0:0:0:
439,46,132539,6,0,P|425:103|425:131,1,74.9999952316285,12|8,0:1|0:0,0:0:0:0:
472,194,133139,1,8,0:1:0:0:
472,194,133289,2,0,P|490:225|471:303,1,112.499992847443,8|12,0:0|0:1,0:0:0:0:
409,248,134039,1,8,0:0:0:0:
348,303,134339,2,0,P|332:272|329:229,1,74.9999952316285,12|2,0:1|0:0,0:0:0:0:
247,250,134939,38,0,P|212:217|185:208,1,74.9999952316285,12|8,0:1|0:0,0:0:0:0:
173,290,135539,1,10,0:0:0:0:
173,290,135689,2,0,P|127:274|50:278,1,112.499992847443,8|12,0:0|0:1,0:0:0:0:
14,208,136439,1,8,0:0:0:0:
9,125,136739,2,0,P|45:131|76:151,1,74.9999952316285,12|2,0:1|0:1,0:0:0:0:
149,112,137339,6,0,P|201:98|224:79,1,74.9999952316285,12|8,0:1|0:0,0:0:0:0:
274,26,137939,1,8,0:1:0:0:
274,26,138089,2,0,P|294:57|278:140,1,112.499992847443,8|12,0:0|0:1,0:0:0:0:
220,179,138839,1,8,0:0:0:0:
243,258,139139,2,0,P|276:242|296:211,1,74.9999952316285,12|2,0:1|0:0,0:0:0:0:
374,182,139739,6,0,B|385:220|367:255,1,74.9999952316285,12|8,0:1|0:0,0:0:0:0:
387,339,140339,1,8,0:1:0:0:
387,339,140489,2,0,P|432:309|455:245,1,112.499992847443,8|12,0:0|0:1,0:0:0:0:
478,177,141239,2,0,P|454:138|426:115,2,74.9999952316285,8|8|8,0:0|0:1|0:1,0:0:0:0:
398,197,142139,38,0,P|357:184|310:184,1,74.9999952316285,12|8,0:1|0:0,0:0:0:0:
315,267,142739,1,8,0:1:0:0:
315,268,142889,2,0,P|261:271|215:307,1,112.499992847443,8|12,0:0|0:1,0:0:0:0:
147,259,143639,1,8,0:0:0:0:
83,311,143939,2,0,P|67:277|69:235,1,74.9999952316285,12|2,0:1|0:1,0:0:0:0:
3,188,144539,6,0,P|15:152|46:124,1,74.9999952316285,12|8,0:1|0:0,0:0:0:0:
123,114,145139,1,8,0:1:0:0:
123,114,145289,2,0,P|145:136|237:135,1,112.499992847443,8|12,0:0|0:1,0:0:0:0:
190,66,146039,1,8,0:0:0:0:
249,8,146339,2,0,P|268:35|270:88,1,74.9999952316285,12|2,0:1|0:0,0:0:0:0:
340,124,146939,6,0,P|355:90|353:53,1,74.9999952316285,12|8,0:1|0:0,0:0:0:0:
432,28,147539,1,8,0:1:0:0:
432,28,147689,2,0,P|462:65|461:138,1,112.499992847443,8|12,0:0|0:1,0:0:0:0:
402,182,148439,1,8,0:0:0:0:
449,249,148739,2,0,P|466:298|462:325,1,74.9999952316285,8|2,0:1|0:1,0:0:0:0:
382,303,149339,38,0,P|340:276|231:265,1,149.999990463257,12|8,0:1|0:1,0:0:0:0:
174,309,150239,1,2,0:1:0:0:
98,275,150539,2,0,P|123:243|163:223,1,74.9999952316285,12|8,0:1|0:0,0:0:0:0:
223,183,151139,2,0,P|245:147|240:75,1,112.499992847443,8|8,0:1|0:1,0:0:0:0:
203,93,151739,6,0,P|159:97|88:90,1,112.499992847443,12|8,0:1|0:0,0:0:0:0:
60,62,152339,1,8,0:1:0:0:
16,131,152639,2,0,P|35:166|40:244,1,112.499992847443,12|8,0:1|0:0,0:0:0:0:
30,277,153239,1,8,0:1:0:0:
83,339,153539,2,0,P|108:306|117:265,1,74.9999952316285,8|8,0:0|0:1,0:0:0:0:
195,299,154139,6,0,P|241:276|312:270,1,112.499992847443,12|8,0:1|0:0,0:0:0:0:
337,289,154739,1,8,0:1:0:0:
384,356,155039,2,0,P|412:318|406:249,1,112.499992847443,12|8,0:1|0:0,0:0:0:0:
427,217,155639,2,0,P|455:224|502:224,2,74.9999952316285,8|8|8,0:1|0:1|0:1,0:0:0:0:
439,135,156539,38,0,P|403:134|331:157,1,112.499992847443,12|8,0:1|0:0,0:0:0:0:
304,188,157139,1,8,0:1:0:0:
269,262,157439,2,0,P|237:233|218:201,1,74.9999952316285,12|2,0:1|0:1,0:0:0:0:
142,231,158039,2,0,P|139:188|149:152,1,74.9999952316285,8|8,0:1|0:0,0:0:0:0:
101,88,158639,1,8,0:3:0:0:
149,21,158939,6,0,P|99:8|23:62,1,149.999990463257,12|8,0:1|0:1,0:0:0:0:
42,146,159839,1,8,0:1:0:0:
42,146,159989,2,0,P|91:168|155:154,1,112.499992847443,12|8,0:1|0:1,0:0:0:0:
196,92,160739,2,0,P|224:72|263:64,1,74.9999952316285,8|8,0:0|0:0,0:0:0:0:
260,146,161339,6,0,P|281:195|279:255,1,112.499992847443,12|8,0:1|0:0,0:0:0:0:
265,292,161939,1,8,0:1:0:0:
315,357,162239,2,0,P|350:337|379:265,1,112.499992847443,12|8,0:1|0:0,0:0:0:0:
378,232,162839,1,8,0:1:0:0:
460,233,163139,2,0,P|450:195|425:162,1,74.9999952316285,8|8,0:0|0:1,0:0:0:0:
417,84,163739,38,0,P|361:83|317:116,1,112.499992847443,12|8,0:1|0:0,0:0:0:0:
303,155,164339,1,8,0:1:0:0:
225,126,164639,2,0,P|234:97|214:11,1,112.499992847443,12|8,0:1|0:0,0:0:0:0:
177,13,165239,2,0,P|157:6|98:2,2,74.9999952316285,8|8|8,0:1|0:1|0:1,0:0:0:0:
149,90,166139,6,0,P|98:110|49:154,1,112.499992847443,12|8,0:1|0:0,0:0:0:0:
38,185,166739,1,8,0:1:0:0:
38,267,167039,2,0,P|75:259|103:235,1,74.9999952316285,12|2,0:1|0:1,0:0:0:0:
161,293,167639,2,0,P|181:261|183:224,1,74.9999952316285,8|8,0:1|0:0,0:0:0:0:
265,211,168239,1,8,0:3:0:0:
322,270,168539,6,0,P|356:288|399:294,2,74.9999952316285,12|2|8,0:1|0:0|0:1,0:0:0:0:
344,190,169439,1,8,0:1:0:0:
286,131,169739,2,0,P|314:113|418:155,1,149.999990463257,12|8,0:1|0:0,0:0:0:0:
439,227,170639,1,8,0:0:0:0:
391,294,170939,38,0,P|357:322|241:324,1,149.999990463257,12|8,0:1|0:1,0:0:0:0:
189,280,171839,1,8,0:0:0:0:
119,235,172139,2,0,P|107:281|135:345,1,112.499992847443,2|0,0:1|0:0,0:0:0:0:
165,361,172739,1,8,0:1:0:0:
194,198,173339,6,0,P|207:157|164:58,1,149.999990463257,12|8,0:1|0:1,0:0:0:0:
119,129,174239,1,8,0:0:0:0:
119,129,174389,2,0,P|85:106|16:94,1,112.499992847443,8|8,0:0|0:0,0:0:0:0:
31,174,175139,2,0,P|7:215|-2:246,1,74.9999952316285,8|8,0:1|0:1,0:0:0:0:
81,248,175739,6,0,P|125:212|229:210,1,149.999990463257,12|8,0:1|0:1,0:0:0:0:
272,272,176639,1,8,0:0:0:0:
272,272,176789,2,0,P|296:241|287:159,1,112.499992847443,8|8,0:0|0:0,0:0:0:0:
227,122,177539,2,0,P|256:96|299:89,1,74.9999952316285,12|8,0:1|0:0,0:0:0:0:
361,129,178139,38,0,P|393:164|495:160,1,149.999990463257,12|12,0:1|0:1,0:0:0:0:
489,81,179039,2,0,P|457:46|355:50,1,149.999990463257,8|8,0:0|0:0,0:0:0:0:
290,88,179939,2,0,P|280:54|288:10,1,74.9999952316285,12|8,0:1|0:3,0:0:0:0:
203,18,180539,6,0,P|178:60|83:89,1,149.999990463257,12|12,0:1|0:1,0:0:0:0:
11,124,181439,1,8,0:0:0:0:
32,203,181739,2,0,P|54:248|52:317,1,112.499992847443,2|0,0:1|0:0,0:0:0:0:
38,347,182339,1,8,0:1:0:0:
202,364,182939,6,0,P|165:318|166:224,1,149.999990463257,12|12,0:1|0:1,0:0:0:0:
243,268,183839,1,8,0:0:0:0:
243,268,183989,2,0,P|286:291|356:297,1,112.499992847443,8|8,0:0|0:0,0:0:0:0:
395,365,184739,2,0,P|423:340|457:326,1,74.9999952316285,12|8,0:1|0:1,0:0:0:0:
420,253,185339,38,0,P|444:221|460:178,2,74.9999952316285,12|2|12,0:1|0:1|0:1,0:0:0:0:
371,185,186239,2,0,P|365:145|346:103,2,74.9999952316285,8|2|8,0:0|0:1|0:0,0:0:0:0:
289,169,187139,2,0,P|257:145|213:129,1,74.9999952316285,12|8,0:1|0:3,0:0:0:0:
142,139,187739,1,12,0:1:0:0:
256,192,188339,12,12,197339,0:0:0:0:
