osu file format v14

[General]
AudioFilename: audio.mp3
AudioLeadIn: 0
PreviewTime: 58064
Countdown: 0
SampleSet: Soft
StackLeniency: 0.2
Mode: 0
LetterboxInBreaks: 0
WidescreenStoryboard: 1

[Editor]
Bookmarks: 8939,10139,19739,38939,58139,67739,77339,96539,113339,132539,151739,170939,187739,205589
DistanceSpacing: 1
BeatDivisor: 8
GridSize: 16
TimelineZoom: 1.7

[Metadata]
Title:DEVOURING ONE ANOTHER
TitleUnicode:DEVOURING ONE ANOTHER
Artist:the GazettE
ArtistUnicode:the GazettE
Creator:Vell
Version:Advanced
Source:
Tags:japanese english rock j-rock visual kei metal ruki uruha aoi reita kai beautiful deformity gazetto ルキ 麗 葵 れいた 戒
BeatmapID:4227532
BeatmapSetID:1948209

[Difficulty]
HPDrainRate:4
CircleSize:3
OverallDifficulty:5
ApproachRate:6
SliderMultiplier:1.69999990463257
SliderTickRate:2

[Events]
//Background and Video events
0,0,"bg.png",0,0
//Break Periods
2,58339,66600
2,118339,131400
//Storyboard Layer 0 (Background)
//Storyboard Layer 1 (Fail)
//Storyboard Layer 2 (Pass)
//Storyboard Layer 3 (Foreground)
//Storyboard Layer 4 (Overlay)
//Storyboard Sound Samples

[TimingPoints]
539,600,4,2,1,90,1,0
8939,-117.647058823529,4,2,1,90,0,0
10139,-100,4,2,2,90,0,0
10289,-100,4,2,1,90,0,0
11039,-100,4,2,2,90,0,0
11189,-100,4,2,1,90,0,0
12539,-100,4,2,2,90,0,0
12689,-100,4,2,1,90,0,0
13439,-100,4,2,2,90,0,0
13589,-100,4,2,1,90,0,0
14939,-100,4,2,2,90,0,0
15089,-100,4,2,1,90,0,0
15839,-100,4,2,2,90,0,0
15989,-100,4,2,1,90,0,0
18389,-100,4,2,2,90,0,0
18689,-100,4,2,1,90,0,0
19739,-117.647058823529,4,2,1,70,0,0
37139,-117.647058823529,4,2,1,90,0,0
38939,-100,4,2,2,90,0,1
39089,-100,4,2,1,90,0,1
39839,-100,4,2,2,90,0,1
39989,-100,4,2,1,90,0,1
41339,-100,4,2,2,90,0,1
41489,-100,4,2,1,90,0,1
42239,-100,4,2,2,90,0,1
42389,-100,4,2,1,90,0,1
43739,-100,4,2,2,90,0,1
43889,-100,4,2,1,90,0,1
44639,-100,4,2,2,90,0,1
44789,-100,4,2,1,90,0,1
47189,-100,4,2,2,90,0,1
47489,-100,4,2,1,90,0,1
48539,-100,4,2,2,90,0,1
48689,-100,4,2,1,90,0,1
49439,-100,4,2,2,90,0,1
49589,-100,4,2,1,90,0,1
50939,-100,4,2,2,90,0,1
51089,-100,4,2,1,90,0,1
51839,-100,4,2,2,90,0,1
51989,-100,4,2,1,90,0,1
53339,-100,4,2,2,90,0,1
53489,-100,4,2,1,90,0,1
54239,-100,4,2,2,90,0,1
54389,-100,4,2,1,90,0,1
56789,-100,4,2,2,90,0,1
56939,-100,4,2,1,90,0,1
58139,-117.647058823529,4,2,1,70,0,0
76289,-117.647058823529,4,2,1,90,0,0
77339,-100,4,2,2,90,0,1
77489,-100,4,2,1,90,0,1
78241,-100,4,2,2,90,0,1
78389,-100,4,2,1,90,0,1
79739,-100,4,2,2,90,0,1
79889,-100,4,2,1,90,0,1
80639,-100,4,2,2,90,0,1
80789,-100,4,2,1,90,0,1
82139,-100,4,2,2,90,0,1
82289,-100,4,2,1,90,0,1
83039,-100,4,2,2,90,0,1
83189,-100,4,2,1,90,0,1
84539,-100,4,2,2,90,0,1
84689,-100,4,2,1,90,0,1
85589,-100,4,2,2,90,0,1
85739,-100,4,2,1,90,0,1
86939,-100,4,2,2,90,0,1
87089,-100,4,2,1,90,0,1
87839,-100,4,2,2,90,0,1
87989,-100,4,2,1,90,0,1
89339,-100,4,2,2,90,0,1
89489,-100,4,2,1,90,0,1
90239,-100,4,2,2,90,0,1
90389,-100,4,2,1,90,0,1
91739,-100,4,2,2,90,0,1
91889,-100,4,2,1,90,0,1
92639,-100,4,2,2,90,0,1
92789,-100,4,2,1,90,0,1
94139,-100,4,2,2,90,0,1
94289,-100,4,2,1,90,0,1
96539,-100,4,2,2,90,0,0
96689,-100,4,2,1,90,0,0
98939,-100,4,2,2,90,0,0
99089,-100,4,2,1,90,0,0
101339,-100,4,2,2,90,0,0
101489,-100,4,2,1,90,0,0
103739,-100,4,2,2,90,0,0
103889,-100,4,2,1,90,0,0
106139,-100,4,2,2,90,0,0
106289,-100,4,2,1,90,0,0
108539,-100,4,2,2,90,0,0
108689,-100,4,2,1,90,0,0
110939,-100,4,2,2,90,0,0
111089,-100,4,2,1,90,0,0
113339,-100,4,2,2,90,0,0
118139,-100,4,2,1,40,0,0
132539,-100,4,2,1,90,0,0
133739,-100,4,2,2,90,0,0
134039,-100,4,2,1,90,0,0
136139,-100,4,2,2,90,0,0
136439,-100,4,2,1,90,0,0
138539,-100,4,2,2,90,0,0
138839,-100,4,2,1,90,0,0
140939,-100,4,2,2,90,0,0
141239,-100,4,2,1,90,0,0
143339,-100,4,2,2,90,0,0
143639,-100,4,2,1,90,0,0
145739,-100,4,2,2,90,0,0
146039,-100,4,2,1,90,0,0
148139,-100,4,2,2,90,0,0
148439,-100,4,2,1,90,0,0
150539,-100,4,2,2,90,0,0
150689,-100,4,2,1,90,0,0
151739,-100,4,2,2,90,0,1
151889,-100,4,2,1,90,0,1
152639,-100,4,2,2,90,0,1
152789,-100,4,2,1,90,0,1
154139,-100,4,2,2,90,0,1
154289,-100,4,2,1,90,0,1
155039,-100,4,2,2,90,0,1
155189,-100,4,2,1,90,0,1
156539,-100,4,2,2,90,0,1
156689,-100,4,2,1,90,0,1
157439,-100,4,2,2,90,0,1
157589,-100,4,2,1,90,0,1
158939,-100,4,2,2,90,0,1
159089,-100,4,2,1,90,0,1
159989,-100,4,2,2,90,0,1
160139,-100,4,2,1,90,0,1
161339,-100,4,2,2,90,0,1
161489,-100,4,2,1,90,0,1
162239,-100,4,2,2,90,0,1
162389,-100,4,2,1,90,0,1
163739,-100,4,2,2,90,0,1
163889,-100,4,2,1,90,0,1
164639,-100,4,2,2,90,0,1
164789,-100,4,2,1,90,0,1
166139,-100,4,2,2,90,0,1
166289,-100,4,2,1,90,0,1
167039,-100,4,2,2,90,0,1
167189,-100,4,2,1,90,0,1
168539,-100,4,2,2,90,0,1
168689,-100,4,2,1,90,0,1
170939,-100,4,2,2,90,0,0
171089,-100,4,2,1,90,0,0
173339,-100,4,2,2,90,0,0
173489,-100,4,2,1,90,0,0
175739,-100,4,2,2,90,0,0
175889,-100,4,2,1,90,0,0
178139,-100,4,2,2,90,0,0
178289,-100,4,2,1,90,0,0
180539,-100,4,2,2,90,0,0
180689,-100,4,2,1,90,0,0
182939,-100,4,2,2,90,0,0
183089,-100,4,2,1,90,0,0
185339,-100,4,2,2,90,0,0
185489,-100,4,2,1,90,0,0
187739,-100,4,2,2,90,0,0
197339,-100,4,2,1,40,0,0

[Colours]
Combo1 : 143,143,143
Combo2 : 137,156,184
Combo3 : 128,153,151
Combo4 : 159,157,174
Combo5 : 192,192,192

[HitObjects]
243,282,8939,54,0,L|317:276,1,72.2499973249436,2|2,0:3|0:3,0:0:0:0:
374,339,9539,2,0,L|362:384,2,36.1249986624718,2|2|2,0:3|0:3|0:3,0:0:0:0:
444,291,10139,21,12,0:1:0:0:
444,291,10289,2,0,P|456:247|447:206,1,84.9999952316285,8|8,0:0|0:0,0:0:0:0:
415,181,10739,1,8,0:1:0:0:
437,99,11039,1,12,0:1:0:0:
437,99,11189,2,0,L|339:108,1,84.9999952316285,8|8,0:0|0:0,0:0:0:0:
333,145,11639,2,0,L|246:126,2,84.9999952316285,8|12|8,0:1|0:0|0:1,0:0:0:0:
347,233,12539,5,12,0:1:0:0:
347,233,12689,2,0,P|315:262|263:263,1,84.9999952316285,8|8,0:0|0:0,0:0:0:0:
234,251,13139,1,8,0:1:0:0:
191,183,13439,1,12,0:1:0:0:
191,183,13589,2,0,L|94:193,1,84.9999952316285,8|8,0:0|0:0,0:0:0:0:
78,223,14039,1,8,0:1:0:0:
8,173,14339,1,8,0:1:0:0:
16,88,14639,1,8,0:1:0:0:
102,114,14939,5,12,0:1:0:0:
102,114,15089,2,0,L|115:21,1,84.9999952316285,8|8,0:0|0:0,0:0:0:0:
144,2,15539,1,8,0:1:0:0:
200,72,15839,1,12,0:1:0:0:
200,72,15989,2,0,P|245:53|287:56,1,84.9999952316285,8|8,0:0|0:0,0:0:0:0:
316,77,16439,1,8,0:1:0:0:
397,52,16739,2,0,P|401:93|382:130,1,84.9999952316285,8|8,0:0|0:3,0:0:0:0:
347,156,17189,1,8,0:3:0:0:
311,179,17339,38,0,L|220:169,2,84.9999952316285,12|2|8,0:0|0:0|0:1,0:0:0:0:
281,261,18239,1,8,0:1:0:0:
281,261,18389,2,0,L|373:254,1,84.9999952316285,12|8,0:1|0:0,0:0:0:0:
362,297,18839,2,0,L|454:310,1,84.9999952316285,8|8,0:1|0:0,0:0:0:0:
478,280,19289,2,0,L|468:226,2,42.4999976158143,8|8|8,0:1|0:1|0:1,0:0:0:0:
511,292,19739,1,12,0:0:0:0:
257,320,20939,38,0,L|178:309,1,72.2499973249436,2|8,0:1|0:0,0:0:0:0:
115,348,21539,1,8,0:1:0:0:
116,268,21839,1,2,0:0:0:0:
62,204,22139,6,0,P|42:234|36:270,2,72.2499973249436,8|2|0,0:0|0:1|0:0,0:0:0:0:
140,187,23039,1,8,0:0:0:0:
194,245,23339,2,0,L|265:238,1,72.2499973249436,0|8,0:0|0:0,0:0:0:0:
325,291,23939,2,0,P|370:294|414:244,1,108.374995987415,8|0,0:1|0:0,0:0:0:0:
418,212,24539,53,12,0:0:0:0:
429,53,25139,2,0,L|437:124,1,72.2499973249436,2|8,0:1|0:0,0:0:0:0:
398,132,25589,2,0,L|288:116,1,108.374995987415,0|8,0:0|0:0,0:0:0:0:
236,58,26339,2,0,P|205:76|169:82,1,72.2499973249436,8|2,0:1|0:0,0:0:0:0:
106,129,26939,2,0,L|116:200,1,72.2499973249436,8|2,0:0|0:1,0:0:0:0:
188,235,27539,2,0,P|168:281|77:307,1,144.499994649887,0|0,0:0|0:0,0:0:0:0:
16,352,28439,1,8,0:0:0:0:
9,272,28739,2,0,P|24:242|26:195,1,72.2499973249436,8|8,0:1|0:0,0:0:0:0:
1,128,29339,5,12,0:0:0:0:
119,22,29939,2,0,L|105:97,1,72.2499973249436,2|8,0:1|0:0,0:0:0:0:
126,126,30389,2,0,L|235:117,1,108.374995987415,0|8,0:0|0:0,0:0:0:0:
264,190,31139,2,0,P|301:199|332:221,1,72.2499973249436,8|2,0:1|0:0,0:0:0:0:
381,158,31739,2,0,L|371:85,1,72.2499973249436,8|0,0:0|0:0,0:0:0:0:
409,77,32189,2,0,L|423:-7,2,72.2499973249436,0|0|0,0:0|0:0|0:0,0:0:0:0:
440,100,32939,2,0,L|521:93,1,72.2499973249436,2|8,0:1|0:0,0:0:0:0:
510,173,33539,2,0,P|485:210|488:280,1,108.374995987415,8|0,0:1|0:0,0:0:0:0:
504,307,34139,53,12,0:0:0:0:
359,372,34739,2,0,L|279:364,1,72.2499973249436,2|0,0:1|0:0,0:0:0:0:
272,327,35189,2,0,L|196:343,2,72.2499973249436,0|0|0,0:0|0:0|0:0,0:0:0:0:
298,297,35939,2,0,P|307:257|298:223,1,72.2499973249436,8|2,0:1|0:0,0:0:0:0:
244,170,36539,1,8,0:0:0:0:
244,170,36689,2,0,P|226:200|227:252,1,72.2499973249436,8|8,0:0|0:0,0:0:0:0:
196,266,37139,6,0,P|147:239|94:250,1,108.374995987415,8|0,0:1|0:0,0:0:0:0:
69,276,37739,2,0,L|-6:262,1,72.2499973249436,8|8,0:1|0:3,0:0:0:0:
6,183,38339,2,0,L|-1:145,2,36.1249986624718,8|8|8,0:0|0:1|0:0,0:0:0:0:
83,148,38939,21,12,0:1:0:0:
83,148,39089,2,0,P|99:105|94:60,1,84.9999952316285,8|8,0:0|0:0,0:0:0:0:
69,33,39539,1,8,0:1:0:0:
149,5,39839,1,12,0:1:0:0:
149,5,39989,2,0,L|246:13,1,84.9999952316285,8|8,0:0|0:0,0:0:0:0:
265,40,40439,1,8,0:1:0:0:
325,100,40739,2,0,L|313:150,2,42.4999976158143,8|8|8,0:0|0:0|0:1,0:0:0:0:
393,49,41339,5,12,0:1:0:0:
393,49,41489,2,0,P|407:87|400:136,1,84.9999952316285,8|8,0:0|0:0,0:0:0:0:
391,171,41939,1,8,0:1:0:0:
330,230,42239,1,12,0:1:0:0:
330,230,42389,2,0,L|341:329,1,84.9999952316285,8|8,0:0|0:0,0:0:0:0:
320,352,42839,1,8,0:1:0:0:
256,295,43139,1,8,0:1:0:0:
252,210,43439,1,8,0:1:0:0:
183,259,43739,37,12,0:1:0:0:
183,259,43889,2,0,P|141:280|94:277,1,84.9999952316285,8|8,0:0|0:0,0:0:0:0:
65,261,44339,2,0,L|54:172,1,84.9999952316285,8|12,0:1|0:1,0:0:0:0:
20,150,44789,2,0,L|34:59,1,84.9999952316285,8|8,0:0|0:0,0:0:0:0:
42,24,45239,1,8,0:1:0:0:
125,41,45539,2,0,L|119:-15,2,42.4999976158143,8|8|8,0:0|0:1|0:3,0:0:0:0:
145,78,45989,1,8,0:3:0:0:
167,114,46139,6,0,P|204:101|262:105,1,84.9999952316285,12|2,0:0|0:0,0:0:0:0:
304,36,46739,2,0,L|405:50,1,84.9999952316285,8|8,0:1|0:1,0:0:0:0:
428,32,47189,2,0,L|439:116,1,84.9999952316285,12|8,0:1|0:0,0:0:0:0:
466,149,47639,1,8,0:1:0:0:
392,191,47939,2,0,L|384:245,2,42.4999976158143,8|8|8,0:0|0:1|0:0,0:0:0:0:
307,196,48539,5,12,0:1:0:0:
307,196,48689,2,0,P|279:161|278:114,1,84.9999952316285,8|8,0:0|0:0,0:0:0:0:
298,85,49139,1,8,0:1:0:0:
215,66,49439,1,12,0:1:0:0:
215,66,49589,2,0,L|128:58,1,84.9999952316285,8|8,0:0|0:0,0:0:0:0:
93,80,50039,1,8,0:1:0:0:
12,53,50339,2,0,L|9:8,2,42.4999976158143,8|8|8,0:0|0:0|0:1,0:0:0:0:
27,136,50939,37,12,0:1:0:0:
27,136,51089,2,0,P|45:163|41:229,1,84.9999952316285,8|8,0:0|0:0,0:0:0:0:
25,251,51539,1,8,0:1:0:0:
34,339,51839,1,12,0:1:0:0:
34,339,51989,2,0,P|73:323|104:281,1,84.9999952316285,8|8,0:0|0:0,0:0:0:0:
119,254,52439,1,8,0:1:0:0:
179,314,52739,1,8,0:1:0:0:
263,310,53039,1,8,0:1:0:0:
332,367,53339,5,12,0:1:0:0:
332,367,53489,2,0,L|348:277,1,84.9999952316285,8|8,0:0|0:0,0:0:0:0:
325,246,53939,2,0,L|413:232,1,84.9999952316285,8|12,0:1|0:1,0:0:0:0:
400,190,54389,2,0,L|488:204,1,84.9999952316285,8|8,0:0|0:0,0:0:0:0:
503,241,54839,1,8,0:1:0:0:
476,321,55139,2,0,L|486:365,2,42.4999976158143,8|8|8,0:0|0:0|0:3,0:0:0:0:
434,310,55589,1,8,0:3:0:0:
392,301,55739,6,0,L|298:309,1,84.9999952316285,12|2,0:0|0:0,0:0:0:0:
240,360,56339,2,0,P|214:326|206:285,1,84.9999952316285,8|8,0:1|0:1,0:0:0:0:
175,255,56789,2,0,L|190:171,1,84.9999952316285,12|8,0:1|0:0,0:0:0:0:
178,130,57239,1,8,0:1:0:0:
243,75,57539,2,0,L|290:68,2,42.4999976158143,8|8|8,0:0|0:3|0:0,0:0:0:0:
205,54,57989,1,8,0:3:0:0:
166,35,58139,1,12,0:0:0:0:
48,56,67739,6,0,L|55:131,1,72.2499973249436,12|2,0:0|0:0,0:0:0:0:
127,160,68339,2,0,L|116:232,1,72.2499973249436,8|2,0:1|0:0,0:0:0:0:
130,268,68789,1,0,0:0:0:0:
145,304,68939,2,0,P|160:340|159:381,2,72.2499973249436,8|10|8,0:0|0:0|0:1,0:0:0:0:
83,354,69839,1,2,0:0:0:0:
3,351,70139,6,0,P|11:318|48:281,1,72.2499973249436,12|2,0:0|0:0,0:0:0:0:
50,211,70739,2,0,P|78:193|131:193,1,72.2499973249436,8|2,0:1|0:0,0:0:0:0:
149,211,71189,1,0,0:0:0:0:
181,233,71339,2,0,L|265:225,2,72.2499973249436,8|8|8,0:0|0:0|0:1,0:0:0:0:
121,285,72239,1,2,0:0:0:0:
154,357,72539,54,0,P|188:373|233:368,1,72.2499973249436,12|2,0:0|0:0,0:0:0:0:
266,305,73139,2,0,L|350:320,1,72.2499973249436,8|2,0:1|0:0,0:0:0:0:
373,301,73589,1,0,0:0:0:0:
409,286,73739,2,0,L|401:199,2,72.2499973249436,8|10|8,0:0|0:0|0:1,0:0:0:0:
460,346,74639,1,2,0:0:0:0:
491,275,74939,5,12,0:0:0:0:
491,275,75089,2,0,P|507:230|503:199,1,72.2499973249436,0|2,0:0|0:1,0:0:0:0:
477,177,75539,2,0,L|491:104,1,72.2499973249436,8|2,0:1|0:0,0:0:0:0:
436,48,76139,1,8,0:0:0:0:
436,48,76289,2,0,P|412:62|360:67,1,72.2499973249436,8|8,0:1|0:1,0:0:0:0:
333,48,76739,2,0,L|342:0,2,36.1249986624718,8|8|8,0:0|0:1|0:0,0:0:0:0:
269,103,77339,5,12,0:1:0:0:
269,103,77489,2,0,L|166:92,1,84.9999952316285,8|8,0:0|0:0,0:0:0:0:
148,117,77939,1,8,0:1:0:0:
92,60,78239,1,12,0:1:0:0:
92,60,78389,2,0,P|73:98|73:148,1,84.9999952316285,8|8,0:0|0:0,0:0:0:0:
85,180,78839,1,8,0:1:0:0:
28,243,79139,2,0,L|34:289,2,42.4999976158143,8|8|8,0:0|0:0|0:1,0:0:0:0:
111,260,79739,5,12,0:1:0:0:
111,260,79889,2,0,L|207:271,1,84.9999952316285,8|8,0:0|0:0,0:0:0:0:
225,300,80339,1,8,0:1:0:0:
282,362,80639,1,12,0:1:0:0:
282,362,80789,2,0,P|310:340|369:331,1,84.9999952316285,8|8,0:0|0:0,0:0:0:0:
393,353,81239,1,8,0:1:0:0:
473,324,81539,1,8,0:1:0:0:
509,247,81839,1,8,0:1:0:0:
424,253,82139,5,12,0:1:0:0:
424,253,82289,2,0,L|410:156,1,84.9999952316285,8|8,0:0|0:0,0:0:0:0:
369,169,82739,2,0,L|377:76,1,84.9999952316285,8|12,0:1|0:1,0:0:0:0:
396,46,83189,2,0,L|303:29,1,84.9999952316285,8|8,0:0|0:0,0:0:0:0:
276,54,83639,1,8,0:1:0:0:
214,112,83939,2,0,L|205:167,2,42.4999976158143,8|8|8,0:0|0:1|0:3,0:0:0:0:
186,79,84389,1,8,0:3:0:0:
158,46,84539,38,0,P|124:57|67:54,1,84.9999952316285,12|2,0:1|0:0,0:0:0:0:
35,131,85139,2,0,P|61:154|87:205,1,84.9999952316285,8|8,0:1|0:1,0:0:0:0:
113,229,85589,2,0,L|99:325,1,84.9999952316285,12|8,0:1|0:0,0:0:0:0:
117,352,86039,1,8,0:1:0:0:
198,326,86339,2,0,L|254:332,2,42.4999976158143,8|8|8,0:0|0:1|0:0,0:0:0:0:
229,249,86939,5,12,0:1:0:0:
229,249,87089,2,0,P|236:209|211:153,1,84.9999952316285,8|8,0:0|0:0,0:0:0:0:
191,138,87539,1,8,0:1:0:0:
150,212,87839,1,12,0:1:0:0:
150,212,87989,2,0,L|52:197,1,84.9999952316285,8|8,0:0|0:0,0:0:0:0:
27,218,88439,1,8,0:1:0:0:
16,133,88739,2,0,L|9:84,2,42.4999976158143,8|8|8,0:0|0:0|0:1,0:0:0:0:
104,122,89339,5,12,0:1:0:0:
104,122,89489,2,0,P|101:83|122:37,1,84.9999952316285,8|8,0:0|0:0,0:0:0:0:
158,25,89939,1,8,0:1:0:0:
209,99,90239,1,12,0:1:0:0:
209,99,90389,2,0,L|305:92,1,84.9999952316285,8|8,0:0|0:0,0:0:0:0:
324,121,90839,1,8,0:1:0:0:
406,143,91139,1,8,0:1:0:0:
477,97,91439,1,8,0:1:0:0:
486,185,91739,37,12,0:1:0:0:
486,185,91889,2,0,P|489:231|472:284,1,84.9999952316285,8|8,0:0|0:0,0:0:0:0:
453,302,92339,1,8,0:1:0:0:
388,356,92639,1,12,0:1:0:0:
388,356,92789,2,0,P|373:322|377:264,1,84.9999952316285,8|8,0:0|0:0,0:0:0:0:
392,236,93239,1,8,0:1:0:0:
307,230,93539,2,0,L|298:175,2,42.4999976158143,8|8|8,0:0|0:1|0:3,0:0:0:0:
282,264,93989,1,8,0:3:0:0:
254,296,94139,6,0,L|168:282,1,84.9999952316285,12|2,0:1|0:0,0:0:0:0:
119,350,94739,2,0,L|33:364,1,84.9999952316285,8|8,0:1|0:1,0:0:0:0:
7,288,95339,1,12,0:0:0:0:
7,288,95489,2,0,P|1:247|18:204,1,84.9999952316285,8|0,0:0|0:0,0:0:0:0:
53,187,95939,2,0,L|104:195,2,42.4999976158143,8|8|8,0:0|0:1|0:0,0:0:0:0:
22,107,96539,6,0,L|109:92,1,84.9999952316285,12|2,0:1|0:1,0:0:0:0:
159,26,97139,2,0,L|145:117,1,84.9999952316285,8|8,0:1|0:0,0:0:0:0:
202,173,97739,1,2,0:1:0:0:
202,173,97889,2,0,P|225:155|235:92,1,84.9999952316285,0|0,0:0|0:0,0:0:0:0:
236,59,98339,1,8,0:1:0:0:
317,82,98639,1,8,0:0:0:0:
385,31,98939,38,0,L|469:36,1,84.9999952316285,12|2,0:1|0:1,0:0:0:0:
500,115,99539,2,0,L|412:123,1,84.9999952316285,8|8,0:1|0:0,0:0:0:0:
379,146,99989,2,0,P|374:190|397:240,1,84.9999952316285,8|0,0:0|0:0,0:0:0:0:
416,258,100439,1,8,0:0:0:0:
351,313,100739,2,0,P|302:287|259:285,1,84.9999952316285,8|8,0:1|0:1,0:0:0:0:
240,364,101339,5,12,0:1:0:0:
240,364,101489,2,0,L|147:380,1,84.9999952316285,8|0,0:0|0:0,0:0:0:0:
132,342,101939,2,0,L|141:255,1,84.9999952316285,8|8,0:1|0:0,0:0:0:0:
98,253,102389,2,0,L|87:168,1,84.9999952316285,8|0,0:0|0:0,0:0:0:0:
63,133,102839,1,8,0:0:0:0:
47,49,103139,2,0,P|89:52|125:74,1,84.9999952316285,8|8,0:1|0:0,0:0:0:0:
167,147,103739,5,12,0:1:0:0:
167,147,103889,2,0,L|256:138,1,84.9999952316285,8|8,0:0|0:0,0:0:0:0:
288,160,104339,1,8,0:1:0:0:
359,206,104639,2,0,P|373:143|290:75,1,169.999990463257,0|8,0:0|0:0,0:0:0:0:
238,20,105539,2,0,P|201:44|153:46,1,84.9999952316285,8|8,0:1|0:3,0:0:0:0:
121,31,105989,1,8,0:3:0:0:
80,17,106139,38,0,L|67:104,1,84.9999952316285,12|2,0:1|0:1,0:0:0:0:
146,132,106739,2,0,L|159:219,1,84.9999952316285,8|8,0:1|0:0,0:0:0:0:
73,218,107339,1,2,0:1:0:0:
73,218,107489,2,0,P|48:257|45:312,1,84.9999952316285,2|0,0:1|0:0,0:0:0:0:
54,335,107939,1,8,0:1:0:0:
137,317,108239,1,8,0:0:0:0:
205,367,108539,6,0,L|297:355,1,84.9999952316285,12|2,0:1|0:1,0:0:0:0:
327,280,109139,2,0,L|235:268,1,84.9999952316285,8|8,0:1|0:0,0:0:0:0:
200,268,109589,2,0,P|189:223|199:179,1,84.9999952316285,8|2,0:0|0:1,0:0:0:0:
223,152,110039,1,8,0:0:0:0:
292,103,110339,2,0,P|306:146|297:194,1,84.9999952316285,8|8,0:1|0:1,0:0:0:0:
381,212,110939,6,0,L|469:197,2,84.9999952316285,12|2|8,0:1|0:1|0:1,0:0:0:0:
385,296,111839,2,0,L|299:283,1,84.9999952316285,8|2,0:0|0:1,0:0:0:0:
225,323,112439,1,8,0:0:0:0:
159,268,112739,1,8,0:1:0:0:
148,183,113039,1,8,0:3:0:0:
82,237,113339,1,12,0:1:0:0:
256,192,113639,12,8,118139,0:0:0:0:
273,29,132539,38,0,P|275:72|258:121,1,84.9999952316285,12|8,0:1|0:0,0:0:0:0:
183,81,133139,1,8,0:1:0:0:
183,81,133289,2,0,L|97:90,1,84.9999952316285,8|8,0:0|0:0,0:0:0:0:
103,132,133739,2,0,L|5:113,2,84.9999952316285,12|8|12,0:1|0:0|0:1,0:0:0:0:
159,195,134639,1,2,0:0:0:0:
85,236,134939,6,0,P|65:276|71:327,1,84.9999952316285,12|8,0:1|0:0,0:0:0:0:
143,363,135539,1,10,0:0:0:0:
143,363,135689,2,0,P|159:323|159:281,1,84.9999952316285,8|8,0:0|0:0,0:0:0:0:
200,273,136139,2,0,L|297:262,1,84.9999952316285,12|8,0:1|0:0,0:0:0:0:
330,335,136739,2,0,L|414:346,1,84.9999952316285,12|2,0:1|0:1,0:0:0:0:
391,263,137339,6,0,P|371:222|377:180,1,84.9999952316285,12|8,0:1|0:0,0:0:0:0:
457,208,137939,1,8,0:1:0:0:
457,208,138089,2,0,L|467:113,1,84.9999952316285,8|8,0:0|0:0,0:0:0:0:
488,87,138539,2,0,L|472:2,2,84.9999952316285,12|8|12,0:1|0:0|0:1,0:0:0:0:
403,74,139439,1,2,0:0:0:0:
338,129,139739,38,0,L|252:115,1,84.9999952316285,12|8,0:1|0:0,0:0:0:0:
260,34,140339,1,8,0:1:0:0:
260,34,140489,2,0,L|163:50,1,84.9999952316285,8|8,0:0|0:0,0:0:0:0:
137,28,140939,2,0,P|97:64|93:141,1,127.499992847443,12|8,0:1|0:0,0:0:0:0:
115,168,141539,1,8,0:1:0:0:
81,246,141839,1,8,0:1:0:0:
133,312,142139,6,0,P|157:284|164:232,1,84.9999952316285,12|8,0:1|0:0,0:0:0:0:
119,173,142739,1,8,0:1:0:0:
119,173,142889,2,0,L|109:86,1,84.9999952316285,8|8,0:0|0:0,0:0:0:0:
127,49,143339,2,0,L|36:41,2,84.9999952316285,12|8|12,0:1|0:0|0:1,0:0:0:0:
192,104,144239,1,2,0:1:0:0:
251,42,144539,6,0,P|292:18|334:19,1,84.9999952316285,12|8,0:1|0:0,0:0:0:0:
314,101,145139,1,8,0:1:0:0:
314,101,145289,2,0,P|356:107|392:132,1,84.9999952316285,8|8,0:0|0:0,0:0:0:0:
426,153,145739,2,0,L|417:239,1,84.9999952316285,12|8,0:1|0:0,0:0:0:0:
332,245,146339,2,0,L|346:332,1,84.9999952316285,12|2,0:1|0:0,0:0:0:0:
415,377,146939,38,0,L|320:366,1,84.9999952316285,12|8,0:1|0:0,0:0:0:0:
264,322,147539,1,8,0:1:0:0:
264,322,147689,2,0,P|239:346|181:360,1,84.9999952316285,8|8,0:0|0:0,0:0:0:0:
156,338,148139,2,0,L|141:242,2,84.9999952316285,12|8|8,0:1|0:0|0:1,0:0:0:0:
82,380,149039,1,2,0:1:0:0:
1,352,149339,6,0,P|17:321|70:296,1,84.9999952316285,12|8,0:1|0:0,0:0:0:0:
67,212,149939,1,8,0:1:0:0:
67,212,150089,2,0,P|43:178|42:123,1,84.9999952316285,8|8,0:0|0:0,0:0:0:0:
60,99,150539,2,0,L|153:89,1,84.9999952316285,12|8,0:1|0:0,0:0:0:0:
185,101,150989,1,8,0:1:0:0:
222,111,151139,2,0,L|214:166,2,42.4999976158143,8|8|12,0:1|0:1|0:0,0:0:0:0:
305,146,151739,5,12,0:1:0:0:
305,146,151889,2,0,P|323:108|318:52,1,84.9999952316285,8|8,0:0|0:0,0:0:0:0:
294,33,152339,1,8,0:1:0:0:
218,66,152639,1,12,0:1:0:0:
218,66,152789,2,0,L|117:72,1,84.9999952316285,8|8,0:0|0:0,0:0:0:0:
99,97,153239,1,8,0:1:0:0:
51,167,153539,2,0,L|4:153,2,42.4999976158143,8|8|8,0:0|0:0|0:1,0:0:0:0:
140,179,154139,37,12,0:1:0:0:
140,179,154289,2,0,P|160:206|163:266,1,84.9999952316285,8|8,0:0|0:0,0:0:0:0:
149,295,154739,1,8,0:1:0:0:
231,331,155039,1,12,0:1:0:0:
231,331,155189,2,0,L|335:320,1,84.9999952316285,8|8,0:0|0:0,0:0:0:0:
354,339,155639,1,8,0:1:0:0:
432,370,155939,1,8,0:1:0:0:
505,327,156239,1,8,0:1:0:0:
459,255,156539,5,12,0:1:0:0:
459,255,156689,2,0,P|442:218|444:171,1,84.9999952316285,8|8,0:0|0:0,0:0:0:0:
471,142,157139,2,0,L|483:42,1,84.9999952316285,8|12,0:1|0:1,0:0:0:0:
494,17,157589,2,0,L|401:28,1,84.9999952316285,8|8,0:0|0:0,0:0:0:0:
386,62,158039,1,8,0:1:0:0:
305,34,158339,2,0,L|312:-13,2,42.4999976158143,8|8|8,0:0|0:1|0:3,0:0:0:0:
274,64,158789,1,8,0:3:0:0:
241,91,158939,6,0,L|151:79,1,84.9999952316285,12|2,0:1|0:0,0:0:0:0:
82,121,159539,2,0,P|109:154|154:163,1,84.9999952316285,8|8,0:1|0:1,0:0:0:0:
173,198,159989,2,0,L|263:185,1,84.9999952316285,12|8,0:1|0:0,0:0:0:0:
287,215,160439,1,8,0:1:0:0:
340,148,160739,2,0,L|352:95,2,42.4999976158143,8|8|8,0:0|0:1|0:0,0:0:0:0:
397,210,161339,37,12,0:1:0:0:
397,210,161489,2,0,P|419:242|422:294,1,84.9999952316285,8|8,0:0|0:0,0:0:0:0:
410,327,161939,1,8,0:1:0:0:
330,295,162239,1,12,0:1:0:0:
330,295,162389,2,0,P|279:309|252:339,1,84.9999952316285,8|8,0:0|0:0,0:0:0:0:
237,368,162839,1,8,0:1:0:0:
185,300,163139,2,0,L|190:248,2,42.4999976158143,8|8|8,0:0|0:0|0:1,0:0:0:0:
122,356,163739,5,12,0:1:0:0:
122,356,163889,2,0,L|37:339,1,84.9999952316285,8|8,0:0|0:0,0:0:0:0:
10,307,164339,1,8,0:1:0:0:
78,256,164639,1,12,0:1:0:0:
78,256,164789,2,0,L|72:151,1,84.9999952316285,8|8,0:0|0:0,0:0:0:0:
41,143,165239,1,8,0:1:0:0:
80,67,165539,1,8,0:1:0:0:
157,31,165839,1,8,0:1:0:0:
153,119,166139,5,12,0:1:0:0:
153,119,166289,2,0,P|187:114|230:75,1,84.9999952316285,8|8,0:0|0:0,0:0:0:0:
243,44,166739,1,8,0:1:0:0:
310,105,167039,1,12,0:1:0:0:
310,105,167189,2,0,L|411:95,1,84.9999952316285,8|8,0:0|0:0,0:0:0:0:
431,118,167639,1,8,0:1:0:0:
484,184,167939,2,0,L|544:196,2,42.4999976158143,8|8|8,0:0|0:1|0:3,0:0:0:0:
451,211,168389,1,8,0:3:0:0:
417,237,168539,38,0,P|394:287|402:326,1,84.9999952316285,12|2,0:1|0:0,0:0:0:0:
315,336,169139,2,0,P|283:291|245:278,1,84.9999952316285,8|8,0:1|0:1,0:0:0:0:
230,361,169739,1,12,0:1:0:0:
230,361,169889,2,0,L|137:347,1,84.9999952316285,8|0,0:0|0:0,0:0:0:0:
126,310,170339,2,0,L|73:320,2,42.4999976158143,8|8|8,0:0|0:1|0:0,0:0:0:0:
92,232,170939,6,0,L|109:138,1,84.9999952316285,12|2,0:1|0:1,0:0:0:0:
140,69,171539,2,0,L|150:170,1,84.9999952316285,8|8,0:1|0:0,0:0:0:0:
218,202,172139,1,2,0:1:0:0:
218,202,172289,2,0,P|247:179|310:173,1,84.9999952316285,0|0,0:0|0:0,0:0:0:0:
329,192,172739,1,8,0:1:0:0:
399,144,173039,1,8,0:0:0:0:
473,185,173339,6,0,L|456:285,1,84.9999952316285,12|2,0:1|0:1,0:0:0:0:
381,304,173939,2,0,L|366:220,1,84.9999952316285,8|8,0:1|0:0,0:0:0:0:
324,228,174389,2,0,L|234:216,1,84.9999952316285,8|0,0:0|0:0,0:0:0:0:
206,243,174839,1,8,0:0:0:0:
228,324,175139,2,0,P|186:363|147:369,1,84.9999952316285,8|8,0:1|0:1,0:0:0:0:
99,309,175739,37,12,0:1:0:0:
99,309,175889,2,0,L|8:297,1,84.9999952316285,8|8,0:0|0:0,0:0:0:0:
2,256,176339,2,0,P|9:214|41:179,1,84.9999952316285,8|8,0:1|0:0,0:0:0:0:
78,185,176789,2,0,L|180:173,1,84.9999952316285,8|0,0:0|0:0,0:0:0:0:
200,193,177239,1,8,0:0:0:0:
271,147,177539,2,0,L|281:56,1,84.9999952316285,12|8,0:1|0:0,0:0:0:0:
350,13,178139,5,12,0:1:0:0:
350,13,178289,2,0,P|377:42|392:86,1,84.9999952316285,8|8,0:0|0:0,0:0:0:0:
378,124,178739,1,12,0:1:0:0:
462,126,179039,2,0,P|444:179|333:195,1,169.999990463257,8|8,0:0|0:0,0:0:0:0:
266,238,179939,2,0,L|258:141,1,84.9999952316285,12|8,0:1|0:3,0:0:0:0:
228,122,180389,1,8,0:3:0:0:
192,97,180539,6,0,P|168:98|110:131,1,84.9999952316285,12|2,0:1|0:1,0:0:0:0:
33,151,181139,2,0,P|57:152|115:185,1,84.9999952316285,12|8,0:1|0:0,0:0:0:0:
77,260,181739,1,2,0:1:0:0:
77,260,181889,2,0,L|66:346,1,84.9999952316285,2|0,0:1|0:0,0:0:0:0:
95,374,182339,1,8,0:1:0:0:
177,351,182639,1,8,0:0:0:0:
258,374,182939,38,0,L|356:357,1,84.9999952316285,12|2,0:1|0:1,0:0:0:0:
365,277,183539,2,0,L|267:260,1,84.9999952316285,12|8,0:1|0:0,0:0:0:0:
240,273,183989,2,0,P|221:232|226:178,1,84.9999952316285,8|0,0:0|0:0,0:0:0:0:
241,155,184439,1,8,0:0:0:0:
306,101,184739,2,0,P|324:144|319:188,1,84.9999952316285,12|8,0:1|0:1,0:0:0:0:
386,235,185339,6,0,L|374:319,2,84.9999952316285,12|2|12,0:1|0:1|0:1,0:0:0:0:
471,238,186239,2,0,L|458:147,1,84.9999952316285,8|2,0:0|0:1,0:0:0:0:
448,69,186839,1,8,0:0:0:0:
383,124,187139,1,12,0:1:0:0:
298,119,187439,1,8,0:3:0:0:
335,195,187739,1,12,0:1:0:0:
256,192,188039,12,12,197339,0:0:0:0:
