osu file format v14

[General]
AudioFilename: audio.mp3
AudioLeadIn: 0
PreviewTime: 7889
Countdown: 0
SampleSet: Soft
StackLeniency: 0.3
Mode: 0
LetterboxInBreaks: 0
EpilepsyWarning: 1
WidescreenStoryboard: 1

[Editor]
Bookmarks: 8812,23581,30966,38351,53120,56812,71581,86351,93735,101120,115889,130658,145428,160197,173928
DistanceSpacing: 2
BeatDivisor: 8
GridSize: 16
TimelineZoom: 1.7

[Metadata]
Title:CLEVER MONKEY
TitleUnicode:CLEVER MONKEY
Artist:the GazettE
ArtistUnicode:the GazettE
Creator:Vell
Version:Hard
Source:
Tags:japanese english rock j-rock visual kei metal ruki uruha aoi reita kai remember the urge gazetto ルキ 麗 葵 れいた 戒 Darky1
BeatmapID:4199111
BeatmapSetID:2015824

[Difficulty]
HPDrainRate:5
CircleSize:3
OverallDifficulty:6.5
ApproachRate:7.5
SliderMultiplier:2
SliderTickRate:1

[Events]
//Background and Video events
0,0,"bg.png",0,0
//Break Periods
2,147474,151912
//Storyboard Layer 0 (Background)
//Storyboard Layer 1 (Fail)
//Storyboard Layer 2 (Pass)
//Storyboard Layer 3 (Foreground)
Sprite,Foreground,Centre,"sb\pixel.png",320,240 C,0,78504,,0,0,0 V,0,78504,,86,48 F,0,78504,78966,1
Sprite,Foreground,Centre,"sb\flashlight.png",0,0 M,0,78966,,453,135 C,0,78966,,0,0,0 S,13,78966,79366,1.5,15 F,2,78966,79466,1,0
Sprite,Foreground,Centre,"sb\highlight.png",0,0 M,0,78504,,551,233 C,0,78504,,255,74,74 F,2,78504,78647,1,0.8 S,2,78504,78647,2,1.2 P,0,78504,78647,A M,0,78619,78735,551,233,529,154 C,0,78735,,255,74,74 F,2,78735,78878,1,0.8 S,2,78735,78878,2,1.2 P,0,78735,78878,A
Sprite,Foreground,Centre,"sb\pixel.png",320,240 C,0,15735,,0,0,0 V,0,15735,,86,48 F,0,15735,16197,1
Sprite,Foreground,Centre,"sb\flashlight.png",0,0 M,0,16197,,291,379 C,0,16197,,0,0,0 S,13,16197,16597,1.5,15 F,2,16197,16697,1,0
Sprite,Foreground,Centre,"sb\highlight.png",0,0 M,0,15735,,314,296 C,0,15735,,255,74,74 F,2,15735,15878,1,0.8 S,2,15735,15878,2,1.2 P,0,15735,15878,A M,0,15850,15966,314,296,372,353 C,0,15966,,255,74,74 F,2,15966,16109,1,0.8 S,2,15966,16109,2,1.2 P,0,15966,16109,A
Sprite,Foreground,Centre,"sb\highlight_pierce.png",0,0 R,0,160197,,4.560808 M,0,160197,160297,323.7997,141.2933,384.2003,536.7067 F,2,160197,160397,1,0 V,2,160197,160627,3,2,2,1 P,0,160197,160627,A
Sprite,Foreground,Centre,"sb\highlight.png",0,0 C,0,160197,,202,202,202 M,0,160197,160254,354,339,334.1285,336.7362 F,1,160197,160627,1,0 S,2,160197,160627,2,0.8 P,0,160197,160627,A M,0,160254,160312,334.1285,336.7362,314.2571,334.4723 M,0,160312,160370,314.2571,334.4723,294.3856,332.2085 M,0,160370,160427,294.3856,332.2085,275,330
Sprite,Foreground,Centre,"sb\highlight_pierce.png",0,0 R,0,160543,,5.132803 M,0,160543,160643,287.6278,104.416,124.3722,469.584 F,2,160543,160743,1,0 V,2,160543,160973,3,2,2,1 P,0,160543,160973,A
Sprite,Foreground,Centre,"sb\highlight.png",0,0 C,0,160543,,202,202,202 M,0,160543,160600,206,287,187.1228,293.607 F,1,160543,160973,1,0 S,2,160543,160973,2,0.8 P,0,160543,160973,A M,0,160600,160658,187.1228,293.607,168.2457,300.214 M,0,160658,160716,168.2457,300.214,187.1228,293.607 M,0,160716,160773,187.1228,293.607,206,287
Sprite,Foreground,Centre,"sb\highlight_pierce.png",0,0 R,0,161004,,4.823183 M,0,161004,161104,137.1134,-2.773727,92.88658,394.7737 F,2,161004,161204,1,0 V,2,161004,161434,3,2,2,1 P,0,161004,161434,A
Sprite,Foreground,Centre,"sb\highlight.png",0,0 C,0,161004,,202,202,202 M,0,161004,161061,115,196,134.9264,194.2859 F,1,161004,161434,1,0 S,2,161004,161434,2,0.8 P,0,161004,161434,A M,0,161061,161119,134.9264,194.2859,154.8528,192.5718 M,0,161119,161177,154.8528,192.5718,174.7792,190.8577 M,0,161177,161234,174.7792,190.8577,194.7056,189.1436
Sprite,Foreground,Centre,"sb\highlight_pierce.png",0,0 R,0,161466,,3.505252 M,0,161466,161566,118.0797,182.8606,491.9203,325.1394 F,2,161466,161666,1,0 V,2,161466,161666,3,2,2,1 P,0,161466,161666,A
Sprite,Foreground,Centre,"sb\highlight.png",305,254 C,0,161466,,202,202,202 F,1,161466,161666,1,0 S,2,161466,161666,2,0.8 P,0,161466,161666,A
Sprite,Foreground,Centre,"sb\highlight_pierce.png",0,0 R,0,161581,,1.293888 M,0,161581,161681,426.6766,403.381,317.3234,18.61894 F,2,161581,161781,1,0 V,2,161581,162011,3,2,2,1 P,0,161581,162011,A
Sprite,Foreground,Centre,"sb\highlight.png",0,0 C,0,161581,,202,202,202 M,0,161581,161638,372,211,380.4047,192.9448 F,1,161581,162011,1,0 S,2,161581,162011,2,0.8 P,0,161581,162011,A M,0,161638,161696,380.4047,192.9448,384.5698,173.4992 M,0,161696,161754,384.5698,173.4992,384.3637,153.6263 M,0,161754,161811,384.3637,153.6263,379.3234,134.3869
Sprite,Foreground,Centre,"sb\highlight_pierce.png",0,0 R,0,162043,,3.509797 M,0,162043,162143,303.4049,-3.988068,676.5951,139.9881 F,2,162043,162243,1,0 V,2,162043,162473,3,2,2,1 P,0,162043,162473,A
Sprite,Foreground,Centre,"sb\highlight.png",0,0 C,0,162043,,99,99,99 M,0,162043,162100,490,68,477.7939,83.73328 F,1,162043,162473,1,0 S,2,162043,162473,2,0.8 P,0,162043,162473,A M,0,162100,162158,477.7939,83.73328,469.4738,101.7919 M,0,162158,162216,469.4738,101.7919,465.3952,121.2386 M,0,162216,162273,465.3952,121.2386,465.9016,141.1624
Sprite,Foreground,Centre,"sb\highlight_pierce.png",0,0 R,0,162389,,5.68985 M,0,162389,162489,692.816,81.1741,361.1839,304.8259 F,2,162389,162589,1,0 V,2,162389,162819,3,2,2,1 P,0,162389,162819,A
Sprite,Foreground,Centre,"sb\highlight.png",0,0 C,0,162389,,99,99,99 M,0,162389,162446,527,193,530.4757,212.6957 F,1,162389,162819,1,0 S,2,162389,162819,2,0.8 P,0,162389,162819,A M,0,162446,162504,530.4757,212.6957,533.9514,232.3913 M,0,162504,162562,533.9514,232.3913,530.4757,212.6957 M,0,162562,162619,530.4757,212.6957,527,193
Sprite,Foreground,Centre,"sb\highlight_pierce.png",0,0 R,0,162851,,2.776877 M,0,162851,162951,277.155,376.3367,650.845,233.6633 F,2,162851,163051,1,0 V,2,162851,163281,3,2,2,1 P,0,162851,163281,A
Sprite,Foreground,Centre,"sb\highlight.png",0,0 C,0,162851,,99,99,99 M,0,162851,162908,464,305,444.1402,302.6357 F,1,162851,163281,1,0 S,2,162851,163281,2,0.8 P,0,162851,163281,A M,0,162908,162966,444.1402,302.6357,424.2805,300.2715 M,0,162966,163024,424.2805,300.2715,404.4207,297.9072 M,0,163024,163081,404.4207,297.9072,384.5609,295.543
Sprite,Foreground,Centre,"sb\highlight_pierce.png",0,0 R,0,163312,,6.139012 M,0,163312,163412,532.925,385.2652,137.075,442.7348 F,2,163312,163512,1,0 V,2,163312,163512,3,2,2,1 P,0,163312,163512,A
Sprite,Foreground,Centre,"sb\highlight.png",335,414 C,0,163312,,99,99,99 F,1,163312,163512,1,0 S,2,163312,163512,2,0.8 P,0,163312,163512,A
Sprite,Foreground,Centre,"sb\highlight_pierce.png",0,0 R,0,163428,,1.718864 M,0,163428,163528,254.4946,548.8116,313.5054,153.1884 F,2,163428,163628,1,0 V,2,163428,163858,3,2,2,1 P,0,163428,163858,A
Sprite,Foreground,Centre,"sb\highlight.png",0,0 C,0,163428,,99,99,99 M,0,163428,163485,284,351,264.1279,353.2582 F,1,163428,163858,1,0 S,2,163428,163858,2,0.8 P,0,163428,163858,A M,0,163485,163543,264.1279,353.2582,244.2558,355.5164 M,0,163543,163601,244.2558,355.5164,224.3837,357.7746 M,0,163601,163658,224.3837,357.7746,204.5116,360.0328
Sprite,Foreground,Centre,"sb\highlight_pierce.png",0,0 R,0,163889,,1.833171 M,0,163889,163989,59.12497,464.1553,162.875,77.84468 F,2,163889,164089,1,0 V,2,163889,164319,3,2,2,1 P,0,163889,164319,A
Sprite,Foreground,Centre,"sb\highlight.png",0,0 C,0,163889,,202,202,202 M,0,163889,163946,111,271,130.3847,266.5 F,1,163889,164319,1,0 S,2,163889,164319,2,0.8 P,0,163889,164319,A M,0,163946,164004,130.3847,266.5,150.2424,266.9099 M,0,164004,164062,150.2424,266.9099,169.4852,271.8957 M,0,164062,164119,169.4852,271.8957,186.5872,282.0368
Sprite,Foreground,Centre,"sb\highlight_pierce.png",0,0 R,0,164235,,2.934736 M,0,164235,164335,8.263718,401.0769,399.7363,318.9231 F,2,164235,164435,1,0 V,2,164235,164665,3,2,2,1 P,0,164235,164665,A
Sprite,Foreground,Centre,"sb\highlight.png",0,0 C,0,164235,,202,202,202 M,0,164235,164292,204,360,202.1893,379.9179 F,1,164235,164665,1,0 S,2,164235,164665,2,0.8 P,0,164235,164665,A M,0,164292,164350,202.1893,379.9179,200.3786,399.8357 M,0,164350,164408,200.3786,399.8357,202.1893,379.9179 M,0,164408,164465,202.1893,379.9179,204,360
Sprite,Foreground,Centre,"sb\highlight_pierce.png",0,0 R,0,164697,,3.973099 M,0,164697,164797,123.2473,95.21057,392.7527,390.7894 F,2,164697,164897,1,0 V,2,164697,165127,3,2,2,1 P,0,164697,165127,A
Sprite,Foreground,Centre,"sb\highlight.png",0,0 C,0,164697,,202,202,202 M,0,164697,164754,258,243,259.7433,223.0761 F,1,164697,165127,1,0 S,2,164697,165127,2,0.8 P,0,164697,165127,A M,0,164754,164812,259.7433,223.0761,261.4867,203.1523 M,0,164812,164870,261.4867,203.1523,263.23,183.2284 M,0,164870,164927,263.23,183.2284,264.9734,163.3045
Sprite,Foreground,Centre,"sb\highlight_pierce.png",0,0 R,0,165158,,2.948534 M,0,165158,165258,165.7156,117.3722,558.2844,40.62777 F,2,165158,165358,1,0 V,2,165158,165358,3,2,2,1 P,0,165158,165358,A
Sprite,Foreground,Centre,"sb\highlight.png",362,79 C,0,165158,,202,202,202 F,1,165158,165358,1,0 S,2,165158,165358,2,0.8 P,0,165158,165358,A
Sprite,Foreground,Centre,"sb\highlight_pierce.png",0,0 R,0,165274,,6.16791 M,0,165274,165374,596.6726,126.996,199.3274,173.004 F,2,165274,165474,1,0 V,2,165274,165704,3,2,2,1 P,0,165274,165704,A
Sprite,Foreground,Centre,"sb\highlight.png",0,0 C,0,165274,,202,202,202 M,0,165274,165331,398,150,417.7787,147.0332 F,1,165274,165704,1,0 S,2,165274,165704,2,0.8 P,0,165274,165704,A M,0,165331,165389,417.7787,147.0332,437.5575,144.0664 M,0,165389,165447,437.5575,144.0664,457.3362,141.0996 M,0,165447,165504,457.3362,141.0996,477.1149,138.1328
Sprite,Foreground,Centre,"sb\highlight_pierce.png",0,0 R,0,165735,,0.1907047 M,0,165735,165835,734.3741,287.9102,341.6258,212.0898 F,2,165735,165935,1,0 V,2,165735,166165,3,2,2,1 P,0,165735,166165,A
Sprite,Foreground,Centre,"sb\highlight.png",0,0 C,0,165735,,99,99,99 M,0,165735,165792,538,250,522.516,237.4377 F,1,165735,166165,1,0 S,2,165735,166165,2,0.8 P,0,165735,166165,A M,0,165792,165850,522.516,237.4377,504.8395,228.2659 M,0,165850,165908,504.8395,228.2659,485.6925,222.8508 M,0,165908,165965,485.6925,222.8508,466,221
Sprite,Foreground,Centre,"sb\highlight_pierce.png",0,0 R,0,166081,,5.415685 M,0,166081,166181,537.347,123.457,278.653,428.543 F,2,166081,166281,1,0 V,2,166081,166511,3,2,2,1 P,0,166081,166511,A
Sprite,Foreground,Centre,"sb\highlight.png",0,0 C,0,166081,,99,99,99 M,0,166081,166138,408,276,388.1544,278.4807 F,1,166081,166511,1,0 S,2,166081,166511,2,0.8 P,0,166081,166511,A M,0,166138,166196,388.1544,278.4807,368.3089,280.9614 M,0,166196,166254,368.3089,280.9614,388.1544,278.4807 M,0,166254,166311,388.1544,278.4807,408,276
Sprite,Foreground,Centre,"sb\highlight_pierce.png",0,0 R,0,166543,,6.25078 M,0,166543,166643,660.895,385.52,261.105,398.48 F,2,166543,166743,1,0 V,2,166543,166743,3,2,2,1 P,0,166543,166743,A
Sprite,Foreground,Centre,"sb\highlight.png",461,392 C,0,166543,,99,99,99 F,1,166543,166743,1,0 S,2,166543,166743,2,0.8 P,0,166543,166743,A
Sprite,Foreground,Centre,"sb\highlight_pierce.png",0,0 R,0,167581,,4.252697 M,0,167581,167681,67.26566,50.76212,244.7343,409.2379 F,2,167581,167781,1,0 V,2,167581,168011,3,2,2,1 P,0,167581,168011,A
Sprite,Foreground,Centre,"sb\highlight.png",0,0 C,0,167581,,202,202,202 M,0,167581,167638,156,230,175.8777,227.7914 F,1,167581,168011,1,0 S,2,167581,168011,2,0.8 P,0,167581,168011,A M,0,167638,167696,175.8777,227.7914,195.7554,225.5827 M,0,167696,167754,195.7554,225.5827,215.633,223.3741 M,0,167754,167811,215.633,223.3741,235.5107,221.1655
Sprite,Foreground,Centre,"sb\highlight_pierce.png",0,0 R,0,167928,,1.975636 M,0,167928,168028,213.2256,346.8331,370.7744,-20.83307 F,2,167928,168128,1,0 V,2,167928,168358,3,2,2,1 P,0,167928,168358,A
Sprite,Foreground,Centre,"sb\highlight.png",0,0 C,0,167928,,202,202,202 M,0,167928,167985,292,163,295.8302,143.3702 F,1,167928,168358,1,0 S,2,167928,168358,2,0.8 P,0,167928,168358,A M,0,167985,168043,295.8302,143.3702,299.6604,123.7404 M,0,168043,168101,299.6604,123.7404,295.8302,143.3702 M,0,168101,168158,295.8302,143.3702,292,163
Sprite,Foreground,Centre,"sb\highlight_pierce.png",0,0 R,0,168389,,5.130182 M,0,168389,168489,465.1488,-108.7973,302.8512,256.7974 F,2,168389,168589,1,0 V,2,168389,168819,3,2,2,1 P,0,168389,168819,A
Sprite,Foreground,Centre,"sb\highlight.png",0,0 C,0,168389,,202,202,202 M,0,168389,168446,384,74,383.9005,93.93839 F,1,168389,168819,1,0 S,2,168389,168819,2,0.8 P,0,168389,168819,A M,0,168446,168504,383.9005,93.93839,387.5814,113.5136 M,0,168504,168562,387.5814,113.5136,394.8953,132.0275 M,0,168562,168619,394.8953,132.0275,405.8665,148.6522
Sprite,Foreground,Centre,"sb\highlight_pierce.png",0,0 R,0,168851,,5.325765 M,0,168851,168951,560.1263,107.4581,329.8737,434.5419 F,2,168851,169051,1,0 V,2,168851,169051,3,2,2,1 P,0,168851,169051,A
Sprite,Foreground,Centre,"sb\highlight.png",445,271 C,0,168851,,202,202,202 F,1,168851,169051,1,0 S,2,168851,169051,2,0.8 P,0,168851,169051,A
Sprite,Foreground,Centre,"sb\highlight_pierce.png",0,0 R,0,168966,,6.229146 M,0,168966,169066,712.708,218.1973,313.292,239.8027 F,2,168966,169166,1,0 V,2,168966,169396,3,2,2,1 P,0,168966,169396,A
Sprite,Foreground,Centre,"sb\highlight.png",0,0 C,0,168966,,202,202,202 M,0,168966,169023,513,229,512.3755,209.0729 F,1,168966,169396,1,0 S,2,168966,169396,2,0.8 P,0,168966,169396,A M,0,169023,169081,512.3755,209.0729,507.873,189.6754 M,0,169081,169139,507.873,189.6754,499.8534,171.4431 M,0,169139,169196,499.8534,171.4431,488.0256,155.4109
Sprite,Foreground,Centre,"sb\highlight_pierce.png",0,0 R,0,169428,,0.2048862 M,0,169428,169528,574.8168,264.6912,183.1832,183.3088 F,2,169428,169628,1,0 V,2,169428,169858,3,2,2,1 P,0,169428,169858,A
Sprite,Foreground,Centre,"sb\highlight.png",0,0 C,0,169428,,99,99,99 M,0,169428,169485,379,224,359.1754,221.3567 F,1,169428,169858,1,0 S,2,169428,169858,2,0.8 P,0,169428,169858,A M,0,169485,169543,359.1754,221.3567,339.3509,218.7135 M,0,169543,169601,339.3509,218.7135,319.5263,216.0702 M,0,169601,169658,319.5263,216.0702,299.7018,213.4269
Sprite,Foreground,Centre,"sb\highlight_pierce.png",0,0 R,0,169774,,4.395636 M,0,169774,169874,174.7034,-28.05034,299.2966,352.0504 F,2,169774,169974,1,0 V,2,169774,170204,3,2,2,1 P,0,169774,170204,A
Sprite,Foreground,Centre,"sb\highlight.png",0,0 C,0,169774,,99,99,99 M,0,169774,169831,237,162,232.4829,142.6452 F,1,169774,170204,1,0 S,2,169774,170204,2,0.8 P,0,169774,170204,A M,0,169831,169889,232.4829,142.6452,222.928,125.2664 M,0,169889,169947,222.928,125.2664,232.4829,142.6452 M,0,169947,170004,232.4829,142.6452,237,162
Sprite,Foreground,Centre,"sb\highlight_pierce.png",0,0 R,0,170235,,3.305064 M,0,170235,170335,-53.33365,217.4511,341.3336,282.549 F,2,170235,170435,1,0 V,2,170235,170665,3,2,2,1 P,0,170235,170665,A
Sprite,Foreground,Centre,"sb\highlight.png",0,0 C,0,170235,,99,99,99 M,0,170235,170292,144,250,153.2748,232.3535 F,1,170235,170665,1,0 S,2,170235,170665,2,0.8 P,0,170235,170665,A M,0,170292,170350,153.2748,232.3535,158.8036,213.2266 M,0,170350,170408,158.8036,213.2266,160.7466,193.3831 M,0,170408,170465,160.7466,193.3831,158.037,173.633
Sprite,Foreground,Centre,"sb\highlight_pierce.png",0,0 R,0,170697,,5.865637 M,0,170697,170797,397.8172,206.8959,32.18279,369.1041 F,2,170697,170897,1,0 V,2,170697,170897,3,2,2,1 P,0,170697,170897,A
Sprite,Foreground,Centre,"sb\highlight.png",215,288 C,0,170697,,99,99,99 F,1,170697,170897,1,0 S,2,170697,170897,2,0.8 P,0,170697,170897,A
Sprite,Foreground,Centre,"sb\highlight_pierce.png",0,0 R,0,170812,,4.318255 M,0,170812,170912,205.1983,144.3341,358.8017,513.6659 F,2,170812,171012,1,0 V,2,170812,171242,3,2,2,1 P,0,170812,171242,A
Sprite,Foreground,Centre,"sb\highlight.png",0,0 C,0,170812,,99,99,99 M,0,170812,170869,282,329,279.7361,348.8715 F,1,170812,171242,1,0 S,2,170812,171242,2,0.8 P,0,170812,171242,A M,0,170869,170927,279.7361,348.8715,277.4723,368.7429 M,0,170927,170985,277.4723,368.7429,275.2085,388.6144 M,0,170985,171042,275.2085,388.6144,273,408
Sprite,Foreground,Centre,"sb\highlight_pierce.png",0,0 R,0,171274,,3.434001 M,0,171274,171374,205.4895,319.3482,588.5105,434.6518 F,2,171274,171474,1,0 V,2,171274,171704,3,2,2,1 P,0,171274,171704,A
Sprite,Foreground,Centre,"sb\highlight.png",0,0 C,0,171274,,202,202,202 M,0,171274,171331,397,377,416.8089,374.2418 F,1,171274,171704,1,0 S,2,171274,171704,2,0.8 P,0,171274,171704,A M,0,171331,171389,416.8089,374.2418,436.6178,371.4836 M,0,171389,171447,436.6178,371.4836,456.4267,368.7254 M,0,171447,171504,456.4267,368.7254,476,366
Sprite,Foreground,Centre,"sb\highlight_pierce.png",0,0 R,0,171620,,0.5093705 M,0,171620,171720,702.6104,402.5256,353.3897,207.4744 F,2,171620,171820,1,0 V,2,171620,172050,3,2,2,1 P,0,171620,172050,A
Sprite,Foreground,Centre,"sb\highlight.png",0,0 C,0,171620,,202,202,202 M,0,171620,171677,528,305,547.8376,307.5433 F,1,171620,172050,1,0 S,2,171620,172050,2,0.8 P,0,171620,172050,A M,0,171677,171735,547.8376,307.5433,567,310 M,0,171735,171793,567,310,547.8376,307.5433 M,0,171793,171850,547.8376,307.5433,528,305
Sprite,Foreground,Centre,"sb\highlight_pierce.png",0,0 R,0,172081,,1.175142 M,0,172081,172181,480.0823,457.549,325.9177,88.45107 F,2,172081,172281,1,0 V,2,172081,172511,3,2,2,1 P,0,172081,172511,A
Sprite,Foreground,Centre,"sb\highlight.png",0,0 C,0,172081,,202,202,202 M,0,172081,172138,403,273,395.9747,254.331 F,1,172081,172511,1,0 S,2,172081,172511,2,0.8 P,0,172081,172511,A M,0,172138,172196,395.9747,254.331,392.3698,234.7311 M,0,172196,172254,392.3698,234.7311,392.2256,214.8097 M,0,172254,172311,392.2256,214.8097,395.7059,195.1579
Sprite,Foreground,Centre,"sb\highlight_pierce.png",0,0 R,0,172543,,2.846895 M,0,172543,172643,76.62201,271.0901,459.378,154.9098 F,2,172543,172743,1,0 V,2,172543,172743,3,2,2,1 P,0,172543,172743,A
Sprite,Foreground,Centre,"sb\highlight.png",268,213 C,0,172543,,202,202,202 F,1,172543,172743,1,0 S,2,172543,172743,2,0.8 P,0,172543,172743,A
Sprite,Foreground,Centre,"sb\highlight_pierce.png",0,0 R,0,172658,,1.866239 M,0,172658,172758,266.7673,349.3347,383.2327,-33.33466 F,2,172658,172858,1,0 V,2,172658,173088,3,2,2,1 P,0,172658,173088,A
Sprite,Foreground,Centre,"sb\highlight.png",0,0 C,0,172658,,202,202,202 M,0,172658,172715,325,158,330.7331,138.9055 F,1,172658,173088,1,0 S,2,172658,173088,2,0.8 P,0,172658,173088,A M,0,172715,172773,330.7331,138.9055,332.6758,119.0849 M,0,172773,172831,332.6758,119.0849,330.7732,99.27283 M,0,172831,172888,330.7732,99.27283,325.0605,80.15875
Sprite,Foreground,Centre,"sb\highlight_pierce.png",0,0 R,0,173120,,6.208055 M,0,173120,173220,415.4358,133.9881,16.56419,164.0119 F,2,173120,173320,1,0 V,2,173120,173550,3,2,2,1 P,0,173120,173550,A
Sprite,Foreground,Centre,"sb\highlight.png",0,0 C,0,173120,,99,99,99 M,0,173120,173177,216,149,196.0993,147.0099 F,1,173120,173550,1,0 S,2,173120,173550,2,0.8 P,0,173120,173550,A M,0,173177,173235,196.0993,147.0099,176.1985,145.0199 M,0,173235,173293,176.1985,145.0199,156.2978,143.0298 M,0,173293,173350,156.2978,143.0298,136.397,141.0397
Sprite,Foreground,Centre,"sb\highlight_pierce.png",0,0 R,0,173466,,4.03614 M,0,173466,173566,-37.17439,49.01483,213.1744,360.9852 F,2,173466,173666,1,0 V,2,173466,173896,3,2,2,1 P,0,173466,173896,A
Sprite,Foreground,Centre,"sb\highlight.png",0,0 C,0,173466,,99,99,99 M,0,173466,173523,88,205,84.77736,224.7387 F,1,173466,173896,1,0 S,2,173466,173896,2,0.8 P,0,173466,173896,A M,0,173523,173581,84.77736,224.7387,81.55473,244.4773 M,0,173581,173639,81.55473,244.4773,84.77736,224.7387 M,0,173639,173696,84.77736,224.7387,88,205
Sprite,Foreground,Centre,"sb\highlight_pierce.png",0,0 R,0,173928,,4.791411 M,0,173928,174028,106.788,-123.3759,75.21196,275.3759 F,2,173928,174128,1,0 V,2,173928,174128,3,2,2,1 P,0,173928,174128,A
Sprite,Foreground,Centre,"sb\highlight.png",91,76 C,0,173928,,99,99,99 F,1,173928,174128,1,0 S,2,173928,174128,2,0.8 P,0,173928,174128,A
Sprite,Foreground,Centre,"sb\highlight_pierce.png",0,0 R,0,53120,,4.560808 M,0,53120,53220,468.7997,126.2933,529.2003,521.7067 F,2,53120,53320,1,0 V,2,53120,53550,3,2,2,1 P,0,53120,53550,A
Sprite,Foreground,Centre,"sb\highlight.png",0,0 C,0,53120,,202,202,202 M,0,53120,53177,499,324,479.0529,322.5455 F,1,53120,53550,1,0 S,2,53120,53550,2,0.8 P,0,53120,53550,A M,0,53177,53235,479.0529,322.5455,459.1059,321.0911 M,0,53235,53293,459.1059,321.0911,439.1589,319.6366 M,0,53293,53350,439.1589,319.6366,419.2118,318.1821
Sprite,Foreground,Centre,"sb\highlight_pierce.png",0,0 R,0,53466,,5.132803 M,0,53466,53566,428.6278,171.416,265.3722,536.584 F,2,53466,53666,1,0 V,2,53466,53896,3,2,2,1 P,0,53466,53896,A
Sprite,Foreground,Centre,"sb\highlight.png",0,0 C,0,53466,,202,202,202 M,0,53466,53523,347,354,327.1919,356.7639 F,1,53466,53896,1,0 S,2,53466,53896,2,0.8 P,0,53466,53896,A M,0,53523,53581,327.1919,356.7639,307.3838,359.5278 M,0,53581,53639,307.3838,359.5278,327.1919,356.7639 M,0,53639,53696,327.1919,356.7639,347,354
Sprite,Foreground,Centre,"sb\highlight_pierce.png",0,0 R,0,53928,,4.823183 M,0,53928,54028,429.1134,41.22627,384.8866,438.7737 F,2,53928,54128,1,0 V,2,53928,54358,3,2,2,1 P,0,53928,54358,A
Sprite,Foreground,Centre,"sb\highlight.png",0,0 C,0,53928,,202,202,202 M,0,53928,53985,407,240,391.1587,227.8838 F,1,53928,54358,1,0 S,2,53928,54358,2,0.8 P,0,53928,54358,A M,0,53985,54043,391.1587,227.8838,373.3026,219.0521 M,0,54043,54101,373.3026,219.0521,354.0945,213.8257 M,0,54101,54158,354.0945,213.8257,335,212
Sprite,Foreground,Centre,"sb\highlight_pierce.png",0,0 R,0,54389,,3.505252 M,0,54389,54489,61.07973,234.8606,434.9203,377.1394 F,2,54389,54589,1,0 V,2,54389,54589,3,2,2,1 P,0,54389,54589,A
Sprite,Foreground,Centre,"sb\highlight.png",248,306 C,0,54389,,202,202,202 F,1,54389,54589,1,0 S,2,54389,54589,2,0.8 P,0,54389,54589,A
Sprite,Foreground,Centre,"sb\highlight_pierce.png",0,0 R,0,54504,,1.293888 M,0,54504,54604,223.6766,486.381,114.3234,101.6189 F,2,54504,54704,1,0 V,2,54504,54934,3,2,2,1 P,0,54504,54934,A
Sprite,Foreground,Centre,"sb\highlight.png",0,0 C,0,54504,,202,202,202 M,0,54504,54561,169,294,149.4079,289.9811 F,1,54504,54934,1,0 S,2,54504,54934,2,0.8 P,0,54504,54934,A M,0,54561,54619,149.4079,289.9811,130,286 M,0,54619,54677,130,286,149.4079,289.9811 M,0,54677,54734,149.4079,289.9811,169,294
Sprite,Foreground,Centre,"sb\highlight_pierce.png",0,0 R,0,54966,,3.509797 M,0,54966,55066,-99.59506,122.0119,273.5951,265.9881 F,2,54966,55166,1,0 V,2,54966,55396,3,2,2,1 P,0,54966,55396,A
Sprite,Foreground,Centre,"sb\highlight.png",0,0 C,0,54966,,99,99,99 M,0,54966,55023,87,194,106.8456,191.5193 F,1,54966,55396,1,0 S,2,54966,55396,2,0.8 P,0,54966,55396,A M,0,55023,55081,106.8456,191.5193,126.6911,189.0386 M,0,55081,55139,126.6911,189.0386,146.5367,186.5579 M,0,55139,55196,146.5367,186.5579,166.3822,184.0772
Sprite,Foreground,Centre,"sb\highlight_pierce.png",0,0 R,0,55312,,5.68985 M,0,55312,55412,379.8161,7.174103,48.18393,230.8259 F,2,55312,55512,1,0 V,2,55312,55742,3,2,2,1 P,0,55312,55742,A
Sprite,Foreground,Centre,"sb\highlight.png",0,0 C,0,55312,,99,99,99 M,0,55312,55369,214,119,216.7327,99.18758 F,1,55312,55742,1,0 S,2,55312,55742,2,0.8 P,0,55312,55742,A M,0,55369,55427,216.7327,99.18758,219.4655,79.37515 M,0,55427,55485,219.4655,79.37515,216.7327,99.18758 M,0,55485,55542,216.7327,99.18758,214,119
Sprite,Foreground,Centre,"sb\highlight_pierce.png",0,0 R,0,1428,,4.560808 M,0,1428,1528,462.7997,97.29329,523.2003,492.7067 F,2,1428,1628,1,0 V,2,1428,1858,3,2,2,1 P,0,1428,1858,A
Sprite,Foreground,Centre,"sb\highlight.png",0,0 C,0,1428,,202,202,202 M,0,1428,1485,493,295,503.5447,278.0689 F,1,1428,1858,1,0 S,2,1428,1858,2,0.8 P,0,1428,1858,A M,0,1485,1543,503.5447,278.0689,510.8185,259.5186 M,0,1543,1601,510.8185,259.5186,514.8655,239.9934 M,0,1601,1658,514.8655,239.9934,514.7638,220.0532
Sprite,Foreground,Centre,"sb\highlight_pierce.png",0,0 R,0,1774,,5.132803 M,0,1774,1874,547.6278,-27.58397,384.3722,337.584 F,2,1774,1974,1,0 V,2,1774,2204,3,2,2,1 P,0,1774,2204,A
Sprite,Foreground,Centre,"sb\highlight.png",0,0 C,0,1774,,202,202,202 M,0,1774,1831,466,155,463.7914,135.1223 F,1,1774,2204,1,0 S,2,1774,2204,2,0.8 P,0,1774,2204,A M,0,1831,1889,463.7914,135.1223,461.5827,115.2446 M,0,1889,1947,461.5827,115.2446,463.7914,135.1223 M,0,1947,2004,463.7914,135.1223,466,155
Sprite,Foreground,Centre,"sb\highlight_pierce.png",0,0 R,0,2235,,4.823183 M,0,2235,2335,375.1134,17.22627,330.8866,414.7737 F,2,2235,2435,1,0 V,2,2235,2665,3,2,2,1 P,0,2235,2665,A
Sprite,Foreground,Centre,"sb\highlight.png",0,0 C,0,2235,,202,202,202 M,0,2235,2292,353,216,333.1223,213.7914 F,1,2235,2665,1,0 S,2,2235,2665,2,0.8 P,0,2235,2665,A M,0,2292,2350,333.1223,213.7914,313.2447,211.5827 M,0,2350,2408,313.2447,211.5827,293.367,209.3741 M,0,2408,2465,293.367,209.3741,273.4893,207.1655
Sprite,Foreground,Centre,"sb\highlight_pierce.png",0,0 R,0,2697,,3.505252 M,0,2697,2797,-28.92027,77.8606,344.9203,220.1394 F,2,2697,2897,1,0 V,2,2697,2897,3,2,2,1 P,0,2697,2897,A
Sprite,Foreground,Centre,"sb\highlight.png",158,149 C,0,2697,,202,202,202 F,1,2697,2897,1,0 S,2,2697,2897,2,0.8 P,0,2697,2897,A
Sprite,Foreground,Centre,"sb\highlight_pierce.png",0,0 R,0,2812,,1.293888 M,0,2812,2912,290.6766,325.381,181.3234,-59.38106 F,2,2812,3012,1,0 V,2,2812,3242,3,2,2,1 P,0,2812,3242,A
Sprite,Foreground,Centre,"sb\highlight.png",0,0 C,0,2812,,202,202,202 M,0,2812,2869,236,133,255.8777,130.7914 F,1,2812,3242,1,0 S,2,2812,3242,2,0.8 P,0,2812,3242,A M,0,2869,2927,255.8777,130.7914,275.7553,128.5827 M,0,2927,2985,275.7553,128.5827,295.633,126.3741 M,0,2985,3042,295.633,126.3741,315.5107,124.1655
Sprite,Foreground,Centre,"sb\highlight_pierce.png",0,0 R,0,3274,,3.509797 M,0,3274,3374,258.4049,8.011932,631.5951,151.9881 F,2,3274,3474,1,0 V,2,3274,3704,3,2,2,1 P,0,3274,3704,A
Sprite,Foreground,Centre,"sb\highlight.png",0,0 C,0,3274,,99,99,99 M,0,3274,3331,445,80,444.149,99.91435 F,1,3274,3704,1,0 S,2,3274,3704,2,0.8 P,0,3274,3704,A M,0,3331,3389,444.149,99.91435,447.4901,119.5371 M,0,3389,3447,447.4901,119.5371,454.868,138.0062 M,0,3447,3504,454.868,138.0062,465,154
Sprite,Foreground,Centre,"sb\highlight_pierce.png",0,0 R,0,3620,,5.68985 M,0,3620,3720,688.816,98.1741,357.1839,321.8259 F,2,3620,3820,1,0 V,2,3620,4050,3,2,2,1 P,0,3620,4050,A
Sprite,Foreground,Centre,"sb\highlight.png",0,0 C,0,3620,,99,99,99 M,0,3620,3677,523,210,521.3728,229.9337 F,1,3620,4050,1,0 S,2,3620,4050,2,0.8 P,0,3620,4050,A M,0,3677,3735,521.3728,229.9337,519.7455,249.8674 M,0,3735,3793,519.7455,249.8674,521.3728,229.9337 M,0,3793,3850,521.3728,229.9337,523,210
Sprite,Foreground,Centre,"sb\highlight_pierce.png",0,0 R,0,4081,,2.776877 M,0,4081,4181,256.155,381.3367,629.845,238.6633 F,2,4081,4281,1,0 V,2,4081,4511,3,2,2,1 P,0,4081,4511,A
Sprite,Foreground,Centre,"sb\highlight.png",0,0 C,0,4081,,99,99,99 M,0,4081,4138,443,310,441.5042,290.056 F,1,4081,4511,1,0 S,2,4081,4511,2,0.8 P,0,4081,4511,A M,0,4138,4196,441.5042,290.056,440.0084,270.112 M,0,4196,4254,440.0084,270.112,438.5126,250.168 M,0,4254,4311,438.5126,250.168,437.0168,230.2241
Sprite,Foreground,Centre,"sb\highlight_pierce.png",0,0 R,0,4543,,6.139012 M,0,4543,4643,515.925,249.2652,120.075,306.7348 F,2,4543,4743,1,0 V,2,4543,4743,3,2,2,1 P,0,4543,4743,A
Sprite,Foreground,Centre,"sb\highlight.png",318,278 C,0,4543,,99,99,99 F,1,4543,4743,1,0 S,2,4543,4743,2,0.8 P,0,4543,4743,A
Sprite,Foreground,Centre,"sb\highlight_pierce.png",0,0 R,0,4658,,1.718864 M,0,4658,4758,222.4946,519.8116,281.5054,124.1884 F,2,4658,4858,1,0 V,2,4658,5088,3,2,2,1 P,0,4658,5088,A
Sprite,Foreground,Centre,"sb\highlight.png",0,0 C,0,4658,,99,99,99 M,0,4658,4715,252,322,232.0552,320.5147 F,1,4658,5088,1,0 S,2,4658,5088,2,0.8 P,0,4658,5088,A M,0,4715,4773,232.0552,320.5147,212.1104,319.0295 M,0,4773,4831,212.1104,319.0295,192.1657,317.5443 M,0,4831,4888,192.1657,317.5443,172.2209,316.059
Sprite,Foreground,Centre,"sb\highlight_pierce.png",0,0 R,0,5120,,1.833171 M,0,5120,5220,205.125,605.1553,308.875,218.8447 F,2,5120,5320,1,0 V,2,5120,5550,3,2,2,1 P,0,5120,5550,A
Sprite,Foreground,Centre,"sb\highlight.png",0,0 C,0,5120,,202,202,202 M,0,5120,5177,257,412,273.746,401.2953 F,1,5120,5550,1,0 S,2,5120,5550,2,0.8 P,0,5120,5550,A M,0,5177,5235,273.746,401.2953,292.716,395.5064 M,0,5235,5293,292.716,395.5064,312.5196,395.0196 M,0,5293,5350,312.5196,395.0196,331.8051,399.9282
Sprite,Foreground,Centre,"sb\highlight_pierce.png",0,0 R,0,5466,,2.934736 M,0,5466,5566,197.2637,388.0769,588.7363,305.9231 F,2,5466,5666,1,0 V,2,5466,5896,3,2,2,1 P,0,5466,5896,A
Sprite,Foreground,Centre,"sb\highlight.png",0,0 C,0,5466,,202,202,202 M,0,5466,5523,393,347,404.2371,363.5023 F,1,5466,5896,1,0 S,2,5466,5896,2,0.8 P,0,5466,5896,A M,0,5523,5581,404.2371,363.5023,412,381 M,0,5581,5639,412,381,404.2371,363.5023 M,0,5639,5696,404.2371,363.5023,393,347
Sprite,Foreground,Centre,"sb\highlight_pierce.png",0,0 R,0,5928,,3.973099 M,0,5928,6028,366.2473,268.2106,635.7527,563.7894 F,2,5928,6128,1,0 V,2,5928,6358,3,2,2,1 P,0,5928,6358,A
Sprite,Foreground,Centre,"sb\highlight.png",0,0 C,0,5928,,202,202,202 M,0,5928,5985,501,416,502.9901,396.0992 F,1,5928,6358,1,0 S,2,5928,6358,2,0.8 P,0,5928,6358,A M,0,5985,6043,502.9901,396.0992,504.9802,376.1985 M,0,6043,6101,504.9802,376.1985,506.9702,356.2978 M,0,6101,6158,506.9702,356.2978,508.9603,336.397
Sprite,Foreground,Centre,"sb\highlight_pierce.png",0,0 R,0,6389,,2.948534 M,0,6389,6489,203.7156,306.3722,596.2844,229.6278 F,2,6389,6589,1,0 V,2,6389,6589,3,2,2,1 P,0,6389,6589,A
Sprite,Foreground,Centre,"sb\highlight.png",400,268 C,0,6389,,202,202,202 F,1,6389,6589,1,0 S,2,6389,6589,2,0.8 P,0,6389,6589,A
Sprite,Foreground,Centre,"sb\highlight_pierce.png",0,0 R,0,6504,,6.16791 M,0,6504,6604,524.6726,274.996,127.3274,321.004 F,2,6504,6704,1,0 V,2,6504,6934,3,2,2,1 P,0,6504,6934,A
Sprite,Foreground,Centre,"sb\highlight.png",0,0 C,0,6504,,202,202,202 M,0,6504,6561,326,298,312.0688,283.7452 F,1,6504,6934,1,0 S,2,6504,6934,2,0.8 P,0,6504,6934,A M,0,6561,6619,312.0688,283.7452,301.3403,266.9777 M,0,6619,6677,301.3403,266.9777,294.0333,248.4544 M,0,6677,6734,294.0333,248.4544,291.1503,228.7469
Sprite,Foreground,Centre,"sb\highlight_pierce.png",0,0 R,0,6966,,0.1907047 M,0,6966,7066,428.3742,151.9102,35.62582,76.08983 F,2,6966,7166,1,0 V,2,6966,7396,3,2,2,1 P,0,6966,7396,A
Sprite,Foreground,Centre,"sb\highlight.png",0,0 C,0,6966,,99,99,99 M,0,6966,7023,232,114,228.4388,133.6804 F,1,6966,7396,1,0 S,2,6966,7396,2,0.8 P,0,6966,7396,A M,0,7023,7081,228.4388,133.6804,224.8776,153.3608 M,0,7081,7139,224.8776,153.3608,221.3164,173.0412 M,0,7139,7196,221.3164,173.0412,217.7551,192.7216
Sprite,Foreground,Centre,"sb\highlight_pierce.png",0,0 R,0,7312,,5.415685 M,0,7312,7412,306.347,109.457,47.65302,414.543 F,2,7312,7512,1,0 V,2,7312,7742,3,2,2,1 P,0,7312,7742,A
Sprite,Foreground,Centre,"sb\highlight.png",0,0 C,0,7312,,99,99,99 M,0,7312,7369,177,262,179.4378,281.8509 F,1,7312,7742,1,0 S,2,7312,7742,2,0.8 P,0,7312,7742,A M,0,7369,7427,179.4378,281.8509,181.8757,301.7017 M,0,7427,7485,181.8757,301.7017,179.4378,281.8509 M,0,7485,7542,179.4378,281.8509,177,262
Sprite,Foreground,Centre,"sb\highlight_pierce.png",0,0 R,0,7774,,6.25078 M,0,7774,7874,282.895,166.52,-116.895,179.48 F,2,7774,7974,1,0 V,2,7774,7974,3,2,2,1 P,0,7774,7974,A
Sprite,Foreground,Centre,"sb\highlight.png",83,173 C,0,7774,,99,99,99 F,1,7774,7974,1,0 S,2,7774,7974,2,0.8 P,0,7774,7974,A
//Storyboard Layer 4 (Overlay)
//Storyboard Sound Samples

[TimingPoints]
505,461.538461538462,4,2,1,60,1,0
505,-125,4,2,1,60,0,0
1428,461.538461538462,4,2,1,60,1,0
1428,-125,4,2,1,60,0,0
2697,-125,4,2,3,60,0,0
2812,-125,4,2,1,60,0,0
2928,-125,4,2,3,60,0,0
3043,-125,4,2,1,60,0,0
3274,-125,4,2,3,60,0,0
3620,-125,4,2,1,60,0,0
4543,-125,4,2,3,60,0,0
4658,-125,4,2,1,60,0,0
4774,-125,4,2,3,60,0,0
4889,-125,4,2,1,60,0,0
5120,-125,4,2,3,60,0,0
5466,-125,4,2,1,60,0,0
6389,-125,4,2,3,60,0,0
6504,-125,4,2,1,60,0,0
6620,-125,4,2,3,60,0,0
6735,-125,4,2,1,60,0,0
6966,-125,4,2,3,60,0,0
7197,-125,4,2,1,60,0,0
7774,-125,4,2,2,60,0,0
7889,-125,4,2,1,60,0,0
8812,-100,4,2,1,80,0,0
23581,-125,4,2,1,60,0,0
25081,-125,4,2,3,60,0,0
25197,-125,4,2,1,60,0,0
25428,-125,4,2,3,60,0,0
25658,-125,4,2,1,60,0,0
26928,-125,4,2,3,60,0,0
27043,-125,4,2,1,60,0,0
27274,-125,4,2,3,60,0,0
27504,-125,4,2,1,60,0,0
28543,-125,4,2,3,60,0,0
28658,-125,4,2,1,60,0,0
28774,-125,4,2,3,60,0,0
28889,-125,4,2,1,60,0,0
29120,-125,4,2,3,60,0,0
29351,-125,4,2,1,60,0,0
29466,-125,4,2,3,60,0,0
29581,-125,4,2,1,60,0,0
29928,-125,4,2,2,60,0,0
30389,-125,4,2,99,60,0,0
30966,-125,4,2,1,65,0,0
32235,-125,4,2,3,65,0,0
32351,-125,4,2,1,65,0,0
32812,-125,4,2,3,65,0,0
32928,-125,4,2,1,65,0,0
34081,-125,4,2,3,65,0,0
34197,-125,4,2,1,65,0,0
34658,-125,4,2,3,65,0,0
34774,-125,4,2,1,65,0,0
35928,-125,4,2,3,65,0,0
36043,-125,4,2,1,65,0,0
36504,-125,4,2,3,65,0,0
36735,-125,4,2,1,65,0,0
37312,-125,4,2,2,65,0,0
37774,-125,4,2,99,65,0,0
38351,-125,4,2,1,70,0,0
39274,-125,4,2,4,70,0,0
39620,-125,4,2,1,70,0,0
41120,-125,4,2,4,70,0,0
41466,-125,4,2,1,70,0,0
42966,-125,4,2,4,70,0,0
43312,-125,4,2,1,70,0,0
44812,-125,4,2,4,70,0,0
45274,-125,4,2,1,70,0,0
46658,-125,4,2,4,70,0,0
47004,-125,4,2,1,70,0,0
48504,-125,4,2,4,70,0,0
48851,-125,4,2,1,70,0,0
50351,-125,4,2,4,70,0,0
50697,-125,4,2,1,70,0,0
52197,-125,4,2,4,70,0,0
53120,-125,4,2,1,60,0,0
54389,-125,4,2,3,60,0,0
54504,-125,4,2,1,60,0,0
54620,-125,4,2,3,60,0,0
54735,-125,4,2,1,60,0,0
54966,-125,4,2,3,60,0,0
55312,-125,4,2,1,60,0,0
56812,461.538461538462,4,2,1,80,1,0
56812,-100,4,2,1,80,0,1
57735,-100,4,2,3,80,0,1
57966,-100,4,2,1,80,0,1
59581,-100,4,2,3,80,0,1
59812,-100,4,2,1,80,0,1
61428,-100,4,2,3,80,0,1
61658,-100,4,2,1,80,0,1
63274,-100,4,2,3,80,0,1
63504,-100,4,2,1,80,0,1
65120,-100,4,2,3,80,0,1
65351,-100,4,2,1,80,0,1
66966,-100,4,2,3,80,0,1
67197,-100,4,2,1,80,0,1
68812,-100,4,2,3,80,0,1
69043,-100,4,2,1,80,0,1
70658,-100,4,2,3,80,0,1
70774,-100,4,2,1,80,0,1
71581,-100,4,2,1,80,0,0
86351,-125,4,2,1,60,0,0
87620,-125,4,2,3,60,0,0
87735,-125,4,2,1,60,0,0
87851,-125,4,2,3,60,0,0
87966,-125,4,2,1,60,0,0
88197,-125,4,2,3,60,0,0
88428,-125,4,2,1,60,0,0
89466,-125,4,2,3,60,0,0
89581,-125,4,2,1,60,0,0
89697,-125,4,2,3,60,0,0
89812,-125,4,2,1,60,0,0
90043,-125,4,2,3,60,0,0
90274,-125,4,2,1,60,0,0
91312,-125,4,2,3,60,0,0
91428,-125,4,2,1,60,0,0
91543,-125,4,2,3,60,0,0
91658,-125,4,2,1,60,0,0
91889,-125,4,2,3,60,0,0
92120,-125,4,2,1,60,0,0
92697,-125,4,2,2,60,0,0
93158,-125,4,2,99,60,0,0
93735,-125,4,2,1,65,0,0
95004,-125,4,2,3,65,0,0
95120,-125,4,2,1,65,0,0
95235,-125,4,2,3,65,0,0
95351,-125,4,2,1,65,0,0
95581,-125,4,2,3,65,0,0
95928,-125,4,2,1,65,0,0
96851,-125,4,2,3,65,0,0
96966,-125,4,2,1,65,0,0
97428,-125,4,2,3,65,0,0
97774,-125,4,2,1,65,0,0
98697,-125,4,2,3,65,0,0
98812,-125,4,2,1,65,0,0
99274,-125,4,2,3,65,0,0
99504,-125,4,2,1,65,0,0
100081,-125,4,2,2,65,0,0
100543,-125,4,2,99,65,0,0
101120,-125,4,2,1,70,0,0
102043,-125,4,2,4,70,0,0
102389,-125,4,2,1,70,0,0
103889,-125,4,2,4,70,0,0
104235,-125,4,2,1,70,0,0
105735,-125,4,2,4,70,0,0
106081,-125,4,2,1,70,0,0
107581,-125,4,2,4,70,0,0
108043,-125,4,2,1,70,0,0
109428,-125,4,2,4,70,0,0
109774,-125,4,2,1,70,0,0
111274,-125,4,2,4,70,0,0
111620,-125,4,2,1,70,0,0
113120,-125,4,2,4,70,0,0
113466,-125,4,2,1,70,0,0
115428,-125,4,2,1,65,0,0
115543,-125,4,2,1,60,0,0
115658,-125,4,2,1,55,0,0
115774,-125,4,2,1,50,0,0
115889,-125,4,2,1,70,0,0
116812,-125,4,2,4,70,0,0
116928,-125,4,2,1,70,0,0
118658,-125,4,2,4,70,0,0
118774,-125,4,2,1,70,0,0
120504,-125,4,2,4,70,0,0
120620,-125,4,2,1,70,0,0
122351,-125,4,2,4,70,0,0
122466,-125,4,2,1,70,0,0
124197,-125,4,2,4,70,0,0
124312,-125,4,2,1,70,0,0
126043,-125,4,2,4,70,0,0
126158,-125,4,2,1,70,0,0
127889,-125,4,2,4,70,0,0
128004,-125,4,2,1,70,0,0
129735,-125,4,2,1,80,0,0
130658,-100,4,2,1,80,0,1
131581,-100,4,2,3,80,0,1
131812,-100,4,2,1,80,0,1
133428,-100,4,2,3,80,0,1
133658,-100,4,2,1,80,0,1
135274,-100,4,2,3,80,0,1
135504,-100,4,2,1,80,0,1
137120,-100,4,2,3,80,0,1
137351,-100,4,2,1,80,0,1
138966,-100,4,2,3,80,0,1
139197,-100,4,2,1,80,0,1
140812,-100,4,2,3,80,0,1
141043,-100,4,2,1,80,0,1
142658,-100,4,2,3,80,0,1
142889,-100,4,2,1,80,0,1
144504,-100,4,2,3,80,0,1
144620,-100,4,2,1,80,0,1
144965,-100,4,2,1,80,0,0
152812,-100,4,2,1,80,0,1
153735,-100,4,2,3,80,0,1
153966,-100,4,2,1,80,0,1
155581,-100,4,2,3,80,0,1
155812,-100,4,2,1,80,0,1
157428,-100,4,2,3,80,0,1
157658,-100,4,2,1,80,0,1
159274,-100,4,2,3,80,0,1
159389,-100,4,2,1,80,0,1
160196,-125,4,2,1,60,0,0
160428,-125,4,2,3,60,0,0
160543,-125,4,2,1,60,0,0
161466,-125,4,2,3,60,0,0
161581,-125,4,2,1,60,0,0
161697,-125,4,2,3,60,0,0
161812,-125,4,2,1,60,0,0
162043,-125,4,2,3,60,0,0
162158,-125,4,2,1,60,0,0
163312,-125,4,2,3,60,0,0
163428,-125,4,2,1,60,0,0
163543,-125,4,2,3,60,0,0
163658,-125,4,2,1,60,0,0
163889,-125,4,2,3,60,0,0
164004,-125,4,2,1,60,0,0
165158,-125,4,2,3,60,0,0
165274,-125,4,2,1,60,0,0
165389,-125,4,2,3,60,0,0
165504,-125,4,2,1,60,0,0
165735,-125,4,2,3,60,0,0
165851,-125,4,2,1,60,0,0
166543,-125,4,2,2,60,0,0
167697,-125,4,2,1,60,0,0
168851,-125,4,2,3,60,0,0
168966,-125,4,2,1,60,0,0
169081,-125,4,2,3,60,0,0
169197,-125,4,2,1,60,0,0
169428,-125,4,2,3,60,0,0
169774,-125,4,2,1,60,0,0
170697,-125,4,2,3,60,0,0
170812,-125,4,2,1,60,0,0
170928,-125,4,2,3,60,0,0
171043,-125,4,2,1,60,0,0
171274,-125,4,2,3,60,0,0
171620,-125,4,2,1,60,0,0
172543,-125,4,2,3,60,0,0
172658,-125,4,2,1,60,0,0
172774,-125,4,2,3,60,0,0
172889,-125,4,2,1,60,0,0
173120,-125,4,2,3,60,0,0
173235,-125,4,2,1,60,0,0
173928,-125,4,2,2,60,0,0

[Colours]
Combo1 : 255,98,98
Combo2 : 99,99,99
Combo3 : 202,202,202
Combo4 : 255,74,74

[HitObjects]
241,217,505,6,0,L|280:213,2,40,8|8|8,0:0|0:3|0:3,0:0:0:0:
174,261,851,2,0,L|135:251,2,40,10|8|10,0:3|0:0|0:1,0:0:0:0:
360,199,1312,1,8,0:0:0:0:
429,239,1428,6,0,P|447:204|449:151,1,80,12|8,0:1|0:1,0:0:0:0:
402,99,1774,2,0,L|397:54,2,40,8|8|10,0:1|0:0|0:1,0:0:0:0:
289,160,2235,2,0,L|208:151,1,80,8|8,0:1|0:1,0:0:0:0:
94,93,2697,1,10,0:0:0:0:
172,77,2812,2,0,L|253:68,1,80,8|2,0:0|0:1,0:0:0:0:
381,24,3274,38,0,P|383:63|401:98,1,80,10|10,0:0|0:0,0:0:0:0:
459,154,3620,2,0,L|455:203,2,40,8|8|10,0:1|0:0|0:1,0:0:0:0:
379,254,4081,2,0,L|373:174,1,80,8|8,0:1|0:1,0:0:0:0:
254,222,4543,1,10,0:0:0:0:
188,266,4658,2,0,L|94:259,1,80,8|2,0:0|0:1,0:0:0:0:
193,356,5120,6,0,P|229:339|268:344,1,80,10|10,0:0|0:0,0:0:0:0:
329,291,5466,2,0,P|340:307|348:325,2,40,8|8|2,0:1|0:0|0:1,0:0:0:0:
437,360,5928,2,0,L|445:280,1,80,8|8,0:1|0:1,0:0:0:0:
336,212,6389,1,10,0:0:0:0:
262,242,6504,2,0,P|238:213|227:161,1,80,8|2,0:0|0:1,0:0:0:0:
168,58,6966,38,0,L|149:163,1,80,10|8,0:0|0:1,0:0:0:0:
113,206,7312,2,0,L|120:263,2,40,8|8|2,0:1|0:0|0:1,0:0:0:0:
19,117,7774,1,12,0:0:0:0:
164,175,8812,6,0,L|219:167,1,50,12|8,0:1|0:1,0:0:0:0:
286,201,9043,1,8,0:1:0:0:
429,129,9274,1,12,0:0:0:0:
487,183,9389,2,0,P|506:228|499:277,2,100,8|8|8,0:1|0:1|0:1,0:0:0:0:
399,317,10081,1,8,0:1:0:0:
333,270,10197,2,0,L|225:261,1,100,12|8,0:0|0:1,0:0:0:0:
115,370,10658,38,0,L|104:311,1,50,12|8,0:1|0:1,0:0:0:0:
85,243,10889,1,8,0:1:0:0:
204,136,11120,1,12,0:0:0:0:
137,91,11235,2,0,P|154:44|192:13,2,100,8|8|8,0:1|0:1|0:1,0:0:0:0:
275,172,11928,1,8,0:1:0:0:
331,116,12043,2,0,L|442:106,1,100,12|8,0:0|0:1,0:0:0:0:
494,253,12504,6,0,L|428:245,1,50,12|8,0:1|0:1,0:0:0:0:
369,275,12735,1,8,0:1:0:0:
223,208,12966,1,12,0:0:0:0:
267,273,13081,2,0,P|282:315|276:383,2,100,8|8|8,0:1|0:1|0:1,0:0:0:0:
129,356,13774,1,8,0:1:0:0:
79,293,13889,2,0,P|78:243|99:198,1,100,12|8,0:0|0:1,0:0:0:0:
212,84,14351,38,0,L|219:145,1,50,12|8,0:1|0:1,0:0:0:0:
180,204,14581,1,8,0:1:0:0:
294,91,14812,1,12,0:0:0:0:
344,153,14928,2,0,L|451:165,2,100,8|8|8,0:1|0:1|0:1,0:0:0:0:
180,204,15620,1,8,0:1:0:0:
250,240,15735,22,0,P|284:221|312:216,1,50,8|8,0:0|0:0,0:0:0:0:
308,297,15966,2,0,P|331:305|352:318,1,50,8|8,0:0|0:0,0:0:0:0:
227,323,16197,38,0,L|172:319,1,50,12|8,0:1|0:1,0:0:0:0:
106,358,16428,1,8,0:1:0:0:
21,222,16658,1,12,0:0:0:0:
75,162,16774,2,0,L|194:145,2,100,8|8|8,0:1|0:1|0:1,0:0:0:0:
191,51,17466,1,8,0:1:0:0:
267,30,17581,2,0,P|316:32|360:55,1,100,12|8,0:0|0:1,0:0:0:0:
330,234,18043,38,0,L|323:172,1,50,12|8,0:1|0:1,0:0:0:0:
274,121,18274,1,8,0:1:0:0:
410,203,18504,1,12,0:0:0:0:
395,282,18620,2,0,P|448:274|484:237,2,100,8|8|8,0:1|0:1|0:1,0:0:0:0:
242,331,19312,1,8,0:1:0:0:
192,269,19428,2,0,L|204:157,1,100,12|8,0:0|0:1,0:0:0:0:
42,165,19889,6,0,L|35:98,1,50,12|8,0:1|0:1,0:0:0:0:
77,46,20120,1,8,0:1:0:0:
115,201,20351,1,12,0:0:0:0:
49,246,20466,2,0,P|26:270|8:346,2,100,8|8|8,0:1|0:1|0:1,0:0:0:0:
202,292,21158,1,8,0:1:0:0:
259,347,21274,2,0,L|362:336,1,100,12|8,0:0|0:1,0:0:0:0:
487,241,21735,38,0,L|422:232,1,50,12|8,0:1|0:1,0:0:0:0:
357,223,21966,1,8,0:1:0:0:
463,102,22197,1,12,0:0:0:0:
413,39,22312,2,0,P|364:40|304:70,2,100,8|8|8,0:1|0:1|0:1,0:0:0:0:
283,133,23004,1,8,0:1:0:0:
236,67,23120,2,0,L|241:17,1,50,12|8,0:0|0:0,0:0:0:0:
155,81,23351,2,0,L|150:31,1,50,8|8,0:0|0:0,0:0:0:0:
88,127,23581,5,12,0:1:0:0:
88,127,23812,2,0,L|35:123,1,40,8|8,0:1|0:1,0:0:0:0:
1,189,24043,1,8,0:0:0:0:
77,212,24158,2,0,L|173:196,2,80,10|8|8,0:1|0:1|0:1,0:0:0:0:
21,270,24735,1,2,0:1:0:0:
131,335,24966,2,0,L|136:375,2,40,8|10|2,0:0|0:0|0:1,0:0:0:0:
227,249,25428,37,10,0:0:0:0:
227,249,25658,2,0,L|281:256,1,40,8|8,0:1|0:1,0:0:0:0:
323,311,25889,1,8,0:0:0:0:
343,233,26004,2,0,L|332:143,2,80,10|8|8,0:1|0:1|0:1,0:0:0:0:
401,287,26581,1,2,0:1:0:0:
459,172,26812,2,0,L|465:128,2,40,8|10|10,0:0|0:0|0:1,0:0:0:0:
333,153,27274,6,0,L|248:143,1,80,10|8,0:0|0:1,0:0:0:0:
176,165,27620,1,8,0:1:0:0:
198,88,27735,2,0,L|189:42,3,40,8|10|0|8,0:0|0:1|0:0|0:1,0:0:0:0:
112,68,28197,2,0,L|119:107,3,40,0|8|2|10,0:0|0:1|0:0|0:0,0:0:0:0:
96,183,28658,2,0,L|86:234,3,40,8|10|2|0,0:0|0:0|0:1|0:0,0:0:0:0:
172,231,29120,37,10,0:0:0:0:
172,231,29351,2,0,L|181:188,1,40,8|10,0:1|0:0,0:0:0:0:
259,199,29581,2,0,P|295:198|342:179,1,80,8|0,0:0|0:0,0:0:0:0:
414,204,29928,2,0,P|409:257|196:356,1,320,12|0,0:0|0:0,0:0:0:0:
141,299,30966,6,0,L|157:216,1,80,12|8,0:1|0:1,0:0:0:0:
232,198,31312,2,0,L|225:144,1,40,8|8,0:1|0:0,0:0:0:0:
164,107,31543,2,0,P|141:86|121:26,2,80,10|8|8,0:1|0:1|0:1,0:0:0:0:
239,78,32120,2,0,L|291:71,1,40,2|10,0:0|0:0,0:0:0:0:
331,11,32351,2,0,L|383:17,2,40,8|8|2,0:0|0:1|0:1,0:0:0:0:
414,115,32812,37,10,0:0:0:0:
414,115,33043,2,0,L|405:164,1,40,8|8,0:1|0:1,0:0:0:0:
353,214,33274,1,8,0:0:0:0:
398,279,33389,2,0,P|430:293|484:291,2,80,10|8|8,0:1|0:1|0:1,0:0:0:0:
319,286,33966,2,0,L|279:294,2,40,2|10|8,0:0|0:0|0:0,0:0:0:0:
371,354,34312,1,8,0:1:0:0:
371,354,34428,1,2,0:1:0:0:
243,365,34658,6,0,L|160:353,1,80,10|8,0:0|0:1,0:0:0:0:
121,285,35004,2,0,P|139:276|158:274,1,40,8|8,0:1|0:0,0:0:0:0:
226,231,35235,2,0,P|242:191|241:141,2,80,10|8|8,0:1|0:1|0:1,0:0:0:0:
299,264,35812,2,0,L|304:303,1,40,2|10,0:0|0:0,0:0:0:0:
383,288,36043,2,0,L|377:248,2,40,8|8|2,0:0|0:1|0:1,0:0:0:0:
505,244,36504,37,10,0:0:0:0:
505,244,36735,2,0,L|451:234,1,40,8|8,0:1|0:1,0:0:0:0:
411,177,36966,2,0,P|380:156|355:112,1,80,8|0,0:0|0:0,0:0:0:0:
278,118,37312,2,0,P|149:100|33:236,1,320,12|0,0:0|0:0,0:0:0:0:
102,272,38351,6,0,L|113:358,1,80,12|0,0:1|0:0,0:0:0:0:
188,375,38697,2,0,L|198:295,1,80,8|0,0:1|0:0,0:0:0:0:
211,216,39043,1,8,0:1:0:0:
275,326,39274,2,0,P|321:359|389:368,1,120,10|0,0:1|0:0,0:0:0:0:
456,337,39735,1,2,0:0:0:0:
356,159,40197,38,0,L|276:170,1,80,12|0,0:1|0:0,0:0:0:0:
211,216,40543,2,0,L|132:205,1,80,8|2,0:1|0:0,0:0:0:0:
52,188,40889,1,8,0:1:0:0:
71,314,41120,2,0,P|120:292|187:297,1,120,10|0,0:1|0:0,0:0:0:0:
242,351,41581,1,2,0:0:0:0:
404,239,42043,6,0,P|397:199|375:167,1,80,12|0,0:1|0:0,0:0:0:0:
302,133,42389,2,0,L|314:48,1,80,8|0,0:1|0:0,0:0:0:0:
253,0,42735,1,8,0:1:0:0:
163,92,42966,2,0,L|43:104,1,120,10|0,0:1|0:0,0:0:0:0:
4,174,43428,1,2,0:0:0:0:
252,199,43889,38,0,L|244:283,1,80,12|0,0:1|0:0,0:0:0:0:
164,274,44235,2,0,L|171:353,1,80,8|0,0:1|0:0,0:0:0:0:
248,376,44581,1,8,0:1:0:0:
363,341,44812,1,10,0:1:0:0:
363,341,45274,2,0,L|415:349,2,40,8|8|8,0:0|0:3|0:3,0:0:0:0:
311,278,45620,1,8,0:3:0:0:
389,266,45735,6,0,P|384:223|358:178,1,80,12|0,0:1|0:0,0:0:0:0:
288,201,46081,2,0,L|206:191,1,80,8|0,0:1|0:0,0:0:0:0:
150,248,46428,1,8,0:1:0:0:
61,155,46658,2,0,P|51:209|83:281,1,120,10|0,0:1|0:0,0:0:0:0:
128,327,47120,1,2,0:0:0:0:
181,116,47581,38,0,P|195:79|193:39,1,80,12|0,0:1|0:0,0:0:0:0:
273,31,47928,2,0,P|280:72|306:107,1,80,8|0,0:1|0:0,0:0:0:0:
352,40,48274,1,8,0:1:0:0:
452,118,48504,2,0,P|451:58|423:6,1,120,10|0,0:1|0:0,0:0:0:0:
352,40,48966,1,2,0:0:0:0:
192,118,49428,6,0,L|106:107,1,80,12|0,0:1|0:0,0:0:0:0:
102,187,49774,2,0,L|182:198,1,80,8|0,0:1|0:0,0:0:0:0:
261,207,50120,1,8,0:1:0:0:
368,277,50351,2,0,L|248:290,1,120,10|0,0:1|0:0,0:0:0:0:
233,368,50812,1,2,0:0:0:0:
42,250,51274,38,0,P|24:216|18:162,1,80,12|0,0:1|0:0,0:0:0:0:
87,135,51620,2,0,L|94:55,1,80,8|0,0:1|0:0,0:0:0:0:
165,16,51966,1,8,0:1:0:0:
269,89,52197,1,10,0:1:0:0:
435,268,53120,6,0,L|339:261,1,80,12|8,0:1|0:1,0:0:0:0:
283,298,53466,2,0,L|240:304,2,40,8|8|10,0:1|0:0|0:1,0:0:0:0:
343,184,53928,2,0,P|310:163|271:156,1,80,8|8,0:1|0:1,0:0:0:0:
184,250,54389,1,10,0:0:0:0:
105,238,54504,2,0,L|66:230,2,40,8|10|2,0:0|0:0|0:1,0:0:0:0:
23,138,54966,38,0,L|103:128,1,80,10|10,0:0|0:0,0:0:0:0:
150,63,55312,2,0,L|158:5,2,40,8|8|10,0:1|0:0|0:1,0:0:0:0:
263,124,55774,1,12,0:0:0:0:
378,258,56812,22,0,L|328:251,1,50,12|8,0:1|0:1,0:0:0:0:
255,283,57043,1,8,0:1:0:0:
107,345,57274,2,0,L|126:294,1,50,12|0,0:0|0:0,0:0:0:0:
54,260,57504,2,0,L|35:209,1,50,8|0,0:1|0:0,0:0:0:0:
73,141,57735,2,0,P|121:156|174:156,2,100,12|8|12,0:0|0:1|0:0,0:0:0:0:
41,67,58312,2,0,L|36:10,2,50,8|8|8,0:1|0:1|0:1,0:0:0:0:
126,73,58658,5,12,0:1:0:0:
166,42,58774,1,8,0:1:0:0:
215,43,58889,1,8,0:1:0:0:
374,35,59120,2,0,L|383:92,1,50,12|0,0:0|0:0,0:0:0:0:
342,154,59351,2,0,L|351:211,1,50,8|0,0:1|0:0,0:0:0:0:
427,222,59581,2,0,P|457:191|469:129,2,100,12|8|12,0:0|0:1|0:0,0:0:0:0:
409,300,60158,2,0,L|399:352,2,50,8|8|8,0:1|0:1|0:1,0:0:0:0:
330,283,60504,38,0,L|270:290,1,50,12|8,0:1|0:1,0:0:0:0:
213,243,60735,1,8,0:1:0:0:
83,331,60966,2,0,P|118:300|126:284,1,50,12|0,0:0|0:0,0:0:0:0:
77,228,61197,2,0,P|79:181|74:164,1,50,8|0,0:1|0:0,0:0:0:0:
143,131,61428,2,0,L|124:28,2,100,12|8|12,0:0|0:1|0:0,0:0:0:0:
218,155,62004,2,0,L|282:161,2,50,8|8|8,0:1|0:1|0:1,0:0:0:0:
225,235,62351,5,12,0:1:0:0:
188,268,62466,1,8,0:1:0:0:
138,267,62581,1,8,0:1:0:0:
258,372,62812,2,0,L|307:379,1,50,12|0,0:0|0:0,0:0:0:0:
353,312,63043,2,0,L|402:304,1,50,8|0,0:1|0:0,0:0:0:0:
468,349,63274,2,0,P|489:320|485:190,1,150,12|0,0:0|0:0,0:0:0:0:
451,142,63735,2,0,L|457:87,2,50,12|8|8,0:0|0:0|0:0,0:0:0:0:
414,213,64081,1,8,0:0:0:0:
370,145,64197,38,0,L|320:151,1,50,12|8,0:1|0:1,0:0:0:0:
240,158,64428,1,8,0:1:0:0:
302,304,64658,2,0,P|273:273|254:264,1,50,12|0,0:0|0:0,0:0:0:0:
202,317,64889,2,0,P|159:315|139:322,1,50,8|0,0:1|0:0,0:0:0:0:
80,352,65120,2,0,P|40:339|7:273,2,100,12|8|12,0:0|0:1|0:0,0:0:0:0:
87,271,65697,2,0,L|78:213,2,50,8|8|8,0:1|0:1|0:1,0:0:0:0:
152,316,66043,5,12,0:1:0:0:
202,317,66158,1,8,0:1:0:0:
239,350,66274,1,8,0:1:0:0:
398,347,66504,2,0,L|405:297,1,50,12|0,0:0|0:0,0:0:0:0:
336,255,66735,2,0,L|328:205,1,50,8|0,0:1|0:0,0:0:0:0:
389,153,66966,2,0,P|400:119|389:56,2,100,12|8|12,0:0|0:1|0:0,0:0:0:0:
312,128,67543,2,0,P|294:135|263:138,2,50,8|8|8,0:1|0:1|0:1,0:0:0:0:
272,57,67889,38,0,L|218:52,1,50,12|8,0:1|0:1,0:0:0:0:
141,46,68120,1,8,0:1:0:0:
0,78,68351,2,0,P|34:98|46:117,1,50,12|0,0:0|0:0,0:0:0:0:
117,123,68581,2,0,P|126:161|121:183,1,50,8|0,0:1|0:0,0:0:0:0:
69,229,68812,2,0,L|44:344,2,100,12|8|12,0:0|0:1|0:0,0:0:0:0:
147,247,69389,2,0,L|202:237,2,50,8|8|8,0:1|0:1|0:1,0:0:0:0:
124,171,69735,5,12,0:1:0:0:
171,153,69851,1,8,0:1:0:0:
186,105,69966,1,8,0:1:0:0:
322,20,70197,2,0,P|312:51|314:88,1,50,12|0,0:0|0:0,0:0:0:0:
379,109,70428,2,0,L|387:177,1,50,8|0,0:1|0:0,0:0:0:0:
387,239,70658,1,12,0:0:0:0:
441,297,70774,2,0,P|406:326|297:337,1,150,8|8,0:0|0:0,0:0:0:0:
248,282,71235,2,0,L|256:220,2,50,8|8|8,0:0|0:0|0:0,0:0:0:0:
180,324,71581,22,0,L|112:337,1,50,12|8,0:1|0:1,0:0:0:0:
56,303,71812,1,8,0:1:0:0:
180,202,72043,1,12,0:0:0:0:
116,153,72158,2,0,L|6:141,2,100,8|8|8,0:1|0:1|0:1,0:0:0:0:
19,24,72851,1,8,0:1:0:0:
85,68,72966,2,0,P|131:56|182:8,1,100,12|8,0:0|0:1,0:0:0:0:
288,134,73428,38,0,P|269:97|264:75,1,50,12|8,0:1|0:1,0:0:0:0:
297,15,73658,1,8,0:1:0:0:
417,120,73889,1,12,0:0:0:0:
486,80,74004,2,0,P|457:53|386:46,2,100,8|8|8,0:1|0:1|0:1,0:0:0:0:
358,177,74697,1,8,0:1:0:0:
404,241,74812,2,0,L|391:341,1,100,12|8,0:0|0:1,0:0:0:0:
283,220,75274,6,0,L|294:281,1,50,12|8,0:1|0:1,0:0:0:0:
247,335,75504,1,8,0:1:0:0:
97,277,75735,1,12,0:0:0:0:
78,355,75851,2,0,P|32:336|-8:285,2,100,8|8|8,0:1|0:1|0:1,0:0:0:0:
115,199,76543,1,8,0:1:0:0:
56,145,76658,2,0,L|67:43,1,100,12|8,0:0|0:1,0:0:0:0:
217,100,77120,38,0,L|285:91,1,50,12|8,0:1|0:1,0:0:0:0:
344,113,77351,1,8,0:1:0:0:
200,182,77581,1,12,0:0:0:0:
265,228,77697,2,0,L|248:340,2,100,8|8|8,0:1|0:1|0:1,0:0:0:0:
410,159,78389,1,8,0:1:0:0:
487,177,78504,22,0,P|508:216|509:228,1,50,8|8,0:0|0:0,0:0:0:0:
465,98,78735,2,0,P|505:77|516:76,1,50,8|8,0:0|0:0,0:0:0:0:
389,79,78966,38,0,L|330:90,1,50,12|8,0:1|0:1,0:0:0:0:
271,45,79197,1,8,0:1:0:0:
200,182,79428,1,12,0:0:0:0:
138,131,79543,2,0,P|101:111|37:110,2,100,8|8|8,0:1|0:1|0:1,0:0:0:0:
66,274,80235,1,8,0:1:0:0:
117,335,80351,2,0,L|219:326,1,100,12|8,0:0|0:1,0:0:0:0:
354,244,80812,38,0,L|414:252,1,50,12|8,0:1|0:1,0:0:0:0:
469,297,81043,1,8,0:1:0:0:
418,145,81274,1,12,0:0:0:0:
477,91,81389,2,0,P|501:51|497:-21,2,100,8|8|8,0:1|0:1|0:1,0:0:0:0:
334,18,82081,1,8,0:1:0:0:
273,70,82197,2,0,L|164:56,1,100,12|8,0:0|0:1,0:0:0:0:
298,158,82658,6,0,L|237:170,1,50,12|8,0:1|0:1,0:0:0:0:
172,141,82889,1,8,0:1:0:0:
41,233,83120,1,12,0:0:0:0:
100,286,83235,2,0,P|59:309|-7:297,2,100,8|8|8,0:1|0:1|0:1,0:0:0:0:
237,370,83928,1,8,0:1:0:0:
307,332,84043,2,0,P|297:271|266:236,1,100,12|8,0:0|0:1,0:0:0:0:
136,160,84504,38,0,L|128:223,1,50,12|8,0:1|0:1,0:0:0:0:
100,286,84735,1,8,0:1:0:0:
58,131,84966,1,12,0:0:0:0:
119,80,85081,2,0,L|236:68,2,100,8|8|8,0:1|0:1|0:1,0:0:0:0:
271,132,85774,1,8,0:1:0:0:
297,56,85889,2,0,L|314:5,1,50,12|8,0:0|0:0,0:0:0:0:
351,119,86120,2,0,L|399:94,1,50,8|8,0:0|0:0,0:0:0:0:
324,196,86351,5,12,0:1:0:0:
324,196,86581,2,0,L|318:244,1,40,8|8,0:1|0:1,0:0:0:0:
365,301,86812,1,8,0:0:0:0:
402,229,86928,2,0,L|498:218,2,80,10|8|8,0:1|0:1|0:1,0:0:0:0:
365,301,87504,1,2,0:0:0:0:
237,286,87735,2,0,L|197:280,2,40,8|10|2,0:0|0:0|0:1,0:0:0:0:
100,368,88197,37,10,0:0:0:0:
100,368,88428,2,0,L|93:311,1,40,8|8,0:1|0:1,0:0:0:0:
41,269,88658,1,8,0:0:0:0:
119,252,88774,2,0,L|130:156,2,80,10|8|8,0:1|0:1|0:1,0:0:0:0:
172,312,89351,1,2,0:0:0:0:
267,227,89581,2,0,L|275:170,2,40,8|10|2,0:0|0:0|0:1,0:0:0:0:
295,354,90043,6,0,L|390:342,1,80,10|8,0:0|0:1,0:0:0:0:
453,330,90389,1,8,0:1:0:0:
401,269,90504,2,0,L|361:264,3,40,8|10|0|8,0:0|0:1|0:0|0:1,0:0:0:0:
374,185,90966,2,0,L|414:192,3,40,0|8|2|10,0:0|0:1|0:0|0:0,0:0:0:0:
422,112,91428,2,0,L|383:107,3,40,8|10|2|0,0:0|0:0|0:1|0:0,0:0:0:0:
310,135,91889,37,10,0:0:0:0:
309,134,92120,2,0,L|270:130,1,40,8|8,0:1|0:1,0:0:0:0:
233,58,92351,2,0,P|202:80|152:90,1,80,8|0,0:0|0:0,0:0:0:0:
102,142,92697,2,0,P|177:280|339:316,1,320,12|0,0:0|0:0,0:0:0:0:
380,258,93735,6,0,L|388:166,1,80,12|8,0:1|0:1,0:0:0:0:
463,152,94081,2,0,L|453:94,1,40,8|8,0:1|0:0,0:0:0:0:
401,53,94312,2,0,P|375:86|329:108,2,80,10|8|8,0:1|0:1|0:1,0:0:0:0:
336,4,94889,2,0,L|292:0,1,40,2|10,0:0|0:0,0:0:0:0:
235,53,95120,2,0,L|191:49,2,40,8|10|2,0:0|0:0|0:1,0:0:0:0:
296,171,95581,37,10,0:0:0:0:
296,171,95812,2,0,L|241:176,1,40,10|8,0:0|0:1,0:0:0:0:
183,140,96043,1,8,0:0:0:0:
131,201,96158,2,0,P|118:230|112:281,2,80,10|8|8,0:1|0:1|0:1,0:0:0:0:
104,124,96735,2,0,L|96:70,2,40,2|10|8,0:0|0:0|0:0,0:0:0:0:
51,185,97081,1,8,0:1:0:0:
51,185,97196,1,2,0:1:0:0:
161,250,97428,6,0,L|240:256,1,80,10|10,0:0|0:0,0:0:0:0:
284,323,97774,2,0,L|330:318,1,40,8|8,0:1|0:0,0:0:0:0:
396,286,98004,2,0,P|417:307|481:319,2,80,10|8|8,0:1|0:1|0:1,0:0:0:0:
374,208,98581,2,0,L|381:154,1,40,2|10,0:0|0:0,0:0:0:0:
459,172,98812,2,0,L|498:166,2,40,8|8|2,0:0|0:1|0:1,0:0:0:0:
450,48,99274,37,10,0:0:0:0:
450,48,99504,2,0,L|445:87,1,40,8|8,0:1|0:1,0:0:0:0:
364,89,99735,2,0,P|328:103|277:90,1,80,8|0,0:0|0:0,0:0:0:0:
318,23,100081,2,0,P|292:62|31:100,1,320,12|0,0:0|0:0,0:0:0:0:
2,177,101120,6,0,P|32:193|60:241,1,80,12|0,0:1|0:0,0:0:0:0:
135,214,101466,2,0,P|144:246|130:300,1,80,8|0,0:1|0:0,0:0:0:0:
80,350,101812,1,8,0:1:0:0:
206,330,102043,2,0,L|341:340,1,120,10|0,0:1|0:0,0:0:0:0:
405,344,102504,1,2,0:0:0:0:
135,214,102966,38,0,L|214:204,1,80,12|0,0:1|0:0,0:0:0:0:
241,128,103312,2,0,L|320:137,1,80,8|0,0:1|0:0,0:0:0:0:
386,182,103658,1,8,0:1:0:0:
481,96,103889,2,0,P|443:101|361:67,1,120,10|0,0:1|0:0,0:0:0:0:
325,5,104351,1,2,0:0:0:0:
276,251,104812,6,0,P|253:207|248:162,1,80,12|0,0:1|0:0,0:0:0:0:
184,128,105158,2,0,P|161:172|156:217,1,80,8|0,0:1|0:0,0:0:0:0:
83,236,105504,1,8,0:1:0:0:
72,108,105735,2,0,P|116:83|159:17,1,120,10|0,0:1|0:0,0:0:0:0:
235,24,106197,1,2,0:0:0:0:
192,275,106658,38,0,L|208:184,1,80,12|0,0:1|0:0,0:0:0:0:
281,224,107004,2,0,L|359:211,1,80,8|0,0:1|0:0,0:0:0:0:
438,232,107351,1,8,0:1:0:0:
357,132,107581,1,10,0:1:0:0:
357,132,108043,2,0,L|363:85,2,40,8|8|8,0:0|0:3|0:3,0:0:0:0:
359,210,108389,1,8,0:3:0:0:
427,169,108504,6,0,P|463:153|503:152,1,80,12|0,0:1|0:0,0:0:0:0:
480,229,108851,2,0,P|504:263|512:305,1,80,8|0,0:1|0:0,0:0:0:0:
459,361,109197,1,8,0:1:0:0:
351,291,109428,2,0,L|214:274,1,120,10|0,0:1|0:0,0:0:0:0:
152,265,109889,1,2,0:0:0:0:
0,108,110351,38,0,L|85:100,1,80,12|0,0:1|0:0,0:0:0:0:
140,47,110697,2,0,P|166:69|224:83,1,80,8|0,0:1|0:0,0:0:0:0:
282,50,111043,1,8,0:1:0:0:
389,120,111274,2,0,P|332:118|276:146,1,120,10|0,0:1|0:0,0:0:0:0:
264,224,111735,1,2,0:0:0:0:
484,378,112197,6,0,P|499:351|503:299,1,80,12|0,0:1|0:0,0:0:0:0:
425,320,112543,2,0,P|408:294|402:243,1,80,8|0,0:1|0:0,0:0:0:0:
339,196,112889,1,8,0:1:0:0:
223,251,113120,2,0,P|248:220|264:134,1,120,10|0,0:1|0:0,0:0:0:0:
229,71,113581,1,2,0:0:0:0:
512,45,114043,38,0,L|432:39,1,80,12|0,0:1|0:0,0:0:0:0:
430,119,114389,2,0,L|350:124,1,80,8|0,0:1|0:0,0:0:0:0:
308,55,114735,1,8,0:1:0:0:
276,207,114966,6,0,P|279:180|292:153,1,40,12|8,0:0|0:3,0:0:0:0:
199,179,115197,2,0,P|192:160|189:124,1,40,8|8,0:3|0:3,0:0:0:0:
119,194,115428,2,0,L|74:189,2,40,10|8|10,0:3|0:3|0:3,0:0:0:0:
171,255,115774,1,8,0:3:0:0:
93,275,115889,38,0,L|88:363,1,80,14|2,0:1|0:0,0:0:0:0:
213,323,116351,2,0,L|294:315,1,80,2|10,0:1|0:1,0:0:0:0:
346,255,116697,2,0,L|337:170,2,80,2|2|0,0:1|0:0|0:0,0:0:0:0:
370,331,117274,2,0,L|420:335,1,40,2|0,0:1|0:0,0:0:0:0:
457,270,117504,2,0,L|496:266,1,40,2|0,0:1|0:0,0:0:0:0:
474,188,117735,6,0,L|482:97,1,80,14|2,0:1|0:0,0:0:0:0:
377,179,118197,2,0,L|337:175,1,40,2|2,0:0|0:1,0:0:0:0:
270,220,118428,1,10,0:1:0:0:
222,156,118543,2,0,L|130:170,2,80,2|2|2,0:1|0:0|0:0,0:0:0:0:
288,110,119120,2,0,L|297:59,1,40,2|2,0:1|0:0,0:0:0:0:
214,76,119351,2,0,L|223:25,1,40,2|2,0:1|0:0,0:0:0:0:
141,40,119581,38,0,L|46:27,1,80,14|2,0:1|0:0,0:0:0:0:
40,155,120043,2,0,L|30:246,1,80,2|10,0:1|0:1,0:0:0:0:
103,269,120389,2,0,L|112:353,2,80,2|2|2,0:1|0:0|0:0,0:0:0:0:
154,207,120966,2,0,L|201:214,1,40,2|0,0:0|0:0,0:0:0:0:
223,287,121197,2,0,L|262:281,1,40,2|0,0:1|0:0,0:0:0:0:
272,201,121428,6,0,L|284:113,1,80,14|2,0:1|0:0,0:0:0:0:
382,201,121889,2,0,L|427:208,1,40,2|2,0:0|0:1,0:0:0:0:
501,197,122120,1,10,0:1:0:0:
453,132,122235,2,0,L|444:47,2,80,2|2|2,0:1|0:0|0:0,0:0:0:0:
373,120,122812,2,0,L|367:64,2,40,12|8|10,0:0|0:3|0:3,0:0:0:0:
382,201,123158,1,8,0:3:0:0:
308,169,123274,38,0,L|224:180,1,80,14|2,0:1|0:0,0:0:0:0:
120,111,123735,2,0,L|129:196,1,80,2|10,0:0|0:1,0:0:0:0:
96,264,124081,2,0,L|8:244,2,80,2|2|0,0:1|0:0|0:0,0:0:0:0:
176,259,124658,2,0,L|167:309,1,40,2|0,0:0|0:0,0:0:0:0:
249,303,124889,2,0,L|240:353,1,40,2|0,0:1|0:0,0:0:0:0:
322,342,125120,6,0,L|413:331,1,80,14|2,0:1|0:0,0:0:0:0:
495,245,125581,2,0,L|455:236,1,40,2|2,0:0|0:1,0:0:0:0:
377,254,125812,1,10,0:1:0:0:
402,177,125928,2,0,L|408:94,2,80,2|2|2,0:1|0:0|0:0,0:0:0:0:
323,188,126504,2,0,L|274:194,1,40,2|2,0:1|0:0,0:0:0:0:
263,270,126735,2,0,L|223:265,1,40,2|2,0:1|0:0,0:0:0:0:
143,263,126966,38,0,L|154:342,1,80,14|2,0:1|0:0,0:0:0:0:
41,279,127428,2,0,L|52:199,1,80,2|10,0:0|0:1,0:0:0:0:
94,131,127774,2,0,L|82:44,2,80,2|2|2,0:1|0:0|0:0,0:0:0:0:
130,202,128351,2,0,L|176:208,1,40,2|0,0:0|0:0,0:0:0:0:
159,286,128581,2,0,L|205:292,1,40,2|0,0:1|0:0,0:0:0:0:
253,349,128812,6,0,L|346:337,1,80,14|2,0:1|0:0,0:0:0:0:
255,235,129274,2,0,L|294:229,1,40,2|2,0:0|0:1,0:0:0:0:
364,267,129504,2,0,L|403:261,1,40,10|2,0:1|0:1,0:0:0:0:
472,303,129735,38,0,P|498:256|492:179,1,120,12|8,0:0|0:0,0:0:0:0:
465,116,130197,2,0,L|459:65,2,40,8|8|8,0:1|0:0|0:0,0:0:0:0:
417,180,130543,1,8,0:0:0:0:
344,146,130658,22,0,L|280:155,1,50,12|8,0:1|0:1,0:0:0:0:
215,165,130889,1,8,0:1:0:0:
130,301,131120,2,0,P|160:285|194:276,1,50,12|0,0:0|0:0,0:0:0:0:
206,354,131351,2,0,P|238:363|269:382,1,50,8|0,0:1|0:0,0:0:0:0:
332,368,131581,2,0,L|321:267,2,100,12|8|12,0:0|0:1|0:0,0:0:0:0:
411,355,132158,2,0,L|471:364,2,50,8|8|8,0:1|0:1|0:1,0:0:0:0:
401,275,132504,5,12,0:1:0:0:
427,232,132620,1,8,0:1:0:0:
416,183,132735,1,8,0:1:0:0:
319,55,132966,2,0,L|333:119,1,50,12|0,0:0|0:0,0:0:0:0:
249,101,133197,2,0,L|235:165,1,50,8|0,0:1|0:0,0:0:0:0:
160,169,133428,2,0,P|130:146|54:130,2,100,12|8|12,0:0|0:1|0:0,0:0:0:0:
105,227,134004,2,0,P|71:234|44:254,2,50,8|8|8,0:1|0:1|0:1,0:0:0:0:
183,248,134351,38,0,L|241:258,1,50,12|8,0:1|0:1,0:0:0:0:
311,246,134581,1,8,0:1:0:0:
448,163,134812,2,0,P|461:203|477:221,1,50,12|0,0:0|0:0,0:0:0:0:
419,274,135043,2,0,P|406:314|390:332,1,50,8|0,0:1|0:0,0:0:0:0:
322,328,135274,2,0,L|222:338,2,100,12|8|12,0:0|0:1|0:0,0:0:0:0:
312,247,135851,2,0,L|320:190,2,50,8|8|8,0:1|0:1|0:1,0:0:0:0:
232,256,136197,5,12,0:1:0:0:
187,234,136312,1,8,0:1:0:0:
138,247,136428,1,8,0:1:0:0:
21,137,136658,2,0,L|81:124,1,50,12|0,0:0|0:0,0:0:0:0:
105,56,136889,2,0,L|165:43,1,50,8|0,0:1|0:0,0:0:0:0:
220,89,137120,2,0,P|293:84|355:125,1,150,12|0,0:0|0:0,0:0:0:0:
416,175,137581,2,0,L|470:166,2,50,12|8|8,0:0|0:0|0:0,0:0:0:0:
341,207,137928,1,8,0:0:0:0:
381,275,138043,38,0,L|445:287,1,50,12|8,0:1|0:1,0:0:0:0:
509,298,138274,1,8,0:1:0:0:
360,355,138504,2,0,P|325:369|311:383,1,50,12|0,0:0|0:0,0:0:0:0:
250,330,138735,2,0,P|230:315|206:308,1,50,8|0,0:1|0:0,0:0:0:0:
142,258,138966,2,0,P|118:283|104:356,2,100,12|8|12,0:0|0:1|0:0,0:0:0:0:
217,230,139543,2,0,L|271:223,2,50,8|8|8,0:1|0:1|0:1,0:0:0:0:
155,178,139889,5,12,0:1:0:0:
105,185,140004,1,8,0:1:0:0:
60,160,140120,1,8,0:1:0:0:
154,23,140351,2,0,L|164:76,1,50,12|0,0:0|0:0,0:0:0:0:
242,66,140581,2,0,L|286:96,1,50,8|0,0:1|0:0,0:0:0:0:
339,36,140812,2,0,L|457:12,2,100,12|8|12,0:0|0:1|0:0,0:0:0:0:
358,113,141389,2,0,P|374:135|381:177,2,50,8|8|8,0:1|0:1|0:1,0:0:0:0:
303,172,141735,38,0,L|297:238,1,50,12|8,0:1|0:1,0:0:0:0:
288,301,141966,1,8,0:1:0:0:
169,192,142197,2,0,L|119:196,1,50,12|0,0:0|0:0,0:0:0:0:
64,255,142428,2,0,L|14:250,1,50,8|0,0:1|0:0,0:0:0:0:
1,171,142658,2,0,P|18:131|11:67,2,100,12|8|12,0:0|0:1|0:0,0:0:0:0:
14,250,143235,2,0,L|21:304,2,50,8|8|8,0:1|0:1|0:1,0:0:0:0:
77,200,143581,5,12,0:1:0:0:
114,166,143697,1,8,0:1:0:0:
163,163,143812,1,8,0:1:0:0:
285,266,144043,2,0,L|348:276,1,50,12|0,0:0|0:0,0:0:0:0:
392,329,144274,2,0,P|437:315|445:307,1,50,8|0,0:1|0:0,0:0:0:0:
500,264,144504,1,12,0:0:0:0:
425,234,144620,2,0,P|415:203|435:127,1,100,8|8,0:0|0:1,0:0:0:0:
491,89,144965,1,8,0:0:0:0:
178,20,145428,37,12,0:1:0:0:
256,192,145543,12,12,147274,0:1:0:0:
340,323,152812,6,0,L|284:331,1,50,12|8,0:1|0:1,0:0:0:0:
213,308,153043,1,8,0:1:0:0:
53,292,153274,2,0,P|85:265|95:243,1,50,12|0,0:0|0:0,0:0:0:0:
167,243,153504,2,0,P|170:201|162:178,1,50,8|0,0:1|0:0,0:0:0:0:
122,128,153735,2,0,L|7:112,2,100,12|8|12,0:0|0:1|0:0,0:0:0:0:
202,120,154312,2,0,L|191:61,2,50,8|8|8,0:1|0:1|0:1,0:0:0:0:
249,185,154658,37,12,0:1:0:0:
298,195,154774,1,8,0:1:0:0:
342,173,154889,1,8,0:1:0:0:
493,121,155120,2,0,L|443:111,1,50,12|0,0:0|0:0,0:0:0:0:
402,43,155351,2,0,L|352:52,1,50,8|0,0:1|0:0,0:0:0:0:
282,90,155581,2,0,P|245:46|184:36,2,100,12|8|12,0:0|0:1|0:0,0:0:0:0:
207,119,156158,2,0,P|192:145|188:176,2,50,8|8|8,0:1|0:1|0:1,0:0:0:0:
137,79,156504,6,0,L|73:88,1,50,12|8,0:1|0:1,0:0:0:0:
13,53,156735,1,8,0:1:0:0:
39,210,156966,2,0,L|29:268,1,50,12|0,0:0|0:0,0:0:0:0:
98,301,157197,2,0,P|122:329|151:342,1,50,8|0,0:1|0:0,0:0:0:0:
198,288,157428,2,0,P|244:274|276:234,2,100,12|8|12,0:0|0:1|0:0,0:0:0:0:
206,367,158004,2,0,L|273:373,2,50,8|8|8,0:1|0:1|0:1,0:0:0:0:
132,335,158351,37,12,0:1:0:0:
90,306,158466,1,8,0:1:0:0:
40,308,158581,1,8,0:1:0:0:
102,160,158812,2,0,L|165:170,1,50,12|0,0:0|0:0,0:0:0:0:
217,122,159043,2,0,L|280:112,1,50,8|0,0:1|0:0,0:0:0:0:
332,159,159274,1,12,0:0:0:0:
401,120,159389,2,0,P|426:159|410:265,1,150,8|12,0:0|0:0,0:0:0:0:
363,319,159851,2,0,L|366:375,2,50,8|8|8,0:0|0:0|0:0,0:0:0:0:
290,283,160196,38,0,L|211:274,1,80,12|10,0:1|0:0,0:0:0:0:
142,231,160543,2,0,L|102:245,2,40,8|8|10,0:1|0:0|0:1,0:0:0:0:
51,140,161004,2,0,L|144:132,1,80,8|8,0:1|0:1,0:0:0:0:
241,198,161466,1,10,0:0:0:0:
308,155,161581,2,0,P|321:117|308:63,1,80,8|2,0:0|0:1,0:0:0:0:
426,12,162043,38,0,P|405:46|402:86,1,80,10|8,0:0|0:1,0:0:0:0:
463,137,162389,2,0,L|472:188,2,40,8|8|10,0:1|0:0|0:1,0:0:0:0:
400,249,162851,2,0,L|316:239,1,80,8|8,0:1|0:1,0:0:0:0:
271,358,163312,1,10,0:0:0:0:
220,295,163428,2,0,L|132:305,1,80,8|2,0:0|0:1,0:0:0:0:
47,215,163889,6,0,P|82:210|132:234,1,80,10|8,0:0|0:1,0:0:0:0:
140,304,164235,2,0,L|135:359,2,40,8|8|10,0:1|0:0|0:1,0:0:0:0:
194,187,164697,2,0,L|201:107,1,80,8|8,0:1|0:1,0:0:0:0:
298,23,165158,1,10,0:0:0:0:
334,94,165274,2,0,L|414:82,1,80,8|2,0:0|0:1,0:0:0:0:
474,194,165735,38,0,P|441:172|402:165,1,80,10|8,0:0|0:1,0:0:0:0:
344,220,166081,2,0,L|288:227,2,40,8|8|10,0:1|0:0|0:1,0:0:0:0:
397,336,166543,1,12,0:0:0:0:
92,174,167581,6,0,L|182:164,1,80,12|8,0:0|0:1,0:0:0:0:
228,107,167928,2,0,L|236:66,2,40,8|8|10,0:1|0:0|0:1,0:0:0:0:
320,18,168389,2,0,P|324:60|347:99,1,80,8|8,0:1|0:1,0:0:0:0:
381,215,168851,1,10,0:0:0:0:
449,173,168966,2,0,P|444:133|416:91,1,80,8|2,0:0|0:1,0:0:0:0:
315,168,169428,38,0,L|225:156,1,80,10|10,0:0|0:0,0:0:0:0:
173,106,169774,2,0,P|166:80|148:57,2,40,8|8|10,0:1|0:0|0:1,0:0:0:0:
80,194,170235,2,0,P|95:158|90:104,1,80,8|8,0:1|0:1,0:0:0:0:
151,232,170697,1,10,0:0:0:0:
218,273,170812,2,0,L|209:352,1,80,8|2,0:0|0:1,0:0:0:0:
333,321,171274,6,0,L|412:310,1,80,10|10,0:0|0:0,0:0:0:0:
464,249,171620,2,0,L|503:254,2,40,8|8|10,0:1|0:0|0:1,0:0:0:0:
339,217,172081,2,0,P|328:178|332:138,1,80,8|8,0:1|0:1,0:0:0:0:
204,157,172543,1,10,0:0:0:0:
261,102,172658,2,0,P|269:63|261:24,1,80,8|2,0:0|0:1,0:0:0:0:
152,93,173120,38,0,L|72:85,1,80,10|8,0:0|0:1,0:0:0:0:
24,149,173466,2,0,L|16:198,2,40,8|8|10,0:1|0:0|0:1,0:0:0:0:
27,20,173928,1,12,0:0:0:0:
