osu file format v14

[General]
AudioFilename: Fast Asleep.ogg
AudioLeadIn: 0
PreviewTime: 35550
Countdown: 1
SampleSet: None
StackLeniency: 0.7
Mode: 3
LetterboxInBreaks: 0
SpecialStyle: 0
WidescreenStoryboard: 0

[Editor]
DistanceSpacing: 0.8
BeatDivisor: 4
GridSize: 4
TimelineZoom: 1

[Metadata]
Title:Fast Asleep
TitleUnicode:
Artist:terminal11
ArtistUnicode:
Creator:Xay
Version:zzZ
Source:
Tags:Xayy Lmao Mixtape feat. Chill Pill xayphon stepmania etterna illegal nervous habits idm
BeatmapID:2035557
BeatmapSetID:972177

[Difficulty]
HPDrainRate:8
CircleSize:4
OverallDifficulty:8
ApproachRate:5
SliderMultiplier:1.4
SliderTickRate:1

[Events]
//Background and Video events
0,0,"Fast Asleep.jpg",0,0
//Break Periods
//Storyboard Layer 0 (Background)
//Storyboard Layer 1 (Fail)
//Storyboard Layer 2 (Pass)
//Storyboard Layer 3 (Foreground)
//Storyboard Sound Samples

[TimingPoints]
2374,552.939,4,1,0,15,1,0
4032,552.96,4,1,0,15,1,0
4585,552.939,4,1,0,15,1,0
5691,552.96,4,1,0,15,1,0
6244,552.939,4,1,0,15,1,0
6797,552.96,4,1,0,15,1,0
7350,552.939,4,1,0,15,1,0
8456,552.96,4,1,0,15,1,0
9009,552.939,4,1,0,15,1,0
10115,552.96,4,1,0,15,1,0
10668,552.939,4,1,0,15,1,0
11774,552.96,4,1,0,15,1,0
12327,552.939,4,1,0,15,1,0
13985,552.96,4,1,0,15,1,0
14538,552.939,4,1,0,15,1,0
15644,552.96,4,1,0,15,1,0
16197,552.939,4,1,0,15,1,0
17303,552.96,4,1,0,15,1,0
17856,552.939,4,1,0,15,1,0
18962,552.96,4,1,0,15,1,0
19515,552.939,4,1,0,15,1,0
20621,552.96,4,1,0,15,1,0
21174,552.939,4,1,0,15,1,0
22280,552.96,4,1,0,15,1,0
22832,552.939,4,1,0,15,1,0
23938,552.96,4,1,0,15,1,0
24491,552.939,4,1,0,15,1,0
25597,552.96,4,1,0,15,1,0
26150,552.939,4,1,0,15,1,0
26703,552.96,4,1,0,15,1,0
27256,552.939,4,1,0,15,1,0
28362,552.96,4,1,0,15,1,0
28915,552.939,4,1,0,15,1,0
30021,552.96,4,1,0,15,1,0
30574,552.939,4,1,0,15,1,0
31127,552.96,4,1,0,15,1,0
31680,552.939,4,1,0,15,1,0
32786,552.96,4,1,0,15,1,0
33338,552.939,4,1,0,15,1,0
34444,552.96,4,1,0,15,1,0
34997,552.939,4,1,0,15,1,0
35550,552.96,4,1,0,15,1,0
36103,552.939,4,1,0,15,1,0
37209,552.96,4,1,0,15,1,0
37762,552.939,4,1,0,15,1,0
38868,552.96,4,1,0,15,1,0
39421,552.939,4,1,0,15,1,0
39974,552.96,4,1,0,15,1,0
40527,552.939,4,1,0,15,1,0
41633,552.96,4,1,0,15,1,0
42186,552.939,4,1,0,15,1,0
43292,552.96,4,1,0,15,1,0
43844,552.939,4,1,0,15,1,0
44950,552.96,4,1,0,15,1,0
45503,552.939,4,1,0,15,1,0
47162,552.96,4,1,0,15,1,0
47715,552.939,4,1,0,15,1,0
49374,552.96,4,1,0,15,1,0
49927,552.939,4,1,0,15,1,0
51586,552.96,4,1,0,15,1,0
52139,552.939,4,1,0,15,1,0
53797,552.96,4,1,0,15,1,0
54350,552.939,4,1,0,15,1,0
56009,552.96,4,1,0,15,1,0
56562,552.939,4,1,0,15,1,0
58221,552.96,4,1,0,15,1,0
58774,552.939,4,1,0,15,1,0
60433,552.96,4,1,0,15,1,0
60986,552.939,4,1,0,15,1,0
62645,552.96,4,1,0,15,1,0
63198,552.939,4,1,0,15,1,0
64856,552.96,4,1,0,15,1,0
65409,552.939,4,1,0,15,1,0
67068,552.96,4,1,0,15,1,0
67621,552.939,4,1,0,15,1,0
69280,552.96,4,1,0,15,1,0
69833,552.939,4,1,0,15,1,0
71492,552.96,4,1,0,15,1,0
72045,552.939,4,1,0,15,1,0
73703,552.96,4,1,0,15,1,0
74256,552.939,4,1,0,15,1,0
75915,552.96,4,1,0,15,1,0
76468,552.939,4,1,0,15,1,0
78127,552.96,4,1,0,15,1,0
78680,552.939,4,1,0,15,1,0
80339,552.96,4,1,0,15,1,0
80892,552.939,4,1,0,15,1,0
82551,552.96,4,1,0,15,1,0
83104,552.939,4,1,0,15,1,0
84762,552.96,4,1,0,15,1,0
85315,552.939,4,1,0,15,1,0

[HitObjects]
192,192,2374,5,0,0:0:0:0:
320,192,2926,1,0,0:0:0:0:
64,192,3249,1,0,0:0:0:0:
448,192,3433,1,0,0:0:0:0:
192,192,4032,1,0,0:0:0:0:
64,192,4538,1,0,0:0:0:0:
320,192,5137,1,0,0:0:0:0:
64,192,5644,1,0,0:0:0:0:
320,192,6244,1,0,0:0:0:0:
448,192,6750,1,0,0:0:0:0:
192,192,6750,1,0,0:0:0:0:
64,192,7303,1,0,0:0:0:0:
320,192,7856,1,0,0:0:0:0:
192,192,7856,1,0,0:0:0:0:
448,192,8409,1,0,0:0:0:0:
320,192,8778,1,0,0:0:0:0:
192,192,8962,1,0,0:0:0:0:
64,192,8962,1,0,0:0:0:0:
64,192,9515,1,0,0:0:0:0:
320,192,10068,1,0,0:0:0:0:
192,192,10068,1,0,0:0:0:0:
448,192,10621,1,0,0:0:0:0:
64,192,10990,1,0,0:0:0:0:
320,192,11174,1,0,0:0:0:0:
320,192,11727,1,0,0:0:0:0:
64,192,11727,1,0,0:0:0:0:
192,192,12096,1,0,0:0:0:0:
320,192,12280,1,0,0:0:0:0:
448,192,12833,1,0,0:0:0:0:
192,192,12833,1,0,0:0:0:0:
448,192,13386,1,0,0:0:0:0:
192,192,13571,1,0,0:0:0:0:
320,192,13663,1,0,0:0:0:0:
320,192,13847,1,0,0:0:0:0:
448,192,13939,1,0,0:0:0:0:
192,192,14031,1,0,0:0:0:0:
320,192,14123,1,0,0:0:0:0:
192,192,14215,1,0,0:0:0:0:
64,192,14215,1,0,0:0:0:0:
192,192,14399,1,0,0:0:0:0:
448,192,14491,1,0,0:0:0:0:
320,192,14491,1,0,0:0:0:0:
64,192,14676,1,0,0:0:0:0:
320,192,14768,1,0,0:0:0:0:
64,192,14952,1,0,0:0:0:0:
192,192,15044,1,0,0:0:0:0:
320,192,15090,1,0,0:0:0:0:
448,192,15229,1,0,0:0:0:0:
320,192,15321,1,0,0:0:0:0:
64,192,15345,1,0,0:0:0:0:
320,192,15505,1,0,0:0:0:0:
192,192,15597,1,0,0:0:0:0:
448,192,15633,1,0,0:0:0:0:
192,192,15874,1,0,0:0:0:0:
448,192,16058,1,0,0:0:0:0:
64,192,16082,1,0,0:0:0:0:
320,192,16150,1,0,0:0:0:0:
192,192,16335,1,0,0:0:0:0:
448,192,16427,1,0,0:0:0:0:
192,192,16611,1,0,0:0:0:0:
320,192,16703,1,0,0:0:0:0:
448,192,16727,1,0,0:0:0:0:
192,192,16980,1,0,0:0:0:0:
64,192,17164,1,0,0:0:0:0:
448,192,17188,1,0,0:0:0:0:
320,192,17256,1,0,0:0:0:0:
448,192,17441,1,0,0:0:0:0:
64,192,17533,1,0,0:0:0:0:
192,192,17809,1,0,0:0:0:0:
320,192,18086,1,0,0:0:0:0:
64,192,18270,1,0,0:0:0:0:
320,192,18362,1,0,0:0:0:0:
320,192,18639,1,0,0:0:0:0:
192,192,18685,1,0,0:0:0:0:
448,192,18731,1,0,0:0:0:0:
64,192,18777,1,0,0:0:0:0:
320,192,18823,1,0,0:0:0:0:
192,192,18869,1,0,0:0:0:0:
448,192,18915,1,0,0:0:0:0:
192,192,19100,1,0,0:0:0:0:
320,192,19192,1,0,0:0:0:0:
64,192,19376,1,0,0:0:0:0:
320,192,19468,1,0,0:0:0:0:
64,192,19745,1,0,0:0:0:0:
448,192,19929,1,0,0:0:0:0:
320,192,20021,1,0,0:0:0:0:
320,192,20482,1,0,0:0:0:0:
448,192,20574,1,0,0:0:0:0:
64,192,20574,1,0,0:0:0:0:
192,192,20759,1,0,0:0:0:0:
320,192,20874,1,0,0:0:0:0:
320,192,21035,1,0,0:0:0:0:
448,192,21127,1,0,0:0:0:0:
320,192,21427,1,0,0:0:0:0:
64,192,21588,1,0,0:0:0:0:
448,192,21680,1,0,0:0:0:0:
320,192,21680,1,0,0:0:0:0:
192,192,21865,1,0,0:0:0:0:
448,192,21957,1,0,0:0:0:0:
320,192,22141,1,0,0:0:0:0:
64,192,22418,1,0,0:0:0:0:
448,192,22510,1,0,0:0:0:0:
448,192,22694,1,0,0:0:0:0:
64,192,22786,1,0,0:0:0:0:
320,192,22878,1,0,0:0:0:0:
192,192,22970,1,0,0:0:0:0:
448,192,23062,1,0,0:0:0:0:
320,192,23062,1,0,0:0:0:0:
64,192,23246,1,0,0:0:0:0:
320,192,23338,1,0,0:0:0:0:
192,192,23338,1,0,0:0:0:0:
448,192,23523,1,0,0:0:0:0:
192,192,23615,1,0,0:0:0:0:
64,192,23799,1,0,0:0:0:0:
448,192,23891,1,0,0:0:0:0:
320,192,23938,1,0,0:0:0:0:
448,192,24076,1,0,0:0:0:0:
192,192,24168,1,0,0:0:0:0:
320,192,24179,1,0,0:0:0:0:
320,192,24352,1,0,0:0:0:0:
448,192,24444,1,0,0:0:0:0:
64,192,24468,1,0,0:0:0:0:
320,192,24721,1,0,0:0:0:0:
192,192,24905,1,0,0:0:0:0:
64,192,24929,1,0,0:0:0:0:
448,192,24997,1,0,0:0:0:0:
320,192,24997,1,0,0:0:0:0:
64,192,25182,1,0,0:0:0:0:
320,192,25274,1,0,0:0:0:0:
448,192,25458,1,0,0:0:0:0:
64,192,25550,1,0,0:0:0:0:
320,192,25574,1,0,0:0:0:0:
192,192,25827,1,0,0:0:0:0:
448,192,26011,1,0,0:0:0:0:
320,192,26035,1,0,0:0:0:0:
64,192,26103,1,0,0:0:0:0:
320,192,26288,1,0,0:0:0:0:
448,192,26380,1,0,0:0:0:0:
320,192,26656,1,0,0:0:0:0:
64,192,26933,1,0,0:0:0:0:
448,192,27117,1,0,0:0:0:0:
192,192,27209,1,0,0:0:0:0:
448,192,27486,1,0,0:0:0:0:
64,192,27486,1,0,0:0:0:0:
320,192,27532,1,0,0:0:0:0:
192,192,27578,1,0,0:0:0:0:
448,192,27624,1,0,0:0:0:0:
64,192,27670,1,0,0:0:0:0:
192,192,27716,1,0,0:0:0:0:
320,192,27762,1,0,0:0:0:0:
448,192,27947,1,0,0:0:0:0:
192,192,28039,1,0,0:0:0:0:
64,192,28223,1,0,0:0:0:0:
448,192,28315,1,0,0:0:0:0:
192,192,28315,1,0,0:0:0:0:
192,192,28592,1,0,0:0:0:0:
320,192,28776,1,0,0:0:0:0:
192,192,28868,1,0,0:0:0:0:
448,192,29145,1,0,0:0:0:0:
64,192,29145,1,0,0:0:0:0:
192,192,29329,1,0,0:0:0:0:
320,192,29421,1,0,0:0:0:0:
64,192,29606,1,0,0:0:0:0:
448,192,29721,1,0,0:0:0:0:
448,192,29882,1,0,0:0:0:0:
192,192,29974,1,0,0:0:0:0:
192,192,30159,1,0,0:0:0:0:
448,192,30251,1,0,0:0:0:0:
320,192,30251,1,0,0:0:0:0:
64,192,30435,1,0,0:0:0:0:
192,192,30527,1,0,0:0:0:0:
320,192,30712,1,0,0:0:0:0:
192,192,30804,1,0,0:0:0:0:
192,192,30988,1,0,0:0:0:0:
320,192,31265,1,0,0:0:0:0:
448,192,31357,1,0,0:0:0:0:
192,192,31357,1,0,0:0:0:0:
192,192,31541,1,0,0:0:0:0:
448,192,31633,1,0,0:0:0:0:
320,192,31633,1,0,0:0:0:0:
64,192,31726,1,0,0:0:0:0:
320,192,31818,1,0,0:0:0:0:
448,192,31910,1,0,0:0:0:0:
64,192,31910,1,0,0:0:0:0:
320,192,32094,1,0,0:0:0:0:
448,192,32186,1,0,0:0:0:0:
192,192,32186,1,0,0:0:0:0:
64,192,32371,1,0,0:0:0:0:
448,192,32463,1,0,0:0:0:0:
320,192,32647,1,0,0:0:0:0:
448,192,32739,1,0,0:0:0:0:
192,192,32739,1,0,0:0:0:0:
448,192,32924,1,0,0:0:0:0:
64,192,33004,1,0,0:0:0:0:
192,192,33016,1,0,0:0:0:0:
448,192,33200,1,0,0:0:0:0:
192,192,33292,1,0,0:0:0:0:
320,192,33316,1,0,0:0:0:0:
320,192,33568,1,0,0:0:0:0:
192,192,33752,1,0,0:0:0:0:
64,192,33776,1,0,0:0:0:0:
448,192,33844,1,0,0:0:0:0:
320,192,33844,1,0,0:0:0:0:
64,192,34029,1,0,0:0:0:0:
320,192,34121,1,0,0:0:0:0:
192,192,34305,1,0,0:0:0:0:
320,192,34397,1,0,0:0:0:0:
448,192,34421,1,0,0:0:0:0:
192,192,34674,1,0,0:0:0:0:
192,192,34858,1,0,0:0:0:0:
448,192,34882,1,0,0:0:0:0:
320,192,34950,1,0,0:0:0:0:
320,192,35135,1,0,0:0:0:0:
64,192,35227,1,0,0:0:0:0:
448,192,35503,1,0,0:0:0:0:
192,192,35780,1,0,0:0:0:0:
320,192,35964,1,0,0:0:0:0:
448,192,36056,1,0,0:0:0:0:
192,192,36056,1,0,0:0:0:0:
320,192,36241,1,0,0:0:0:0:
192,192,36333,1,0,0:0:0:0:
64,192,36333,1,0,0:0:0:0:
448,192,36379,1,0,0:0:0:0:
320,192,36425,1,0,0:0:0:0:
64,192,36471,1,0,0:0:0:0:
192,192,36517,1,0,0:0:0:0:
320,192,36563,1,0,0:0:0:0:
448,192,36609,1,0,0:0:0:0:
64,192,36794,1,0,0:0:0:0:
448,192,36886,1,0,0:0:0:0:
320,192,37070,1,0,0:0:0:0:
448,192,37162,1,0,0:0:0:0:
192,192,37162,1,0,0:0:0:0:
320,192,37439,1,0,0:0:0:0:
192,192,37623,1,0,0:0:0:0:
320,192,37715,1,0,0:0:0:0:
64,192,37715,1,0,0:0:0:0:
192,192,37808,1,0,0:0:0:0:
448,192,37900,1,0,0:0:0:0:
320,192,37992,1,0,0:0:0:0:
192,192,37992,1,0,0:0:0:0:
64,192,38084,1,0,0:0:0:0:
320,192,38176,1,0,0:0:0:0:
448,192,38268,1,0,0:0:0:0:
192,192,38268,1,0,0:0:0:0:
448,192,38453,1,0,0:0:0:0:
192,192,38569,1,0,0:0:0:0:
192,192,38729,1,0,0:0:0:0:
448,192,38821,1,0,0:0:0:0:
320,192,38891,1,0,0:0:0:0:
192,192,38949,1,0,0:0:0:0:
64,192,39006,1,0,0:0:0:0:
320,192,39029,1,0,0:0:0:0:
448,192,39098,1,0,0:0:0:0:
192,192,39098,1,0,0:0:0:0:
320,192,39282,1,0,0:0:0:0:
192,192,39374,1,0,0:0:0:0:
320,192,39444,1,0,0:0:0:0:
64,192,39467,1,0,0:0:0:0:
448,192,39513,1,0,0:0:0:0:
320,192,39559,1,0,0:0:0:0:
192,192,39651,1,0,0:0:0:0:
320,192,39697,1,0,0:0:0:0:
64,192,39720,1,0,0:0:0:0:
448,192,39743,1,0,0:0:0:0:
192,192,39789,1,0,0:0:0:0:
320,192,39835,1,0,0:0:0:0:
192,192,39927,1,0,0:0:0:0:
64,192,39927,1,0,0:0:0:0:
320,192,39974,1,0,0:0:0:0:
448,192,40020,1,0,0:0:0:0:
64,192,40112,1,0,0:0:0:0:
320,192,40204,1,0,0:0:0:0:
192,192,40204,1,0,0:0:0:0:
448,192,40296,1,0,0:0:0:0:
192,192,40388,1,0,0:0:0:0:
448,192,40480,1,0,0:0:0:0:
320,192,40480,1,0,0:0:0:0:
192,192,40573,1,0,0:0:0:0:
64,192,40665,1,0,0:0:0:0:
320,192,40757,1,0,0:0:0:0:
192,192,40757,1,0,0:0:0:0:
192,192,40941,1,0,0:0:0:0:
320,192,41033,1,0,0:0:0:0:
64,192,41033,1,0,0:0:0:0:
320,192,41218,1,0,0:0:0:0:
192,192,41310,1,0,0:0:0:0:
320,192,41494,1,0,0:0:0:0:
448,192,41586,1,0,0:0:0:0:
192,192,41586,1,0,0:0:0:0:
448,192,41771,1,0,0:0:0:0:
64,192,41863,1,0,0:0:0:0:
192,192,41886,1,0,0:0:0:0:
448,192,42047,1,0,0:0:0:0:
192,192,42139,1,0,0:0:0:0:
320,192,42163,1,0,0:0:0:0:
448,192,42416,1,0,0:0:0:0:
192,192,42416,1,0,0:0:0:0:
320,192,42600,1,0,0:0:0:0:
448,192,42623,1,0,0:0:0:0:
192,192,42692,1,0,0:0:0:0:
64,192,42692,1,0,0:0:0:0:
320,192,42877,1,0,0:0:0:0:
448,192,42969,1,0,0:0:0:0:
64,192,43153,1,0,0:0:0:0:
320,192,43245,1,0,0:0:0:0:
192,192,43269,1,0,0:0:0:0:
192,192,43522,1,0,0:0:0:0:
64,192,43522,1,0,0:0:0:0:
320,192,43706,1,0,0:0:0:0:
448,192,43844,1,0,0:0:0:0:
64,192,43868,1,0,0:0:0:0:
320,192,43890,1,0,0:0:0:0:
192,192,43936,1,0,0:0:0:0:
448,192,43982,1,0,0:0:0:0:
64,192,44006,1,0,0:0:0:0:
320,192,44028,1,0,0:0:0:0:
192,192,44074,1,0,0:0:0:0:
192,192,44350,1,0,0:0:0:0:
64,192,44350,1,0,0:0:0:0:
192,192,44489,1,0,0:0:0:0:
64,192,44489,1,0,0:0:0:0:
448,192,44627,1,0,0:0:0:0:
320,192,44697,1,0,0:0:0:0:
192,192,44765,1,0,0:0:0:0:
64,192,44835,1,0,0:0:0:0:
448,192,44903,1,0,0:0:0:0:
320,192,44903,1,0,0:0:0:0:
192,192,45077,1,0,0:0:0:0:
448,192,45180,1,0,0:0:0:0:
320,192,45226,1,0,0:0:0:0:
64,192,45272,1,0,0:0:0:0:
192,192,45318,1,0,0:0:0:0:
448,192,45364,1,0,0:0:0:0:
320,192,45410,1,0,0:0:0:0:
192,192,45456,1,0,0:0:0:0:
320,192,45641,1,0,0:0:0:0:
448,192,45733,1,0,0:0:0:0:
192,192,45733,1,0,0:0:0:0:
64,192,45848,1,0,0:0:0:0:
192,192,45917,1,0,0:0:0:0:
448,192,46009,1,0,0:0:0:0:
64,192,46009,1,0,0:0:0:0:
448,192,46286,1,0,0:0:0:0:
64,192,46286,1,0,0:0:0:0:
320,192,46470,1,0,0:0:0:0:
448,192,46562,1,0,0:0:0:0:
64,192,46562,1,0,0:0:0:0:
320,192,46839,1,0,0:0:0:0:
192,192,46839,1,0,0:0:0:0:
192,192,47023,1,0,0:0:0:0:
448,192,47115,1,0,0:0:0:0:
320,192,47115,1,0,0:0:0:0:
64,192,47300,1,0,0:0:0:0:
320,192,47392,1,0,0:0:0:0:
448,192,47576,1,0,0:0:0:0:
320,192,47668,1,0,0:0:0:0:
192,192,47668,1,0,0:0:0:0:
192,192,47853,1,0,0:0:0:0:
320,192,47945,1,0,0:0:0:0:
64,192,47945,1,0,0:0:0:0:
64,192,48129,1,0,0:0:0:0:
448,192,48221,1,0,0:0:0:0:
192,192,48406,1,0,0:0:0:0:
448,192,48498,1,0,0:0:0:0:
448,192,48682,1,0,0:0:0:0:
192,192,48959,1,0,0:0:0:0:
448,192,49051,1,0,0:0:0:0:
64,192,49051,1,0,0:0:0:0:
448,192,49235,1,0,0:0:0:0:
320,192,49327,1,0,0:0:0:0:
64,192,49327,1,0,0:0:0:0:
448,192,49420,1,0,0:0:0:0:
320,192,49512,1,0,0:0:0:0:
192,192,49604,1,0,0:0:0:0:
64,192,49604,1,0,0:0:0:0:
320,192,49788,1,0,0:0:0:0:
448,192,49880,1,0,0:0:0:0:
192,192,49880,1,0,0:0:0:0:
192,192,50065,1,0,0:0:0:0:
320,192,50157,1,0,0:0:0:0:
448,192,50341,1,0,0:0:0:0:
192,192,50433,1,0,0:0:0:0:
64,192,50433,1,0,0:0:0:0:
320,192,50618,1,0,0:0:0:0:
64,192,50710,1,0,0:0:0:0:
448,192,50733,1,0,0:0:0:0:
320,192,50894,1,0,0:0:0:0:
448,192,50986,1,0,0:0:0:0:
192,192,50986,1,0,0:0:0:0:
64,192,51171,1,0,0:0:0:0:
448,192,51263,1,0,0:0:0:0:
192,192,51286,1,0,0:0:0:0:
320,192,51447,1,0,0:0:0:0:
192,192,51539,1,0,0:0:0:0:
64,192,51539,1,0,0:0:0:0:
448,192,51724,1,0,0:0:0:0:
320,192,51816,1,0,0:0:0:0:
192,192,52000,1,0,0:0:0:0:
320,192,52092,1,0,0:0:0:0:
64,192,52092,1,0,0:0:0:0:
448,192,52277,1,0,0:0:0:0:
64,192,52369,1,0,0:0:0:0:
192,192,52392,1,0,0:0:0:0:
320,192,52553,1,0,0:0:0:0:
448,192,52645,1,0,0:0:0:0:
64,192,52645,1,0,0:0:0:0:
320,192,52830,1,0,0:0:0:0:
448,192,52922,1,0,0:0:0:0:
192,192,52922,1,0,0:0:0:0:
320,192,53198,1,0,0:0:0:0:
192,192,53198,1,0,0:0:0:0:
192,192,53475,1,0,0:0:0:0:
64,192,53659,1,0,0:0:0:0:
448,192,53751,1,0,0:0:0:0:
192,192,53751,1,0,0:0:0:0:
448,192,53935,1,0,0:0:0:0:
192,192,54027,1,0,0:0:0:0:
64,192,54027,1,0,0:0:0:0:
320,192,54073,1,0,0:0:0:0:
448,192,54119,1,0,0:0:0:0:
64,192,54165,1,0,0:0:0:0:
192,192,54211,1,0,0:0:0:0:
320,192,54257,1,0,0:0:0:0:
448,192,54303,1,0,0:0:0:0:
192,192,54488,1,0,0:0:0:0:
320,192,54580,1,0,0:0:0:0:
320,192,54764,1,0,0:0:0:0:
192,192,54856,1,0,0:0:0:0:
64,192,54856,1,0,0:0:0:0:
320,192,55133,1,0,0:0:0:0:
448,192,55317,1,0,0:0:0:0:
320,192,55409,1,0,0:0:0:0:
64,192,55409,1,0,0:0:0:0:
192,192,55501,1,0,0:0:0:0:
320,192,55594,1,0,0:0:0:0:
448,192,55686,1,0,0:0:0:0:
192,192,55686,1,0,0:0:0:0:
64,192,55778,1,0,0:0:0:0:
448,192,55870,1,0,0:0:0:0:
320,192,55962,1,0,0:0:0:0:
192,192,55962,1,0,0:0:0:0:
448,192,56147,1,0,0:0:0:0:
320,192,56239,1,0,0:0:0:0:
320,192,56423,1,0,0:0:0:0:
192,192,56515,1,0,0:0:0:0:
64,192,56515,1,0,0:0:0:0:
448,192,56585,1,0,0:0:0:0:
320,192,56654,1,0,0:0:0:0:
192,192,56700,1,0,0:0:0:0:
64,192,56746,1,0,0:0:0:0:
448,192,56792,1,0,0:0:0:0:
320,192,56792,1,0,0:0:0:0:
192,192,56976,1,0,0:0:0:0:
448,192,57068,1,0,0:0:0:0:
192,192,57104,1,0,0:0:0:0:
320,192,57138,1,0,0:0:0:0:
64,192,57173,1,0,0:0:0:0:
448,192,57207,1,0,0:0:0:0:
192,192,57242,1,0,0:0:0:0:
320,192,57345,1,0,0:0:0:0:
448,192,57415,1,0,0:0:0:0:
64,192,57483,1,0,0:0:0:0:
192,192,57553,1,0,0:0:0:0:
448,192,57621,1,0,0:0:0:0:
320,192,57621,1,0,0:0:0:0:
64,192,57667,1,0,0:0:0:0:
192,192,57713,1,0,0:0:0:0:
320,192,57806,1,0,0:0:0:0:
448,192,57898,1,0,0:0:0:0:
192,192,57898,1,0,0:0:0:0:
320,192,57990,1,0,0:0:0:0:
64,192,58082,1,0,0:0:0:0:
448,192,58174,1,0,0:0:0:0:
320,192,58174,1,0,0:0:0:0:
192,192,58267,1,0,0:0:0:0:
320,192,58359,1,0,0:0:0:0:
192,192,58451,1,0,0:0:0:0:
64,192,58451,1,0,0:0:0:0:
192,192,58635,1,0,0:0:0:0:
320,192,58727,1,0,0:0:0:0:
64,192,58727,1,0,0:0:0:0:
448,192,58912,1,0,0:0:0:0:
320,192,59004,1,0,0:0:0:0:
64,192,59188,1,0,0:0:0:0:
448,192,59280,1,0,0:0:0:0:
320,192,59280,1,0,0:0:0:0:
192,192,59465,1,0,0:0:0:0:
64,192,59557,1,0,0:0:0:0:
320,192,59580,1,0,0:0:0:0:
320,192,59741,1,0,0:0:0:0:
192,192,59833,1,0,0:0:0:0:
448,192,59857,1,0,0:0:0:0:
320,192,60110,1,0,0:0:0:0:
192,192,60110,1,0,0:0:0:0:
320,192,60294,1,0,0:0:0:0:
448,192,60318,1,0,0:0:0:0:
192,192,60386,1,0,0:0:0:0:
64,192,60386,1,0,0:0:0:0:
320,192,60571,1,0,0:0:0:0:
192,192,60663,1,0,0:0:0:0:
192,192,60847,1,0,0:0:0:0:
448,192,60939,1,0,0:0:0:0:
64,192,60963,1,0,0:0:0:0:
448,192,61216,1,0,0:0:0:0:
192,192,61216,1,0,0:0:0:0:
64,192,61400,1,0,0:0:0:0:
320,192,61527,1,0,0:0:0:0:
64,192,61562,1,0,0:0:0:0:
448,192,61596,1,0,0:0:0:0:
192,192,61631,1,0,0:0:0:0:
320,192,61665,1,0,0:0:0:0:
64,192,61700,1,0,0:0:0:0:
448,192,61735,1,0,0:0:0:0:
192,192,61769,1,0,0:0:0:0:
448,192,62045,1,0,0:0:0:0:
320,192,62045,1,0,0:0:0:0:
448,192,62184,1,0,0:0:0:0:
320,192,62184,1,0,0:0:0:0:
64,192,62322,1,0,0:0:0:0:
192,192,62391,1,0,0:0:0:0:
320,192,62460,1,0,0:0:0:0:
448,192,62529,1,0,0:0:0:0:
192,192,62598,1,0,0:0:0:0:
64,192,62598,1,0,0:0:0:0:
320,192,62783,1,0,0:0:0:0:
192,192,62875,1,0,0:0:0:0:
320,192,62921,1,0,0:0:0:0:
448,192,62967,1,0,0:0:0:0:
64,192,63013,1,0,0:0:0:0:
192,192,63059,1,0,0:0:0:0:
320,192,63105,1,0,0:0:0:0:
448,192,63151,1,0,0:0:0:0:
192,192,63336,1,0,0:0:0:0:
448,192,63428,1,0,0:0:0:0:
320,192,63428,1,0,0:0:0:0:
64,192,63520,1,0,0:0:0:0:
192,192,63612,1,0,0:0:0:0:
448,192,63704,1,0,0:0:0:0:
64,192,63704,1,0,0:0:0:0:
448,192,63981,1,0,0:0:0:0:
64,192,63981,1,0,0:0:0:0:
320,192,64165,1,0,0:0:0:0:
448,192,64257,1,0,0:0:0:0:
64,192,64257,1,0,0:0:0:0:
192,192,64534,1,0,0:0:0:0:
64,192,64534,1,0,0:0:0:0:
448,192,64718,1,0,0:0:0:0:
320,192,64810,1,0,0:0:0:0:
192,192,64810,1,0,0:0:0:0:
448,192,65086,1,0,0:0:0:0:
192,192,65086,1,0,0:0:0:0:
320,192,65270,1,0,0:0:0:0:
192,192,65362,1,0,0:0:0:0:
64,192,65362,1,0,0:0:0:0:
320,192,65639,1,0,0:0:0:0:
192,192,65639,1,0,0:0:0:0:
320,192,65823,1,0,0:0:0:0:
448,192,65915,1,0,0:0:0:0:
192,192,65915,1,0,0:0:0:0:
320,192,66192,1,0,0:0:0:0:
192,192,66376,1,0,0:0:0:0:
448,192,66492,1,0,0:0:0:0:
320,192,66538,1,0,0:0:0:0:
192,192,66607,1,0,0:0:0:0:
64,192,66677,1,0,0:0:0:0:
448,192,66745,1,0,0:0:0:0:
320,192,66745,1,0,0:0:0:0:
192,192,66929,1,0,0:0:0:0:
448,192,67021,1,0,0:0:0:0:
64,192,67021,1,0,0:0:0:0:
448,192,67574,1,0,0:0:0:0:
192,192,67851,1,0,0:0:0:0:
64,192,67851,1,0,0:0:0:0:
448,192,68035,1,0,0:0:0:0:
192,192,68127,1,0,0:0:0:0:
320,192,68404,1,0,0:0:0:0:
320,192,68680,1,0,0:0:0:0:
64,192,68680,1,0,0:0:0:0:
320,192,68957,1,0,0:0:0:0:
192,192,69233,1,0,0:0:0:0:
448,192,69510,1,0,0:0:0:0:
320,192,69510,1,0,0:0:0:0:
448,192,69786,1,0,0:0:0:0:
320,192,69786,1,0,0:0:0:0:
320,192,70063,1,0,0:0:0:0:
192,192,70339,1,0,0:0:0:0:
64,192,70616,1,0,0:0:0:0:
448,192,70892,1,0,0:0:0:0:
320,192,70892,1,0,0:0:0:0:
192,192,71077,1,0,0:0:0:0:
448,192,71238,1,0,0:0:0:0:
64,192,71353,1,0,0:0:0:0:
320,192,71445,1,0,0:0:0:0:
320,192,71722,1,0,0:0:0:0:
64,192,71998,1,0,0:0:0:0:
192,192,72137,1,0,0:0:0:0:
448,192,72275,1,0,0:0:0:0:
192,192,72551,1,0,0:0:0:0:
320,192,72621,1,0,0:0:0:0:
192,192,72690,1,0,0:0:0:0:
320,192,72759,1,0,0:0:0:0:
192,192,72828,1,0,0:0:0:0:
320,192,72897,1,0,0:0:0:0:
192,192,72966,1,0,0:0:0:0:
320,192,73035,1,0,0:0:0:0:
64,192,73104,1,0,0:0:0:0:
192,192,73381,1,0,0:0:0:0:
320,192,73427,1,0,0:0:0:0:
448,192,73473,1,0,0:0:0:0:
320,192,73692,1,0,0:0:0:0:
192,192,73969,1,0,0:0:0:0:
448,192,74245,1,0,0:0:0:0:
64,192,74521,1,0,0:0:0:0:
192,192,74798,1,0,0:0:0:0:
320,192,75039,1,0,0:0:0:0:
192,192,75074,1,0,0:0:0:0:
64,192,75315,1,0,0:0:0:0:
192,192,75385,1,0,0:0:0:0:
320,192,75465,1,0,0:0:0:0:
448,192,75558,1,0,0:0:0:0:
320,192,75627,1,0,0:0:0:0:
192,192,75696,1,0,0:0:0:0:
64,192,75776,1,0,0:0:0:0:
448,192,75868,1,0,0:0:0:0:
320,192,75868,1,0,0:0:0:0:
448,192,76180,1,0,0:0:0:0:
192,192,76421,1,0,0:0:0:0:
448,192,76457,1,0,0:0:0:0:
448,192,76733,1,0,0:0:0:0:
320,192,76974,1,0,0:0:0:0:
192,192,76974,1,0,0:0:0:0:
64,192,76974,1,0,0:0:0:0:
448,192,77527,1,0,0:0:0:0:
192,192,77527,1,0,0:0:0:0:
448,192,78080,1,0,0:0:0:0:
320,192,78633,1,0,0:0:0:0:
192,192,78633,1,0,0:0:0:0:
64,192,79186,1,0,0:0:0:0:
64,192,79705,1,0,0:0:0:0:
448,192,79739,1,0,0:0:0:0:
320,192,79739,1,0,0:0:0:0:
192,192,80292,1,0,0:0:0:0:
320,192,80845,1,0,0:0:0:0:
64,192,80845,1,0,0:0:0:0:
448,192,81398,1,0,0:0:0:0:
320,192,81813,1,0,0:0:0:0:
448,192,81951,1,0,0:0:0:0:
192,192,81951,1,0,0:0:0:0:
64,192,81951,1,0,0:0:0:0:
320,192,81997,1,0,0:0:0:0:
64,192,82366,1,0,0:0:0:0:
64,192,82551,1,0,0:0:0:0:
64,192,82919,1,0,0:0:0:0:
64,192,83104,1,0,0:0:0:0:
64,192,83472,1,0,0:0:0:0:
64,192,83656,1,0,0:0:0:0:
64,192,84025,1,0,0:0:0:0:
64,192,84209,1,0,0:0:0:0:
64,192,84578,1,0,0:0:0:0:
64,192,84762,1,0,0:0:0:0:
64,192,85130,1,0,0:0:0:0:
64,192,85315,1,0,0:0:0:0:
64,192,85683,1,0,0:0:0:0:
64,192,85867,1,0,0:0:0:0:
