osu file format v14

[General]
AudioFilename: audio.mp3
AudioLeadIn: 0
PreviewTime: 284530
Countdown: 0
SampleSet: Normal
StackLeniency: 0.7
Mode: 1
LetterboxInBreaks: 0
WidescreenStoryboard: 0

[Editor]
Bookmarks: 169897,190880,211864,255143,306290
DistanceSpacing: 0.9
BeatDivisor: 6
GridSize: 16
TimelineZoom: 3.499998

[Metadata]
Title:gigadelic (Camellia's "The TERA" Remix) ["10^12" Long ver.]
TitleUnicode:gigadelic (かめりあ's "The TERA" Remix) ["10¹²" Long ver.]
Artist:teranoid feat. MC Natsack
ArtistUnicode:teranoid feat. MC Natsack
Creator:ikin5050
Version:MAXIMUM
Source:SOUND VOLTEX III GRAVITY WARS
Tags:sdvx 3 three kors k NUSTYLE GABBA contest beatmania 11 IIDX RED remixes summary and vips 02 & CTCD-0017 かめるかめりあ cametek kamelcamellia 1012 instrumental electronic
BeatmapID:2469266
BeatmapSetID:1184528

[Difficulty]
HPDrainRate:5
CircleSize:5
OverallDifficulty:7
ApproachRate:5
SliderMultiplier:2.1
SliderTickRate:1

[Events]
//Background and Video events
0,0,"gunga.jpg",0,0
//Break Periods
//Storyboard Layer 0 (Background)
//Storyboard Layer 1 (Fail)
//Storyboard Layer 2 (Pass)
//Storyboard Layer 3 (Foreground)
//Storyboard Layer 4 (Overlay)
//Storyboard Sound Samples

[TimingPoints]
3369,327.868852459016,4,1,0,25,1,0
3369,-200,4,1,0,25,0,0
12549,-200,4,1,0,50,0,0
33532,-153.846153846154,4,1,0,50,0,0
53532,-133.333333333333,4,1,0,50,0,0
53614,-137.115904073713,4,1,0,50,0,0
53696,-141.119159607181,4,1,0,50,0,0
53778,-145.36341580769,4,1,0,50,0,0
53860,-149.870886231512,4,1,0,50,0,0
53942,-154.666600675584,4,1,0,50,0,0
54024,-159.77963193164,4,1,0,50,0,0
54106,-165.242278228338,4,1,0,50,0,0
54188,-171.091374770524,4,1,0,50,0,0
54270,-177.370063126005,4,1,0,50,0,0
54352,-184.127136104938,4,1,0,50,0,0
54434,-191.41906610466,4,1,0,50,0,0
54516,-199.312769570521,4,1,0,50,0,0
59817,-133.333333333333,4,1,0,60,0,0
60090,-200,4,1,0,60,0,0
60199,-198.198376755294,4,1,0,60,0,0
60308,-196.428536352047,4,1,0,60,0,0
60418,-194.69040332064,4,1,0,60,0,0
60527,-192.982388427232,4,1,0,60,0,0
60746,-189.655074316341,4,1,0,60,0,0
60964,-186.440551565728,4,1,0,60,0,0
61073,-184.873980651089,4,1,0,60,0,0
61292,-181.818181818182,4,1,0,60,0,0
61401,-180.328016662309,4,1,0,60,0,0
61511,-178.861759534673,4,1,0,60,0,0
61620,-177.419469302883,4,1,0,60,0,0
61838,-174.603257747583,4,1,0,60,0,0
62057,-171.875053710954,4,1,0,60,0,0
62276,-169.230795266276,4,1,0,60,0,0
62385,-167.93880310015,4,1,0,60,0,0
62603,-165.413658205758,4,1,0,60,0,0
62713,-164.179079973272,4,1,0,60,0,0
62822,-162.963059533665,4,1,0,60,0,0
62931,-161.764658304512,4,1,0,60,0,0
63041,-160.584011934604,4,1,0,60,0,0
63150,-159.420220541933,4,1,0,60,0,0
63259,-158.273426841274,4,1,0,60,0,0
63368,-157.14276734699,4,1,0,60,0,0
63478,-156.028390926013,4,1,0,60,0,0
63587,-154.929468359529,4,1,0,60,0,0
63696,-153.846153846154,4,1,0,60,0,0
63806,-117.647058823529,4,1,0,90,0,0
65281,-133.333333333333,4,1,0,60,0,0
67576,-117.647058823529,4,1,0,90,0,0
67685,-117.647058823529,4,1,0,60,0,0
67959,-133.333333333333,4,1,0,60,0,0
68068,-132.352863321845,4,1,0,60,0,0
68177,-131.386880494435,4,1,0,60,0,0
68287,-130.434725897945,4,1,0,60,0,0
68396,-129.49644014286,4,1,0,60,0,0
68505,-128.571391836745,4,1,0,60,0,0
68614,-127.659628791331,4,1,0,60,0,0
68724,-126.760545526684,4,1,0,60,0,0
68833,-125.874196293257,4,1,0,60,0,0
68942,-125,4,1,0,60,0,0
69161,-123.287688121601,4,1,0,60,0,0
69270,-122.448929612682,4,1,0,60,0,0
69379,-121.621654492339,4,1,0,60,0,0
69434,-121.212121212121,4,1,0,60,0,0
69489,-120.805336696554,4,1,0,60,0,0
69543,-120.401273363867,4,1,0,60,0,0
69598,-120.000048000019,4,1,0,60,0,0
69707,-119.205282224466,4,1,0,60,0,0
69817,-118.421114958482,4,1,0,60,0,0
69926,-117.647058823529,4,1,0,80,0,0
70472,-117.647058823529,4,1,0,70,0,0
72877,-117.647058823529,4,1,0,70,0,0
72986,-116.883056164646,4,1,0,70,0,0
73095,-116.129047242458,4,1,0,70,0,0
73205,-115.384571005934,4,1,0,70,0,0
73314,-114.64971073878,4,1,0,70,0,0
73423,-113.924021791387,4,1,0,70,0,0
73532,-113.207589889657,4,1,0,70,0,0
73642,-112.499985937502,4,1,0,70,0,0
73751,-111.801297789465,4,1,0,70,0,0
73860,-111.111111111111,4,1,0,70,0,0
73970,-110.429393654285,4,1,0,70,0,0
74079,-109.756110945867,4,1,0,70,0,0
74188,-109.090869421502,4,1,0,70,0,0
74297,-108.433761068376,4,1,0,70,0,0
74407,-107.784405321101,4,1,0,70,0,0
74516,-107.142895408177,4,1,0,70,0,0
74625,-106.508863135046,4,1,0,70,0,0
74735,-105.88240276819,4,1,0,70,0,0
74844,-105.263157894737,4,1,0,70,0,0
75500,-100,4,1,0,90,0,1
109598,-100,4,1,0,60,0,0
110035,-111.111111111111,4,1,0,60,0,0
110746,-111.111111111111,4,1,0,60,0,0
110800,-110.65570142436,4,1,0,60,0,0
110855,-110.204131112059,4,1,0,60,0,0
110909,-109.756110945867,4,1,0,60,0,0
111019,-108.870910672507,4,1,0,60,0,0
111128,-107.999991360001,4,1,0,60,0,0
111237,-107.142895408177,4,1,0,60,0,0
111347,-106.299183303375,4,1,0,60,0,0
111456,-105.468766479495,4,1,0,60,0,0
111565,-104.651114115761,4,1,0,60,0,0
111675,-103.846149852071,4,1,0,60,0,0
111784,-103.053474447891,4,1,0,60,0,0
111893,-102.272704028931,4,1,0,60,0,0
112221,-100,4,1,0,60,0,0
115172,-125,4,1,0,60,0,0
115281,-123.16711930583,4,1,0,60,0,0
115390,-121.387213070975,4,1,0,60,0,0
115500,-119.658160566893,4,1,0,60,0,0
115609,-117.977534717839,4,1,0,60,0,0
115718,-116.343464522224,4,1,0,60,0,0
115828,-114.754041924242,4,1,0,60,0,0
115937,-113.207589889657,4,1,0,60,0,0
115991,-112.449763068349,4,1,0,60,0,0
116046,-111.702139542781,4,1,0,60,0,0
116101,-110.964391526759,4,1,0,60,0,0
116155,-110.236203112409,4,1,0,60,0,0
116265,-108.808245053577,4,1,0,60,0,0
116374,-107.416923751171,4,1,0,60,0,0
116429,-106.734407437254,4,1,0,60,0,0
116483,-106.060622130397,4,1,0,60,0,0
116538,-105.395179224502,4,1,0,60,0,0
116593,-104.738144165771,4,1,0,60,0,0
116702,-103.448240190262,4,1,0,60,0,0
116811,-102.189825776566,4,1,0,60,0,0
116920,-100.961557877223,4,1,0,60,0,0
117030,-99.7624655694791,4,1,0,60,0,0
117139,-98.5915215235151,4,1,0,60,0,0
117248,-97.4478410430817,4,1,0,60,0,0
117358,-96.3302973234627,4,1,0,60,0,0
117467,-95.2380952380952,4,1,0,90,0,1
117522,-100,4,1,0,90,0,1
137248,-100,4,1,0,90,0,1
137467,-101.851870713309,4,1,0,90,0,1
137685,-103.773624065519,4,1,0,90,0,1
137795,-104.76195464855,4,1,0,90,0,1
137904,-105.769179918663,4,1,0,90,0,1
137959,-106.280203505334,4,1,0,90,0,1
138013,-106.79607503065,4,1,0,90,0,1
138123,-107.843105536342,4,1,0,90,0,1
138232,-108.9108695226,4,1,0,90,0,1
138287,-109.452779881703,4,1,0,90,0,1
138341,-109.999989000001,4,1,0,90,0,1
138396,-110.552819373276,4,1,0,90,0,1
138450,-111.111111111111,4,1,0,90,0,1
147631,-111.111111111111,4,1,0,90,0,1
147740,-110.091783519921,4,1,0,90,0,1
147849,-109.090869421502,4,1,0,90,0,1
147904,-108.597324379122,4,1,0,90,0,1
147959,-108.108108108108,4,1,0,90,0,1
148068,-107.142895408177,4,1,0,90,0,1
148177,-106.194652674459,4,1,0,90,0,1
148287,-105.263157894737,4,1,0,90,0,1
148341,-104.80345683722,4,1,0,90,0,1
148396,-104.347862381865,4,1,0,90,0,1
148505,-103.448240190262,4,1,0,90,0,1
148614,-102.564102564103,4,1,0,90,0,1
148669,-102.127624807617,4,1,0,90,0,1
148724,-101.694949727102,4,1,0,90,0,1
148778,-101.26582278481,4,1,0,90,0,1
148833,-100.840302238554,4,1,0,90,0,1
148888,-100.418443654709,4,1,0,90,0,1
148942,-100,4,1,0,90,0,0
148997,-200,4,1,0,60,0,0
151565,-200,4,1,0,60,0,0
151784,-192.020031529689,4,1,0,60,0,0
151893,-188.263998840294,4,1,0,60,0,0
152002,-184.652428733395,4,1,0,60,0,0
152112,-181.17648764014,4,1,0,60,0,0
152221,-177.828992527626,4,1,0,60,0,0
152330,-174.603257747583,4,1,0,60,0,0
152440,-171.492170524955,4,1,0,60,0,0
152549,-168.490293274204,4,1,0,60,0,0
152658,-165.59142633831,4,1,0,60,0,0
152767,-162.79062195785,4,1,0,60,0,0
152877,-160.083243286509,4,1,0,60,0,0
153095,-154.929468359529,4,1,0,60,0,0
153205,-152.475283756503,4,1,0,60,0,0
153314,-150.097413221181,4,1,0,60,0,0
153423,-147.792788598673,4,1,0,60,0,0
153532,-145.557653203069,4,1,0,60,0,0
153642,-143.389116479281,4,1,0,60,0,0
153751,-141.284445147727,4,1,0,60,0,0
153860,-139.240471078362,4,1,0,60,0,0
153970,-137.254982699009,4,1,0,60,0,0
154079,-135.325138945086,4,1,0,60,0,0
154188,-133.333333333333,4,1,0,60,0,0
154243,-200,4,1,0,60,0,0
156811,-200,4,1,0,60,0,0
157030,-188.278531728698,4,1,0,60,0,0
157139,-182.918017973524,4,1,0,60,0,0
157248,-177.854610969717,4,1,0,60,0,0
157358,-173.063976560215,4,1,0,60,0,0
157467,-168.524650943317,4,1,0,60,0,0
157576,-164.217364672575,4,1,0,60,0,0
157685,-160.12451282117,4,1,0,60,0,0
157795,-156.230959351829,4,1,0,60,0,0
157904,-152.522260623938,4,1,0,60,0,0
158013,-148.985557340071,4,1,0,60,0,0
158123,-145.609155903723,4,1,0,60,0,0
158341,-139.295360489428,4,1,0,60,0,0
158450,-136.339529055999,4,1,0,60,0,0
158560,-133.506535812461,4,1,0,60,0,0
158614,-132.231404958678,4,1,0,60,0,0
158669,-131.147540983607,4,1,0,60,0,0
158724,-130.081300813008,4,1,0,60,0,0
158778,-129.032258064516,4,1,0,60,0,0
158888,-126.984126984127,4,1,0,60,0,0
158997,-125,4,1,0,60,0,0
159106,-123.076923076923,4,1,0,60,0,0
159215,-121.212121212121,4,1,0,60,0,0
159325,-119.402985074627,4,1,0,60,0,0
159434,-117.647058823529,4,1,0,60,0,0
159489,-117.647058823529,4,1,0,70,0,0
167303,-117.647058823529,4,1,0,70,0,0
167412,-116.99163041876,4,1,0,70,0,0
167467,-116.666647222225,4,1,0,70,0,0
167522,-116.343464522224,4,1,0,70,0,0
167631,-115.702441090102,4,1,0,70,0,0
167740,-115.068442709724,4,1,0,70,0,0
167849,-114.441354527872,4,1,0,70,0,0
167959,-113.821193733916,4,1,0,70,0,0
168068,-113.207589889657,4,1,0,70,0,0
168123,-112.903262226859,4,1,0,70,0,0
168177,-112.600566380849,4,1,0,70,0,0
168287,-112.000017920003,4,1,0,70,0,0
168396,-111.405841453891,4,1,0,70,0,0
168505,-110.817936104594,4,1,0,70,0,0
168614,-110.236203112409,4,1,0,70,0,0
168724,-109.660545780536,4,1,0,70,0,0
168778,-109.374965820323,4,1,0,70,0,0
168833,-109.090869421502,4,1,0,70,0,0
168942,-108.527081305233,4,1,0,70,0,0
168997,-108.247366882801,4,1,0,70,0,0
169052,-107.969207182112,4,1,0,70,0,0
169161,-107.416923751171,4,1,0,70,0,0
169270,-106.870261639775,4,1,0,70,0,0
169325,-106.59901182716,4,1,0,70,0,0
169379,-106.329135459065,4,1,0,70,0,0
169489,-105.793461540903,4,1,0,70,0,0
169598,-105.263157894737,4,1,0,70,0,0
169871,-100,4,1,0,80,0,0
185718,-117.647058823529,4,1,0,80,0,0
185991,-200,4,1,0,80,0,0
186319,-186.464539106275,4,1,0,80,0,0
186647,-174.645033968459,4,1,0,80,0,0
186975,-164.234625586112,4,1,0,80,0,0
187084,-161.035004178858,4,1,0,80,0,0
187194,-157.957670503458,4,1,0,80,0,0
187303,-154.995505130351,4,1,0,80,0,0
187412,-152.142624581988,4,1,0,80,0,0
187631,-146.740741392922,4,1,0,80,0,0
187740,-144.180929765144,4,1,0,80,0,0
187795,-142.934327393936,4,1,0,80,0,0
187849,-141.709096732047,4,1,0,80,0,0
187959,-139.320589214636,4,1,0,80,0,0
188068,-137.011075975382,4,1,0,80,0,0
188177,-134.777065256359,4,1,0,80,0,0
188287,-132.614738271553,4,1,0,80,0,0
188341,-131.559386564892,4,1,0,80,0,0
188396,-130.520528921391,4,1,0,80,0,0
188450,-129.498117097377,4,1,0,80,0,0
188505,-128.491598576827,4,1,0,80,0,0
188614,-126.524781776383,4,1,0,80,0,0
188669,-125.563781378389,4,1,0,80,0,0
188724,-124.617269211933,4,1,0,80,0,0
188778,-123.684767107768,4,1,0,80,0,0
188833,-122.766267758141,4,1,0,80,0,0
188942,-120.969595501867,4,1,0,80,0,0
188997,-120.090836708887,4,1,0,80,0,0
189052,-119.224752966312,4,1,0,80,0,0
189106,-118.370931886998,4,1,0,80,0,0
189161,-117.529391162495,4,1,0,80,0,0
189270,-115.881703321981,4,1,0,80,0,0
189325,-115.075063463897,4,1,0,80,0,0
189379,-114.279575839926,4,1,0,80,0,0
189489,-112.721017735525,4,1,0,80,0,0
189598,-111.111111111111,4,1,0,80,0,0
189707,-114.285714285714,4,1,0,80,0,0
189817,-117.647058823529,4,1,0,80,0,0
189926,-121.212121212121,4,1,0,80,0,0
190144,-129.032258064516,4,1,0,80,0,0
190254,-133.333333333333,4,1,0,80,0,0
190308,-135.593220338983,4,1,0,80,0,0
190363,-137.931034482759,4,1,0,80,0,0
190472,-142.857142857143,4,1,0,80,0,0
190582,-148.148148148148,4,1,0,80,0,0
190691,-153.846153846154,4,1,0,80,0,0
190800,-160,4,1,0,80,0,0
190909,-100,4,1,0,80,0,0
211948,-200,4,1,0,40,0,0
231565,-200,4,1,0,43,0,0
231675,-187.581011549363,4,1,0,43,0,0
231784,-176.61385323742,4,1,0,43,0,0
231893,-166.858554003771,4,1,0,43,0,0
232002,-158.124266698713,4,1,0,43,0,0
232112,-150.25912185564,4,1,0,43,0,0
232221,-143.139126937209,4,1,0,43,0,0
232330,-136.66355073771,4,1,0,43,0,0
232440,-130.748351263291,4,1,0,43,0,0
232549,-125.324119504067,4,1,0,43,0,0
254079,-125,4,1,0,43,0,0
254188,-126.976226241161,4,1,0,43,0,0
254297,-129.016110241686,4,1,0,43,0,0
254407,-131.122434261768,4,1,0,43,0,0
254516,-133.298675677657,4,1,0,43,0,0
254571,-134.414202742319,4,1,0,43,0,0
254625,-135.54855823776,4,1,0,43,0,0
254735,-137.875503934967,4,1,0,43,0,0
254844,-140.2839346838,4,1,0,43,0,0
254899,-141.519780927379,4,1,0,43,0,0
254953,-142.777799194448,4,1,0,43,0,0
255062,-145.361936686155,4,1,0,43,0,0
255172,-148.041558226225,4,1,0,43,0,0
255390,-153.708053072317,4,1,0,43,0,0
255500,-156.707389693668,4,1,0,43,0,0
255718,-163.07095217129,4,1,0,43,0,0
255828,-166.450835416743,4,1,0,43,0,0
263041,-166.666666666667,4,1,0,43,0,0
263150,-156.25,4,1,0,43,0,0
263205,-151.515151515152,4,1,0,43,0,0
263259,-147.058823529412,4,1,0,43,0,0
263314,-142.857142857143,4,1,0,43,0,0
263368,-138.888888888889,4,1,0,43,0,0
263478,-131.578947368421,4,1,0,43,0,0
263587,-125,4,1,0,43,0,0
263642,-100,4,1,0,80,0,0
265500,-166.666666666667,4,1,0,40,0,0
266319,-125,4,1,0,60,0,0
266920,-100,4,1,0,80,0,0
267030,-166.666666666667,4,1,0,60,0,0
268724,-166.666666666667,4,1,0,60,0,0
268778,-160,4,1,0,60,0,0
268833,-153.846153846154,4,1,0,60,0,0
268888,-148.148148148148,4,1,0,60,0,0
268942,-142.857142857143,4,1,0,60,0,0
269052,-133.333333333333,4,1,0,60,0,0
269161,-125,4,1,0,60,0,0
269270,-111.111111111111,4,1,0,80,0,0
269653,-142.857142857143,4,1,0,60,0,0
272166,-100,4,1,0,80,0,0
273532,-142.857142857143,4,1,0,60,0,0
273860,-132.307684165681,4,1,0,60,0,0
274079,-126.099747422206,4,1,0,60,0,0
274188,-123.209154933048,4,1,0,60,0,0
274297,-120.44811516767,4,1,0,60,0,0
274407,-117.808248226691,4,1,0,60,0,0
274461,-100,4,1,0,80,0,0
274899,-117.647058823529,4,1,0,60,0,0
276101,-100,4,1,0,80,0,0
276210,-117.647058823529,4,1,0,60,0,0
277412,-100,4,1,0,80,0,0
277521,-117.647058823529,4,1,0,60,0,0
278724,-100,4,1,0,80,0,0
278833,-117.647058823529,4,1,0,60,0,0
280035,-100,4,1,0,80,0,0
280144,-117.647058823529,4,1,0,60,0,0
280418,-117.647058823529,4,1,0,60,0,0
280527,-117.021338841138,4,1,0,60,0,0
280636,-116.402104084433,4,1,0,60,0,0
280746,-115.789522437694,4,1,0,60,0,0
280855,-115.183221951158,4,1,0,60,0,0
280964,-114.583369140636,4,1,0,60,0,0
281073,-113.989601868518,4,1,0,60,0,0
281183,-113.402085237543,4,1,0,60,0,0
281292,-112.820466535193,4,1,0,60,0,0
281401,-112.244909412746,4,1,0,60,0,0
281511,-111.6750702157,4,1,0,60,0,0
281620,-111.111111111111,4,1,0,60,0,0
281729,-110.552819373276,4,1,0,60,0,0
281838,-109.999989000001,4,1,0,60,0,0
281948,-109.452779881703,4,1,0,60,0,0
282057,-108.9108695226,4,1,0,60,0,0
282166,-108.3744162683,4,1,0,60,0,0
282276,-107.843105536342,4,1,0,60,0,0
282385,-107.317094110653,4,1,0,60,0,0
282494,-106.79607503065,4,1,0,60,0,0
282603,-106.280203505334,4,1,0,60,0,0
282713,-105.769179918663,4,1,0,60,0,0
282822,-105.263157894737,4,1,0,60,0,0
282931,-104.76195464855,4,1,0,60,0,0
283041,-104.265392960626,4,1,0,60,0,0
283150,-103.773624065519,4,1,0,60,0,0
283259,-103.286365580025,4,1,0,60,0,0
283368,-102.803767141243,4,1,0,60,0,0
283478,-102.325552839381,4,1,0,60,0,0
283587,-101.851870713309,4,1,0,60,0,0
283696,-101.382451103244,4,1,0,60,0,0
283806,-100.917440451141,4,1,0,60,0,0
283915,-100.456575133984,4,1,0,60,0,0
284024,-100,4,1,0,60,0,0
285336,-100,4,1,0,100,0,1
295718,-100,4,1,0,100,0,0
296046,-111.111111111111,4,1,0,100,0,0
303696,-111.111111111111,4,1,0,100,0,0
303806,-110.60172870502,4,1,0,100,0,0
303915,-110.096995452994,4,1,0,100,0,0
304024,-109.596847994652,4,1,0,100,0,0
304079,-109.348414666684,4,1,0,100,0,0
304134,-109.101224115735,4,1,0,100,0,0
304243,-108.610062722311,4,1,0,100,0,0
304352,-108.123303815671,4,1,0,100,0,0
304407,-107.881498646627,4,1,0,100,0,0
304461,-107.640772602409,4,1,0,100,0,0
304516,-107.401233825374,4,1,0,100,0,0
304571,-107.162643959617,4,1,0,100,0,0
304680,-106.688744124117,4,1,0,100,0,0
304789,-106.219017240409,4,1,0,100,0,0
304844,-105.985757633889,4,1,0,100,0,0
304899,-105.753408432354,4,1,0,100,0,0
305008,-105.263157894737,4,1,0,100,0,0
305336,-109.090869421502,4,1,0,60,0,0
305445,-110.429393654285,4,1,0,60,0,0
305554,-111.801297789465,4,1,0,60,0,0
305664,-113.207589889657,4,1,0,60,0,0
305773,-114.64971073878,4,1,0,60,0,0
305882,-116.129047242458,4,1,0,60,0,0
305991,-117.647058823529,4,1,0,60,0,0
306319,-100,4,1,0,100,0,1
316811,-95.2380952380952,4,1,0,100,0,1
327303,-95.2380952380952,4,1,0,80,0,0
327849,-100,4,1,0,80,0,0
327959,-102.019371438249,4,1,0,80,0,0
328068,-104.121980983161,4,1,0,80,0,0
328177,-106.31297050134,4,1,0,80,0,0
328287,-108.598267857628,4,1,0,80,0,0
328396,-110.983972804487,4,1,0,80,0,0
328505,-113.476851289721,4,1,0,80,0,0
328614,-100,4,1,0,100,0,0

[HitObjects]
256,192,4680,12,0,12221,0:0:0:0:
256,194,12549,5,8,0:0:0:0:
256,194,13860,1,8,0:0:0:0:
256,194,15172,1,0,0:0:0:0:
256,194,17795,1,8,0:0:0:0:
256,194,19106,1,8,0:0:0:0:
256,194,20418,1,0,0:0:0:0:
256,194,22385,1,0,0:0:0:0:
256,194,23041,1,8,0:0:0:0:
256,192,24352,1,8,0:0:0:0:
252,192,25664,1,8,0:0:0:0:
256,192,26975,1,0,0:0:0:0:
256,192,28287,1,0,0:0:0:0:
256,192,30254,1,8,0:0:0:0:
256,192,30909,1,0,0:0:0:0:
256,192,32221,1,8,0:0:0:0:
256,192,33532,1,4,0:0:0:0:
256,192,34844,1,8,0:0:0:0:
256,192,36155,1,0,0:0:0:0:
256,192,38778,1,8,0:0:0:0:
256,192,40090,1,8,0:0:0:0:
256,192,41401,1,0,0:0:0:0:
256,192,44024,1,8,0:0:0:0:
256,192,44516,1,0,0:0:0:0:
256,192,44680,1,8,0:0:0:0:
256,192,45336,1,8,0:0:0:0:
256,192,46647,1,0,0:0:0:0:
256,192,49270,1,0,0:0:0:0:
256,192,49762,1,0,0:0:0:0:
256,192,49926,1,8,0:0:0:0:
256,192,50090,1,8,0:0:0:0:
256,192,50582,1,0,0:0:0:0:
256,192,51565,1,8,0:0:0:0:
256,192,51893,1,0,0:0:0:0:
256,192,52549,1,0,0:0:0:0:
256,192,52713,1,0,0:0:0:0:
256,192,53041,1,8,0:0:0:0:
256,192,53205,1,0,0:0:0:0:
256,192,53532,1,8,0:0:0:0:
256,192,53614,1,8,0:0:0:0:
256,192,53696,1,0,0:0:0:0:
256,192,53778,1,0,0:0:0:0:
256,192,53860,1,0,0:0:0:0:
256,192,53942,1,0,0:0:0:0:
256,192,54024,1,8,0:0:0:0:
256,192,54106,1,8,0:0:0:0:
256,192,54188,1,0,0:0:0:0:
256,192,54270,1,0,0:0:0:0:
256,192,54352,1,8,0:0:0:0:
256,192,54434,1,8,0:0:0:0:
256,192,54516,1,0,0:0:0:0:
256,192,54844,1,0,0:0:0:0:
256,192,55062,1,8,0:0:0:0:
256,192,55281,1,0,0:0:0:0:
256,192,55500,1,8,0:0:0:0:
256,192,55718,1,8,0:0:0:0:
256,192,55828,1,0,0:0:0:0:
256,192,56155,1,0,0:0:0:0:
256,192,56265,1,8,0:0:0:0:
256,192,56374,1,8,0:0:0:0:
256,192,56593,1,8,0:0:0:0:
256,192,56811,1,0,0:0:0:0:
256,192,57030,1,0,0:0:0:0:
256,192,57139,1,8,0:0:0:0:
256,192,57358,1,0,0:0:0:0:
256,192,57467,1,8,0:0:0:0:
256,192,57576,1,8,0:0:0:0:
256,192,57685,1,0,0:0:0:0:
256,192,57795,1,0,0:0:0:0:
256,192,58013,1,8,0:0:0:0:
256,192,58123,1,0,0:0:0:0:
256,192,58232,1,8,0:0:0:0:
256,192,58341,1,8,0:0:0:0:
256,192,58450,1,0,0:0:0:0:
256,192,58669,1,0,0:0:0:0:
256,192,58778,1,8,0:0:0:0:
256,192,58888,1,8,0:0:0:0:
256,192,58997,1,0,0:0:0:0:
256,192,59215,1,8,0:0:0:0:
256,192,59434,1,0,0:0:0:0:
256,192,59653,1,8,0:0:0:0:
256,192,59762,1,8,0:0:0:0:
256,192,60090,1,0,0:0:0:0:
256,192,60199,1,8,0:0:0:0:
256,192,60308,1,0,0:0:0:0:
256,192,60418,1,0,0:0:0:0:
256,192,60527,1,8,0:0:0:0:
256,192,60746,1,8,0:0:0:0:
256,192,60964,1,8,0:0:0:0:
256,192,61073,1,0,0:0:0:0:
256,192,61292,1,0,0:0:0:0:
256,192,61401,1,8,0:0:0:0:
256,192,61511,1,8,0:0:0:0:
256,192,61620,1,0,0:0:0:0:
256,192,61838,1,8,0:0:0:0:
256,192,62057,1,0,0:0:0:0:
256,192,62276,1,8,0:0:0:0:
256,192,62385,1,0,0:0:0:0:
256,192,62603,1,0,0:0:0:0:
256,192,62713,1,8,0:0:0:0:
256,192,62822,1,0,0:0:0:0:
256,192,62931,1,8,0:0:0:0:
256,192,63041,1,8,0:0:0:0:
256,192,63150,1,8,0:0:0:0:
256,192,63259,1,0,0:0:0:0:
256,192,63368,1,0,0:0:0:0:
256,192,63478,1,8,0:0:0:0:
256,192,63587,1,0,0:0:0:0:
256,192,63696,1,0,0:0:0:0:
256,192,63860,1,0,0:0:0:0:
256,192,63915,1,0,0:0:0:0:
256,192,63970,1,0,0:0:0:0:
256,192,64024,1,8,0:0:0:0:
256,192,64134,1,0,0:0:0:0:
256,192,64188,1,8,0:0:0:0:
256,192,64243,1,8,0:0:0:0:
256,192,64297,1,8,0:0:0:0:
256,192,64352,1,4,0:0:0:0:
256,192,64571,1,4,0:0:0:0:
256,192,64789,1,4,0:0:0:0:
256,192,65008,1,4,0:0:0:0:
256,192,65336,1,0,0:0:0:0:
256,192,65445,1,8,0:0:0:0:
256,192,65554,1,8,0:0:0:0:
256,192,65664,1,0,0:0:0:0:
256,192,65991,1,8,0:0:0:0:
256,192,66210,1,8,0:0:0:0:
256,192,66319,1,0,0:0:0:0:
256,192,66647,1,0,0:0:0:0:
256,192,66756,1,0,0:0:0:0:
256,192,66866,1,8,0:0:0:0:
256,192,66975,1,0,0:0:0:0:
256,192,67194,1,0,0:0:0:0:
256,192,67303,1,8,0:0:0:0:
256,192,67412,1,0,0:0:0:0:
256,192,67522,1,8,0:0:0:0:
256,192,67631,1,4,0:0:0:0:
256,192,67959,1,8,0:0:0:0:
256,192,68068,1,8,0:0:0:0:
256,192,68177,1,0,0:0:0:0:
256,192,68287,1,8,0:0:0:0:
256,192,68396,1,8,0:0:0:0:
256,192,68505,1,0,0:0:0:0:
256,192,68614,1,0,0:0:0:0:
256,192,68724,1,8,0:0:0:0:
256,192,68833,1,0,0:0:0:0:
256,192,68942,1,0,0:0:0:0:
256,192,69161,1,0,0:0:0:0:
256,192,69270,1,8,0:0:0:0:
256,192,69379,1,8,0:0:0:0:
256,192,69434,1,0,0:0:0:0:
256,192,69489,1,0,0:0:0:0:
256,192,69543,1,0,0:0:0:0:
256,192,69598,1,8,0:0:0:0:
256,192,69707,1,8,0:0:0:0:
256,192,69817,1,8,0:0:0:0:
256,192,69926,1,4,0:0:0:0:
256,192,70035,1,8,0:0:0:0:
256,192,70144,1,8,0:0:0:0:
256,192,70254,1,4,0:0:0:0:
256,192,70472,1,8,0:0:0:0:
256,192,70582,1,0,0:0:0:0:
256,192,70691,1,0,0:0:0:0:
256,192,70800,1,8,0:0:0:0:
256,192,70909,1,0,0:0:0:0:
256,192,71019,1,0,0:0:0:0:
256,192,71128,1,8,0:0:0:0:
256,192,71237,1,0,0:0:0:0:
256,192,71347,1,0,0:0:0:0:
256,192,71456,1,8,0:0:0:0:
256,192,71565,1,4,0:0:0:0:
256,192,71784,1,8,0:0:0:0:
256,192,71893,1,8,0:0:0:0:
256,192,72002,1,0,0:0:0:0:
256,192,72112,1,0,0:0:0:0:
256,192,72221,1,0,0:0:0:0:
256,192,72330,1,8,0:0:0:0:
256,192,72440,1,8,0:0:0:0:
256,192,72549,1,0,0:0:0:0:
256,192,72658,1,8,0:0:0:0:
256,192,72767,1,8,0:0:0:0:
256,192,72877,1,4,0:0:0:0:
256,192,72986,1,8,0:0:0:0:
256,192,73095,1,0,0:0:0:0:
256,192,73205,1,0,0:0:0:0:
256,192,73314,1,8,0:0:0:0:
256,192,73423,1,8,0:0:0:0:
256,192,73532,1,4,0:0:0:0:
256,192,73642,1,8,0:0:0:0:
256,192,73751,1,0,0:0:0:0:
256,192,73860,1,0,0:0:0:0:
256,192,73970,1,8,0:0:0:0:
256,192,74079,1,8,0:0:0:0:
256,192,74188,1,4,0:0:0:0:
256,192,74297,1,8,0:0:0:0:
256,192,74407,1,0,0:0:0:0:
256,192,74516,1,0,0:0:0:0:
256,192,74625,1,8,0:0:0:0:
256,192,74735,1,8,0:0:0:0:
256,192,74844,1,0,0:0:0:0:
256,192,75172,1,0,0:0:0:0:
256,192,75500,1,4,0:0:0:0:
256,192,75828,1,12,0:0:0:0:
256,192,76046,1,0,0:0:0:0:
256,192,76155,1,8,0:0:0:0:
256,192,76210,1,8,0:0:0:0:
256,192,76265,1,8,0:0:0:0:
256,192,76374,1,0,0:0:0:0:
256,192,76483,1,8,0:0:0:0:
256,192,76702,1,8,0:0:0:0:
256,192,76811,1,0,0:0:0:0:
256,192,76866,1,0,0:0:0:0:
256,192,76920,1,8,0:0:0:0:
256,192,77030,1,8,0:0:0:0:
256,192,77139,1,0,0:0:0:0:
256,192,77358,1,0,0:0:0:0:
256,192,77467,1,8,0:0:0:0:
256,192,77795,1,8,0:0:0:0:
256,192,78013,1,0,0:0:0:0:
256,192,78123,1,0,0:0:0:0:
256,192,78450,1,8,0:0:0:0:
256,192,78778,1,8,0:0:0:0:
256,192,78833,1,8,0:0:0:0:
256,192,78888,1,0,0:0:0:0:
256,192,78997,1,0,0:0:0:0:
256,192,79106,1,8,0:0:0:0:
256,192,79325,1,0,0:0:0:0:
256,192,79434,1,8,0:0:0:0:
256,192,79489,1,8,0:0:0:0:
256,192,79543,1,8,0:0:0:0:
256,192,79653,1,8,0:0:0:0:
256,192,79762,1,0,0:0:0:0:
256,192,79981,1,8,0:0:0:0:
256,192,80090,1,0,0:0:0:0:
256,192,80418,1,8,0:0:0:0:
256,192,80746,1,4,0:0:0:0:
256,192,81073,1,8,0:0:0:0:
256,192,81292,1,0,0:0:0:0:
256,192,81401,1,8,0:0:0:0:
256,192,81456,1,8,0:0:0:0:
256,192,81511,1,0,0:0:0:0:
256,192,81620,1,0,0:0:0:0:
256,192,81729,1,8,0:0:0:0:
256,192,81948,1,0,0:0:0:0:
256,192,82057,1,8,0:0:0:0:
256,192,82276,1,8,0:0:0:0:
256,192,82385,1,0,0:0:0:0:
256,192,82603,1,8,0:0:0:0:
256,192,82713,1,8,0:0:0:0:
256,192,82931,1,0,0:0:0:0:
256,192,83041,1,0,0:0:0:0:
256,192,83259,1,0,0:0:0:0:
256,192,83368,1,8,0:0:0:0:
256,192,83696,1,8,0:0:0:0:
256,192,84024,1,0,0:0:0:0:
256,192,84079,1,0,0:0:0:0:
256,192,84134,1,8,0:0:0:0:
256,192,84243,1,8,0:0:0:0:
256,192,84352,1,0,0:0:0:0:
256,192,84571,1,8,0:0:0:0:
256,192,84680,1,0,0:0:0:0:
256,192,84735,1,0,0:0:0:0:
256,192,84789,1,0,0:0:0:0:
256,192,84899,1,8,0:0:0:0:
256,192,85008,1,0,0:0:0:0:
256,192,85226,1,0,0:0:0:0:
256,192,85336,1,8,0:0:0:0:
256,192,85390,1,8,0:0:0:0:
256,192,85445,1,0,0:0:0:0:
256,192,85554,1,8,0:0:0:0:
256,192,85664,1,0,0:0:0:0:
256,192,85718,1,0,0:0:0:0:
256,192,85773,1,8,0:0:0:0:
256,192,85828,1,8,0:0:0:0:
256,192,85882,1,8,0:0:0:0:
256,192,85937,1,8,0:0:0:0:
256,192,85991,1,4,0:0:0:0:
256,192,86319,1,8,0:0:0:0:
256,192,86538,1,0,0:0:0:0:
256,192,86647,1,8,0:0:0:0:
256,192,86702,1,8,0:0:0:0:
256,192,86756,1,0,0:0:0:0:
256,192,86866,1,0,0:0:0:0:
256,192,86975,1,8,0:0:0:0:
256,192,87194,1,0,0:0:0:0:
256,192,87303,1,8,0:0:0:0:
256,192,87522,1,8,0:0:0:0:
256,192,87631,1,0,0:0:0:0:
256,192,87849,1,8,0:0:0:0:
256,192,87959,1,0,0:0:0:0:
256,192,88287,1,8,0:0:0:0:
256,192,88505,1,0,0:0:0:0:
256,192,88614,1,0,0:0:0:0:
256,192,88942,1,8,0:0:0:0:
256,192,89270,1,8,0:0:0:0:
256,192,89325,1,8,0:0:0:0:
256,192,89379,1,0,0:0:0:0:
256,192,89489,1,0,0:0:0:0:
256,192,89598,1,8,0:0:0:0:
256,192,89817,1,0,0:0:0:0:
256,192,89926,1,8,0:0:0:0:
256,192,89981,1,8,0:0:0:0:
256,192,90035,1,8,0:0:0:0:
256,192,90144,1,0,0:0:0:0:
256,192,90254,1,8,0:0:0:0:
256,192,90472,1,0,0:0:0:0:
256,192,90582,1,8,0:0:0:0:
256,192,91237,1,0,0:0:0:0:
256,192,91292,1,0,0:0:0:0:
256,192,91347,1,8,0:0:0:0:
256,192,91401,1,8,0:0:0:0:
256,192,91456,1,0,0:0:0:0:
256,192,91511,1,0,0:0:0:0:
256,192,91565,1,8,0:0:0:0:
256,192,91620,1,0,0:0:0:0:
256,192,91675,1,8,0:0:0:0:
256,192,91729,1,0,0:0:0:0:
256,192,91784,1,8,0:0:0:0:
256,192,91893,1,8,0:0:0:0:
256,192,91948,1,8,0:0:0:0:
256,192,92002,1,0,0:0:0:0:
256,192,92112,1,0,0:0:0:0:
256,192,92221,1,8,0:0:0:0:
256,192,92440,1,0,0:0:0:0:
256,192,92549,1,8,0:0:0:0:
256,192,92603,1,8,0:0:0:0:
256,192,92658,1,0,0:0:0:0:
256,192,92767,1,0,0:0:0:0:
256,192,92877,1,8,0:0:0:0:
256,192,93095,1,0,0:0:0:0:
256,192,93205,1,0,0:0:0:0:
256,192,93423,1,8,0:0:0:0:
256,192,93532,1,8,0:0:0:0:
256,192,93751,1,8,0:0:0:0:
256,192,93860,1,4,0:0:0:0:
256,192,94188,1,12,0:0:0:0:
256,192,94516,1,0,0:0:0:0:
256,192,94571,1,0,0:0:0:0:
256,192,94625,1,8,0:0:0:0:
256,192,94735,1,0,0:0:0:0:
256,192,94844,1,8,0:0:0:0:
256,192,95062,1,8,0:0:0:0:
256,192,95172,1,8,0:0:0:0:
256,192,95226,1,0,0:0:0:0:
256,192,95281,1,8,0:0:0:0:
256,192,95390,1,8,0:0:0:0:
256,192,95500,1,0,0:0:0:0:
256,192,95554,1,8,0:0:0:0:
256,192,95609,1,8,0:0:0:0:
256,192,95718,1,0,0:0:0:0:
256,192,95828,1,8,0:0:0:0:
256,192,95882,1,0,0:0:0:0:
256,192,95937,1,0,0:0:0:0:
256,192,96046,1,8,0:0:0:0:
256,192,96155,1,0,0:0:0:0:
256,192,96210,1,0,0:0:0:0:
256,192,96265,1,8,0:0:0:0:
256,192,96319,1,8,0:0:0:0:
256,192,96374,1,8,0:0:0:0:
256,192,96429,1,8,0:0:0:0:
256,192,96483,1,4,0:0:0:0:
256,192,96811,1,8,0:0:0:0:
256,192,97139,1,0,0:0:0:0:
256,192,97248,1,0,0:0:0:0:
256,192,97358,1,0,0:0:0:0:
256,192,97467,1,8,0:0:0:0:
256,192,97685,1,0,0:0:0:0:
256,192,97795,1,8,0:0:0:0:
256,192,98013,1,0,0:0:0:0:
256,192,98123,1,8,0:0:0:0:
256,192,98450,1,0,0:0:0:0:
256,192,98669,1,8,0:0:0:0:
256,192,98778,1,0,0:0:0:0:
256,192,98997,1,0,0:0:0:0:
256,192,99106,1,8,0:0:0:0:
256,192,99434,1,0,0:0:0:0:
256,192,99762,1,0,0:0:0:0:
256,192,99871,1,8,0:0:0:0:
256,192,99981,1,8,0:0:0:0:
256,192,100090,1,0,0:0:0:0:
256,192,100308,1,0,0:0:0:0:
256,192,100418,1,8,0:0:0:0:
256,192,100472,1,8,0:0:0:0:
256,192,100527,1,0,0:0:0:0:
256,192,100636,1,8,0:0:0:0:
256,192,100746,1,0,0:0:0:0:
256,192,100964,1,8,0:0:0:0:
256,192,101073,1,0,0:0:0:0:
256,192,101401,1,0,0:0:0:0:
256,192,101729,1,8,0:0:0:0:
256,192,101784,1,8,0:0:0:0:
256,192,101838,1,8,0:0:0:0:
256,192,101948,1,0,0:0:0:0:
256,192,102057,1,8,0:0:0:0:
256,192,102385,1,0,0:0:0:0:
256,192,102603,1,8,0:0:0:0:
256,192,102713,1,0,0:0:0:0:
256,192,102931,1,8,0:0:0:0:
256,192,103041,1,8,0:0:0:0:
256,192,103259,1,0,0:0:0:0:
256,192,103368,1,8,0:0:0:0:
256,192,103587,1,0,0:0:0:0:
256,192,103696,1,0,0:0:0:0:
256,192,103915,1,0,0:0:0:0:
256,192,104024,1,8,0:0:0:0:
256,192,104243,1,0,0:0:0:0:
256,192,104352,1,0,0:0:0:0:
256,192,104571,1,8,0:0:0:0:
256,192,104680,1,0,0:0:0:0:
256,192,105008,1,8,0:0:0:0:
256,192,105062,1,8,0:0:0:0:
256,192,105117,1,0,0:0:0:0:
256,192,105226,1,0,0:0:0:0:
256,192,105336,1,8,0:0:0:0:
256,192,105554,1,0,0:0:0:0:
256,192,105664,1,8,0:0:0:0:
256,192,105718,1,0,0:0:0:0:
256,192,105773,1,8,0:0:0:0:
256,192,105882,1,0,0:0:0:0:
256,192,105991,1,8,0:0:0:0:
256,192,106210,1,0,0:0:0:0:
256,192,106319,1,8,0:0:0:0:
256,192,106374,1,8,0:0:0:0:
256,192,106429,1,8,0:0:0:0:
256,192,106538,1,0,0:0:0:0:
256,192,106647,1,8,0:0:0:0:
256,192,106702,1,8,0:0:0:0:
256,192,106756,1,0,0:0:0:0:
256,192,106811,1,0,0:0:0:0:
256,192,106866,1,0,0:0:0:0:
256,192,106920,1,0,0:0:0:0:
256,192,106975,1,12,0:0:0:0:
256,192,107303,1,0,0:0:0:0:
256,192,107631,1,8,0:0:0:0:
256,192,107685,1,8,0:0:0:0:
256,192,107740,1,8,0:0:0:0:
256,192,107849,1,0,0:0:0:0:
256,192,107959,1,0,0:0:0:0:
256,192,108177,1,0,0:0:0:0:
256,192,108287,1,8,0:0:0:0:
256,192,108505,1,0,0:0:0:0:
256,192,108614,1,8,0:0:0:0:
256,192,108833,1,0,0:0:0:0:
256,192,108942,1,12,0:0:0:0:
256,192,109161,1,12,0:0:0:0:
256,192,109379,1,12,0:0:0:0:
256,192,109598,1,4,0:0:0:0:
256,192,110090,1,8,0:0:0:0:
256,192,110254,1,0,0:0:0:0:
256,192,110746,1,8,0:0:0:0:
256,192,110800,1,0,0:0:0:0:
256,192,110855,1,0,0:0:0:0:
256,192,110909,1,8,0:0:0:0:
256,192,111019,1,0,0:0:0:0:
256,192,111128,1,0,0:0:0:0:
256,192,111237,1,8,0:0:0:0:
256,192,111347,1,0,0:0:0:0:
256,192,111456,1,0,0:0:0:0:
256,192,111565,1,8,0:0:0:0:
256,192,111675,1,0,0:0:0:0:
256,192,111784,1,0,0:0:0:0:
256,192,111893,1,8,0:0:0:0:
256,192,112221,1,12,0:0:0:0:
256,192,112549,1,0,0:0:0:0:
256,192,112767,1,0,0:0:0:0:
256,192,112822,1,0,0:0:0:0:
256,192,112877,1,8,0:0:0:0:
256,192,112931,1,8,0:0:0:0:
256,192,112986,1,0,0:0:0:0:
256,192,113095,1,8,0:0:0:0:
256,192,113205,1,0,0:0:0:0:
256,192,113423,1,8,0:0:0:0:
256,192,113478,1,8,0:0:0:0:
256,192,113532,1,0,0:0:0:0:
256,192,113751,1,8,0:0:0:0:
256,192,113806,1,8,0:0:0:0:
256,192,113860,1,0,0:0:0:0:
256,192,114079,1,0,0:0:0:0:
256,192,114134,1,0,0:0:0:0:
256,192,114188,1,12,0:0:0:0:
256,192,114407,1,12,0:0:0:0:
256,192,114625,1,12,0:0:0:0:
256,192,114844,1,12,0:0:0:0:
256,192,115172,5,0,0:0:0:0:
256,192,115281,1,8,0:0:0:0:
256,192,115390,1,8,0:0:0:0:
256,192,115500,1,0,0:0:0:0:
256,192,115609,1,8,0:0:0:0:
256,192,115718,1,0,0:0:0:0:
256,192,115828,1,0,0:0:0:0:
256,192,115937,1,8,0:0:0:0:
256,192,115991,1,8,0:0:0:0:
256,192,116046,1,0,0:0:0:0:
256,192,116101,1,0,0:0:0:0:
256,192,116155,1,8,0:0:0:0:
256,192,116265,1,8,0:0:0:0:
256,192,116374,1,0,0:0:0:0:
256,192,116429,1,0,0:0:0:0:
256,192,116483,1,8,0:0:0:0:
256,192,116538,1,8,0:0:0:0:
256,192,116593,1,0,0:0:0:0:
256,192,116702,1,8,0:0:0:0:
256,192,116811,1,4,0:0:0:0:
256,192,116920,1,8,0:0:0:0:
256,192,117030,1,8,0:0:0:0:
256,192,117139,1,4,0:0:0:0:
256,192,117248,1,8,0:0:0:0:
256,192,117358,1,8,0:0:0:0:
256,192,117467,1,4,0:0:0:0:
256,192,117685,1,0,0:0:0:0:
256,192,117795,1,8,0:0:0:0:
256,192,117904,1,0,0:0:0:0:
256,192,117959,1,0,0:0:0:0:
256,192,118013,1,8,0:0:0:0:
256,192,118068,1,8,0:0:0:0:
256,192,118123,1,0,0:0:0:0:
256,192,118341,1,8,0:0:0:0:
256,192,118450,1,8,0:0:0:0:
256,192,118669,1,8,0:0:0:0:
256,192,118778,1,8,0:0:0:0:
256,192,118997,1,8,0:0:0:0:
256,192,119106,1,0,0:0:0:0:
256,192,119215,1,0,0:0:0:0:
256,192,119325,1,0,0:0:0:0:
256,192,119434,1,12,0:0:0:0:
256,192,119653,1,12,0:0:0:0:
256,192,119871,1,12,0:0:0:0:
256,192,120090,1,4,0:0:0:0:
256,192,120308,1,0,0:0:0:0:
256,192,120418,1,8,0:0:0:0:
256,192,120472,1,8,0:0:0:0:
256,192,120527,1,0,0:0:0:0:
256,192,120636,1,8,0:0:0:0:
256,192,120746,1,0,0:0:0:0:
256,192,120964,1,8,0:0:0:0:
256,192,121073,1,8,0:0:0:0:
256,192,121292,1,8,0:0:0:0:
256,192,121401,1,0,0:0:0:0:
256,192,121620,1,0,0:0:0:0:
256,192,121729,1,8,0:0:0:0:
256,192,121838,1,0,0:0:0:0:
256,192,121893,1,0,0:0:0:0:
256,192,121948,1,0,0:0:0:0:
256,192,122057,1,8,0:0:0:0:
256,192,122276,1,8,0:0:0:0:
256,192,122385,1,0,0:0:0:0:
256,192,122440,1,0,0:0:0:0:
256,192,122494,1,8,0:0:0:0:
256,192,122603,1,8,0:0:0:0:
256,192,122713,1,4,0:0:0:0:
256,192,122931,1,0,0:0:0:0:
256,192,123041,1,8,0:0:0:0:
256,192,123095,1,8,0:0:0:0:
256,192,123150,1,0,0:0:0:0:
256,192,123259,1,0,0:0:0:0:
256,192,123368,1,8,0:0:0:0:
256,192,123587,1,8,0:0:0:0:
256,192,123696,1,8,0:0:0:0:
256,192,123915,1,8,0:0:0:0:
256,192,124024,1,8,0:0:0:0:
256,192,124243,1,8,0:0:0:0:
256,192,124352,1,0,0:0:0:0:
256,192,124407,1,0,0:0:0:0:
256,192,124461,1,8,0:0:0:0:
256,192,124571,1,0,0:0:0:0:
256,192,124680,1,12,0:0:0:0:
256,192,124899,1,12,0:0:0:0:
256,192,125117,1,12,0:0:0:0:
256,192,125336,1,4,0:0:0:0:
256,192,125554,1,8,0:0:0:0:
256,192,125664,1,0,0:0:0:0:
256,192,125718,1,0,0:0:0:0:
256,192,125773,1,0,0:0:0:0:
256,192,125882,1,0,0:0:0:0:
256,192,125991,1,8,0:0:0:0:
256,192,126210,1,8,0:0:0:0:
256,192,126319,1,8,0:0:0:0:
256,192,126429,1,0,0:0:0:0:
256,192,126483,1,0,0:0:0:0:
256,192,126538,1,0,0:0:0:0:
256,192,126593,1,0,0:0:0:0:
256,192,126647,1,8,0:0:0:0:
256,192,126756,1,0,0:0:0:0:
256,192,126866,1,8,0:0:0:0:
256,192,126975,1,0,0:0:0:0:
256,192,127084,1,8,0:0:0:0:
256,192,127194,1,0,0:0:0:0:
256,192,127303,1,8,0:0:0:0:
256,192,127358,1,8,0:0:0:0:
256,192,127412,1,0,0:0:0:0:
256,192,127522,1,0,0:0:0:0:
256,192,127631,1,8,0:0:0:0:
256,192,127685,1,8,0:0:0:0:
256,192,127740,1,0,0:0:0:0:
256,192,127849,1,0,0:0:0:0:
256,192,127959,1,12,0:0:0:0:
256,192,128177,1,0,0:0:0:0:
256,192,128287,1,8,0:0:0:0:
256,192,128341,1,8,0:0:0:0:
256,192,128396,1,0,0:0:0:0:
256,192,128505,1,8,0:0:0:0:
256,192,128614,1,4,0:0:0:0:
256,192,128833,1,12,0:0:0:0:
256,192,129052,1,12,0:0:0:0:
256,192,129270,1,4,0:0:0:0:
256,192,129489,1,4,0:0:0:0:
256,192,129707,1,12,0:0:0:0:
256,192,129817,1,8,0:0:0:0:
256,192,129926,1,4,0:0:0:0:
256,192,130144,1,8,0:0:0:0:
256,192,130254,1,0,0:0:0:0:
256,192,130308,1,0,0:0:0:0:
256,192,130363,1,8,0:0:0:0:
256,192,130472,1,8,0:0:0:0:
256,192,130582,1,0,0:0:0:0:
256,192,130800,1,0,0:0:0:0:
256,192,130909,1,8,0:0:0:0:
256,192,131019,1,0,0:0:0:0:
256,192,131073,1,0,0:0:0:0:
256,192,131128,1,0,0:0:0:0:
256,192,131237,1,8,0:0:0:0:
256,192,131456,1,8,0:0:0:0:
256,192,131675,1,8,0:0:0:0:
256,192,131893,1,0,0:0:0:0:
256,192,132221,1,0,0:0:0:0:
256,192,132276,1,0,0:0:0:0:
256,192,132330,1,8,0:0:0:0:
256,192,132440,1,0,0:0:0:0:
256,192,132549,1,8,0:0:0:0:
256,192,132658,1,8,0:0:0:0:
256,192,132713,1,8,0:0:0:0:
256,192,132767,1,0,0:0:0:0:
256,192,132822,1,0,0:0:0:0:
256,192,132877,1,8,0:0:0:0:
256,192,133095,1,8,0:0:0:0:
256,192,133205,1,0,0:0:0:0:
256,192,133423,1,0,0:0:0:0:
256,192,133532,1,8,0:0:0:0:
256,192,133587,1,8,0:0:0:0:
256,192,133642,1,0,0:0:0:0:
256,192,133751,1,0,0:0:0:0:
256,192,133860,1,12,0:0:0:0:
256,192,134079,1,12,0:0:0:0:
256,192,134297,1,4,0:0:0:0:
256,192,134516,1,12,0:0:0:0:
256,192,134735,1,12,0:0:0:0:
256,192,134844,1,8,0:0:0:0:
256,192,134953,1,4,0:0:0:0:
256,192,135172,1,8,0:0:0:0:
256,192,135226,1,0,0:0:0:0:
256,192,135281,1,0,0:0:0:0:
256,192,135390,1,8,0:0:0:0:
256,192,135500,1,8,0:0:0:0:
256,192,135718,1,0,0:0:0:0:
256,192,135828,1,8,0:0:0:0:
256,192,136046,1,0,0:0:0:0:
256,192,136155,1,8,0:0:0:0:
256,192,136210,1,8,0:0:0:0:
256,192,136265,1,8,0:0:0:0:
256,192,136319,1,8,0:0:0:0:
256,192,136374,1,0,0:0:0:0:
256,192,136483,1,0,0:0:0:0:
256,192,136593,1,8,0:0:0:0:
256,192,136647,1,0,0:0:0:0:
256,192,136702,1,8,0:0:0:0:
256,192,136811,1,0,0:0:0:0:
256,192,136920,1,8,0:0:0:0:
256,192,136975,1,8,0:0:0:0:
256,192,137030,1,0,0:0:0:0:
256,192,137139,1,8,0:0:0:0:
256,192,137248,1,0,0:0:0:0:
256,192,137467,1,0,0:0:0:0:
256,192,137685,1,0,0:0:0:0:
256,192,137795,1,8,0:0:0:0:
256,192,137904,1,0,0:0:0:0:
256,192,137959,1,0,0:0:0:0:
256,192,138013,1,0,0:0:0:0:
256,192,138123,1,8,0:0:0:0:
256,192,138232,1,8,0:0:0:0:
256,192,138287,1,8,0:0:0:0:
256,192,138341,1,0,0:0:0:0:
256,192,138396,1,0,0:0:0:0:
256,192,138450,1,8,0:0:0:0:
256,192,138560,1,0,0:0:0:0:
256,192,138778,1,0,0:0:0:0:
256,192,138997,1,8,0:0:0:0:
256,192,139106,1,0,0:0:0:0:
256,192,139325,1,0,0:0:0:0:
256,192,139434,1,8,0:0:0:0:
256,192,139543,1,8,0:0:0:0:
256,192,139653,1,8,0:0:0:0:
256,192,139762,1,0,0:0:0:0:
256,192,139981,1,0,0:0:0:0:
256,192,140090,1,0,0:0:0:0:
256,192,140308,1,0,0:0:0:0:
256,192,140418,1,0,0:0:0:0:
256,192,140527,1,8,0:0:0:0:
256,192,140746,1,8,0:0:0:0:
256,192,140964,1,8,0:0:0:0:
256,192,141073,1,8,0:0:0:0:
256,192,141128,1,8,0:0:0:0:
256,192,141183,1,0,0:0:0:0:
256,192,141292,1,0,0:0:0:0:
256,192,141401,1,8,0:0:0:0:
256,192,141620,1,0,0:0:0:0:
256,192,141729,1,8,0:0:0:0:
256,192,141948,1,0,0:0:0:0:
256,192,142057,1,8,0:0:0:0:
256,192,142112,1,8,0:0:0:0:
256,192,142166,1,0,0:0:0:0:
256,192,142276,1,0,0:0:0:0:
256,192,142385,1,8,0:0:0:0:
256,192,142603,1,8,0:0:0:0:
256,192,142713,1,0,0:0:0:0:
256,192,142931,1,0,0:0:0:0:
256,192,143041,1,8,0:0:0:0:
256,192,143095,1,8,0:0:0:0:
256,192,143150,1,0,0:0:0:0:
256,192,143259,1,8,0:0:0:0:
256,192,143368,1,0,0:0:0:0:
256,192,143423,1,0,0:0:0:0:
256,192,143478,1,8,0:0:0:0:
256,192,143587,1,0,0:0:0:0:
256,192,143696,1,8,0:0:0:0:
256,192,143751,1,8,0:0:0:0:
256,192,143806,1,8,0:0:0:0:
256,192,143915,1,0,0:0:0:0:
256,192,144024,1,0,0:0:0:0:
256,192,144243,1,0,0:0:0:0:
256,192,144352,1,8,0:0:0:0:
256,192,144571,1,0,0:0:0:0:
256,192,144680,1,8,0:0:0:0:
256,192,144789,1,8,0:0:0:0:
233,181,144844,1,8,0:0:0:0:
256,192,144899,1,0,0:0:0:0:
256,192,145008,1,0,0:0:0:0:
256,192,145226,1,0,0:0:0:0:
256,192,145336,1,8,0:0:0:0:
256,192,145554,1,0,0:0:0:0:
256,192,145664,1,8,0:0:0:0:
256,192,145718,1,8,0:0:0:0:
256,192,145773,1,0,0:0:0:0:
256,192,145882,1,8,0:0:0:0:
250,191,145991,1,8,0:0:0:0:
256,192,146101,1,0,0:0:0:0:
256,192,146210,1,0,0:0:0:0:
252,184,146265,1,0,0:0:0:0:
256,192,146319,1,8,0:0:0:0:
256,192,146429,1,0,0:0:0:0:
261,190,146538,1,0,0:0:0:0:
256,192,146647,1,8,0:0:0:0:
256,192,146866,1,0,0:0:0:0:
256,192,146920,1,0,0:0:0:0:
256,192,146975,1,8,0:0:0:0:
256,192,147194,1,0,0:0:0:0:
256,192,147303,1,8,0:0:0:0:
256,192,147412,1,8,0:0:0:0:
256,192,147467,1,8,0:0:0:0:
256,192,147522,1,0,0:0:0:0:
256,192,147631,1,0,0:0:0:0:
233,181,147740,1,8,0:0:0:0:
256,192,147849,1,0,0:0:0:0:
256,192,147904,1,0,0:0:0:0:
256,192,147959,1,8,0:0:0:0:
256,192,148068,1,8,0:0:0:0:
256,192,148177,1,0,0:0:0:0:
256,192,148287,1,8,0:0:0:0:
256,192,148341,1,8,0:0:0:0:
256,192,148396,1,0,0:0:0:0:
256,192,148505,1,0,0:0:0:0:
256,192,148614,1,8,0:0:0:0:
256,192,148669,1,8,0:0:0:0:
256,192,148724,1,8,0:0:0:0:
256,192,148778,1,8,0:0:0:0:
256,192,148833,1,8,0:0:0:0:
256,192,148888,1,8,0:0:0:0:
256,192,148942,1,4,0:0:0:0:
256,192,149270,1,8,0:0:0:0:
256,192,149489,1,8,0:0:0:0:
256,192,149598,1,8,0:0:0:0:
256,192,149926,1,8,0:0:0:0:
256,192,150144,1,8,0:0:0:0:
256,192,150254,1,8,0:0:0:0:
256,192,150582,1,8,0:0:0:0:
256,192,150800,1,8,0:0:0:0:
256,192,150909,1,0,0:0:0:0:
256,192,151128,1,0,0:0:0:0:
256,192,151347,1,0,0:0:0:0:
256,192,151565,1,8,0:0:0:0:
256,192,151784,1,8,0:0:0:0:
256,192,151893,1,0,0:0:0:0:
256,192,152002,1,8,0:0:0:0:
256,192,152112,1,0,0:0:0:0:
256,192,152221,1,8,0:0:0:0:
256,192,152330,1,0,0:0:0:0:
256,192,152440,1,0,0:0:0:0:
256,192,152549,1,8,0:0:0:0:
256,192,152658,1,0,0:0:0:0:
256,192,152767,1,0,0:0:0:0:
256,192,152877,1,8,0:0:0:0:
256,192,153095,1,8,0:0:0:0:
256,192,153205,1,0,0:0:0:0:
256,192,153314,1,0,0:0:0:0:
256,192,153423,1,0,0:0:0:0:
256,192,153532,1,8,0:0:0:0:
256,192,153642,1,0,0:0:0:0:
256,192,153751,1,0,0:0:0:0:
256,192,153860,1,8,0:0:0:0:
256,192,153970,1,0,0:0:0:0:
256,192,154079,1,0,0:0:0:0:
256,192,154188,1,12,0:0:0:0:
256,192,154516,1,8,0:0:0:0:
256,192,154735,1,8,0:0:0:0:
256,192,154844,1,8,0:0:0:0:
256,192,155172,1,8,0:0:0:0:
256,192,155390,1,8,0:0:0:0:
256,192,155500,1,8,0:0:0:0:
256,192,155828,1,8,0:0:0:0:
256,192,156046,1,8,0:0:0:0:
256,192,156155,1,0,0:0:0:0:
256,192,156374,1,0,0:0:0:0:
256,192,156593,1,0,0:0:0:0:
256,192,156811,5,0,0:0:0:0:
256,192,157030,1,8,0:0:0:0:
256,192,157139,1,0,0:0:0:0:
256,192,157248,1,8,0:0:0:0:
256,192,157358,1,0,0:0:0:0:
256,192,157467,1,8,0:0:0:0:
256,192,157576,1,0,0:0:0:0:
256,192,157685,1,0,0:0:0:0:
256,192,157795,1,8,0:0:0:0:
256,192,157904,1,0,0:0:0:0:
256,192,158013,1,0,0:0:0:0:
256,192,158123,1,8,0:0:0:0:
256,192,158341,1,8,0:0:0:0:
256,192,158450,1,8,0:0:0:0:
256,192,158560,1,0,0:0:0:0:
256,192,158614,1,0,0:0:0:0:
256,192,158669,1,0,0:0:0:0:
256,192,158724,1,0,0:0:0:0:
256,192,158778,1,8,0:0:0:0:
256,192,158888,1,0,0:0:0:0:
256,192,158997,1,0,0:0:0:0:
256,192,159106,1,12,0:0:0:0:
256,192,159215,1,0,0:0:0:0:
256,192,159325,1,0,0:0:0:0:
256,192,159434,1,12,0:0:0:0:
256,192,159653,1,0,0:0:0:0:
256,192,159762,1,8,0:0:0:0:
256,192,159871,1,0,0:0:0:0:
256,192,159981,1,8,0:0:0:0:
256,192,160090,1,8,0:0:0:0:
256,192,160199,1,0,0:0:0:0:
256,192,160308,1,0,0:0:0:0:
256,192,160418,1,8,0:0:0:0:
256,192,160527,1,0,0:0:0:0:
256,192,160636,1,8,0:0:0:0:
256,192,160746,1,8,0:0:0:0:
256,192,160964,1,0,0:0:0:0:
256,192,161073,1,8,0:0:0:0:
256,192,161183,1,0,0:0:0:0:
256,192,161292,1,8,0:0:0:0:
256,192,161401,1,8,0:0:0:0:
256,192,161511,1,0,0:0:0:0:
256,192,161620,1,0,0:0:0:0:
256,192,161729,1,8,0:0:0:0:
256,192,161838,1,0,0:0:0:0:
256,192,161948,1,8,0:0:0:0:
256,192,162057,1,4,0:0:0:0:
256,192,162276,1,0,0:0:0:0:
256,192,162385,1,8,0:0:0:0:
256,192,162494,1,0,0:0:0:0:
256,192,162603,1,8,0:0:0:0:
256,192,162713,1,8,0:0:0:0:
256,192,162822,1,0,0:0:0:0:
256,192,162931,1,0,0:0:0:0:
256,192,163041,1,8,0:0:0:0:
256,192,163150,1,0,0:0:0:0:
256,192,163259,1,8,0:0:0:0:
256,192,163368,1,8,0:0:0:0:
256,192,163587,1,0,0:0:0:0:
256,192,163696,1,8,0:0:0:0:
256,192,163806,1,0,0:0:0:0:
256,192,163915,1,8,0:0:0:0:
256,192,164024,1,8,0:0:0:0:
256,192,164134,1,0,0:0:0:0:
256,192,164243,1,0,0:0:0:0:
256,192,164352,1,8,0:0:0:0:
256,192,164461,1,0,0:0:0:0:
256,192,164571,1,8,0:0:0:0:
256,192,164680,1,4,0:0:0:0:
256,192,164899,1,0,0:0:0:0:
256,192,165008,1,8,0:0:0:0:
256,192,165117,1,0,0:0:0:0:
256,192,165226,1,0,0:0:0:0:
256,192,165336,1,8,0:0:0:0:
256,192,165445,1,0,0:0:0:0:
256,192,165554,1,0,0:0:0:0:
256,192,165664,1,8,0:0:0:0:
256,192,165773,1,0,0:0:0:0:
256,192,165882,1,0,0:0:0:0:
256,192,165991,1,12,0:0:0:0:
256,192,166101,1,0,0:0:0:0:
256,192,166210,1,0,0:0:0:0:
256,192,166319,1,8,0:0:0:0:
256,192,166429,1,8,0:0:0:0:
256,192,166538,1,8,0:0:0:0:
256,192,166647,1,0,0:0:0:0:
256,192,166756,1,0,0:0:0:0:
256,192,166866,1,0,0:0:0:0:
256,192,166975,1,8,0:0:0:0:
256,192,167084,1,0,0:0:0:0:
256,192,167194,1,0,0:0:0:0:
256,192,167303,1,12,0:0:0:0:
256,192,167412,1,0,0:0:0:0:
256,192,167467,1,0,0:0:0:0:
256,192,167522,1,0,0:0:0:0:
256,192,167631,1,8,0:0:0:0:
256,192,167740,1,0,0:0:0:0:
256,192,167849,1,8,0:0:0:0:
256,192,167959,1,4,0:0:0:0:
256,192,168068,1,8,0:0:0:0:
256,192,168123,1,8,0:0:0:0:
256,192,168177,1,0,0:0:0:0:
256,192,168287,1,8,0:0:0:0:
256,192,168396,1,8,0:0:0:0:
256,192,168505,1,0,0:0:0:0:
256,192,168614,1,12,0:0:0:0:
256,192,168724,1,0,0:0:0:0:
256,192,168778,1,0,0:0:0:0:
256,192,168833,1,8,0:0:0:0:
256,192,168942,1,0,0:0:0:0:
256,192,168997,1,0,0:0:0:0:
256,192,169052,1,0,0:0:0:0:
256,192,169161,1,8,0:0:0:0:
256,192,169270,1,8,0:0:0:0:
256,192,169325,1,8,0:0:0:0:
256,192,169379,1,0,0:0:0:0:
256,192,169489,1,8,0:0:0:0:
256,192,169598,1,0,0:0:0:0:
256,192,169926,1,12,0:0:0:0:
256,192,170254,1,8,0:0:0:0:
256,192,170308,1,8,0:0:0:0:
256,192,170363,1,8,0:0:0:0:
256,192,170472,1,0,0:0:0:0:
256,192,170582,1,8,0:0:0:0:
256,192,170636,1,8,0:0:0:0:
256,192,170691,1,8,0:0:0:0:
256,192,170800,1,0,0:0:0:0:
256,192,170909,1,0,0:0:0:0:
256,192,170964,1,0,0:0:0:0:
256,192,171019,1,0,0:0:0:0:
256,192,171073,1,0,0:0:0:0:
256,192,171128,1,8,0:0:0:0:
256,192,171237,1,8,0:0:0:0:
256,192,171456,1,0,0:0:0:0:
256,192,171565,1,8,0:0:0:0:
256,192,171620,1,8,0:0:0:0:
256,192,171675,1,0,0:0:0:0:
256,192,171784,1,0,0:0:0:0:
256,192,171893,1,8,0:0:0:0:
256,192,171948,1,8,0:0:0:0:
256,192,172002,1,0,0:0:0:0:
256,192,172112,1,0,0:0:0:0:
256,192,172221,1,0,0:0:0:0:
256,192,172276,1,0,0:0:0:0:
256,192,172330,1,0,0:0:0:0:
256,192,172385,1,0,0:0:0:0:
256,192,172440,1,8,0:0:0:0:
256,192,172549,1,8,0:0:0:0:
256,192,172767,1,8,0:0:0:0:
256,192,172877,1,8,0:0:0:0:
256,192,172931,1,0,0:0:0:0:
256,192,172986,1,0,0:0:0:0:
256,192,173095,1,0,0:0:0:0:
256,192,173205,1,8,0:0:0:0:
256,192,173259,1,0,0:0:0:0:
256,192,173314,1,0,0:0:0:0:
256,192,173423,1,0,0:0:0:0:
256,192,173532,1,8,0:0:0:0:
256,192,173587,1,8,0:0:0:0:
256,192,173642,1,8,0:0:0:0:
256,192,173696,1,8,0:0:0:0:
256,192,173751,1,0,0:0:0:0:
256,192,173860,1,0,0:0:0:0:
256,192,173915,1,8,0:0:0:0:
256,192,173970,1,0,0:0:0:0:
256,192,174079,1,8,0:0:0:0:
256,192,174188,1,8,0:0:0:0:
256,192,174243,1,8,0:0:0:0:
256,192,174297,1,0,0:0:0:0:
256,192,174407,1,0,0:0:0:0:
256,192,174516,1,0,0:0:0:0:
256,192,174571,1,0,0:0:0:0:
256,192,174625,1,8,0:0:0:0:
256,192,174844,1,0,0:0:0:0:
256,192,175172,1,12,0:0:0:0:
256,192,175500,1,8,0:0:0:0:
256,192,175554,1,8,0:0:0:0:
256,192,175609,1,8,0:0:0:0:
256,192,175718,1,0,0:0:0:0:
256,192,175828,1,8,0:0:0:0:
256,192,175882,1,8,0:0:0:0:
256,192,175937,1,8,0:0:0:0:
256,192,176046,1,0,0:0:0:0:
256,192,176155,1,0,0:0:0:0:
256,192,176210,1,0,0:0:0:0:
256,192,176265,1,0,0:0:0:0:
256,192,176319,1,0,0:0:0:0:
256,192,176374,1,8,0:0:0:0:
256,192,176483,1,8,0:0:0:0:
256,192,176702,1,0,0:0:0:0:
256,192,176811,1,8,0:0:0:0:
256,192,176866,1,8,0:0:0:0:
256,192,176920,1,0,0:0:0:0:
256,192,177030,1,0,0:0:0:0:
256,192,177139,1,8,0:0:0:0:
256,192,177194,1,8,0:0:0:0:
256,192,177248,1,0,0:0:0:0:
256,192,177358,1,0,0:0:0:0:
256,192,177467,1,0,0:0:0:0:
256,192,177522,1,0,0:0:0:0:
256,192,177576,1,0,0:0:0:0:
256,192,177631,1,0,0:0:0:0:
256,192,177685,1,8,0:0:0:0:
256,192,177795,1,8,0:0:0:0:
256,192,178013,1,0,0:0:0:0:
256,192,178123,1,8,0:0:0:0:
256,192,178177,1,8,0:0:0:0:
256,192,178232,1,8,0:0:0:0:
256,192,178341,1,0,0:0:0:0:
256,192,178450,1,8,0:0:0:0:
256,192,178505,1,8,0:0:0:0:
256,192,178560,1,8,0:0:0:0:
256,192,178669,1,0,0:0:0:0:
256,192,178778,1,8,0:0:0:0:
256,192,178833,1,8,0:0:0:0:
256,192,178888,1,8,0:0:0:0:
256,192,178997,1,0,0:0:0:0:
256,192,179106,1,8,0:0:0:0:
256,192,179161,1,8,0:0:0:0:
256,192,179215,1,0,0:0:0:0:
256,192,179270,1,0,0:0:0:0:
256,192,179325,1,8,0:0:0:0:
256,192,179379,1,8,0:0:0:0:
256,192,179434,1,0,0:0:0:0:
256,192,179543,1,0,0:0:0:0:
256,192,179653,1,8,0:0:0:0:
256,192,179707,1,8,0:0:0:0:
256,192,179762,1,0,0:0:0:0:
256,192,180090,1,0,0:0:0:0:
256,192,180418,1,12,0:0:0:0:
256,192,180746,1,0,0:0:0:0:
256,192,180800,1,0,0:0:0:0:
256,192,180855,1,8,0:0:0:0:
256,192,180964,1,0,0:0:0:0:
256,192,181073,1,0,0:0:0:0:
256,192,181128,1,0,0:0:0:0:
256,192,181183,1,8,0:0:0:0:
256,192,181292,1,0,0:0:0:0:
256,192,181401,1,8,0:0:0:0:
256,192,181456,1,8,0:0:0:0:
256,192,181511,1,0,0:0:0:0:
256,192,181620,1,8,0:0:0:0:
256,192,181729,1,0,0:0:0:0:
256,192,181948,1,8,0:0:0:0:
256,192,182057,1,0,0:0:0:0:
256,192,182112,1,0,0:0:0:0:
256,192,182166,1,8,0:0:0:0:
256,192,182276,1,8,0:0:0:0:
256,192,182385,1,0,0:0:0:0:
256,192,182440,1,0,0:0:0:0:
256,192,182494,1,8,0:0:0:0:
256,192,182603,1,0,0:0:0:0:
256,192,182713,1,8,0:0:0:0:
256,192,182767,1,8,0:0:0:0:
256,192,182822,1,0,0:0:0:0:
256,192,182931,1,8,0:0:0:0:
256,192,183041,1,0,0:0:0:0:
256,192,183259,1,8,0:0:0:0:
256,192,183368,1,0,0:0:0:0:
256,192,183423,1,0,0:0:0:0:
256,192,183478,1,8,0:0:0:0:
256,192,183587,1,8,0:0:0:0:
256,192,183696,1,0,0:0:0:0:
256,192,183751,1,0,0:0:0:0:
256,192,183806,1,8,0:0:0:0:
256,192,183915,1,0,0:0:0:0:
256,192,184024,1,8,0:0:0:0:
256,192,184079,1,8,0:0:0:0:
256,192,184134,1,0,0:0:0:0:
256,192,184243,1,8,0:0:0:0:
256,192,184352,1,0,0:0:0:0:
256,192,184407,1,0,0:0:0:0:
256,192,184461,1,8,0:0:0:0:
256,192,184516,1,8,0:0:0:0:
256,192,184571,1,0,0:0:0:0:
256,192,184625,1,0,0:0:0:0:
256,192,184680,1,8,0:0:0:0:
272,192,184789,1,0,0:0:0:0:
256,192,184899,1,8,0:0:0:0:
256,192,184953,1,8,0:0:0:0:
256,192,185008,1,0,0:0:0:0:
256,192,185117,1,0,0:0:0:0:
256,192,185226,1,8,0:0:0:0:
256,192,185281,1,8,0:0:0:0:
256,192,185336,1,0,0:0:0:0:
256,192,185445,1,8,0:0:0:0:
256,192,185554,1,0,0:0:0:0:
256,192,185664,1,12,0:0:0:0:
256,192,185991,1,8,0:0:0:0:
256,192,186319,1,0,0:0:0:0:
256,192,186647,1,8,0:0:0:0:
256,192,186975,1,8,0:0:0:0:
256,192,187084,1,8,0:0:0:0:
256,192,187194,1,8,0:0:0:0:
256,192,187303,1,0,0:0:0:0:
256,192,187412,1,0,0:0:0:0:
256,192,187631,1,0,0:0:0:0:
256,192,187740,1,8,0:0:0:0:
256,192,187795,1,8,0:0:0:0:
256,192,187849,1,8,0:0:0:0:
256,192,187959,1,0,0:0:0:0:
256,192,188068,1,8,0:0:0:0:
256,192,188177,1,8,0:0:0:0:
256,192,188287,1,0,0:0:0:0:
256,192,188341,1,0,0:0:0:0:
256,192,188396,1,8,0:0:0:0:
256,192,188450,1,8,0:0:0:0:
256,192,188505,1,0,0:0:0:0:
256,192,188614,1,8,0:0:0:0:
256,192,188669,1,8,0:0:0:0:
256,192,188724,1,0,0:0:0:0:
256,192,188778,1,0,0:0:0:0:
256,192,188833,1,8,0:0:0:0:
256,192,188942,1,0,0:0:0:0:
256,192,188997,1,0,0:0:0:0:
256,192,189052,1,8,0:0:0:0:
256,192,189106,1,8,0:0:0:0:
256,192,189161,1,0,0:0:0:0:
256,192,189270,1,8,0:0:0:0:
256,192,189325,1,8,0:0:0:0:
256,192,189379,1,8,0:0:0:0:
256,192,189489,1,0,0:0:0:0:
256,192,189598,1,8,0:0:0:0:
256,192,189707,1,8,0:0:0:0:
256,192,189817,1,8,0:0:0:0:
256,192,189926,1,0,0:0:0:0:
256,192,190144,1,0,0:0:0:0:
256,192,190254,1,8,0:0:0:0:
256,192,190308,1,8,0:0:0:0:
256,192,190363,1,8,0:0:0:0:
256,192,190472,1,0,0:0:0:0:
256,192,190582,1,8,0:0:0:0:
256,192,190691,1,8,0:0:0:0:
256,192,190800,1,8,0:0:0:0:
256,192,190909,1,4,0:0:0:0:
256,192,191237,1,0,0:0:0:0:
256,192,191292,1,8,0:0:0:0:
256,192,191347,1,8,0:0:0:0:
256,192,191456,1,0,0:0:0:0:
256,192,191565,1,0,0:0:0:0:
256,192,191620,1,8,0:0:0:0:
256,192,191675,1,8,0:0:0:0:
256,192,191784,1,0,0:0:0:0:
256,192,191893,1,8,0:0:0:0:
256,192,191948,1,8,0:0:0:0:
256,192,192002,1,8,0:0:0:0:
256,192,192057,1,8,0:0:0:0:
256,192,192112,1,0,0:0:0:0:
256,192,192221,1,0,0:0:0:0:
256,192,192440,1,0,0:0:0:0:
256,192,192549,1,8,0:0:0:0:
256,192,192603,1,8,0:0:0:0:
256,192,192658,1,8,0:0:0:0:
256,192,192767,1,0,0:0:0:0:
256,192,192877,1,8,0:0:0:0:
256,192,192931,1,8,0:0:0:0:
256,192,192986,1,8,0:0:0:0:
256,192,193095,1,0,0:0:0:0:
256,192,193205,1,0,0:0:0:0:
256,192,193259,1,0,0:0:0:0:
256,192,193314,1,0,0:0:0:0:
256,192,193368,1,0,0:0:0:0:
256,192,193423,1,8,0:0:0:0:
256,192,193532,1,0,0:0:0:0:
256,192,193751,1,0,0:0:0:0:
256,192,193860,1,8,0:0:0:0:
256,192,193915,1,8,0:0:0:0:
256,192,193970,1,8,0:0:0:0:
256,192,194079,1,0,0:0:0:0:
256,192,194188,1,8,0:0:0:0:
256,192,194243,1,8,0:0:0:0:
256,192,194297,1,8,0:0:0:0:
256,192,194407,1,0,0:0:0:0:
256,192,194516,1,8,0:0:0:0:
256,192,194571,1,8,0:0:0:0:
256,192,194625,1,8,0:0:0:0:
256,192,194680,1,8,0:0:0:0:
256,192,194735,1,0,0:0:0:0:
256,192,194844,1,0,0:0:0:0:
256,192,194953,1,8,0:0:0:0:
256,192,195008,1,0,0:0:0:0:
256,192,195062,1,8,0:0:0:0:
256,192,195172,1,0,0:0:0:0:
256,192,195226,1,0,0:0:0:0:
256,192,195281,1,8,0:0:0:0:
256,192,195390,1,0,0:0:0:0:
256,192,195500,1,8,0:0:0:0:
256,192,195554,1,8,0:0:0:0:
256,192,195609,1,0,0:0:0:0:
256,192,195828,1,0,0:0:0:0:
256,192,196155,1,12,0:0:0:0:
256,192,196374,1,0,0:0:0:0:
256,192,196483,1,0,0:0:0:0:
256,192,196538,1,8,0:0:0:0:
256,192,196593,1,8,0:0:0:0:
256,192,196702,1,0,0:0:0:0:
256,192,196811,1,0,0:0:0:0:
256,192,196866,1,8,0:0:0:0:
256,192,196920,1,8,0:0:0:0:
256,192,197030,1,0,0:0:0:0:
256,192,197139,1,8,0:0:0:0:
256,192,197194,1,8,0:0:0:0:
256,192,197248,1,8,0:0:0:0:
256,192,197303,1,8,0:0:0:0:
256,192,197358,1,0,0:0:0:0:
256,192,197467,1,0,0:0:0:0:
256,192,197685,1,8,0:0:0:0:
256,192,197795,1,0,0:0:0:0:
256,192,197849,1,0,0:0:0:0:
256,192,197904,1,8,0:0:0:0:
256,192,198013,1,8,0:0:0:0:
256,192,198123,1,0,0:0:0:0:
256,192,198177,1,0,0:0:0:0:
256,192,198232,1,0,0:0:0:0:
256,192,198341,1,8,0:0:0:0:
256,192,198450,1,0,0:0:0:0:
256,192,198505,1,0,0:0:0:0:
256,192,198560,1,8,0:0:0:0:
256,192,198614,1,8,0:0:0:0:
256,192,198669,1,0,0:0:0:0:
256,192,198778,1,8,0:0:0:0:
256,192,198997,1,0,0:0:0:0:
256,192,199106,1,8,0:0:0:0:
256,192,199161,1,8,0:0:0:0:
256,192,199215,1,8,0:0:0:0:
256,192,199325,1,0,0:0:0:0:
256,192,199434,1,8,0:0:0:0:
256,192,199489,1,8,0:0:0:0:
256,192,199543,1,8,0:0:0:0:
256,192,199653,1,0,0:0:0:0:
256,192,199762,1,8,0:0:0:0:
256,192,199817,1,8,0:0:0:0:
256,192,199871,1,8,0:0:0:0:
256,192,199981,1,0,0:0:0:0:
256,192,200090,1,8,0:0:0:0:
256,192,200144,1,8,0:0:0:0:
256,192,200199,1,0,0:0:0:0:
256,192,200254,1,0,0:0:0:0:
256,192,200308,1,8,0:0:0:0:
256,192,200363,1,8,0:0:0:0:
256,192,200418,1,0,0:0:0:0:
256,192,200527,1,0,0:0:0:0:
256,192,200636,1,8,0:0:0:0:
256,192,200691,1,8,0:0:0:0:
256,192,200746,1,0,0:0:0:0:
256,192,200964,1,8,0:0:0:0:
256,192,201183,1,8,0:0:0:0:
256,192,201401,1,4,0:0:0:0:
256,192,201620,1,0,0:0:0:0:
256,192,201729,1,8,0:0:0:0:
256,192,201784,1,8,0:0:0:0:
256,192,201838,1,0,0:0:0:0:
256,192,201948,1,0,0:0:0:0:
256,192,202057,1,8,0:0:0:0:
256,192,202112,1,8,0:0:0:0:
256,192,202166,1,0,0:0:0:0:
256,192,202276,1,0,0:0:0:0:
256,192,202385,1,8,0:0:0:0:
256,192,202440,1,8,0:0:0:0:
256,192,202494,1,8,0:0:0:0:
256,192,202603,1,0,0:0:0:0:
256,192,202713,1,0,0:0:0:0:
256,192,202931,1,0,0:0:0:0:
256,192,203041,1,0,0:0:0:0:
256,192,203095,1,8,0:0:0:0:
256,192,203150,1,8,0:0:0:0:
256,192,203259,1,8,0:0:0:0:
256,192,203368,1,0,0:0:0:0:
256,192,203423,1,8,0:0:0:0:
256,192,203478,1,8,0:0:0:0:
256,192,203587,1,0,0:0:0:0:
256,192,203696,1,0,0:0:0:0:
256,192,203751,1,8,0:0:0:0:
256,192,203806,1,8,0:0:0:0:
256,192,203915,1,0,0:0:0:0:
256,192,204024,1,0,0:0:0:0:
256,192,204243,1,0,0:0:0:0:
256,192,204352,1,8,0:0:0:0:
256,192,204407,1,8,0:0:0:0:
256,192,204461,1,0,0:0:0:0:
256,192,204571,1,0,0:0:0:0:
256,192,204680,1,8,0:0:0:0:
256,192,204735,1,8,0:0:0:0:
256,192,204789,1,0,0:0:0:0:
256,192,204899,1,0,0:0:0:0:
256,192,205008,1,8,0:0:0:0:
256,192,205062,1,8,0:0:0:0:
256,192,205117,1,0,0:0:0:0:
256,192,205226,1,8,0:0:0:0:
256,192,205336,1,0,0:0:0:0:
256,192,205390,1,0,0:0:0:0:
256,192,205445,1,8,0:0:0:0:
256,192,205500,1,8,0:0:0:0:
256,192,205554,1,0,0:0:0:0:
256,192,205609,1,0,0:0:0:0:
256,192,205664,1,8,0:0:0:0:
256,192,205773,1,0,0:0:0:0:
256,192,205882,1,8,0:0:0:0:
256,192,205937,1,8,0:0:0:0:
256,192,205991,1,0,0:0:0:0:
256,192,206319,1,0,0:0:0:0:
256,192,206647,1,12,0:0:0:0:
256,192,206866,1,0,0:0:0:0:
256,192,206920,1,8,0:0:0:0:
256,192,206975,1,8,0:0:0:0:
256,192,207030,1,8,0:0:0:0:
256,192,207084,1,0,0:0:0:0:
256,192,207194,1,8,0:0:0:0:
256,192,207303,1,0,0:0:0:0:
256,192,207358,1,8,0:0:0:0:
256,192,207412,1,0,0:0:0:0:
256,192,207467,1,0,0:0:0:0:
256,192,207522,1,8,0:0:0:0:
256,192,207631,1,0,0:0:0:0:
256,192,207849,1,0,0:0:0:0:
256,192,207959,1,0,0:0:0:0:
256,192,208177,1,0,0:0:0:0:
256,192,208287,1,8,0:0:0:0:
256,192,208341,1,8,0:0:0:0:
256,192,208396,1,0,0:0:0:0:
256,192,208505,1,0,0:0:0:0:
256,192,208614,1,8,0:0:0:0:
256,192,208669,1,8,0:0:0:0:
256,192,208724,1,8,0:0:0:0:
256,192,208833,1,0,0:0:0:0:
256,192,208942,1,0,0:0:0:0:
256,192,209161,1,0,0:0:0:0:
256,192,209270,1,8,0:0:0:0:
256,192,209489,1,0,0:0:0:0:
256,192,209598,1,8,0:0:0:0:
256,192,209653,1,8,0:0:0:0:
256,192,209707,1,0,0:0:0:0:
256,192,209762,1,0,0:0:0:0:
256,192,209817,1,8,0:0:0:0:
256,192,209926,1,8,0:0:0:0:
256,192,209981,1,8,0:0:0:0:
256,192,210035,1,0,0:0:0:0:
256,192,210090,1,0,0:0:0:0:
256,192,210144,1,8,0:0:0:0:
256,192,210254,1,8,0:0:0:0:
256,192,210308,1,8,0:0:0:0:
256,192,210363,1,0,0:0:0:0:
256,192,210418,1,0,0:0:0:0:
256,192,210472,1,8,0:0:0:0:
256,192,210582,1,8,0:0:0:0:
256,192,210636,1,8,0:0:0:0:
256,192,210691,1,8,0:0:0:0:
256,192,210800,1,0,0:0:0:0:
256,192,210909,1,8,0:0:0:0:
256,192,210964,1,8,0:0:0:0:
256,192,211019,1,0,0:0:0:0:
256,192,211128,1,0,0:0:0:0:
256,192,211237,1,8,0:0:0:0:
256,192,211292,1,8,0:0:0:0:
256,192,211347,1,0,0:0:0:0:
256,192,211565,1,0,0:0:0:0:
256,192,211893,1,12,0:0:0:0:
256,192,213205,1,8,0:0:0:0:
256,192,214516,1,8,0:0:0:0:
256,192,217139,1,8,0:0:0:0:
256,192,218450,1,8,0:0:0:0:
256,192,219762,1,8,0:0:0:0:
256,192,221073,1,0,0:0:0:0:
256,192,222385,1,0,0:0:0:0:
256,192,222713,1,8,0:0:0:0:
256,192,223696,1,8,0:0:0:0:
256,192,225008,1,0,0:0:0:0:
256,192,227631,1,8,0:0:0:0:
256,192,227959,1,0,0:0:0:0:
256,192,228942,1,0,0:0:0:0:
256,192,231565,1,0,0:0:0:0:
256,192,231675,1,0,0:0:0:0:
256,192,231784,1,0,0:0:0:0:
256,192,231893,1,0,0:0:0:0:
256,192,232002,1,0,0:0:0:0:
256,192,232112,1,0,0:0:0:0:
256,192,232221,1,0,0:0:0:0:
256,192,232330,1,0,0:0:0:0:
256,192,232440,1,0,0:0:0:0:
256,192,232549,1,8,0:0:0:0:
256,192,232767,1,0,0:0:0:0:
256,192,232877,1,8,0:0:0:0:
256,192,233095,1,0,0:0:0:0:
256,192,233205,1,8,0:0:0:0:
256,192,233314,1,8,0:0:0:0:
256,192,233423,1,0,0:0:0:0:
256,192,233532,1,0,0:0:0:0:
256,192,233587,1,0,0:0:0:0:
256,192,233642,1,0,0:0:0:0:
256,192,233696,1,0,0:0:0:0:
256,192,233751,1,8,0:0:0:0:
256,192,233860,1,8,0:0:0:0:
256,192,233970,1,0,0:0:0:0:
256,192,234079,1,0,0:0:0:0:
256,192,234188,1,8,0:0:0:0:
256,192,234407,1,0,0:0:0:0:
256,192,234461,1,0,0:0:0:0:
256,192,234516,1,0,0:0:0:0:
256,192,234625,1,8,0:0:0:0:
256,192,234735,1,8,0:0:0:0:
256,192,234844,1,0,0:0:0:0:
256,192,235062,1,8,0:0:0:0:
256,192,235281,1,8,0:0:0:0:
256,192,235500,1,0,0:0:0:0:
256,192,235609,1,8,0:0:0:0:
256,192,235718,1,0,0:0:0:0:
256,192,235828,1,8,0:0:0:0:
256,192,235882,1,8,0:0:0:0:
256,192,235937,1,8,0:0:0:0:
249,185,235991,1,8,0:0:0:0:
249,185,236046,1,0,0:0:0:0:
249,185,236101,1,0,0:0:0:0:
256,192,236155,1,8,0:0:0:0:
256,192,236374,1,0,0:0:0:0:
256,192,236593,1,8,0:0:0:0:
256,192,236811,1,0,0:0:0:0:
256,192,236920,1,8,0:0:0:0:
256,192,237030,1,0,0:0:0:0:
256,192,237139,1,8,0:0:0:0:
256,192,237194,1,8,0:0:0:0:
256,192,237248,1,8,0:0:0:0:
256,192,237303,1,8,0:0:0:0:
256,192,237358,1,0,0:0:0:0:
256,192,237467,1,0,0:0:0:0:
256,192,237576,1,8,0:0:0:0:
256,192,237685,1,0,0:0:0:0:
256,192,237740,1,0,0:0:0:0:
256,192,237795,1,8,0:0:0:0:
256,192,238123,1,8,0:0:0:0:
256,192,238177,1,8,0:0:0:0:
256,192,238232,1,8,0:0:0:0:
256,192,238287,1,8,0:0:0:0:
256,192,238341,1,0,0:0:0:0:
256,192,238450,1,0,0:0:0:0:
256,192,238505,1,0,0:0:0:0:
256,192,238560,1,8,0:0:0:0:
256,192,238669,1,8,0:0:0:0:
256,192,238778,1,0,0:0:0:0:
256,192,238833,1,0,0:0:0:0:
256,192,238888,1,0,0:0:0:0:
256,192,238942,1,0,0:0:0:0:
256,192,238997,1,0,0:0:0:0:
256,192,239106,1,8,0:0:0:0:
256,192,239161,1,8,0:0:0:0:
256,192,239215,1,8,0:0:0:0:
256,192,239270,1,8,0:0:0:0:
256,192,239325,1,8,0:0:0:0:
256,192,239379,1,8,0:0:0:0:
256,192,239434,1,0,0:0:0:0:
256,192,239543,1,0,0:0:0:0:
256,192,239762,1,0,0:0:0:0:
256,192,239817,1,0,0:0:0:0:
256,192,239871,1,8,0:0:0:0:
256,192,239981,1,0,0:0:0:0:
256,192,240090,1,8,0:0:0:0:
256,192,240144,1,8,0:0:0:0:
256,192,240199,1,0,0:0:0:0:
256,192,240254,1,0,0:0:0:0:
256,192,240308,1,8,0:0:0:0:
256,192,240418,1,0,0:0:0:0:
256,192,240472,1,0,0:0:0:0:
256,192,240527,1,8,0:0:0:0:
256,192,240636,1,0,0:0:0:0:
256,192,240746,1,8,0:0:0:0:
256,192,240855,1,8,0:0:0:0:
256,192,240909,1,8,0:0:0:0:
256,192,240964,1,0,0:0:0:0:
256,192,241073,1,0,0:0:0:0:
256,192,241183,1,0,0:0:0:0:
256,192,241292,1,8,0:0:0:0:
256,192,241401,1,0,0:0:0:0:
256,192,241511,1,8,0:0:0:0:
256,192,241565,1,8,0:0:0:0:
256,192,241620,1,0,0:0:0:0:
256,192,241729,1,8,0:0:0:0:
256,192,241838,1,0,0:0:0:0:
256,192,241948,1,8,0:0:0:0:
256,192,242002,1,8,0:0:0:0:
256,192,242057,1,0,0:0:0:0:
256,192,242166,1,0,0:0:0:0:
256,192,242276,1,8,0:0:0:0:
256,192,242385,1,0,0:0:0:0:
256,192,242440,1,0,0:0:0:0:
256,192,242494,1,8,0:0:0:0:
256,192,242713,1,8,0:0:0:0:
256,192,242767,1,0,0:0:0:0:
256,192,242822,1,8,0:0:0:0:
256,192,242877,1,0,0:0:0:0:
256,192,242931,1,8,0:0:0:0:
256,192,243041,1,0,0:0:0:0:
256,192,243150,1,8,0:0:0:0:
256,192,243259,1,0,0:0:0:0:
256,192,243368,1,8,0:0:0:0:
256,192,243478,1,0,0:0:0:0:
256,192,243587,1,0,0:0:0:0:
256,192,243696,1,8,0:0:0:0:
256,192,243751,1,8,0:0:0:0:
256,192,243806,1,0,0:0:0:0:
256,192,243915,1,0,0:0:0:0:
256,192,244024,1,0,0:0:0:0:
256,192,244134,1,8,0:0:0:0:
256,192,244243,1,0,0:0:0:0:
256,192,244352,1,8,0:0:0:0:
256,192,244407,1,8,0:0:0:0:
256,192,244461,1,0,0:0:0:0:
256,192,244571,1,0,0:0:0:0:
256,192,244680,1,8,0:0:0:0:
256,192,244735,1,8,0:0:0:0:
256,192,244789,1,0,0:0:0:0:
256,192,244844,1,0,0:0:0:0:
256,192,244899,1,8,0:0:0:0:
256,192,245008,1,8,0:0:0:0:
256,192,245062,1,8,0:0:0:0:
256,192,245117,1,0,0:0:0:0:
256,192,245172,1,8,0:0:0:0:
256,192,245226,1,0,0:0:0:0:
256,192,245281,1,0,0:0:0:0:
256,192,245336,1,8,0:0:0:0:
256,192,245554,1,8,0:0:0:0:
256,192,245773,1,8,0:0:0:0:
256,192,245991,1,0,0:0:0:0:
256,192,246046,1,0,0:0:0:0:
256,192,246101,1,0,0:0:0:0:
256,192,246155,1,0,0:0:0:0:
256,192,246210,1,0,0:0:0:0:
256,192,246319,1,8,0:0:0:0:
256,192,246374,1,8,0:0:0:0:
256,192,246429,1,8,0:0:0:0:
256,192,246483,1,8,0:0:0:0:
256,192,246538,1,8,0:0:0:0:
256,192,246593,1,8,0:0:0:0:
256,192,246647,1,0,0:0:0:0:
256,192,246866,1,0,0:0:0:0:
256,192,246975,1,8,0:0:0:0:
256,192,247030,1,8,0:0:0:0:
256,192,247084,1,8,0:0:0:0:
256,192,247194,1,0,0:0:0:0:
256,192,247303,1,8,0:0:0:0:
256,192,247412,1,0,0:0:0:0:
256,192,247467,1,0,0:0:0:0:
256,192,247522,1,8,0:0:0:0:
256,192,247631,1,0,0:0:0:0:
256,192,247740,1,8,0:0:0:0:
256,192,247849,1,0,0:0:0:0:
256,192,247959,1,8,0:0:0:0:
256,192,248013,1,8,0:0:0:0:
256,192,248068,1,0,0:0:0:0:
256,192,248177,1,8,0:0:0:0:
256,192,248232,1,8,0:0:0:0:
256,192,248287,1,0,0:0:0:0:
256,192,248396,1,0,0:0:0:0:
256,192,248505,1,0,0:0:0:0:
256,192,248614,1,8,0:0:0:0:
256,192,248833,1,0,0:0:0:0:
256,192,248888,1,0,0:0:0:0:
256,192,248942,1,8,0:0:0:0:
256,192,249052,1,0,0:0:0:0:
256,192,249161,1,8,0:0:0:0:
256,192,249270,1,0,0:0:0:0:
256,192,249325,1,0,0:0:0:0:
256,192,249379,1,8,0:0:0:0:
256,192,249434,1,8,0:0:0:0:
256,192,249489,1,0,0:0:0:0:
256,192,249598,1,8,0:0:0:0:
256,192,249707,1,0,0:0:0:0:
256,192,249817,1,8,0:0:0:0:
256,192,249926,1,0,0:0:0:0:
256,192,250144,1,8,0:0:0:0:
256,192,250254,1,0,0:0:0:0:
256,192,250472,1,8,0:0:0:0:
256,192,250582,1,0,0:0:0:0:
256,192,250636,1,0,0:0:0:0:
256,192,250691,1,0,0:0:0:0:
256,192,250746,1,0,0:0:0:0:
256,192,250800,1,0,0:0:0:0:
256,192,250855,1,0,0:0:0:0:
256,192,250909,1,8,0:0:0:0:
256,192,251019,1,8,0:0:0:0:
256,192,251128,1,0,0:0:0:0:
256,192,251237,1,8,0:0:0:0:
256,192,251292,1,8,0:0:0:0:
256,192,251347,1,8,0:0:0:0:
256,192,251401,1,8,0:0:0:0:
256,192,251456,1,8,0:0:0:0:
256,192,251511,1,8,0:0:0:0:
256,192,251565,1,0,0:0:0:0:
256,192,251675,1,0,0:0:0:0:
256,192,251784,1,8,0:0:0:0:
256,192,251893,1,8,0:0:0:0:
256,192,251948,1,8,0:0:0:0:
256,192,252002,1,0,0:0:0:0:
256,192,252112,1,0,0:0:0:0:
256,192,252221,1,8,0:0:0:0:
256,192,252330,1,8,0:0:0:0:
256,192,252440,1,8,0:0:0:0:
256,192,252549,1,0,0:0:0:0:
256,192,252767,1,0,0:0:0:0:
256,192,252822,1,8,0:0:0:0:
256,192,252877,1,0,0:0:0:0:
256,192,253095,1,0,0:0:0:0:
256,192,253150,1,8,0:0:0:0:
256,192,253205,1,0,0:0:0:0:
256,192,253423,1,0,0:0:0:0:
256,192,253478,1,8,0:0:0:0:
256,192,253532,1,0,0:0:0:0:
256,192,253751,1,0,0:0:0:0:
256,192,253806,1,8,0:0:0:0:
256,192,253860,1,8,0:0:0:0:
256,192,254079,1,0,0:0:0:0:
256,192,254188,1,8,0:0:0:0:
256,192,254297,1,8,0:0:0:0:
256,192,254407,1,0,0:0:0:0:
256,192,254516,1,8,0:0:0:0:
256,192,254571,1,8,0:0:0:0:
256,192,254625,1,0,0:0:0:0:
256,192,254735,1,0,0:0:0:0:
256,192,254844,1,8,0:0:0:0:
256,192,254899,1,8,0:0:0:0:
256,192,254953,1,0,0:0:0:0:
256,192,255062,1,0,0:0:0:0:
256,192,255172,1,8,0:0:0:0:
256,192,255390,1,8,0:0:0:0:
256,192,255500,1,0,0:0:0:0:
256,192,255718,1,0,0:0:0:0:
256,192,255828,1,8,0:0:0:0:
256,192,256483,1,0,0:0:0:0:
256,192,256920,1,0,0:0:0:0:
256,192,257030,1,0,0:0:0:0:
256,192,257795,1,0,0:0:0:0:
256,192,258123,1,0,0:0:0:0:
256,192,258341,1,0,0:0:0:0:
256,192,258450,1,8,0:0:0:0:
256,192,259106,1,8,0:0:0:0:
256,192,259543,1,0,0:0:0:0:
256,192,259653,1,0,0:0:0:0:
256,192,260418,1,8,0:0:0:0:
256,192,260746,1,0,0:0:0:0:
256,192,260964,1,0,0:0:0:0:
256,192,261073,1,8,0:0:0:0:
256,192,261729,1,8,0:0:0:0:
256,192,262166,1,0,0:0:0:0:
256,192,262276,1,0,0:0:0:0:
256,192,263041,1,0,0:0:0:0:
256,192,263150,1,8,0:0:0:0:
256,192,263205,1,8,0:0:0:0:
256,192,263259,1,8,0:0:0:0:
256,192,263314,1,8,0:0:0:0:
256,192,263368,1,0,0:0:0:0:
256,192,263478,1,0,0:0:0:0:
256,192,263587,1,0,0:0:0:0:
256,192,263696,1,12,0:0:0:0:
256,192,263915,1,12,0:0:0:0:
256,192,264134,1,12,0:0:0:0:
256,192,264352,1,12,0:0:0:0:
256,192,265664,1,8,0:0:0:0:
256,192,266319,1,0,0:0:0:0:
256,192,266538,1,0,0:0:0:0:
256,192,266756,1,0,0:0:0:0:
256,192,266975,1,12,0:0:0:0:
256,192,268724,1,0,0:0:0:0:
256,192,268778,1,0,0:0:0:0:
256,192,268833,1,0,0:0:0:0:
256,192,268888,1,0,0:0:0:0:
256,192,268942,1,8,0:0:0:0:
256,192,269052,1,0,0:0:0:0:
256,192,269161,1,0,0:0:0:0:
256,192,269270,1,12,0:0:0:0:
256,192,269598,1,12,0:0:0:0:
256,192,271565,1,0,0:0:0:0:
256,192,271784,1,0,0:0:0:0:
256,192,272002,1,0,0:0:0:0:
256,192,272221,1,12,0:0:0:0:
256,192,273532,1,0,0:0:0:0:
256,192,273860,1,8,0:0:0:0:
256,192,274079,1,0,0:0:0:0:
256,192,274188,1,0,0:0:0:0:
256,192,274297,1,0,0:0:0:0:
256,192,274407,1,0,0:0:0:0:
256,192,274516,1,12,0:0:0:0:
256,192,274844,1,12,0:0:0:0:
256,192,275172,1,8,0:0:0:0:
256,192,275281,1,0,0:0:0:0:
256,192,275390,1,0,0:0:0:0:
256,192,275500,1,8,0:0:0:0:
256,192,275609,1,8,0:0:0:0:
256,192,275718,1,0,0:0:0:0:
256,192,275828,1,0,0:0:0:0:
256,192,275937,1,8,0:0:0:0:
256,192,276046,1,8,0:0:0:0:
256,192,276155,1,4,0:0:0:0:
256,192,276483,1,0,0:0:0:0:
256,192,276593,1,8,0:0:0:0:
256,192,276702,1,0,0:0:0:0:
256,192,276811,1,0,0:0:0:0:
256,192,276920,1,8,0:0:0:0:
256,192,277030,1,8,0:0:0:0:
256,192,277139,1,0,0:0:0:0:
256,192,277248,1,8,0:0:0:0:
256,192,277358,1,8,0:0:0:0:
256,192,277467,1,4,0:0:0:0:
256,192,277795,1,8,0:0:0:0:
256,192,277904,1,0,0:0:0:0:
256,192,278013,1,0,0:0:0:0:
256,192,278123,1,8,0:0:0:0:
256,192,278232,1,8,0:0:0:0:
256,192,278341,1,8,0:0:0:0:
256,192,278450,1,0,0:0:0:0:
256,192,278560,1,0,0:0:0:0:
256,192,278669,1,8,0:0:0:0:
256,192,278778,1,4,0:0:0:0:
256,192,279106,1,8,0:0:0:0:
256,192,279215,1,0,0:0:0:0:
256,192,279325,1,8,0:0:0:0:
256,192,279434,1,8,0:0:0:0:
256,192,279543,1,0,0:0:0:0:
256,192,279653,1,0,0:0:0:0:
256,192,279762,1,8,0:0:0:0:
256,192,279871,1,0,0:0:0:0:
256,192,279981,1,8,0:0:0:0:
256,192,280090,1,4,0:0:0:0:
256,192,280418,1,8,0:0:0:0:
256,192,280527,1,8,0:0:0:0:
256,192,280636,1,8,0:0:0:0:
256,192,280746,1,4,0:0:0:0:
256,192,280855,1,8,0:0:0:0:
256,192,280964,1,0,0:0:0:0:
256,192,281073,1,8,0:0:0:0:
256,192,281183,1,8,0:0:0:0:
256,192,281292,1,8,0:0:0:0:
256,192,281401,1,4,0:0:0:0:
256,192,281511,1,8,0:0:0:0:
256,192,281620,1,0,0:0:0:0:
256,192,281729,1,8,0:0:0:0:
256,192,281838,1,8,0:0:0:0:
256,192,281948,1,8,0:0:0:0:
256,192,282057,1,4,0:0:0:0:
256,192,282166,1,8,0:0:0:0:
256,192,282276,1,0,0:0:0:0:
256,192,282385,1,8,0:0:0:0:
256,192,282494,1,8,0:0:0:0:
256,192,282603,1,8,0:0:0:0:
256,192,282713,1,4,0:0:0:0:
256,192,282822,1,8,0:0:0:0:
256,192,282931,1,8,0:0:0:0:
256,192,283041,1,4,0:0:0:0:
256,192,283150,1,8,0:0:0:0:
256,192,283259,1,8,0:0:0:0:
256,192,283368,1,4,0:0:0:0:
256,192,283478,1,8,0:0:0:0:
256,192,283587,1,4,0:0:0:0:
256,192,283696,1,4,0:0:0:0:
256,192,283806,1,12,0:0:0:0:
256,192,283915,1,4,0:0:0:0:
256,192,284024,1,8,0:0:0:0:
256,192,284680,1,8,0:0:0:0:
256,192,284735,1,8,0:0:0:0:
256,192,284789,1,8,0:0:0:0:
256,192,284899,1,0,0:0:0:0:
256,192,285008,1,8,0:0:0:0:
256,192,285336,1,4,0:0:0:0:
256,192,285554,1,8,0:0:0:0:
256,192,285664,1,0,0:0:0:0:
256,192,285718,1,0,0:0:0:0:
256,192,285773,1,8,0:0:0:0:
256,192,285828,1,0,0:0:0:0:
256,192,285882,1,8,0:0:0:0:
256,192,285991,1,0,0:0:0:0:
256,192,286046,1,0,0:0:0:0:
256,192,286101,1,8,0:0:0:0:
256,192,286155,1,8,0:0:0:0:
256,192,286210,1,0,0:0:0:0:
256,192,286319,1,8,0:0:0:0:
256,192,286374,1,0,0:0:0:0:
256,192,286429,1,8,0:0:0:0:
256,192,286483,1,8,0:0:0:0:
256,192,286538,1,0,0:0:0:0:
256,192,286647,1,0,0:0:0:0:
256,192,286866,1,8,0:0:0:0:
256,192,286975,1,0,0:0:0:0:
256,192,287030,1,8,0:0:0:0:
256,192,287084,1,0,0:0:0:0:
256,192,287139,1,0,0:0:0:0:
256,192,287194,1,8,0:0:0:0:
256,192,287303,1,8,0:0:0:0:
256,192,287358,1,8,0:0:0:0:
256,192,287412,1,0,0:0:0:0:
256,192,287467,1,0,0:0:0:0:
256,192,287522,1,8,0:0:0:0:
256,192,287631,1,0,0:0:0:0:
256,192,287685,1,0,0:0:0:0:
256,192,287740,1,8,0:0:0:0:
256,192,287795,1,8,0:0:0:0:
256,192,287849,1,0,0:0:0:0:
256,192,287959,1,0,0:0:0:0:
256,192,288177,1,8,0:0:0:0:
256,192,288287,1,0,0:0:0:0:
256,192,288341,1,0,0:0:0:0:
256,192,288396,1,8,0:0:0:0:
256,192,288450,1,0,0:0:0:0:
256,192,288505,1,8,0:0:0:0:
256,192,288614,1,0,0:0:0:0:
256,192,288669,1,0,0:0:0:0:
256,192,288724,1,8,0:0:0:0:
256,192,288778,1,8,0:0:0:0:
256,192,288833,1,0,0:0:0:0:
256,192,288942,1,8,0:0:0:0:
256,192,288997,1,8,0:0:0:0:
256,192,289052,1,0,0:0:0:0:
256,192,289161,1,0,0:0:0:0:
256,192,289215,1,8,0:0:0:0:
256,192,289270,1,0,0:0:0:0:
256,192,289325,1,0,0:0:0:0:
256,192,289379,1,8,0:0:0:0:
256,192,289434,1,8,0:0:0:0:
256,192,289489,1,0,0:0:0:0:
256,192,289543,1,0,0:0:0:0:
256,192,289598,1,8,0:0:0:0:
256,192,289707,1,0,0:0:0:0:
256,192,289762,1,0,0:0:0:0:
256,192,289817,1,8,0:0:0:0:
256,192,289926,1,0,0:0:0:0:
256,192,289981,1,0,0:0:0:0:
256,192,290035,1,8,0:0:0:0:
256,192,290090,1,8,0:0:0:0:
256,192,290144,1,0,0:0:0:0:
256,192,290254,1,0,0:0:0:0:
256,192,290308,1,0,0:0:0:0:
256,192,290363,1,8,0:0:0:0:
256,192,290472,1,0,0:0:0:0:
256,192,290582,1,0,0:0:0:0:
256,192,290800,1,0,0:0:0:0:
256,192,290909,1,0,0:0:0:0:
256,192,290964,1,8,0:0:0:0:
256,192,291019,1,0,0:0:0:0:
256,192,291073,1,0,0:0:0:0:
256,192,291128,1,8,0:0:0:0:
256,192,291237,1,0,0:0:0:0:
256,192,291292,1,0,0:0:0:0:
256,192,291347,1,8,0:0:0:0:
256,192,291401,1,8,0:0:0:0:
256,192,291456,1,0,0:0:0:0:
256,192,291565,1,8,0:0:0:0:
256,192,291620,1,8,0:0:0:0:
256,192,291675,1,0,0:0:0:0:
256,192,291729,1,8,0:0:0:0:
256,192,291784,1,0,0:0:0:0:
256,192,291893,1,0,0:0:0:0:
256,192,292112,1,8,0:0:0:0:
256,192,292221,1,8,0:0:0:0:
256,192,292276,1,0,0:0:0:0:
256,192,292330,1,8,0:0:0:0:
256,192,292385,1,8,0:0:0:0:
256,192,292440,1,0,0:0:0:0:
256,192,292549,1,0,0:0:0:0:
256,192,292603,1,0,0:0:0:0:
256,192,292658,1,8,0:0:0:0:
256,192,292713,1,8,0:0:0:0:
256,192,292767,1,0,0:0:0:0:
256,192,292877,1,8,0:0:0:0:
256,192,292931,1,0,0:0:0:0:
256,192,292986,1,8,0:0:0:0:
256,192,293041,1,8,0:0:0:0:
256,192,293095,1,0,0:0:0:0:
256,192,293205,1,0,0:0:0:0:
256,192,293423,1,0,0:0:0:0:
256,192,293532,1,8,0:0:0:0:
256,192,293587,1,0,0:0:0:0:
256,192,293642,1,8,0:0:0:0:
256,192,293696,1,8,0:0:0:0:
256,192,293751,1,0,0:0:0:0:
256,192,293860,1,0,0:0:0:0:
256,192,293915,1,0,0:0:0:0:
256,192,293970,1,8,0:0:0:0:
256,192,294024,1,8,0:0:0:0:
256,192,294079,1,0,0:0:0:0:
256,192,294188,1,8,0:0:0:0:
256,192,294243,1,0,0:0:0:0:
256,192,294297,1,8,0:0:0:0:
256,192,294407,1,0,0:0:0:0:
256,192,294461,1,0,0:0:0:0:
256,192,294516,1,0,0:0:0:0:
256,192,294571,1,0,0:0:0:0:
256,192,294625,1,8,0:0:0:0:
256,192,294680,1,0,0:0:0:0:
256,192,294735,1,8,0:0:0:0:
256,192,294789,1,8,0:0:0:0:
256,192,294844,1,0,0:0:0:0:
256,192,294953,1,8,0:0:0:0:
256,192,295008,1,8,0:0:0:0:
256,192,295062,1,0,0:0:0:0:
256,192,295172,1,8,0:0:0:0:
256,192,295226,1,8,0:0:0:0:
256,192,295281,1,8,0:0:0:0:
256,192,295390,1,0,0:0:0:0:
256,192,295500,1,8,0:0:0:0:
256,192,295554,1,8,0:0:0:0:
256,192,295609,1,8,0:0:0:0:
256,192,295664,1,8,0:0:0:0:
256,192,295718,1,0,0:0:0:0:
256,192,295828,1,8,0:0:0:0:
256,192,296046,1,8,0:0:0:0:
256,192,296155,1,4,0:0:0:0:
256,192,296265,1,8,0:0:0:0:
256,192,296374,1,8,0:0:0:0:
256,192,296483,1,0,0:0:0:0:
256,192,296593,1,8,0:0:0:0:
256,192,296702,1,8,0:0:0:0:
256,192,296811,1,4,0:0:0:0:
256,192,296920,1,8,0:0:0:0:
256,192,297030,1,8,0:0:0:0:
256,192,297139,1,8,0:0:0:0:
256,192,297358,1,8,0:0:0:0:
256,192,297467,1,4,0:0:0:0:
256,192,297576,1,8,0:0:0:0:
256,192,297685,1,8,0:0:0:0:
256,192,297795,1,8,0:0:0:0:
256,192,297904,1,0,0:0:0:0:
256,192,298013,1,8,0:0:0:0:
256,192,298068,1,8,0:0:0:0:
256,192,298123,1,4,0:0:0:0:
256,192,298341,1,4,0:0:0:0:
256,192,298560,1,4,0:0:0:0:
256,192,298669,1,4,0:0:0:0:
256,192,298778,1,4,0:0:0:0:
256,192,298888,1,8,0:0:0:0:
256,192,298997,1,8,0:0:0:0:
256,192,299106,1,8,0:0:0:0:
256,192,299215,1,0,0:0:0:0:
256,192,299325,1,8,0:0:0:0:
256,192,299434,1,4,0:0:0:0:
256,192,299543,1,8,0:0:0:0:
256,192,299653,1,8,0:0:0:0:
256,192,299762,1,0,0:0:0:0:
256,192,299981,1,4,0:0:0:0:
256,192,300090,1,8,0:0:0:0:
256,192,300199,1,8,0:0:0:0:
256,192,300308,1,4,0:0:0:0:
256,192,300527,1,4,0:0:0:0:
256,192,300636,1,4,0:0:0:0:
256,192,300746,1,12,0:0:0:0:
256,192,300855,1,0,0:0:0:0:
256,192,300964,1,8,0:0:0:0:
256,192,301073,1,8,0:0:0:0:
256,192,301183,1,4,0:0:0:0:
256,192,301401,1,4,0:0:0:0:
256,192,301620,1,4,0:0:0:0:
256,192,301729,1,0,0:0:0:0:
256,192,301838,1,12,0:0:0:0:
256,192,302057,1,12,0:0:0:0:
256,192,302276,1,12,0:0:0:0:
256,192,302385,1,8,0:0:0:0:
256,192,302494,1,4,0:0:0:0:
256,192,302713,1,4,0:0:0:0:
256,192,302931,1,4,0:0:0:0:
256,192,303041,1,0,0:0:0:0:
256,192,303150,1,12,0:0:0:0:
256,192,303368,1,12,0:0:0:0:
256,192,303587,1,12,0:0:0:0:
256,192,303696,1,0,0:0:0:0:
256,192,303806,1,0,0:0:0:0:
256,192,303915,1,8,0:0:0:0:
224,208,304024,1,0,0:0:0:0:
256,192,304079,1,0,0:0:0:0:
224,208,304134,1,8,0:0:0:0:
224,208,304243,1,0,0:0:0:0:
256,192,304352,1,8,0:0:0:0:
256,192,304407,1,8,0:0:0:0:
256,192,304461,1,0,0:0:0:0:
224,208,304516,1,0,0:0:0:0:
256,192,304571,1,8,0:0:0:0:
256,192,304680,1,0,0:0:0:0:
256,192,304789,1,8,0:0:0:0:
256,192,304844,1,8,0:0:0:0:
256,192,304899,1,8,0:0:0:0:
256,192,305008,1,0,0:0:0:0:
256,192,305336,1,0,0:0:0:0:
256,192,305445,1,0,0:0:0:0:
256,192,305554,1,0,0:0:0:0:
256,192,305664,1,8,0:0:0:0:
256,192,305773,1,0,0:0:0:0:
256,192,305882,1,8,0:0:0:0:
256,192,305991,1,4,0:0:0:0:
256,192,306319,1,4,0:0:0:0:
256,192,306538,1,8,0:0:0:0:
256,192,306647,1,0,0:0:0:0:
256,192,306702,1,0,0:0:0:0:
256,192,306756,1,8,0:0:0:0:
256,192,306811,1,0,0:0:0:0:
256,192,306866,1,8,0:0:0:0:
256,192,306975,1,0,0:0:0:0:
256,192,307030,1,8,0:0:0:0:
256,192,307084,1,0,0:0:0:0:
256,192,307139,1,0,0:0:0:0:
256,192,307194,1,8,0:0:0:0:
208,208,307248,1,8,0:0:0:0:
256,192,307303,1,0,0:0:0:0:
256,192,307358,1,8,0:0:0:0:
256,192,307412,1,0,0:0:0:0:
256,192,307467,1,0,0:0:0:0:
256,192,307522,1,8,0:0:0:0:
256,192,307631,1,0,0:0:0:0:
256,192,307849,1,8,0:0:0:0:
256,192,307959,1,0,0:0:0:0:
256,192,308013,1,8,0:0:0:0:
256,192,308068,1,0,0:0:0:0:
256,192,308123,1,0,0:0:0:0:
256,192,308177,1,8,0:0:0:0:
256,192,308287,1,0,0:0:0:0:
256,192,308341,1,0,0:0:0:0:
256,192,308396,1,8,0:0:0:0:
256,192,308450,1,8,0:0:0:0:
256,192,308505,1,0,0:0:0:0:
208,208,308560,1,0,0:0:0:0:
256,192,308614,1,8,0:0:0:0:
256,192,308669,1,0,0:0:0:0:
256,192,308724,1,0,0:0:0:0:
256,192,308778,1,0,0:0:0:0:
256,192,308833,1,8,0:0:0:0:
256,192,308942,1,0,0:0:0:0:
256,192,309161,1,8,0:0:0:0:
256,192,309270,1,0,0:0:0:0:
256,192,309325,1,0,0:0:0:0:
256,192,309379,1,8,0:0:0:0:
256,192,309434,1,0,0:0:0:0:
256,192,309489,1,8,0:0:0:0:
256,192,309598,1,0,0:0:0:0:
256,192,309653,1,8,0:0:0:0:
256,192,309707,1,0,0:0:0:0:
256,192,309762,1,0,0:0:0:0:
256,192,309817,1,8,0:0:0:0:
208,208,309871,1,8,0:0:0:0:
256,192,309926,1,0,0:0:0:0:
256,192,309981,1,0,0:0:0:0:
256,192,310035,1,8,0:0:0:0:
256,192,310090,1,0,0:0:0:0:
256,192,310144,1,8,0:0:0:0:
256,192,310254,1,0,0:0:0:0:
256,192,310363,1,0,0:0:0:0:
256,192,310472,1,0,0:0:0:0:
256,192,310582,1,8,0:0:0:0:
256,192,310636,1,8,0:0:0:0:
256,192,310691,1,0,0:0:0:0:
256,192,310746,1,0,0:0:0:0:
256,192,310800,1,8,0:0:0:0:
256,192,310909,1,0,0:0:0:0:
256,192,310964,1,0,0:0:0:0:
256,192,311019,1,8,0:0:0:0:
256,192,311073,1,0,0:0:0:0:
256,192,311128,1,8,0:0:0:0:
208,208,311183,1,8,0:0:0:0:
256,192,311237,1,0,0:0:0:0:
256,192,311292,1,0,0:0:0:0:
256,192,311347,1,8,0:0:0:0:
256,192,311401,1,0,0:0:0:0:
256,192,311456,1,8,0:0:0:0:
256,192,311565,1,0,0:0:0:0:
256,192,311784,1,0,0:0:0:0:
256,192,311893,1,0,0:0:0:0:
256,192,311948,1,8,0:0:0:0:
256,192,312002,1,0,0:0:0:0:
256,192,312057,1,0,0:0:0:0:
256,192,312112,1,8,0:0:0:0:
256,192,312221,1,0,0:0:0:0:
256,192,312276,1,0,0:0:0:0:
256,192,312330,1,8,0:0:0:0:
256,192,312385,1,0,0:0:0:0:
256,192,312440,1,8,0:0:0:0:
208,208,312494,1,8,0:0:0:0:
256,192,312549,1,0,0:0:0:0:
256,192,312603,1,0,0:0:0:0:
256,192,312658,1,8,0:0:0:0:
256,192,312713,1,8,0:0:0:0:
256,192,312767,1,0,0:0:0:0:
256,192,312877,1,0,0:0:0:0:
256,192,313095,1,8,0:0:0:0:
256,192,313205,1,8,0:0:0:0:
256,192,313259,1,0,0:0:0:0:
256,192,313314,1,8,0:0:0:0:
256,192,313368,1,8,0:0:0:0:
256,192,313423,1,0,0:0:0:0:
256,192,313532,1,8,0:0:0:0:
256,192,313587,1,0,0:0:0:0:
256,192,313642,1,8,0:0:0:0:
208,208,313696,1,8,0:0:0:0:
256,192,313751,1,0,0:0:0:0:
208,208,313806,1,0,0:0:0:0:
256,192,313860,1,8,0:0:0:0:
256,192,313915,1,8,0:0:0:0:
256,192,313970,1,0,0:0:0:0:
256,192,314024,1,0,0:0:0:0:
256,192,314079,1,8,0:0:0:0:
256,192,314188,1,8,0:0:0:0:
256,192,314407,1,0,0:0:0:0:
256,192,314516,1,8,0:0:0:0:
256,192,314571,1,0,0:0:0:0:
256,192,314625,1,8,0:0:0:0:
256,192,314680,1,8,0:0:0:0:
256,192,314735,1,0,0:0:0:0:
256,192,314844,1,0,0:0:0:0:
256,192,314899,1,0,0:0:0:0:
256,192,314953,1,8,0:0:0:0:
256,192,315008,1,0,0:0:0:0:
256,192,315062,1,8,0:0:0:0:
208,208,315117,1,8,0:0:0:0:
256,192,315172,1,0,0:0:0:0:
256,192,315226,1,8,0:0:0:0:
256,192,315281,1,8,0:0:0:0:
256,192,315336,1,8,0:0:0:0:
256,192,315390,1,0,0:0:0:0:
256,192,315500,1,0,0:0:0:0:
256,192,315609,1,0,0:0:0:0:
256,192,315718,1,8,0:0:0:0:
256,192,315828,1,8,0:0:0:0:
256,192,315882,1,8,0:0:0:0:
256,192,315937,1,0,0:0:0:0:
256,192,316046,1,0,0:0:0:0:
256,192,316155,1,0,0:0:0:0:
256,192,316210,1,8,0:0:0:0:
256,192,316265,1,0,0:0:0:0:
208,208,316319,1,0,0:0:0:0:
256,192,316374,1,8,0:0:0:0:
256,192,316483,1,0,0:0:0:0:
256,192,316593,1,8,0:0:0:0:
256,192,316811,1,8,0:0:0:0:
256,192,316866,1,8,0:0:0:0:
256,192,316920,1,8,0:0:0:0:
256,192,316975,1,8,0:0:0:0:
256,192,317030,1,0,0:0:0:0:
208,208,317084,1,0,0:0:0:0:
256,192,317139,1,0,0:0:0:0:
256,192,317248,1,8,0:0:0:0:
256,192,317358,1,0,0:0:0:0:
256,192,317467,1,8,0:0:0:0:
256,192,317522,1,0,0:0:0:0:
256,192,317576,1,8,0:0:0:0:
256,192,317685,1,8,0:0:0:0:
256,192,317740,1,8,0:0:0:0:
256,192,317795,1,0,0:0:0:0:
256,192,317849,1,8,0:0:0:0:
256,192,317904,1,0,0:0:0:0:
256,192,317959,1,0,0:0:0:0:
256,192,318013,1,8,0:0:0:0:
256,192,318123,1,8,0:0:0:0:
256,192,318177,1,8,0:0:0:0:
256,192,318232,1,8,0:0:0:0:
256,192,318341,1,0,0:0:0:0:
256,192,318450,1,0,0:0:0:0:
256,192,318560,1,8,0:0:0:0:
256,192,318614,1,8,0:0:0:0:
256,192,318669,1,0,0:0:0:0:
256,192,318778,1,8,0:0:0:0:
256,192,318833,1,0,0:0:0:0:
256,192,318888,1,0,0:0:0:0:
256,192,318942,1,0,0:0:0:0:
256,192,318997,1,8,0:0:0:0:
256,192,319106,1,0,0:0:0:0:
256,192,319161,1,0,0:0:0:0:
256,192,319215,1,8,0:0:0:0:
256,192,319270,1,8,0:0:0:0:
256,192,319325,1,0,0:0:0:0:
256,192,319434,1,0,0:0:0:0:
256,192,319489,1,0,0:0:0:0:
256,192,319543,1,8,0:0:0:0:
256,192,319598,1,8,0:0:0:0:
256,192,319653,1,0,0:0:0:0:
256,192,319762,1,8,0:0:0:0:
256,192,319817,1,8,0:0:0:0:
256,192,319871,1,0,0:0:0:0:
256,192,319926,1,0,0:0:0:0:
256,192,319981,1,8,0:0:0:0:
256,192,320090,1,0,0:0:0:0:
256,192,320144,1,0,0:0:0:0:
256,192,320199,1,8,0:0:0:0:
256,192,320254,1,0,0:0:0:0:
256,192,320308,1,8,0:0:0:0:
256,192,320363,1,8,0:0:0:0:
256,192,320418,1,0,0:0:0:0:
256,192,320472,1,0,0:0:0:0:
256,192,320527,1,8,0:0:0:0:
256,192,320582,1,8,0:0:0:0:
256,192,320636,1,0,0:0:0:0:
256,192,320746,1,8,0:0:0:0:
256,192,320800,1,8,0:0:0:0:
256,192,320855,1,0,0:0:0:0:
256,192,320909,1,0,0:0:0:0:
256,192,320964,1,8,0:0:0:0:
256,192,321073,1,0,0:0:0:0:
256,192,321183,1,0,0:0:0:0:
256,192,321292,1,8,0:0:0:0:
256,192,321347,1,8,0:0:0:0:
256,192,321401,1,8,0:0:0:0:
256,192,321511,1,0,0:0:0:0:
256,192,321565,1,8,0:0:0:0:
256,192,321620,1,8,0:0:0:0:
256,192,321675,1,8,0:0:0:0:
256,192,321729,1,0,0:0:0:0:
256,192,321838,1,0,0:0:0:0:
256,192,321948,1,8,0:0:0:0:
256,192,322057,1,0,0:0:0:0:
256,192,322112,1,0,0:0:0:0:
256,192,322166,1,8,0:0:0:0:
256,192,322221,1,8,0:0:0:0:
256,192,322276,1,0,0:0:0:0:
256,192,322330,1,8,0:0:0:0:
256,192,322385,1,0,0:0:0:0:
256,192,322440,1,0,0:0:0:0:
256,192,322494,1,8,0:0:0:0:
256,192,322549,1,8,0:0:0:0:
256,192,322603,1,0,0:0:0:0:
256,192,322713,1,0,0:0:0:0:
256,192,322767,1,0,0:0:0:0:
256,192,322822,1,8,0:0:0:0:
256,192,322877,1,0,0:0:0:0:
256,192,322931,1,8,0:0:0:0:
252,195,322986,1,8,0:0:0:0:
256,192,323041,1,0,0:0:0:0:
256,192,323095,1,0,0:0:0:0:
256,192,323150,1,8,0:0:0:0:
256,192,323205,1,8,0:0:0:0:
256,192,323259,1,0,0:0:0:0:
256,192,323368,1,8,0:0:0:0:
256,192,323423,1,0,0:0:0:0:
256,192,323478,1,8,0:0:0:0:
252,195,323532,1,8,0:0:0:0:
256,192,323587,1,0,0:0:0:0:
252,195,323642,1,0,0:0:0:0:
252,195,323696,1,8,0:0:0:0:
252,195,323751,1,8,0:0:0:0:
252,195,323806,1,0,0:0:0:0:
256,192,323860,1,0,0:0:0:0:
252,195,323915,1,8,0:0:0:0:
256,192,324024,1,0,0:0:0:0:
256,192,324079,1,8,0:0:0:0:
256,192,324134,1,0,0:0:0:0:
256,192,324188,1,0,0:0:0:0:
256,192,324243,1,8,0:0:0:0:
252,195,324297,1,8,0:0:0:0:
256,192,324352,1,0,0:0:0:0:
256,192,324407,1,8,0:0:0:0:
256,192,324461,1,0,0:0:0:0:
256,192,324516,1,0,0:0:0:0:
256,192,324571,1,8,0:0:0:0:
256,192,324680,1,0,0:0:0:0:
256,192,324735,1,0,0:0:0:0:
256,192,324789,1,8,0:0:0:0:
256,192,324844,1,0,0:0:0:0:
256,192,324899,1,8,0:0:0:0:
252,195,324953,1,0,0:0:0:0:
256,192,325008,1,8,0:0:0:0:
256,192,325062,1,0,0:0:0:0:
256,192,325117,1,8,0:0:0:0:
256,192,325172,1,8,0:0:0:0:
256,192,325226,1,0,0:0:0:0:
256,192,325336,1,8,0:0:0:0:
256,192,325390,1,8,0:0:0:0:
256,192,325445,1,0,0:0:0:0:
256,192,325500,1,0,0:0:0:0:
256,192,325554,1,8,0:0:0:0:
256,192,325609,1,8,0:0:0:0:
256,192,325664,1,0,0:0:0:0:
256,192,325718,1,0,0:0:0:0:
256,192,325773,1,8,0:0:0:0:
256,192,325828,1,8,0:0:0:0:
256,192,325882,1,0,0:0:0:0:
256,192,325991,1,0,0:0:0:0:
256,192,326046,1,0,0:0:0:0:
256,192,326101,1,8,0:0:0:0:
256,192,326155,1,8,0:0:0:0:
256,192,326210,1,8,0:0:0:0:
256,192,326265,1,8,0:0:0:0:
256,192,326319,1,0,0:0:0:0:
256,192,326374,1,0,0:0:0:0:
256,192,326429,1,8,0:0:0:0:
256,192,326483,1,8,0:0:0:0:
256,192,326538,1,0,0:0:0:0:
256,192,326593,1,0,0:0:0:0:
256,192,326647,1,8,0:0:0:0:
256,192,326702,1,0,0:0:0:0:
256,192,326756,1,8,0:0:0:0:
256,192,326811,1,0,0:0:0:0:
256,192,326866,1,8,0:0:0:0:
256,192,326920,1,8,0:0:0:0:
256,192,326975,1,0,0:0:0:0:
256,192,327030,1,0,0:0:0:0:
256,192,327084,1,8,0:0:0:0:
256,192,327139,1,0,0:0:0:0:
256,192,327194,1,8,0:0:0:0:
256,192,327248,1,8,0:0:0:0:
256,192,327303,1,0,0:0:0:0:
230,189,327849,1,8,0:0:0:0:
256,192,327959,1,0,0:0:0:0:
256,192,328068,1,8,0:0:0:0:
256,192,328177,1,8,0:0:0:0:
256,192,328287,1,0,0:0:0:0:
230,189,328396,1,8,0:0:0:0:
230,189,328505,1,8,0:0:0:0:
256,192,328614,1,4,0:0:0:0:
