osu file format v14

[General]
AudioFilename: audio.mp3
AudioLeadIn: 0
PreviewTime: 104277
Countdown: 1
SampleSet: Soft
StackLeniency: 0.8
Mode: 0
LetterboxInBreaks: 0
WidescreenStoryboard: 1

[Editor]
Bookmarks: 21210,41966,62723,83480
DistanceSpacing: 1.1
BeatDivisor: 2
GridSize: 16
TimelineZoom: 1

[Metadata]
Title:-Ayakashi-
TitleUnicode:-Ayakashi-
Artist:teranoid & MC Natsack
ArtistUnicode:teranoid & MC Natsack
Creator:iDwarf
Version:Hyper
Source:teranoid overground edition 1.04
Tags:DnB
BeatmapID:1234669
BeatmapSetID:583436

[Difficulty]
HPDrainRate:5
CircleSize:5
OverallDifficulty:7
ApproachRate:7
SliderMultiplier:1.2
SliderTickRate:1

[Events]
//Background and Video events
0,0,"asd.jpg",0,0
//Break Periods
//Storyboard Layer 0 (Background)
//Storyboard Layer 1 (Fail)
//Storyboard Layer 2 (Pass)
//Storyboard Layer 3 (Foreground)
//Storyboard Sound Samples

[TimingPoints]
21250,324.324324324324,4,2,0,100,1,0

[HitObjects]
208,224,21250,6,0,L|144:272,2,80
160,144,21898,1,0,0:0:0:0:
256,64,22222,1,0,0:0:0:0:
256,64,22385,1,0,0:0:0:0:
256,64,22547,1,0,0:0:0:0:
352,144,22871,1,0,0:0:0:0:
384,208,23033,1,0,0:0:0:0:
448,176,23195,2,0,P|452:237|408:278,1,120
256,320,23682,1,0,0:0:0:0:
256,320,23844,2,0,L|160:336,2,80
197,253,24493,2,0,L|275:239,2,80
112,224,25141,2,0,P|97:156|122:103,1,120
115,111,25574,1,0,0:0:0:0:
115,111,25790,1,0,0:0:0:0:
194,48,26114,1,0,0:0:0:0:
256,80,26277,1,0,0:0:0:0:
320,48,26439,6,0,L|416:96,3,80
224,192,27412,1,0,0:0:0:0:
288,224,27574,1,0,0:0:0:0:
352,256,27736,2,0,L|431:297,3,80
256,336,28709,1,0,0:0:0:0:
256,272,28871,1,0,0:0:0:0:
256,208,29033,2,0,L|48:208,1,180
272,288,29682,2,0,L|304:64,1,180
352,320,30331,2,0,L|173:345,1,180
160,336,30979,1,0,0:0:0:0:
32,192,31195,1,0,0:0:0:0:
160,48,31412,1,0,0:0:0:0:
256,144,31628,6,0,L|226:218,2,80
256,144,32277,1,0,0:0:0:0:
384,192,32601,1,0,0:0:0:0:
384,192,32763,1,0,0:0:0:0:
384,192,32925,1,0,0:0:0:0:
304,288,33249,1,0,0:0:0:0:
240,320,33412,1,0,0:0:0:0:
272,384,33574,2,0,P|211:388|170:344,1,120
128,192,34060,1,0,0:0:0:0:
128,192,34222,2,0,L|112:96,2,80
195,133,34871,2,0,L|209:211,2,80
224,48,35520,2,0,P|292:33|345:58,1,120
337,51,36006,1,0,0:0:0:0:
337,51,36168,1,0,0:0:0:0:
368,192,36493,1,0,0:0:0:0:
368,192,36655,1,0,0:0:0:0:
368,192,36817,6,0,L|464:240,3,80
256,160,37790,1,0,0:0:0:0:
224,224,37952,1,0,0:0:0:0:
192,288,38114,2,0,L|151:367,3,80
112,192,39087,1,0,0:0:0:0:
176,192,39250,1,0,0:0:0:0:
240,192,39412,2,0,L|240:-16,1,180
160,208,40060,2,0,L|384:240,1,180
128,288,40709,2,0,L|103:109,1,180
112,96,41358,1,0,0:0:0:0:
256,0,41574,1,0,0:0:0:0:
400,96,41790,1,0,0:0:0:0:
256,224,42006,5,0,0:0:0:0:
