osu file format v14

[General]
AudioFilename: audio.mp3
AudioLeadIn: 0
PreviewTime: 38972
Countdown: 0
SampleSet: Normal
StackLeniency: 0.7
Mode: 1
LetterboxInBreaks: 0
WidescreenStoryboard: 1

[Editor]
Bookmarks: 1972,12638,23305,38138,38472,39305,44638,45805,46472,47305,49972,55305,56472,57138,57972,60638
DistanceSpacing: 1
BeatDivisor: 4
GridSize: 32
TimelineZoom: 3.199999

[Metadata]
Title:Neppa feat. Butter
TitleUnicode:熱波 feat. Butter
Artist:tephe
ArtistUnicode:tephe
Creator:skolodojko
Version:Oni
Source:
Tags:japanese pop j-pop jpop rock j-rock jrock featured artist fa mappers' guild mpg mg heatwave heat wave cyclops monkey
BeatmapID:4222037
BeatmapSetID:2026312

[Difficulty]
HPDrainRate:6
CircleSize:2
OverallDifficulty:5.5
ApproachRate:10
SliderMultiplier:1.4
SliderTickRate:1

[Events]
//Background and Video events
0,0,"bg.png",0,75
//Break Periods
//Storyboard Layer 0 (Background)
//Storyboard Layer 1 (Fail)
//Storyboard Layer 2 (Pass)
//Storyboard Layer 3 (Foreground)
//Storyboard Layer 4 (Overlay)
//Storyboard Sound Samples

[TimingPoints]
639,333.333333333333,4,1,0,70,1,0
639,-111.111111111111,4,1,0,70,0,0
1883,-111.111111111111,4,1,0,100,0,0
1972,333.333333333333,4,1,0,100,1,0
1972,-95.2380952380952,4,1,0,100,0,0
12800,-105.263157894737,4,1,0,80,0,0
23217,-100,4,1,0,90,0,0
34133,-111.111111111111,4,1,0,80,0,0
38050,-90.9090909090909,4,1,0,80,0,0
39217,-76.9230769230769,4,1,0,100,0,0
39305,-90.9090909090909,4,1,0,100,0,1
59971,-90.9090909090909,4,1,0,100,0,0
60133,-95.2380952380952,4,1,0,100,0,0
60633,-95.2380952380952,4,1,0,100,0,0

[HitObjects]
252,200,639,5,8,0:0:0:0:
240,198,972,1,8,0:0:0:0:
225,206,1305,1,8,0:0:0:0:
225,206,1638,1,8,0:0:0:0:
225,206,1972,1,4,0:0:0:0:
225,206,2138,1,8,0:0:0:0:
225,206,2305,1,0,0:0:0:0:
225,206,2472,1,8,0:0:0:0:
243,125,2555,1,8,0:0:0:0:
225,206,2638,1,8,0:0:0:0:
225,206,2805,1,0,0:0:0:0:
225,206,2972,1,8,0:0:0:0:
225,206,3138,1,8,0:0:0:0:
225,206,3472,1,0,0:0:0:0:
225,206,3638,1,8,0:0:0:0:
194,171,3805,1,0,0:0:0:0:
243,125,3888,1,0,0:0:0:0:
194,171,3972,1,8,0:0:0:0:
243,125,4055,1,8,0:0:0:0:
194,171,4138,1,0,0:0:0:0:
194,171,4305,1,8,0:0:0:0:
194,171,4472,1,0,0:0:0:0:
270,216,4555,1,0,0:0:0:0:
194,171,4638,1,0,0:0:0:0:
194,171,4805,1,8,0:0:0:0:
243,125,4888,1,8,0:0:0:0:
194,171,4972,1,0,0:0:0:0:
203,156,5138,1,8,0:0:0:0:
203,156,5305,1,0,0:0:0:0:
203,156,5472,1,0,0:0:0:0:
203,156,5638,1,8,0:0:0:0:
203,156,5805,1,0,0:0:0:0:
203,156,6138,1,0,0:0:0:0:
203,156,6305,1,8,0:0:0:0:
203,156,6472,1,0,0:0:0:0:
243,128,6555,1,0,0:0:0:0:
203,156,6638,1,8,0:0:0:0:
203,156,6805,1,0,0:0:0:0:
203,156,6972,1,8,0:0:0:0:
203,156,7138,1,8,0:0:0:0:
203,156,7305,1,0,0:0:0:0:
203,156,7472,1,0,0:0:0:0:
203,156,7638,1,8,0:0:0:0:
243,128,7722,1,0,0:0:0:0:
203,156,7805,1,8,0:0:0:0:
243,128,7888,1,8,0:0:0:0:
203,156,7972,1,0,0:0:0:0:
203,156,8138,1,0,0:0:0:0:
203,156,8305,1,8,0:0:0:0:
203,156,8472,1,8,0:0:0:0:
203,156,8805,1,0,0:0:0:0:
203,156,8972,1,8,0:0:0:0:
203,156,9138,1,0,0:0:0:0:
243,128,9222,1,0,0:0:0:0:
203,156,9305,1,8,0:0:0:0:
203,156,9472,1,8,0:0:0:0:
203,156,9638,1,0,0:0:0:0:
203,156,9805,1,8,0:0:0:0:
203,156,9972,1,0,0:0:0:0:
203,156,10138,1,8,0:0:0:0:
243,128,10222,1,0,0:0:0:0:
203,156,10305,1,8,0:0:0:0:
203,156,10472,1,0,0:0:0:0:
203,156,10638,1,8,0:0:0:0:
203,156,10805,1,8,0:0:0:0:
203,156,10972,1,0,0:0:0:0:
203,156,11138,1,8,0:0:0:0:
203,156,11472,1,0,0:0:0:0:
203,156,11638,1,8,0:0:0:0:
203,156,11805,1,8,0:0:0:0:
244,129,11888,1,8,0:0:0:0:
203,156,11972,1,0,0:0:0:0:
244,129,12055,1,0,0:0:0:0:
203,156,12138,1,8,0:0:0:0:
203,156,12305,1,8,0:0:0:0:
203,156,12472,1,0,0:0:0:0:
203,156,12638,1,4,0:0:0:0:
295,180,12972,1,8,0:0:0:0:
271,187,13305,1,0,0:0:0:0:
271,187,13472,1,0,0:0:0:0:
271,187,13638,1,8,0:0:0:0:
271,187,13805,1,8,0:0:0:0:
271,187,13972,1,0,0:0:0:0:
192,188,14138,1,0,0:0:0:0:
192,188,14305,1,8,0:0:0:0:
192,188,14805,1,8,0:0:0:0:
192,188,14972,1,8,0:0:0:0:
192,188,15305,1,0,0:0:0:0:
192,188,15638,1,8,0:0:0:0:
192,188,15972,1,8,0:0:0:0:
192,188,16138,1,0,0:0:0:0:
192,188,16305,1,8,0:0:0:0:
192,188,16472,1,8,0:0:0:0:
192,188,16638,1,0,0:0:0:0:
192,188,16805,1,0,0:0:0:0:
192,188,16972,1,8,0:0:0:0:
192,188,17138,1,0,0:0:0:0:
207,188,17222,1,0,0:0:0:0:
192,188,17305,1,8,0:0:0:0:
192,188,17472,1,0,0:0:0:0:
192,188,17638,1,8,0:0:0:0:
192,188,17972,1,0,0:0:0:0:
192,188,18305,1,8,0:0:0:0:
192,188,18638,1,0,0:0:0:0:
192,188,18805,1,0,0:0:0:0:
192,188,18972,1,8,0:0:0:0:
192,188,19138,1,8,0:0:0:0:
192,188,19305,1,0,0:0:0:0:
192,188,19472,1,0,0:0:0:0:
192,188,19638,1,8,0:0:0:0:
192,188,20138,1,8,0:0:0:0:
192,188,20305,1,8,0:0:0:0:
192,188,20638,1,0,0:0:0:0:
192,188,20972,1,8,0:0:0:0:
192,188,21305,1,8,0:0:0:0:
192,188,21472,1,0,0:0:0:0:
192,188,21638,1,8,0:0:0:0:
192,188,21805,1,8,0:0:0:0:
207,191,21888,1,8,0:0:0:0:
192,188,21972,1,0,0:0:0:0:
192,188,22138,1,8,0:0:0:0:
192,188,22472,1,8,0:0:0:0:
192,188,22805,1,0,0:0:0:0:
207,191,22888,1,8,0:0:0:0:
192,188,22972,1,8,0:0:0:0:
192,188,23138,1,0,0:0:0:0:
192,188,23305,1,4,0:0:0:0:
192,188,23638,1,8,0:0:0:0:
192,188,23805,1,0,0:0:0:0:
192,188,23972,1,8,0:0:0:0:
192,188,24138,1,8,0:0:0:0:
192,188,24305,1,0,0:0:0:0:
192,188,24472,1,8,0:0:0:0:
192,188,24805,1,0,0:0:0:0:
192,188,24972,1,0,0:0:0:0:
192,188,25138,1,8,0:0:0:0:
192,188,25472,1,8,0:0:0:0:
192,188,25638,1,8,0:0:0:0:
192,188,25805,1,0,0:0:0:0:
207,191,25888,1,0,0:0:0:0:
192,188,25972,1,0,0:0:0:0:
192,188,26305,1,8,0:0:0:0:
192,188,26472,1,8,0:0:0:0:
192,188,26638,1,0,0:0:0:0:
192,188,26805,1,8,0:0:0:0:
192,188,26972,1,0,0:0:0:0:
192,188,27138,1,8,0:0:0:0:
192,188,27472,1,0,0:0:0:0:
192,188,27638,1,8,0:0:0:0:
192,188,27805,1,0,0:0:0:0:
207,194,27888,1,0,0:0:0:0:
192,188,27972,1,8,0:0:0:0:
192,188,28138,1,0,0:0:0:0:
192,188,28305,1,8,0:0:0:0:
192,188,28472,1,0,0:0:0:0:
207,194,28555,1,0,0:0:0:0:
192,188,28638,1,0,0:0:0:0:
192,188,28972,1,8,0:0:0:0:
192,188,29305,1,8,0:0:0:0:
192,188,29472,1,0,0:0:0:0:
192,188,29638,1,8,0:0:0:0:
192,188,29805,1,8,0:0:0:0:
192,188,29972,1,0,0:0:0:0:
192,188,30138,1,8,0:0:0:0:
192,188,30472,1,8,0:0:0:0:
199,191,30805,1,8,0:0:0:0:
199,191,30972,1,8,0:0:0:0:
199,191,31138,1,0,0:0:0:0:
218,195,31222,1,0,0:0:0:0:
199,191,31305,1,0,0:0:0:0:
199,191,31638,1,8,0:0:0:0:
199,191,31972,1,0,0:0:0:0:
199,191,32138,1,0,0:0:0:0:
199,191,32305,1,8,0:0:0:0:
199,191,32472,1,8,0:0:0:0:
199,191,32638,1,0,0:0:0:0:
199,191,32805,1,8,0:0:0:0:
199,191,33138,1,8,0:0:0:0:
199,191,33305,1,0,0:0:0:0:
234,202,33388,1,0,0:0:0:0:
199,191,33472,1,8,0:0:0:0:
199,191,33638,1,8,0:0:0:0:
199,191,33805,1,0,0:0:0:0:
199,191,33972,1,0,0:0:0:0:
199,191,34305,1,8,0:0:0:0:
199,191,34472,1,0,0:0:0:0:
199,191,34805,1,0,0:0:0:0:
199,191,34972,1,8,0:0:0:0:
199,191,35138,1,0,0:0:0:0:
236,195,35222,1,0,0:0:0:0:
199,191,35305,1,0,0:0:0:0:
199,191,35638,1,8,0:0:0:0:
199,191,35805,1,0,0:0:0:0:
199,191,36138,1,0,0:0:0:0:
199,191,36305,1,8,0:0:0:0:
199,191,36472,1,0,0:0:0:0:
235,192,36555,1,0,0:0:0:0:
199,191,36638,1,0,0:0:0:0:
171,143,36972,1,8,0:0:0:0:
225,53,37138,1,0,0:0:0:0:
219,170,37472,1,0,0:0:0:0:
219,170,37638,1,8,0:0:0:0:
219,170,37805,1,0,0:0:0:0:
219,170,38138,1,12,0:0:0:0:
219,170,38472,1,12,0:0:0:0:
219,170,39305,1,4,0:0:0:0:
190,169,39638,1,8,0:0:0:0:
190,169,39805,1,0,0:0:0:0:
270,153,39888,1,0,0:0:0:0:
190,169,39972,1,8,0:0:0:0:
190,169,40138,1,0,0:0:0:0:
190,169,40305,1,8,0:0:0:0:
190,169,40472,1,8,0:0:0:0:
220,153,40555,1,8,0:0:0:0:
190,169,40638,1,0,0:0:0:0:
220,153,40722,1,0,0:0:0:0:
190,169,40805,1,8,0:0:0:0:
190,169,40972,1,0,0:0:0:0:
190,169,41138,1,8,0:0:0:0:
220,153,41222,1,0,0:0:0:0:
190,169,41305,1,8,0:0:0:0:
190,169,41472,1,8,0:0:0:0:
190,169,41638,1,0,0:0:0:0:
263,120,41805,1,8,0:0:0:0:
240,128,41972,1,0,0:0:0:0:
190,169,42305,1,8,0:0:0:0:
190,169,42472,1,0,0:0:0:0:
190,169,42638,1,8,0:0:0:0:
220,122,42722,1,0,0:0:0:0:
220,122,42805,1,8,0:0:0:0:
218,124,42888,1,8,0:0:0:0:
225,149,42972,1,0,0:0:0:0:
225,149,43138,1,8,0:0:0:0:
220,122,43222,1,8,0:0:0:0:
225,149,43305,1,0,0:0:0:0:
225,149,43472,1,0,0:0:0:0:
225,149,43638,1,8,0:0:0:0:
225,149,43805,1,0,0:0:0:0:
217,123,43888,1,0,0:0:0:0:
225,149,43972,1,0,0:0:0:0:
225,149,44138,1,8,0:0:0:0:
225,149,44305,1,8,0:0:0:0:
225,149,44472,1,0,0:0:0:0:
217,123,44555,1,0,0:0:0:0:
225,149,44638,1,12,0:0:0:0:
225,149,44972,1,8,0:0:0:0:
223,155,45138,1,0,0:0:0:0:
217,123,45222,1,0,0:0:0:0:
223,155,45305,1,8,0:0:0:0:
223,155,45472,1,0,0:0:0:0:
223,155,45638,1,8,0:0:0:0:
223,155,45805,1,4,0:0:0:0:
223,155,46138,1,8,0:0:0:0:
223,155,46305,1,0,0:0:0:0:
223,155,46472,1,12,0:0:0:0:
223,155,46805,1,0,0:0:0:0:
223,155,46972,1,8,0:0:0:0:
223,155,47138,1,0,0:0:0:0:
223,155,47305,1,12,0:0:0:0:
223,155,47638,1,8,0:0:0:0:
223,155,47805,1,0,0:0:0:0:
218,123,47888,1,0,0:0:0:0:
223,155,47972,1,8,0:0:0:0:
218,123,48055,1,0,0:0:0:0:
223,155,48138,1,0,0:0:0:0:
223,155,48305,1,8,0:0:0:0:
223,155,48472,1,0,0:0:0:0:
218,123,48555,1,8,0:0:0:0:
223,155,48638,1,0,0:0:0:0:
223,155,48805,1,8,0:0:0:0:
223,155,48972,1,8,0:0:0:0:
218,123,49055,1,0,0:0:0:0:
223,155,49138,1,8,0:0:0:0:
218,123,49222,1,8,0:0:0:0:
223,155,49305,1,0,0:0:0:0:
223,155,49472,1,8,0:0:0:0:
223,155,49638,1,0,0:0:0:0:
218,123,49722,1,0,0:0:0:0:
223,155,49805,1,8,0:0:0:0:
223,155,49972,1,12,0:0:0:0:
223,155,50305,1,8,0:0:0:0:
223,155,50472,1,0,0:0:0:0:
218,123,50555,1,0,0:0:0:0:
223,155,50638,1,8,0:0:0:0:
223,155,50805,1,0,0:0:0:0:
223,155,50972,1,8,0:0:0:0:
223,155,51138,1,8,0:0:0:0:
218,123,51222,1,8,0:0:0:0:
223,155,51305,1,0,0:0:0:0:
218,123,51388,1,8,0:0:0:0:
223,155,51472,1,0,0:0:0:0:
223,155,51638,1,8,0:0:0:0:
223,155,51805,1,0,0:0:0:0:
218,123,51888,1,0,0:0:0:0:
223,155,51972,1,8,0:0:0:0:
223,155,52138,1,8,0:0:0:0:
223,155,52305,1,0,0:0:0:0:
223,155,52472,1,0,0:0:0:0:
223,155,52638,1,8,0:0:0:0:
223,155,52972,1,0,0:0:0:0:
223,155,53138,1,8,0:0:0:0:
218,123,53222,1,0,0:0:0:0:
223,155,53305,1,8,0:0:0:0:
223,155,53472,1,0,0:0:0:0:
223,155,53638,1,8,0:0:0:0:
218,123,53805,1,8,0:0:0:0:
218,123,53888,1,8,0:0:0:0:
223,155,53972,1,0,0:0:0:0:
218,123,54055,1,8,0:0:0:0:
223,155,54138,1,0,0:0:0:0:
223,155,54305,1,8,0:0:0:0:
223,155,54472,1,0,0:0:0:0:
218,123,54555,1,0,0:0:0:0:
223,155,54638,1,0,0:0:0:0:
223,155,54805,1,8,0:0:0:0:
223,155,54972,1,8,0:0:0:0:
223,155,55138,1,0,0:0:0:0:
223,155,55305,1,12,0:0:0:0:
223,155,55638,1,8,0:0:0:0:
223,155,55805,1,0,0:0:0:0:
218,123,55888,1,8,0:0:0:0:
223,155,55972,1,0,0:0:0:0:
223,155,56138,1,8,0:0:0:0:
223,155,56305,1,0,0:0:0:0:
223,155,56472,1,12,0:0:0:0:
223,155,56805,1,0,0:0:0:0:
223,155,56972,1,8,0:0:0:0:
223,155,57138,1,4,0:0:0:0:
136,160,57472,1,0,0:0:0:0:
223,155,57638,1,8,0:0:0:0:
218,123,57722,1,8,0:0:0:0:
197,176,57805,1,8,0:0:0:0:
197,176,57972,1,4,0:0:0:0:
207,200,58305,1,8,0:0:0:0:
207,200,58472,1,0,0:0:0:0:
218,123,58555,1,0,0:0:0:0:
207,200,58638,1,8,0:0:0:0:
207,200,58805,1,0,0:0:0:0:
207,200,58972,1,8,0:0:0:0:
207,200,59138,1,0,0:0:0:0:
218,123,59222,1,8,0:0:0:0:
207,200,59305,1,0,0:0:0:0:
207,200,59472,1,0,0:0:0:0:
207,200,59638,1,8,0:0:0:0:
242,124,59722,1,0,0:0:0:0:
207,200,59805,1,8,0:0:0:0:
207,200,59972,1,0,0:0:0:0:
207,200,60305,1,8,0:0:0:0:
225,206,60638,1,4,0:0:0:0:
225,206,60805,1,8,0:0:0:0:
225,206,60972,1,0,0:0:0:0:
225,206,61138,1,8,0:0:0:0:
243,125,61222,1,8,0:0:0:0:
225,206,61305,1,8,0:0:0:0:
225,206,61472,1,0,0:0:0:0:
225,206,61638,1,8,0:0:0:0:
225,206,61805,1,8,0:0:0:0:
225,206,62138,1,0,0:0:0:0:
225,206,62305,1,8,0:0:0:0:
194,171,62472,1,0,0:0:0:0:
243,125,62555,1,0,0:0:0:0:
194,171,62638,1,8,0:0:0:0:
243,125,62722,1,8,0:0:0:0:
194,171,62805,1,0,0:0:0:0:
194,171,62972,1,8,0:0:0:0:
194,171,63138,1,0,0:0:0:0:
270,216,63222,1,0,0:0:0:0:
194,171,63305,1,8,0:0:0:0:
194,171,63472,1,0,0:0:0:0:
243,125,63555,1,0,0:0:0:0:
194,171,63638,1,0,0:0:0:0:
203,156,63805,1,8,0:0:0:0:
203,156,63972,1,8,0:0:0:0:
203,156,64138,1,0,0:0:0:0:
203,156,64305,1,0,0:0:0:0:
203,156,64472,1,8,0:0:0:0:
203,156,64805,1,0,0:0:0:0:
203,156,64972,1,8,0:0:0:0:
203,156,65138,1,8,0:0:0:0:
243,128,65222,1,8,0:0:0:0:
203,156,65305,1,0,0:0:0:0:
203,156,65472,1,8,0:0:0:0:
203,156,65638,1,8,0:0:0:0:
203,156,65805,1,0,0:0:0:0:
203,156,65972,1,0,0:0:0:0:
203,156,66138,1,8,0:0:0:0:
203,156,66305,1,0,0:0:0:0:
243,128,66388,1,8,0:0:0:0:
203,156,66472,1,0,0:0:0:0:
243,128,66555,1,0,0:0:0:0:
203,156,66638,1,8,0:0:0:0:
203,156,66805,1,0,0:0:0:0:
203,156,66972,1,8,0:0:0:0:
203,156,67138,1,8,0:0:0:0:
203,156,67472,1,0,0:0:0:0:
203,156,67638,1,8,0:0:0:0:
203,156,67805,1,0,0:0:0:0:
243,128,67888,1,0,0:0:0:0:
203,156,67972,1,8,0:0:0:0:
203,156,68138,1,8,0:0:0:0:
203,156,68305,1,0,0:0:0:0:
203,156,68472,1,0,0:0:0:0:
203,156,68638,1,8,0:0:0:0:
203,156,68805,1,0,0:0:0:0:
243,128,68888,1,8,0:0:0:0:
203,156,68972,1,0,0:0:0:0:
203,156,69138,1,0,0:0:0:0:
203,156,69305,1,8,0:0:0:0:
203,156,69472,1,0,0:0:0:0:
203,156,69638,1,8,0:0:0:0:
203,156,69805,1,8,0:0:0:0:
203,156,70138,1,0,0:0:0:0:
203,156,70305,1,8,0:0:0:0:
203,156,70472,1,8,0:0:0:0:
244,129,70555,1,8,0:0:0:0:
203,156,70638,1,0,0:0:0:0:
244,129,70722,1,0,0:0:0:0:
203,156,70805,1,8,0:0:0:0:
271,84,70972,1,8,0:0:0:0:
