osu file format v14

[General]
AudioFilename: audio.mp3
AudioLeadIn: 0
PreviewTime: 38972
Countdown: 0
SampleSet: Normal
StackLeniency: 0.7
Mode: 1
LetterboxInBreaks: 0
WidescreenStoryboard: 1

[Editor]
Bookmarks: 1972,12638,23305,38138,38472,39305,44638,45805,46472,47305,49972,55305,56472,57138,57972,60638
DistanceSpacing: 1
BeatDivisor: 2
GridSize: 32
TimelineZoom: 3.199999

[Metadata]
Title:Neppa feat. Butter
TitleUnicode:熱波 feat. Butter
Artist:tephe
ArtistUnicode:tephe
Creator:skolodojko
Version:Muzukashii
Source:
Tags:japanese pop j-pop jpop rock j-rock jrock featured artist fa mappers' guild mpg mg heatwave heat wave cyclops monkey
BeatmapID:4222036
BeatmapSetID:2026312

[Difficulty]
HPDrainRate:7
CircleSize:2
OverallDifficulty:5
ApproachRate:10
SliderMultiplier:1.4
SliderTickRate:1

[Events]
//Background and Video events
0,0,"bg.png",0,75
//Break Periods
//Storyboard Layer 0 (Background)
//Storyboard Layer 1 (Fail)
//Storyboard Layer 2 (Pass)
//Storyboard Layer 3 (Foreground)
//Storyboard Layer 4 (Overlay)
//Storyboard Sound Samples

[TimingPoints]
639,333.333333333333,4,1,0,70,1,0
639,-111.111111111111,4,1,0,70,0,0
1883,-111.111111111111,4,1,0,100,0,0
1972,333.333333333333,4,1,0,100,1,0
1972,-95.2380952380952,4,1,0,100,0,0
12550,-105.263157894737,4,1,0,80,0,0
23217,-100,4,1,0,90,0,0
34133,-105.263157894737,4,1,0,80,0,0
38050,-90.9090909090909,4,1,0,80,0,0
39217,-76.9230769230769,4,1,0,100,0,0
39305,-90.9090909090909,4,1,0,100,0,1
59971,-90.9090909090909,4,1,0,100,0,0
60133,-95.2380952380952,4,1,0,100,0,0
60633,-95.2380952380952,4,1,0,100,0,0

[HitObjects]
225,206,639,5,8,0:0:0:0:
225,206,972,1,8,0:0:0:0:
225,206,1305,1,8,0:0:0:0:
194,201,1638,1,8,0:0:0:0:
197,200,1972,1,4,0:0:0:0:
194,201,2305,1,8,0:0:0:0:
194,201,2472,1,0,0:0:0:0:
315,147,2555,1,0,0:0:0:0:
197,200,2638,1,0,0:0:0:0:
197,200,2805,1,0,0:0:0:0:
197,200,2972,1,8,0:0:0:0:
194,201,3138,1,8,0:0:0:0:
197,200,3472,1,0,0:0:0:0:
197,200,3638,1,8,0:0:0:0:
197,200,3805,1,0,0:0:0:0:
194,201,3972,1,0,0:0:0:0:
197,200,4305,1,8,0:0:0:0:
197,200,4638,1,0,0:0:0:0:
197,200,4972,1,8,0:0:0:0:
197,200,5138,1,8,0:0:0:0:
197,200,5305,1,0,0:0:0:0:
197,200,5472,1,8,0:0:0:0:
261,137,5555,1,8,0:0:0:0:
197,200,5638,1,8,0:0:0:0:
197,200,5805,1,0,0:0:0:0:
197,200,6138,1,8,0:0:0:0:
201,147,6472,1,0,0:0:0:0:
201,147,6638,1,8,0:0:0:0:
252,160,7305,1,0,0:0:0:0:
232,174,7638,1,8,0:0:0:0:
229,174,7972,1,0,0:0:0:0:
229,174,8138,1,0,0:0:0:0:
232,174,8305,1,8,0:0:0:0:
232,174,8472,1,0,0:0:0:0:
229,174,8805,1,8,0:0:0:0:
229,174,9138,1,8,0:0:0:0:
232,174,9305,1,0,0:0:0:0:
229,174,9472,1,8,0:0:0:0:
260,138,9555,1,8,0:0:0:0:
229,174,9638,1,8,0:0:0:0:
229,174,9805,1,8,0:0:0:0:
229,174,9972,1,0,0:0:0:0:
229,174,10305,1,8,0:0:0:0:
229,174,10638,1,0,0:0:0:0:
229,174,10805,1,0,0:0:0:0:
229,174,10972,1,8,0:0:0:0:
229,174,11138,1,8,0:0:0:0:
229,174,11472,1,0,0:0:0:0:
229,174,11638,1,8,0:0:0:0:
229,174,11805,1,8,0:0:0:0:
229,174,11972,1,0,0:0:0:0:
209,130,12638,1,4,0:0:0:0:
214,164,12972,1,8,0:0:0:0:
212,163,13305,1,0,0:0:0:0:
212,163,13472,1,0,0:0:0:0:
214,164,13638,1,8,0:0:0:0:
214,164,13805,1,8,0:0:0:0:
212,163,13972,1,0,0:0:0:0:
212,163,14305,1,8,0:0:0:0:
254,196,14805,5,8,0:0:0:0:
254,196,14972,1,8,0:0:0:0:
209,200,15305,1,0,0:0:0:0:
209,200,15638,1,8,0:0:0:0:
209,200,15972,1,8,0:0:0:0:
209,200,16138,1,0,0:0:0:0:
209,200,16305,1,8,0:0:0:0:
209,200,16638,1,0,0:0:0:0:
209,200,16805,1,0,0:0:0:0:
209,200,16972,1,8,0:0:0:0:
209,200,17138,1,0,0:0:0:0:
207,148,17472,1,0,0:0:0:0:
207,148,17638,1,8,0:0:0:0:
207,148,17972,1,0,0:0:0:0:
207,148,18305,1,8,0:0:0:0:
207,148,18638,1,0,0:0:0:0:
207,148,18805,1,0,0:0:0:0:
207,148,18972,1,8,0:0:0:0:
207,148,19138,1,0,0:0:0:0:
207,148,19305,1,0,0:0:0:0:
207,148,19638,1,8,0:0:0:0:
253,172,20138,5,8,0:0:0:0:
180,180,20305,1,8,0:0:0:0:
180,180,20638,1,0,0:0:0:0:
180,180,20972,1,8,0:0:0:0:
180,180,21305,1,8,0:0:0:0:
180,180,21472,1,0,0:0:0:0:
180,180,21638,1,8,0:0:0:0:
180,180,21805,1,0,0:0:0:0:
181,220,21888,1,0,0:0:0:0:
180,180,21972,1,0,0:0:0:0:
180,180,22138,1,8,0:0:0:0:
254,136,22472,1,8,0:0:0:0:
254,136,22805,1,0,0:0:0:0:
254,136,23305,5,4,0:0:0:0:
186,148,23638,1,8,0:0:0:0:
198,152,23972,1,0,0:0:0:0:
222,109,24138,1,8,0:0:0:0:
266,154,24305,1,0,0:0:0:0:
199,152,24472,1,0,0:0:0:0:
198,152,24805,1,0,0:0:0:0:
229,140,24972,1,8,0:0:0:0:
198,159,25138,1,0,0:0:0:0:
202,119,25472,1,8,0:0:0:0:
197,160,25638,1,8,0:0:0:0:
275,141,25805,1,0,0:0:0:0:
178,226,25888,1,0,0:0:0:0:
202,119,25972,1,0,0:0:0:0:
202,119,26305,1,8,0:0:0:0:
200,123,26638,1,0,0:0:0:0:
202,119,26805,1,0,0:0:0:0:
202,119,26972,1,8,0:0:0:0:
202,119,27138,1,0,0:0:0:0:
200,123,27472,1,0,0:0:0:0:
202,119,27805,1,8,0:0:0:0:
162,184,27888,1,8,0:0:0:0:
202,119,27972,1,8,0:0:0:0:
228,106,28638,1,0,0:0:0:0:
228,107,28972,1,8,0:0:0:0:
243,146,29305,1,0,0:0:0:0:
228,106,29472,1,0,0:0:0:0:
198,126,29638,1,8,0:0:0:0:
246,138,29805,1,8,0:0:0:0:
203,43,29972,1,0,0:0:0:0:
198,126,30138,1,8,0:0:0:0:
198,126,30472,1,8,0:0:0:0:
198,126,30805,1,8,0:0:0:0:
198,126,30972,1,8,0:0:0:0:
198,126,31138,1,0,0:0:0:0:
264,115,31222,1,0,0:0:0:0:
198,126,31305,1,0,0:0:0:0:
198,126,31638,1,8,0:0:0:0:
207,151,31972,1,0,0:0:0:0:
207,151,32138,1,0,0:0:0:0:
207,151,32305,1,8,0:0:0:0:
207,151,32472,1,0,0:0:0:0:
207,151,32805,1,8,0:0:0:0:
248,135,33138,1,8,0:0:0:0:
276,130,33638,1,8,0:0:0:0:
489,214,33805,1,8,0:0:0:0:
276,136,33972,1,0,0:0:0:0:
252,154,34305,1,8,0:0:0:0:
252,154,34472,1,0,0:0:0:0:
252,154,34805,1,0,0:0:0:0:
252,154,34972,1,8,0:0:0:0:
252,154,35138,1,0,0:0:0:0:
224,164,35222,1,0,0:0:0:0:
252,154,35305,1,0,0:0:0:0:
252,154,35638,1,8,0:0:0:0:
252,154,35805,1,0,0:0:0:0:
252,154,36138,1,8,0:0:0:0:
252,154,36305,1,8,0:0:0:0:
252,154,36472,1,0,0:0:0:0:
224,164,36555,1,0,0:0:0:0:
252,154,36638,1,0,0:0:0:0:
252,154,36972,1,8,0:0:0:0:
252,154,37138,1,0,0:0:0:0:
252,154,37472,1,0,0:0:0:0:
252,154,37638,1,8,0:0:0:0:
252,154,37805,1,0,0:0:0:0:
251,160,38138,1,12,0:0:0:0:
251,161,38472,1,12,0:0:0:0:
195,176,39305,1,4,0:0:0:0:
195,176,39638,1,8,0:0:0:0:
195,176,39805,1,0,0:0:0:0:
303,131,39888,1,0,0:0:0:0:
195,176,39972,1,0,0:0:0:0:
195,176,40138,1,0,0:0:0:0:
195,176,40305,1,8,0:0:0:0:
195,176,40472,1,0,0:0:0:0:
195,176,40805,1,0,0:0:0:0:
195,176,40972,1,8,0:0:0:0:
195,176,41138,1,8,0:0:0:0:
218,120,41222,1,8,0:0:0:0:
195,176,41305,1,8,0:0:0:0:
195,176,41472,1,0,0:0:0:0:
195,176,41638,1,8,0:0:0:0:
195,176,41972,1,0,0:0:0:0:
195,176,42138,1,8,0:0:0:0:
235,126,42222,1,8,0:0:0:0:
195,176,42305,1,8,0:0:0:0:
195,176,42472,1,0,0:0:0:0:
195,176,42638,1,8,0:0:0:0:
195,176,42805,1,0,0:0:0:0:
264,157,43138,1,8,0:0:0:0:
258,163,43472,1,0,0:0:0:0:
258,163,43638,1,0,0:0:0:0:
258,163,43805,1,8,0:0:0:0:
212,171,44305,1,8,0:0:0:0:
212,171,44472,1,0,0:0:0:0:
212,171,44638,1,12,0:0:0:0:
212,171,44972,1,8,0:0:0:0:
212,171,45305,1,0,0:0:0:0:
212,171,45472,1,0,0:0:0:0:
212,171,45638,1,8,0:0:0:0:
212,171,45805,1,4,0:0:0:0:
212,171,46138,1,8,0:0:0:0:
212,171,46305,1,0,0:0:0:0:
212,171,46472,1,12,0:0:0:0:
212,171,46805,1,8,0:0:0:0:
212,171,46972,1,8,0:0:0:0:
212,171,47138,1,0,0:0:0:0:
212,171,47305,1,12,0:0:0:0:
213,178,47638,1,8,0:0:0:0:
213,180,47805,1,0,0:0:0:0:
223,136,47888,1,0,0:0:0:0:
213,180,47972,1,0,0:0:0:0:
213,180,48138,1,0,0:0:0:0:
213,178,48305,1,8,0:0:0:0:
223,136,48472,1,0,0:0:0:0:
213,178,48638,1,8,0:0:0:0:
213,180,48972,1,0,0:0:0:0:
209,184,49138,1,8,0:0:0:0:
209,184,49305,1,0,0:0:0:0:
195,176,49972,1,12,0:0:0:0:
195,176,50305,1,0,0:0:0:0:
195,176,50472,1,8,0:0:0:0:
248,164,50555,1,8,0:0:0:0:
195,176,50638,1,8,0:0:0:0:
195,176,50805,1,0,0:0:0:0:
195,176,50972,1,0,0:0:0:0:
195,176,51138,1,8,0:0:0:0:
195,176,51472,1,0,0:0:0:0:
195,176,51638,1,8,0:0:0:0:
195,176,51805,1,0,0:0:0:0:
249,153,51888,1,0,0:0:0:0:
195,176,51972,1,0,0:0:0:0:
195,176,52138,1,0,0:0:0:0:
195,176,52305,1,8,0:0:0:0:
195,176,52638,1,0,0:0:0:0:
195,176,52805,1,8,0:0:0:0:
247,154,52888,1,8,0:0:0:0:
195,176,52972,1,8,0:0:0:0:
195,176,53138,1,0,0:0:0:0:
195,176,53305,1,8,0:0:0:0:
195,176,53472,1,0,0:0:0:0:
264,157,53805,1,8,0:0:0:0:
258,163,54138,1,0,0:0:0:0:
258,163,54305,1,0,0:0:0:0:
258,163,54472,1,8,0:0:0:0:
212,171,54972,1,8,0:0:0:0:
212,171,55138,1,0,0:0:0:0:
212,171,55305,1,12,0:0:0:0:
212,171,55638,1,8,0:0:0:0:
212,171,55972,1,0,0:0:0:0:
212,171,56138,1,0,0:0:0:0:
212,171,56305,1,8,0:0:0:0:
212,171,56472,1,4,0:0:0:0:
212,171,56805,1,8,0:0:0:0:
212,171,56972,1,8,0:0:0:0:
212,171,57138,1,4,0:0:0:0:
212,171,57472,1,0,0:0:0:0:
212,171,57638,1,8,0:0:0:0:
243,157,57722,1,8,0:0:0:0:
212,171,57805,1,8,0:0:0:0:
212,171,57972,1,4,0:0:0:0:
213,178,58305,1,8,0:0:0:0:
213,180,58472,1,8,0:0:0:0:
213,180,58638,1,0,0:0:0:0:
213,180,58805,1,0,0:0:0:0:
213,178,58972,1,8,0:0:0:0:
196,108,59138,1,0,0:0:0:0:
242,161,59222,1,0,0:0:0:0:
213,178,59305,1,0,0:0:0:0:
213,180,59638,1,8,0:0:0:0:
209,184,59805,1,0,0:0:0:0:
209,184,59972,1,0,0:0:0:0:
197,200,60638,1,4,0:0:0:0:
194,201,60972,1,8,0:0:0:0:
194,201,61138,1,0,0:0:0:0:
315,147,61222,1,0,0:0:0:0:
197,200,61305,1,0,0:0:0:0:
197,200,61472,1,0,0:0:0:0:
197,200,61638,1,8,0:0:0:0:
194,201,61805,1,0,0:0:0:0:
197,200,62138,1,0,0:0:0:0:
197,200,62305,1,8,0:0:0:0:
197,200,62472,1,8,0:0:0:0:
194,201,62638,1,0,0:0:0:0:
197,200,62972,1,8,0:0:0:0:
197,200,63305,1,0,0:0:0:0:
197,200,63638,1,8,0:0:0:0:
197,200,63805,1,8,0:0:0:0:
197,200,63972,1,0,0:0:0:0:
197,200,64138,1,8,0:0:0:0:
261,137,64222,1,8,0:0:0:0:
197,200,64305,1,8,0:0:0:0:
197,200,64472,1,0,0:0:0:0:
197,200,64805,1,8,0:0:0:0:
201,147,65138,1,0,0:0:0:0:
201,147,65305,1,8,0:0:0:0:
252,160,65972,1,0,0:0:0:0:
232,174,66305,1,8,0:0:0:0:
229,174,66638,1,0,0:0:0:0:
229,174,66805,1,0,0:0:0:0:
232,174,66972,1,8,0:0:0:0:
232,174,67138,1,0,0:0:0:0:
229,174,67472,1,8,0:0:0:0:
229,174,67805,1,0,0:0:0:0:
232,174,67972,1,8,0:0:0:0:
229,174,68138,1,0,0:0:0:0:
260,138,68222,1,0,0:0:0:0:
229,174,68305,1,0,0:0:0:0:
229,174,68472,1,0,0:0:0:0:
229,174,68638,1,8,0:0:0:0:
229,174,68972,1,8,0:0:0:0:
229,174,69305,1,0,0:0:0:0:
229,174,69472,1,0,0:0:0:0:
229,174,69638,1,8,0:0:0:0:
229,174,69805,1,0,0:0:0:0:
229,174,70138,1,8,0:0:0:0:
229,174,70305,1,8,0:0:0:0:
229,174,70472,1,0,0:0:0:0:
229,174,70638,1,0,0:0:0:0:
158,149,70805,1,8,0:0:0:0:
197,92,70972,1,8,0:0:0:0:
