osu file format v14

[General]
AudioFilename: audio.mp3
AudioLeadIn: 0
PreviewTime: 38972
Countdown: 0
SampleSet: Normal
StackLeniency: 0.7
Mode: 1
LetterboxInBreaks: 0
WidescreenStoryboard: 1

[Editor]
Bookmarks: 1972,12638,23305,38138,38472,39305,44638,45805,46472,47305,49972,55305,56472,57138,57972,60638
DistanceSpacing: 1.1
BeatDivisor: 2
GridSize: 32
TimelineZoom: 0.8999997

[Metadata]
Title:Neppa feat. Butter
TitleUnicode:熱波 feat. Butter
Artist:tephe
ArtistUnicode:tephe
Creator:skolodojko
Version:Kantan
Source:
Tags:japanese pop j-pop jpop rock j-rock jrock featured artist fa mappers' guild mpg mg heatwave heat wave cyclops monkey
BeatmapID:4222035
BeatmapSetID:2026312

[Difficulty]
HPDrainRate:9
CircleSize:2
OverallDifficulty:3
ApproachRate:10
SliderMultiplier:1.4
SliderTickRate:1

[Events]
//Background and Video events
0,0,"bg.png",0,75
//Break Periods
//Storyboard Layer 0 (Background)
//Storyboard Layer 1 (Fail)
//Storyboard Layer 2 (Pass)
//Storyboard Layer 3 (Foreground)
//Storyboard Layer 4 (Overlay)
//Storyboard Sound Samples

[TimingPoints]
639,333.333333333333,4,1,0,70,1,0
639,-111.111111111111,4,1,0,70,0,0
1883,-111.111111111111,4,1,0,100,0,0
1972,333.333333333333,4,1,0,100,1,0
1972,-111.111111111111,4,1,0,100,0,0
12800,-111.111111111111,4,1,0,80,0,0
23217,-111.111111111111,4,1,0,90,0,0
34133,-111.111111111111,4,1,0,80,0,0
38050,-111.111111111111,4,1,0,80,0,0
39217,-111.111111111111,4,1,0,100,0,0
39305,-111.111111111111,4,1,0,100,0,1
59971,-111.111111111111,4,1,0,100,0,0
60133,-111.111111111111,4,1,0,100,0,0
60633,-111.111111111111,4,1,0,100,0,0

[HitObjects]
197,157,1972,5,4,0:0:0:0:
150,146,2638,1,8,0:0:0:0:
191,140,3305,1,0,0:0:0:0:
292,149,3638,1,0,0:0:0:0:
197,151,3972,1,8,0:0:0:0:
198,143,4305,1,8,0:0:0:0:
197,151,4638,1,0,0:0:0:0:
198,143,5305,1,8,0:0:0:0:
198,143,5972,1,0,0:0:0:0:
181,153,7305,1,8,0:0:0:0:
181,153,7638,1,8,0:0:0:0:
181,153,7972,1,0,0:0:0:0:
181,153,8638,1,8,0:0:0:0:
181,153,9305,1,0,0:0:0:0:
181,153,9638,1,0,0:0:0:0:
181,153,9972,1,8,0:0:0:0:
181,153,10638,1,8,0:0:0:0:
181,153,11305,1,0,0:0:0:0:
177,160,12638,1,4,0:0:0:0:
177,160,13305,1,8,0:0:0:0:
177,160,13638,1,8,0:0:0:0:
174,166,14305,1,8,0:0:0:0:
173,168,14972,1,8,0:0:0:0:
207,99,15305,1,0,0:0:0:0:
194,96,15638,1,8,0:0:0:0:
178,91,16305,1,0,0:0:0:0:
166,121,16972,1,8,0:0:0:0:
177,160,17972,1,0,0:0:0:0:
177,160,18638,1,0,0:0:0:0:
177,160,18972,1,8,0:0:0:0:
174,166,19638,1,8,0:0:0:0:
173,168,20305,1,8,0:0:0:0:
207,99,20638,1,0,0:0:0:0:
194,96,20972,1,8,0:0:0:0:
178,91,21638,1,0,0:0:0:0:
207,121,22138,1,8,0:0:0:0:
177,160,23305,1,4,0:0:0:0:
177,160,23972,1,8,0:0:0:0:
195,91,24638,1,8,0:0:0:0:
174,166,24972,1,0,0:0:0:0:
173,168,25638,1,8,0:0:0:0:
207,99,25972,1,0,0:0:0:0:
194,96,26305,1,8,0:0:0:0:
178,91,26972,1,8,0:0:0:0:
166,121,27638,1,0,0:0:0:0:
177,160,28638,1,0,0:0:0:0:
199,123,28972,1,8,0:0:0:0:
177,160,29305,1,0,0:0:0:0:
177,160,29972,1,0,0:0:0:0:
174,166,30305,1,8,0:0:0:0:
173,168,30972,1,0,0:0:0:0:
207,99,31305,1,0,0:0:0:0:
194,96,31638,1,8,0:0:0:0:
178,91,32305,1,0,0:0:0:0:
166,121,32805,1,8,0:0:0:0:
230,110,33972,1,8,0:0:0:0:
205,152,34472,1,0,0:0:0:0:
205,152,35305,1,8,0:0:0:0:
205,152,35805,1,0,0:0:0:0:
205,152,36638,1,8,0:0:0:0:
198,157,37138,1,0,0:0:0:0:
194,168,37638,1,0,0:0:0:0:
198,157,38138,1,12,0:0:0:0:
194,168,38472,1,12,0:0:0:0:
194,168,39305,1,4,0:0:0:0:
285,174,39972,1,0,0:0:0:0:
285,174,40305,1,8,0:0:0:0:
223,167,40638,1,0,0:0:0:0:
205,167,41305,1,8,0:0:0:0:
205,167,41972,1,0,0:0:0:0:
205,167,42305,1,0,0:0:0:0:
205,167,42638,1,8,0:0:0:0:
205,167,42972,1,8,0:0:0:0:
205,167,43305,1,0,0:0:0:0:
202,132,44305,1,0,0:0:0:0:
200,172,44638,1,12,0:0:0:0:
202,132,45305,1,0,0:0:0:0:
200,140,45805,1,4,0:0:0:0:
200,140,46472,1,12,0:0:0:0:
200,140,47305,1,12,0:0:0:0:
224,130,47972,1,0,0:0:0:0:
224,130,48305,1,0,0:0:0:0:
224,130,48638,1,8,0:0:0:0:
194,168,49972,1,12,0:0:0:0:
285,174,50638,1,8,0:0:0:0:
285,174,50972,1,0,0:0:0:0:
223,167,51305,1,8,0:0:0:0:
205,167,51972,1,0,0:0:0:0:
205,167,52638,1,8,0:0:0:0:
205,167,52972,1,0,0:0:0:0:
205,167,53305,1,8,0:0:0:0:
205,167,53638,1,8,0:0:0:0:
205,167,53972,1,0,0:0:0:0:
202,132,54972,5,0,0:0:0:0:
200,172,55305,1,12,0:0:0:0:
202,132,55972,1,0,0:0:0:0:
200,140,56472,1,12,0:0:0:0:
200,140,57138,1,4,0:0:0:0:
200,140,57972,1,4,0:0:0:0:
224,130,58638,1,8,0:0:0:0:
224,130,58972,1,8,0:0:0:0:
224,130,59305,1,0,0:0:0:0:
212,158,59972,1,8,0:0:0:0:
197,157,60638,1,4,0:0:0:0:
150,146,61305,1,8,0:0:0:0:
191,140,61972,1,0,0:0:0:0:
292,149,62305,1,0,0:0:0:0:
197,151,62638,1,8,0:0:0:0:
198,143,62972,1,8,0:0:0:0:
197,151,63305,1,0,0:0:0:0:
198,143,63972,1,0,0:0:0:0:
198,143,64638,1,8,0:0:0:0:
181,153,65972,1,8,0:0:0:0:
181,153,66305,1,0,0:0:0:0:
181,153,66638,1,8,0:0:0:0:
181,153,67305,1,8,0:0:0:0:
181,153,67972,1,0,0:0:0:0:
181,153,68305,1,0,0:0:0:0:
181,153,68638,1,8,0:0:0:0:
181,153,69305,1,8,0:0:0:0:
181,153,69972,1,0,0:0:0:0:
222,120,70638,1,8,0:0:0:0:
208,143,70972,1,8,0:0:0:0:
