osu file format v14

[General]
AudioFilename: audio.mp3
AudioLeadIn: 0
PreviewTime: 38972
Countdown: 0
SampleSet: Normal
StackLeniency: 0.7
Mode: 1
LetterboxInBreaks: 0
WidescreenStoryboard: 0

[Editor]
Bookmarks: 1972,12638,23305,38138,38472,39305,44638,45805,46472,47305,49972,55305,56472,57138,57972,60638
DistanceSpacing: 1
BeatDivisor: 2
GridSize: 32
TimelineZoom: 3.199999

[Metadata]
Title:Neppa feat. Butter
TitleUnicode:熱波 feat. Butter
Artist:tephe
ArtistUnicode:tephe
Creator:skolodojko
Version:Heatwave
Source:
Tags:japanese pop j-pop jpop rock j-rock jrock featured artist fa mappers' guild mpg mg heatwave heat wave cyclops monkey
BeatmapID:4222034
BeatmapSetID:2026312

[Difficulty]
HPDrainRate:6
CircleSize:2
OverallDifficulty:6
ApproachRate:10
SliderMultiplier:1.4
SliderTickRate:1

[Events]
//Background and Video events
0,0,"bg.png",0,75
//Break Periods
//Storyboard Layer 0 (Background)
//Storyboard Layer 1 (Fail)
//Storyboard Layer 2 (Pass)
//Storyboard Layer 3 (Foreground)
//Storyboard Layer 4 (Overlay)
//Storyboard Sound Samples

[TimingPoints]
639,333.333333333333,4,1,0,70,1,0
639,-111.111111111111,4,1,0,70,0,0
1883,-111.111111111111,4,1,0,100,0,0
1972,333.333333333333,4,1,0,100,1,0
1972,-95.2380952380952,4,1,0,100,0,0
12800,-105.263157894737,4,1,0,80,0,0
23217,-100,4,1,0,90,0,0
34133,-111.111111111111,4,1,0,80,0,0
38050,-76.9230769230769,4,1,0,80,0,0
39217,-76.9230769230769,4,1,0,100,0,0
39305,-90.9090909090909,4,1,0,100,0,1
45800,-76.9230769230769,4,1,0,100,0,1
45883,-90.9090909090909,4,1,0,100,0,1
46467,-76.9230769230769,4,1,0,100,0,1
46550,-90.9090909090909,4,1,0,100,0,1
47300,-76.9230769230769,4,1,0,100,0,1
47383,-90.9090909090909,4,1,0,100,0,1
56467,-76.9230769230769,4,1,0,100,0,1
56633,-90.9090909090909,4,1,0,100,0,1
57133,-76.9230769230769,4,1,0,100,0,1
57300,-90.9090909090909,4,1,0,100,0,1
57967,-76.9230769230769,4,1,0,100,0,1
58133,-90.9090909090909,4,1,0,100,0,1
59971,-90.9090909090909,4,1,0,100,0,0
60300,-58.8235294117647,4,1,0,100,0,0
60633,-95.2380952380952,4,1,0,100,0,0

[HitObjects]
196,189,639,5,8,0:0:0:0:
196,189,972,1,8,0:0:0:0:
196,189,1305,1,8,0:0:0:0:
196,189,1638,1,8,0:0:0:0:
196,189,1972,1,4,0:0:0:0:
196,189,2138,1,8,0:0:0:0:
253,153,2221,1,0,0:0:0:0:
253,153,2305,1,8,0:0:0:0:
243,153,2388,1,8,0:0:0:0:
196,189,2471,1,0,0:0:0:0:
196,189,2638,1,0,0:0:0:0:
256,75,2721,1,0,0:0:0:0:
196,189,2805,1,8,0:0:0:0:
253,153,2888,1,8,0:0:0:0:
196,189,2971,1,0,0:0:0:0:
196,189,3138,1,8,0:0:0:0:
283,147,3221,1,8,0:0:0:0:
196,189,3305,1,0,0:0:0:0:
226,203,3471,1,8,0:0:0:0:
226,204,3638,1,0,0:0:0:0:
226,204,3805,1,8,0:0:0:0:
253,156,3888,1,0,0:0:0:0:
226,204,3971,1,8,0:0:0:0:
252,156,4055,1,8,0:0:0:0:
226,204,4138,1,0,0:0:0:0:
246,124,4221,1,0,0:0:0:0:
226,203,4305,1,8,0:0:0:0:
192,169,4471,1,8,0:0:0:0:
192,169,4638,1,0,0:0:0:0:
227,130,4721,1,0,0:0:0:0:
192,169,4805,1,0,0:0:0:0:
227,132,4888,1,0,0:0:0:0:
205,191,4971,1,8,0:0:0:0:
205,191,5138,1,8,0:0:0:0:
253,156,5221,1,0,0:0:0:0:
205,191,5305,1,8,0:0:0:0:
248,115,5388,1,0,0:0:0:0:
205,191,5471,1,0,0:0:0:0:
205,191,5638,1,8,0:0:0:0:
205,191,5805,1,0,0:0:0:0:
272,148,5888,1,0,0:0:0:0:
205,191,5971,1,8,0:0:0:0:
205,191,6138,1,0,0:0:0:0:
205,191,6305,1,8,0:0:0:0:
251,161,6388,1,8,0:0:0:0:
205,191,6471,1,0,0:0:0:0:
272,148,6555,1,0,0:0:0:0:
205,191,6638,1,8,0:0:0:0:
205,191,6805,1,0,0:0:0:0:
205,191,6971,1,8,0:0:0:0:
251,161,7138,1,0,0:0:0:0:
251,161,7221,1,8,0:0:0:0:
205,191,7305,1,0,0:0:0:0:
205,191,7471,1,8,0:0:0:0:
205,191,7638,1,0,0:0:0:0:
251,161,7721,1,0,0:0:0:0:
205,191,7805,1,8,0:0:0:0:
251,161,7888,1,8,0:0:0:0:
205,191,7971,1,8,0:0:0:0:
239,131,8055,1,0,0:0:0:0:
205,191,8138,1,8,0:0:0:0:
239,131,8221,1,8,0:0:0:0:
205,191,8305,1,0,0:0:0:0:
205,191,8471,1,8,0:0:0:0:
270,151,8555,1,0,0:0:0:0:
205,191,8638,1,0,0:0:0:0:
205,191,8805,1,8,0:0:0:0:
205,191,8971,1,0,0:0:0:0:
205,191,9138,1,8,0:0:0:0:
273,171,9221,1,8,0:0:0:0:
205,191,9305,1,0,0:0:0:0:
251,163,9388,1,0,0:0:0:0:
205,191,9471,1,8,0:0:0:0:
251,163,9555,1,0,0:0:0:0:
205,191,9638,1,8,0:0:0:0:
205,191,9805,1,0,0:0:0:0:
205,191,9971,1,8,0:0:0:0:
259,154,10055,1,0,0:0:0:0:
205,191,10138,1,0,0:0:0:0:
259,154,10221,1,0,0:0:0:0:
205,191,10305,1,8,0:0:0:0:
205,191,10471,1,0,0:0:0:0:
239,155,10555,1,0,0:0:0:0:
205,191,10638,1,8,0:0:0:0:
239,155,10721,1,8,0:0:0:0:
205,191,10805,1,0,0:0:0:0:
205,191,10971,1,8,0:0:0:0:
205,191,11138,1,8,0:0:0:0:
270,151,11221,1,8,0:0:0:0:
205,191,11305,1,0,0:0:0:0:
205,191,11471,1,8,0:0:0:0:
205,191,11638,1,8,0:0:0:0:
270,151,11805,1,0,0:0:0:0:
266,159,11888,1,0,0:0:0:0:
270,151,11971,1,8,0:0:0:0:
270,151,12055,1,0,0:0:0:0:
205,191,12138,1,8,0:0:0:0:
205,191,12305,1,8,0:0:0:0:
205,191,12471,1,0,0:0:0:0:
205,191,12638,1,4,0:0:0:0:
205,191,12971,1,8,0:0:0:0:
240,150,13305,1,0,0:0:0:0:
202,152,13471,1,0,0:0:0:0:
202,152,13638,1,8,0:0:0:0:
202,152,13805,1,0,0:0:0:0:
202,152,13971,1,0,0:0:0:0:
202,152,14138,1,0,0:0:0:0:
202,152,14305,1,8,0:0:0:0:
236,127,14805,1,8,0:0:0:0:
236,127,14971,1,8,0:0:0:0:
236,127,15305,1,0,0:0:0:0:
236,127,15638,1,8,0:0:0:0:
236,127,15971,1,0,0:0:0:0:
236,127,16138,1,0,0:0:0:0:
236,127,16305,1,8,0:0:0:0:
236,127,16471,1,0,0:0:0:0:
172,158,16638,1,8,0:0:0:0:
172,158,16805,1,8,0:0:0:0:
189,143,16971,1,0,0:0:0:0:
189,143,17138,1,8,0:0:0:0:
294,158,17221,1,0,0:0:0:0:
189,143,17305,1,0,0:0:0:0:
189,143,17471,1,0,0:0:0:0:
189,143,17638,1,8,0:0:0:0:
220,180,17971,1,0,0:0:0:0:
220,180,18305,1,8,0:0:0:0:
220,180,18638,1,0,0:0:0:0:
220,180,18805,1,0,0:0:0:0:
220,180,18971,1,8,0:0:0:0:
220,180,19138,1,0,0:0:0:0:
185,119,19305,1,8,0:0:0:0:
185,119,19471,1,8,0:0:0:0:
185,119,19638,1,0,0:0:0:0:
185,119,20138,1,8,0:0:0:0:
185,119,20305,1,8,0:0:0:0:
196,148,20471,1,0,0:0:0:0:
196,148,20638,1,0,0:0:0:0:
195,150,20971,1,8,0:0:0:0:
196,148,21305,1,0,0:0:0:0:
196,148,21471,1,0,0:0:0:0:
195,150,21638,1,8,0:0:0:0:
195,150,21805,1,0,0:0:0:0:
252,142,21888,1,0,0:0:0:0:
196,148,21971,1,0,0:0:0:0:
196,148,22138,1,8,0:0:0:0:
195,150,22471,1,8,0:0:0:0:
196,148,22805,1,0,0:0:0:0:
243,110,22888,1,8,0:0:0:0:
196,148,22971,1,8,0:0:0:0:
195,150,23138,1,0,0:0:0:0:
195,150,23305,1,4,0:0:0:0:
238,158,23638,1,8,0:0:0:0:
238,158,23971,1,8,0:0:0:0:
238,158,24138,1,0,0:0:0:0:
238,158,24305,1,0,0:0:0:0:
238,158,24471,1,8,0:0:0:0:
238,158,24638,1,0,0:0:0:0:
238,158,24805,1,8,0:0:0:0:
250,125,24888,1,0,0:0:0:0:
238,158,24971,1,0,0:0:0:0:
238,158,25138,1,8,0:0:0:0:
280,126,25305,1,0,0:0:0:0:
238,158,25471,1,8,0:0:0:0:
238,158,25638,1,8,0:0:0:0:
238,158,25805,1,0,0:0:0:0:
339,182,25888,1,0,0:0:0:0:
238,158,25971,1,0,0:0:0:0:
248,191,26305,1,8,0:0:0:0:
218,188,26638,1,8,0:0:0:0:
215,188,26805,1,8,0:0:0:0:
215,188,26971,1,0,0:0:0:0:
215,187,27138,1,8,0:0:0:0:
218,188,27305,1,0,0:0:0:0:
218,188,27471,1,8,0:0:0:0:
215,188,27638,1,0,0:0:0:0:
215,188,27805,1,8,0:0:0:0:
253,104,27888,1,8,0:0:0:0:
215,188,27971,1,0,0:0:0:0:
215,187,28138,1,0,0:0:0:0:
218,188,28305,1,8,0:0:0:0:
218,188,28471,1,0,0:0:0:0:
253,104,28555,1,0,0:0:0:0:
253,104,28638,1,8,0:0:0:0:
217,147,28971,1,8,0:0:0:0:
217,147,29305,1,0,0:0:0:0:
207,147,29471,1,8,0:0:0:0:
232,131,29555,1,8,0:0:0:0:
207,147,29638,1,0,0:0:0:0:
207,147,29805,1,8,0:0:0:0:
207,146,29971,1,0,0:0:0:0:
207,146,30138,1,8,0:0:0:0:
207,146,30305,1,0,0:0:0:0:
207,147,30471,1,8,0:0:0:0:
242,119,30638,1,0,0:0:0:0:
207,146,30805,1,8,0:0:0:0:
207,146,30971,1,8,0:0:0:0:
207,146,31138,1,0,0:0:0:0:
268,125,31221,1,0,0:0:0:0:
207,147,31305,1,0,0:0:0:0:
207,146,31638,1,8,0:0:0:0:
207,146,31971,1,0,0:0:0:0:
207,147,32138,1,0,0:0:0:0:
207,146,32305,1,8,0:0:0:0:
207,146,32471,1,0,0:0:0:0:
213,150,32638,1,0,0:0:0:0:
207,146,32805,1,8,0:0:0:0:
214,150,33138,1,8,0:0:0:0:
255,137,33221,1,8,0:0:0:0:
214,151,33305,1,0,0:0:0:0:
255,137,33388,1,8,0:0:0:0:
213,150,33471,1,0,0:0:0:0:
214,151,33638,1,8,0:0:0:0:
214,150,33805,1,0,0:0:0:0:
214,150,33971,1,0,0:0:0:0:
245,148,34305,1,8,0:0:0:0:
245,148,34471,1,0,0:0:0:0:
245,151,34805,1,0,0:0:0:0:
245,148,34971,1,8,0:0:0:0:
245,148,35138,1,0,0:0:0:0:
325,141,35221,1,0,0:0:0:0:
245,148,35305,1,0,0:0:0:0:
264,131,35638,1,8,0:0:0:0:
264,131,35805,1,0,0:0:0:0:
264,130,36138,1,0,0:0:0:0:
264,130,36305,1,8,0:0:0:0:
264,131,36471,1,8,0:0:0:0:
369,126,36555,1,8,0:0:0:0:
264,131,36638,1,0,0:0:0:0:
344,142,36971,1,8,0:0:0:0:
344,142,37138,1,0,0:0:0:0:
267,167,37471,1,0,0:0:0:0:
267,167,37638,1,8,0:0:0:0:
267,167,37805,1,0,0:0:0:0:
302,125,38138,1,12,0:0:0:0:
302,125,38471,1,12,0:0:0:0:
302,125,39305,1,4,0:0:0:0:
334,123,39555,1,0,0:0:0:0:
335,124,39638,1,8,0:0:0:0:
205,158,39805,1,8,0:0:0:0:
291,161,39888,1,0,0:0:0:0:
205,158,39971,1,8,0:0:0:0:
291,161,40055,1,8,0:0:0:0:
205,158,40138,1,0,0:0:0:0:
239,147,40221,1,0,0:0:0:0:
205,158,40305,1,8,0:0:0:0:
205,158,40471,1,8,0:0:0:0:
239,147,40555,1,8,0:0:0:0:
205,158,40638,1,0,0:0:0:0:
240,149,40721,1,0,0:0:0:0:
205,158,40805,1,0,0:0:0:0:
205,158,40971,1,8,0:0:0:0:
240,149,41055,1,8,0:0:0:0:
205,158,41138,1,0,0:0:0:0:
240,149,41221,1,8,0:0:0:0:
205,158,41305,1,8,0:0:0:0:
205,158,41471,1,0,0:0:0:0:
240,149,41555,1,8,0:0:0:0:
205,158,41638,1,0,0:0:0:0:
205,158,41805,1,0,0:0:0:0:
205,158,41971,1,8,0:0:0:0:
205,158,42138,1,0,0:0:0:0:
240,149,42221,1,0,0:0:0:0:
205,158,42305,1,8,0:0:0:0:
205,158,42471,1,8,0:0:0:0:
240,149,42555,1,0,0:0:0:0:
205,158,42638,1,8,0:0:0:0:
252,132,42721,1,8,0:0:0:0:
205,158,42805,1,0,0:0:0:0:
205,158,42971,1,0,0:0:0:0:
253,131,43055,1,0,0:0:0:0:
253,131,43138,1,8,0:0:0:0:
252,131,43221,1,0,0:0:0:0:
205,158,43305,1,8,0:0:0:0:
205,158,43471,1,0,0:0:0:0:
252,132,43555,1,0,0:0:0:0:
205,158,43638,1,0,0:0:0:0:
205,158,43805,1,8,0:0:0:0:
205,158,43971,1,8,0:0:0:0:
253,131,44055,1,8,0:0:0:0:
205,158,44138,1,0,0:0:0:0:
205,158,44305,1,8,0:0:0:0:
205,158,44471,1,0,0:0:0:0:
217,121,44555,1,0,0:0:0:0:
205,158,44638,1,12,0:0:0:0:
223,114,44888,1,0,0:0:0:0:
214,153,44971,1,8,0:0:0:0:
214,153,45138,1,8,0:0:0:0:
241,101,45221,1,0,0:0:0:0:
214,153,45305,1,8,0:0:0:0:
214,153,45471,1,0,0:0:0:0:
214,153,45638,1,8,0:0:0:0:
214,153,45805,1,4,0:0:0:0:
265,148,46138,1,8,0:0:0:0:
241,101,46221,1,8,0:0:0:0:
214,153,46305,1,0,0:0:0:0:
249,157,46471,1,12,0:0:0:0:
249,157,46805,1,0,0:0:0:0:
215,124,46888,1,0,0:0:0:0:
249,157,46971,1,8,0:0:0:0:
249,157,47138,1,0,0:0:0:0:
249,157,47305,1,12,0:0:0:0:
184,154,47471,1,0,0:0:0:0:
184,154,47638,1,8,0:0:0:0:
242,101,47721,1,0,0:0:0:0:
184,154,47805,1,0,0:0:0:0:
242,101,47888,1,0,0:0:0:0:
184,154,47971,1,8,0:0:0:0:
184,154,48138,1,8,0:0:0:0:
242,101,48221,1,0,0:0:0:0:
184,154,48305,1,8,0:0:0:0:
242,101,48388,1,8,0:0:0:0:
184,154,48471,1,0,0:0:0:0:
184,154,48638,1,0,0:0:0:0:
184,154,48805,1,8,0:0:0:0:
242,101,48888,1,0,0:0:0:0:
184,154,48971,1,8,0:0:0:0:
184,154,49138,1,8,0:0:0:0:
184,154,49305,1,0,0:0:0:0:
184,154,49471,1,8,0:0:0:0:
184,154,49638,1,0,0:0:0:0:
242,101,49721,1,0,0:0:0:0:
184,154,49805,1,0,0:0:0:0:
242,101,49888,1,0,0:0:0:0:
184,154,49971,1,12,0:0:0:0:
242,101,50221,1,0,0:0:0:0:
184,154,50305,1,8,0:0:0:0:
184,154,50471,1,8,0:0:0:0:
242,101,50555,1,0,0:0:0:0:
240,119,50638,1,8,0:0:0:0:
235,123,50721,1,8,0:0:0:0:
184,154,50805,1,0,0:0:0:0:
184,154,50971,1,8,0:0:0:0:
235,123,51055,1,0,0:0:0:0:
184,154,51138,1,8,0:0:0:0:
184,154,51305,1,0,0:0:0:0:
252,128,51471,1,8,0:0:0:0:
240,119,51555,1,8,0:0:0:0:
269,124,51638,1,0,0:0:0:0:
243,118,51721,1,0,0:0:0:0:
184,154,51805,1,8,0:0:0:0:
184,154,51971,1,0,0:0:0:0:
245,120,52055,1,8,0:0:0:0:
184,154,52138,1,0,0:0:0:0:
245,120,52221,1,0,0:0:0:0:
184,154,52305,1,8,0:0:0:0:
184,154,52471,1,0,0:0:0:0:
184,154,52638,1,0,0:0:0:0:
184,154,52805,1,8,0:0:0:0:
245,120,52888,1,8,0:0:0:0:
184,154,52971,1,8,0:0:0:0:
245,120,53138,1,0,0:0:0:0:
236,121,53221,1,0,0:0:0:0:
184,154,53305,1,8,0:0:0:0:
245,120,53388,1,0,0:0:0:0:
184,154,53471,1,0,0:0:0:0:
184,154,53638,1,8,0:0:0:0:
184,154,53805,1,8,0:0:0:0:
236,121,53888,1,8,0:0:0:0:
184,154,53971,1,0,0:0:0:0:
184,154,54138,1,8,0:0:0:0:
236,121,54221,1,0,0:0:0:0:
184,154,54305,1,0,0:0:0:0:
236,121,54388,1,0,0:0:0:0:
184,154,54471,1,8,0:0:0:0:
184,154,54638,1,0,0:0:0:0:
184,154,54805,1,8,0:0:0:0:
184,154,54971,1,0,0:0:0:0:
208,90,55055,1,0,0:0:0:0:
208,90,55138,1,0,0:0:0:0:
208,90,55221,1,0,0:0:0:0:
184,154,55305,1,12,0:0:0:0:
202,99,55555,1,0,0:0:0:0:
184,154,55638,1,8,0:0:0:0:
184,154,55805,1,0,0:0:0:0:
208,90,55888,1,0,0:0:0:0:
184,154,55971,1,8,0:0:0:0:
184,154,56138,1,0,0:0:0:0:
184,154,56305,1,0,0:0:0:0:
184,154,56471,1,12,0:0:0:0:
184,154,56805,1,0,0:0:0:0:
184,154,56971,1,8,0:0:0:0:
233,144,57138,1,4,0:0:0:0:
233,144,57471,1,0,0:0:0:0:
233,144,57638,1,8,0:0:0:0:
230,131,57721,1,0,0:0:0:0:
233,144,57805,1,8,0:0:0:0:
233,144,57971,1,4,0:0:0:0:
226,148,58138,1,8,0:0:0:0:
230,131,58221,1,8,0:0:0:0:
226,148,58305,1,8,0:0:0:0:
226,148,58471,1,0,0:0:0:0:
226,148,58638,1,8,0:0:0:0:
230,131,58721,1,8,0:0:0:0:
226,148,58805,1,0,0:0:0:0:
230,131,58888,1,0,0:0:0:0:
226,148,58971,1,8,0:0:0:0:
226,148,59138,1,0,0:0:0:0:
230,131,59221,1,0,0:0:0:0:
226,148,59305,1,8,0:0:0:0:
226,148,59471,1,0,0:0:0:0:
226,148,59638,1,8,0:0:0:0:
226,148,59805,1,8,0:0:0:0:
226,148,59971,1,0,0:0:0:0:
226,148,60305,1,8,0:0:0:0:
265,180,60638,1,4,0:0:0:0:
190,193,60805,1,8,0:0:0:0:
258,158,60888,1,0,0:0:0:0:
190,193,60971,1,8,0:0:0:0:
257,157,61055,1,0,0:0:0:0:
190,193,61138,1,8,0:0:0:0:
203,193,61305,1,0,0:0:0:0:
257,157,61388,1,0,0:0:0:0:
206,194,61471,1,8,0:0:0:0:
258,157,61555,1,8,0:0:0:0:
207,194,61638,1,0,0:0:0:0:
207,194,61805,1,8,0:0:0:0:
317,152,61888,1,0,0:0:0:0:
207,194,61971,1,0,0:0:0:0:
203,193,62138,1,0,0:0:0:0:
206,194,62305,1,8,0:0:0:0:
207,194,62471,1,0,0:0:0:0:
258,157,62555,1,8,0:0:0:0:
207,194,62638,1,8,0:0:0:0:
258,157,62721,1,8,0:0:0:0:
207,194,62805,1,0,0:0:0:0:
203,193,62971,1,8,0:0:0:0:
258,157,63055,1,8,0:0:0:0:
206,194,63138,1,0,0:0:0:0:
258,157,63221,1,0,0:0:0:0:
207,194,63305,1,8,0:0:0:0:
207,194,63471,1,0,0:0:0:0:
258,157,63555,1,0,0:0:0:0:
207,194,63638,1,8,0:0:0:0:
203,193,63805,1,0,0:0:0:0:
206,194,63971,1,8,0:0:0:0:
258,157,64055,1,0,0:0:0:0:
207,194,64138,1,8,0:0:0:0:
258,157,64221,1,8,0:0:0:0:
207,194,64305,1,0,0:0:0:0:
207,194,64471,1,8,0:0:0:0:
263,146,64555,1,8,0:0:0:0:
203,193,64638,1,8,0:0:0:0:
206,194,64805,1,0,0:0:0:0:
207,194,64971,1,8,0:0:0:0:
267,80,65055,1,8,0:0:0:0:
207,194,65138,1,0,0:0:0:0:
263,146,65221,1,8,0:0:0:0:
207,194,65305,1,0,0:0:0:0:
203,193,65471,1,8,0:0:0:0:
206,194,65638,1,8,0:0:0:0:
207,194,65805,1,0,0:0:0:0:
259,156,65888,1,0,0:0:0:0:
207,194,65971,1,8,0:0:0:0:
207,194,66138,1,8,0:0:0:0:
203,193,66305,1,0,0:0:0:0:
259,156,66388,1,0,0:0:0:0:
206,194,66471,1,8,0:0:0:0:
259,156,66555,1,8,0:0:0:0:
207,194,66638,1,8,0:0:0:0:
207,194,66805,1,8,0:0:0:0:
235,94,66888,1,0,0:0:0:0:
207,194,66971,1,8,0:0:0:0:
235,94,67055,1,8,0:0:0:0:
203,193,67138,1,0,0:0:0:0:
262,147,67221,1,8,0:0:0:0:
206,194,67305,1,0,0:0:0:0:
207,194,67471,1,8,0:0:0:0:
207,194,67638,1,0,0:0:0:0:
236,100,67721,1,8,0:0:0:0:
207,194,67805,1,0,0:0:0:0:
236,100,67888,1,0,0:0:0:0:
203,193,67971,1,8,0:0:0:0:
206,194,68138,1,8,0:0:0:0:
236,100,68221,1,0,0:0:0:0:
207,194,68305,1,8,0:0:0:0:
236,100,68388,1,8,0:0:0:0:
207,194,68471,1,0,0:0:0:0:
207,194,68638,1,8,0:0:0:0:
203,193,68805,1,0,0:0:0:0:
236,100,68888,1,0,0:0:0:0:
206,194,68971,1,8,0:0:0:0:
207,194,69138,1,0,0:0:0:0:
207,194,69305,1,8,0:0:0:0:
236,100,69388,1,8,0:0:0:0:
207,194,69471,1,0,0:0:0:0:
236,100,69555,1,0,0:0:0:0:
203,193,69638,1,0,0:0:0:0:
206,194,69805,1,8,0:0:0:0:
262,147,69888,1,0,0:0:0:0:
207,194,69971,1,8,0:0:0:0:
207,194,70138,1,0,0:0:0:0:
207,194,70305,1,8,0:0:0:0:
203,193,70471,1,0,0:0:0:0:
262,147,70555,1,0,0:0:0:0:
206,194,70638,1,8,0:0:0:0:
262,147,70721,1,0,0:0:0:0:
207,194,70805,1,8,0:0:0:0:
219,117,70971,1,8,0:0:0:0:
