osu file format v14

[General]
AudioFilename: audio.mp3
AudioLeadIn: 0
PreviewTime: 38972
Countdown: 0
SampleSet: Normal
StackLeniency: 0.7
Mode: 1
LetterboxInBreaks: 0
WidescreenStoryboard: 1

[Editor]
Bookmarks: 1972,12638,23305,38138,38472,39305,44638,45805,46472,47305,49972,55305,56472,57138,57972,60638
DistanceSpacing: 1
BeatDivisor: 4
GridSize: 32
TimelineZoom: 2

[Metadata]
Title:Neppa feat. Butter
TitleUnicode:熱波 feat. Butter
Artist:tephe
ArtistUnicode:tephe
Creator:skolodojko
Version:Futsuu
Source:
Tags:japanese pop j-pop jpop rock j-rock jrock featured artist fa mappers' guild mpg mg heatwave heat wave cyclops monkey
BeatmapID:4222033
BeatmapSetID:2026312

[Difficulty]
HPDrainRate:8
CircleSize:2
OverallDifficulty:4
ApproachRate:10
SliderMultiplier:1.4
SliderTickRate:1

[Events]
//Background and Video events
0,0,"bg.png",0,75
//Break Periods
//Storyboard Layer 0 (Background)
//Storyboard Layer 1 (Fail)
//Storyboard Layer 2 (Pass)
//Storyboard Layer 3 (Foreground)
//Storyboard Layer 4 (Overlay)
//Storyboard Sound Samples

[TimingPoints]
639,333.333333333333,4,1,0,70,1,0
639,-100,4,1,0,70,0,0
1883,-100,4,1,0,100,0,0
1972,333.333333333333,4,1,0,100,1,0
1972,-100,4,1,0,100,0,0
12800,-100,4,1,0,80,0,0
23217,-100,4,1,0,90,0,0
34133,-100,4,1,0,80,0,0
38050,-100,4,1,0,80,0,0
39217,-100,4,1,0,100,0,0
39305,-100,4,1,0,100,0,1
59971,-100,4,1,0,100,0,0
60133,-100,4,1,0,100,0,0
60633,-100,4,1,0,100,0,0

[HitObjects]
205,188,1972,5,4,0:0:0:0:
205,188,2305,1,8,0:0:0:0:
205,188,2472,1,8,0:0:0:0:
205,188,2638,1,0,0:0:0:0:
205,188,2972,1,8,0:0:0:0:
205,188,3138,1,0,0:0:0:0:
205,188,3472,1,0,0:0:0:0:
205,188,3638,1,8,0:0:0:0:
205,188,3972,1,0,0:0:0:0:
205,188,4138,1,0,0:0:0:0:
205,188,4305,1,8,0:0:0:0:
205,188,4638,1,0,0:0:0:0:
205,188,4972,1,8,0:0:0:0:
205,188,5305,1,0,0:0:0:0:
205,188,5472,1,8,0:0:0:0:
205,188,5638,1,8,0:0:0:0:
205,188,5805,1,0,0:0:0:0:
205,188,6138,1,8,0:0:0:0:
205,188,6472,1,0,0:0:0:0:
205,188,6638,1,8,0:0:0:0:
205,188,7305,1,0,0:0:0:0:
205,188,7638,1,8,0:0:0:0:
205,188,7972,1,0,0:0:0:0:
205,188,8138,1,0,0:0:0:0:
205,188,8305,1,8,0:0:0:0:
205,188,8472,1,0,0:0:0:0:
205,188,8805,1,0,0:0:0:0:
205,188,8972,1,8,0:0:0:0:
205,188,9305,1,0,0:0:0:0:
205,188,9638,1,8,0:0:0:0:
205,188,9805,1,8,0:0:0:0:
205,188,9972,1,0,0:0:0:0:
205,188,10305,1,8,0:0:0:0:
205,188,10638,1,0,0:0:0:0:
205,188,10972,1,8,0:0:0:0:
205,188,11138,1,0,0:0:0:0:
205,188,11472,1,8,0:0:0:0:
205,188,11805,1,0,0:0:0:0:
205,188,11972,1,8,0:0:0:0:
205,188,12638,1,4,0:0:0:0:
205,188,12972,1,8,0:0:0:0:
205,188,13305,1,0,0:0:0:0:
205,188,13472,1,0,0:0:0:0:
234,141,13638,1,8,0:0:0:0:
234,141,13972,1,0,0:0:0:0:
234,141,14305,1,8,0:0:0:0:
234,141,14805,1,8,0:0:0:0:
234,141,14972,1,8,0:0:0:0:
234,141,15305,1,0,0:0:0:0:
234,141,15638,1,8,0:0:0:0:
234,141,15972,1,8,0:0:0:0:
234,141,16138,1,8,0:0:0:0:
234,141,16305,1,0,0:0:0:0:
234,141,16638,1,0,0:0:0:0:
234,141,16972,1,8,0:0:0:0:
212,169,17638,5,8,0:0:0:0:
212,169,17972,1,0,0:0:0:0:
212,167,18305,1,8,0:0:0:0:
212,169,18638,1,0,0:0:0:0:
212,169,18805,1,8,0:0:0:0:
212,169,18972,1,8,0:0:0:0:
212,167,19305,1,0,0:0:0:0:
212,169,19638,1,8,0:0:0:0:
212,167,20138,1,8,0:0:0:0:
212,167,20305,1,8,0:0:0:0:
250,110,20638,1,0,0:0:0:0:
250,110,20972,1,8,0:0:0:0:
250,110,21305,1,0,0:0:0:0:
246,117,21472,1,8,0:0:0:0:
246,117,21638,1,0,0:0:0:0:
190,135,22138,1,8,0:0:0:0:
190,135,22472,1,8,0:0:0:0:
188,142,23305,1,4,0:0:0:0:
157,159,23638,1,8,0:0:0:0:
157,159,23972,1,0,0:0:0:0:
157,159,24138,1,8,0:0:0:0:
157,159,24305,1,8,0:0:0:0:
157,159,24472,1,0,0:0:0:0:
157,159,24805,1,8,0:0:0:0:
228,111,25138,1,8,0:0:0:0:
228,111,25472,1,8,0:0:0:0:
228,111,25638,1,8,0:0:0:0:
228,111,25972,1,0,0:0:0:0:
228,111,26305,1,8,0:0:0:0:
228,111,26638,1,0,0:0:0:0:
212,111,26805,1,0,0:0:0:0:
202,126,27138,1,8,0:0:0:0:
202,126,27472,1,0,0:0:0:0:
196,137,27805,1,8,0:0:0:0:
196,137,27972,1,0,0:0:0:0:
191,146,28638,1,0,0:0:0:0:
191,146,28972,1,8,0:0:0:0:
191,146,29305,1,0,0:0:0:0:
191,146,29472,1,8,0:0:0:0:
191,146,29638,1,8,0:0:0:0:
191,146,29805,1,0,0:0:0:0:
191,146,30138,1,8,0:0:0:0:
191,146,30472,1,0,0:0:0:0:
171,58,30805,1,8,0:0:0:0:
171,69,30972,1,8,0:0:0:0:
177,120,31305,1,0,0:0:0:0:
177,120,31638,1,8,0:0:0:0:
177,120,31972,1,0,0:0:0:0:
177,120,32305,1,8,0:0:0:0:
177,120,32472,1,0,0:0:0:0:
185,131,32805,1,8,0:0:0:0:
185,133,33138,1,8,0:0:0:0:
212,165,33972,1,0,0:0:0:0:
212,165,34305,1,8,0:0:0:0:
212,165,34472,1,0,0:0:0:0:
212,165,34805,1,0,0:0:0:0:
212,165,34972,1,8,0:0:0:0:
169,61,35305,1,0,0:0:0:0:
212,165,35638,1,8,0:0:0:0:
204,140,35805,1,0,0:0:0:0:
204,140,36305,1,8,0:0:0:0:
204,140,36638,1,0,0:0:0:0:
204,140,36972,1,8,0:0:0:0:
204,140,37138,1,0,0:0:0:0:
204,140,37472,1,0,0:0:0:0:
204,140,37638,1,8,0:0:0:0:
204,140,37805,1,0,0:0:0:0:
204,140,38138,1,12,0:0:0:0:
237,114,38472,1,12,0:0:0:0:
201,189,39305,1,4,0:0:0:0:
201,189,39638,1,8,0:0:0:0:
201,189,39972,1,0,0:0:0:0:
201,189,40305,1,8,0:0:0:0:
201,189,40472,1,0,0:0:0:0:
201,189,40805,1,0,0:0:0:0:
201,189,40972,1,8,0:0:0:0:
201,189,41305,1,0,0:0:0:0:
201,189,41638,1,8,0:0:0:0:
201,189,41972,1,0,0:0:0:0:
171,111,42138,1,0,0:0:0:0:
201,189,42305,1,8,0:0:0:0:
171,111,42638,1,0,0:0:0:0:
171,111,42972,1,8,0:0:0:0:
174,104,43138,1,8,0:0:0:0:
171,111,43472,1,0,0:0:0:0:
171,111,43638,1,8,0:0:0:0:
234,123,44305,1,0,0:0:0:0:
219,129,44472,1,0,0:0:0:0:
219,129,44638,1,12,0:0:0:0:
193,134,44972,1,8,0:0:0:0:
193,134,45305,1,0,0:0:0:0:
193,134,45638,1,8,0:0:0:0:
193,134,45805,1,4,0:0:0:0:
193,134,46138,1,0,0:0:0:0:
193,134,46305,1,0,0:0:0:0:
193,134,46472,1,12,0:0:0:0:
193,134,46972,1,0,0:0:0:0:
189,140,47305,1,12,0:0:0:0:
188,141,47638,1,0,0:0:0:0:
182,147,47805,1,0,0:0:0:0:
182,147,47972,1,8,0:0:0:0:
182,147,48305,1,0,0:0:0:0:
182,147,48472,1,8,0:0:0:0:
182,147,48805,1,8,0:0:0:0:
182,147,48972,1,0,0:0:0:0:
182,147,49305,1,8,0:0:0:0:
201,189,49972,1,12,0:0:0:0:
201,189,50305,1,0,0:0:0:0:
201,189,50638,1,8,0:0:0:0:
201,189,50972,1,0,0:0:0:0:
201,189,51138,1,8,0:0:0:0:
201,189,51472,1,8,0:0:0:0:
201,189,51638,1,0,0:0:0:0:
201,189,51972,1,8,0:0:0:0:
201,189,52305,1,0,0:0:0:0:
201,189,52638,1,0,0:0:0:0:
171,111,52805,1,8,0:0:0:0:
201,189,52972,1,0,0:0:0:0:
171,111,53305,1,8,0:0:0:0:
171,111,53638,1,0,0:0:0:0:
174,104,53805,1,8,0:0:0:0:
171,111,54138,1,0,0:0:0:0:
171,111,54305,1,8,0:0:0:0:
234,123,54972,1,0,0:0:0:0:
219,129,55138,1,0,0:0:0:0:
219,129,55305,1,12,0:0:0:0:
193,134,55638,1,0,0:0:0:0:
193,134,55972,1,8,0:0:0:0:
193,134,56305,1,0,0:0:0:0:
193,134,56472,1,12,0:0:0:0:
193,134,56805,1,8,0:0:0:0:
193,134,56972,1,8,0:0:0:0:
193,134,57138,1,4,0:0:0:0:
193,134,57638,1,8,0:0:0:0:
189,140,57972,1,4,0:0:0:0:
188,141,58305,1,8,0:0:0:0:
182,147,58472,1,8,0:0:0:0:
182,147,58638,1,0,0:0:0:0:
182,147,58972,1,8,0:0:0:0:
182,147,59138,1,8,0:0:0:0:
182,147,59472,1,0,0:0:0:0:
182,147,59638,1,8,0:0:0:0:
182,147,59972,1,0,0:0:0:0:
205,188,60638,1,4,0:0:0:0:
205,188,60972,1,8,0:0:0:0:
205,188,61138,1,8,0:0:0:0:
205,188,61305,1,0,0:0:0:0:
205,188,61638,1,8,0:0:0:0:
205,188,61805,1,0,0:0:0:0:
205,188,62138,1,0,0:0:0:0:
205,188,62305,1,8,0:0:0:0:
205,188,62638,1,0,0:0:0:0:
205,188,62805,1,0,0:0:0:0:
205,188,62972,1,8,0:0:0:0:
205,188,63305,1,0,0:0:0:0:
205,188,63638,1,8,0:0:0:0:
205,188,63972,1,0,0:0:0:0:
205,188,64138,1,0,0:0:0:0:
205,188,64305,1,8,0:0:0:0:
205,188,64472,1,8,0:0:0:0:
205,188,64805,1,8,0:0:0:0:
205,188,65138,1,8,0:0:0:0:
205,188,65305,1,0,0:0:0:0:
205,188,65972,1,0,0:0:0:0:
205,188,66305,1,8,0:0:0:0:
205,188,66638,1,0,0:0:0:0:
205,188,66805,1,8,0:0:0:0:
205,188,66972,1,8,0:0:0:0:
205,188,67138,1,0,0:0:0:0:
205,188,67472,1,0,0:0:0:0:
205,188,67638,1,8,0:0:0:0:
205,188,67972,1,0,0:0:0:0:
205,188,68305,1,8,0:0:0:0:
205,188,68472,1,0,0:0:0:0:
205,188,68638,1,0,0:0:0:0:
205,188,68972,1,8,0:0:0:0:
205,188,69305,1,0,0:0:0:0:
205,188,69638,1,8,0:0:0:0:
205,188,69805,1,8,0:0:0:0:
205,188,70138,1,0,0:0:0:0:
205,188,70472,1,8,0:0:0:0:
205,188,70638,1,0,0:0:0:0:
189,154,70805,1,8,0:0:0:0:
189,154,70972,1,8,0:0:0:0:
