osu file format v14

[General]
AudioFilename: audio.mp3
AudioLeadIn: 0
PreviewTime: 38950
Countdown: 0
SampleSet: Normal
StackLeniency: 0.7
Mode: 1
LetterboxInBreaks: 0
WidescreenStoryboard: 1

[Editor]
DistanceSpacing: 1
BeatDivisor: 4
GridSize: 32
TimelineZoom: 1.1

[Metadata]
Title:Neppa feat. Butter
TitleUnicode:熱波 feat. Butter
Artist:tephe
ArtistUnicode:tephe
Creator:Hivie
Version:Kantan
Source:
Tags:japanese pop j-pop jpop rock j-rock jrock featured artist fa mappers' guild mpg mg heatwave heat wave cyclops monkey
BeatmapID:4216668
BeatmapSetID:2024321

[Difficulty]
HPDrainRate:10
CircleSize:2
OverallDifficulty:3
ApproachRate:10
SliderMultiplier:1.4
SliderTickRate:1

[Events]
//Background and Video events
0,0,"bg.jpg",0,60
//Break Periods
//Storyboard Layer 0 (Background)
//Storyboard Layer 1 (Fail)
//Storyboard Layer 2 (Pass)
//Storyboard Layer 3 (Foreground)
//Storyboard Layer 4 (Overlay)
//Storyboard Sound Samples

[TimingPoints]
-3355,333.333333333333,4,1,0,40,1,0
560,-100,4,1,0,40,0,0
1892,-100,4,1,0,85,0,0
12642,-100,4,1,0,80,0,0
39226,-100,4,1,0,85,0,0
39311,-100,4,1,0,85,0,1
49644,-100,4,1,0,85,0,0
49978,-100,4,1,0,85,0,1
60311,-100,4,1,0,70,0,0
60559,-100,4,1,0,85,0,0

[HitObjects]
256,96,1978,5,12,0:0:0:0:
256,192,2311,1,0,0:0:0:0:
256,192,2644,1,8,0:0:0:0:
256,192,3144,1,0,0:0:0:0:
256,192,3644,1,8,0:0:0:0:
256,192,3978,1,0,0:0:0:0:
256,192,4644,1,0,0:0:0:0:
256,192,4978,1,8,0:0:0:0:
256,192,5311,1,0,0:0:0:0:
256,192,5811,1,8,0:0:0:0:
256,192,6311,1,0,0:0:0:0:
256,96,7311,1,12,0:0:0:0:
256,192,7644,1,0,0:0:0:0:
256,192,7978,1,8,0:0:0:0:
256,192,8478,1,8,0:0:0:0:
256,192,8978,1,0,0:0:0:0:
256,192,9311,1,8,0:0:0:0:
256,192,9978,1,0,0:0:0:0:
256,192,10311,1,8,0:0:0:0:
256,192,10644,1,0,0:0:0:0:
256,192,11144,1,8,0:0:0:0:
256,192,11644,1,0,0:0:0:0:
256,96,12644,1,4,0:0:0:0:
256,192,12978,1,8,0:0:0:0:
256,192,13311,1,0,0:0:0:0:
256,192,13644,1,0,0:0:0:0:
256,192,13978,1,8,0:0:0:0:
256,192,15144,1,0,0:0:0:0:
256,192,15644,1,8,0:0:0:0:
256,192,15978,1,0,0:0:0:0:
256,192,16478,1,8,0:0:0:0:
256,192,16978,1,0,0:0:0:0:
256,192,17311,1,8,0:0:0:0:
256,192,17978,1,8,0:0:0:0:
256,192,18311,1,8,0:0:0:0:
256,192,18644,1,0,0:0:0:0:
256,192,18978,1,8,0:0:0:0:
256,192,19311,1,0,0:0:0:0:
256,192,20478,1,0,0:0:0:0:
256,192,20978,1,0,0:0:0:0:
256,192,21311,1,8,0:0:0:0:
256,192,21811,1,0,0:0:0:0:
256,192,22311,1,8,0:0:0:0:
256,192,22644,1,0,0:0:0:0:
256,96,23311,1,12,0:0:0:0:
256,192,23644,1,0,0:0:0:0:
256,192,23978,1,8,0:0:0:0:
256,192,24311,1,8,0:0:0:0:
256,192,24644,1,0,0:0:0:0:
256,192,25811,1,0,0:0:0:0:
256,192,26311,1,8,0:0:0:0:
256,192,26644,1,0,0:0:0:0:
256,192,27144,1,8,0:0:0:0:
256,192,27478,1,8,0:0:0:0:
256,192,27811,1,0,0:0:0:0:
256,192,28644,1,0,0:0:0:0:
256,192,28978,1,8,0:0:0:0:
256,192,29311,1,8,0:0:0:0:
256,192,29644,1,0,0:0:0:0:
256,192,29978,1,8,0:0:0:0:
256,192,31144,1,0,0:0:0:0:
256,192,31644,1,8,0:0:0:0:
256,192,31978,1,0,0:0:0:0:
256,192,32478,1,8,0:0:0:0:
256,192,32978,1,8,0:0:0:0:
256,192,33311,1,8,0:0:0:0:
256,192,33644,1,8,0:0:0:0:
256,96,33978,1,4,0:0:0:0:
256,192,35311,1,8,0:0:0:0:
256,192,36144,1,8,0:0:0:0:
256,192,36644,1,0,0:0:0:0:
256,192,37811,1,0,0:0:0:0:
256,192,38144,1,8,0:0:0:0:
256,192,38478,1,8,0:0:0:0:
256,96,39311,1,12,0:0:0:0:
256,192,39978,1,8,0:0:0:0:
256,192,40478,1,0,0:0:0:0:
256,192,40978,1,8,0:0:0:0:
256,192,41311,1,0,0:0:0:0:
256,192,42311,1,0,0:0:0:0:
256,192,42644,1,0,0:0:0:0:
256,192,43144,1,8,0:0:0:0:
256,192,43478,1,8,0:0:0:0:
256,192,43811,1,0,0:0:0:0:
256,96,44644,1,12,0:0:0:0:
256,192,45311,1,8,0:0:0:0:
256,96,45811,1,4,0:0:0:0:
256,96,46478,1,4,0:0:0:0:
256,96,47311,1,12,0:0:0:0:
256,192,48311,1,0,0:0:0:0:
256,192,48644,1,8,0:0:0:0:
256,192,49311,1,0,0:0:0:0:
256,96,49978,1,12,0:0:0:0:
256,192,50645,1,8,0:0:0:0:
256,192,51145,1,0,0:0:0:0:
256,192,51645,1,8,0:0:0:0:
256,192,51978,1,0,0:0:0:0:
256,192,52978,1,0,0:0:0:0:
256,192,53311,1,8,0:0:0:0:
256,192,53811,1,0,0:0:0:0:
256,192,54145,1,8,0:0:0:0:
256,192,54478,1,0,0:0:0:0:
256,96,55311,1,12,0:0:0:0:
256,192,55978,1,8,0:0:0:0:
256,96,56478,1,4,0:0:0:0:
256,96,57145,1,4,0:0:0:0:
256,96,57978,1,12,0:0:0:0:
256,192,58978,1,0,0:0:0:0:
256,192,59311,1,8,0:0:0:0:
256,192,59978,1,0,0:0:0:0:
256,96,60644,5,12,0:0:0:0:
256,192,60977,1,0,0:0:0:0:
256,192,61310,1,8,0:0:0:0:
256,192,61810,1,0,0:0:0:0:
256,192,62310,1,8,0:0:0:0:
256,192,62644,1,0,0:0:0:0:
256,192,63310,1,0,0:0:0:0:
256,192,63644,1,8,0:0:0:0:
256,192,63977,1,0,0:0:0:0:
256,192,64477,1,8,0:0:0:0:
256,192,64977,1,0,0:0:0:0:
256,96,65977,1,12,0:0:0:0:
256,192,66310,1,0,0:0:0:0:
256,192,66644,1,8,0:0:0:0:
256,192,67144,1,8,0:0:0:0:
256,192,67644,1,0,0:0:0:0:
256,192,67977,1,8,0:0:0:0:
256,192,68644,1,0,0:0:0:0:
256,192,68977,1,8,0:0:0:0:
256,192,69310,1,0,0:0:0:0:
256,192,69810,1,8,0:0:0:0:
256,192,70310,1,0,0:0:0:0:
256,192,70978,1,8,0:0:0:0:
