osu file format v14

[General]
AudioFilename: audio.mp3
AudioLeadIn: 0
PreviewTime: 38930
Countdown: 0
SampleSet: Normal
StackLeniency: 0.7
Mode: 1
LetterboxInBreaks: 0
WidescreenStoryboard: 1

[Editor]
Bookmarks: 1975,12641,23308,33975,39308,44641,49975,55308,60641
DistanceSpacing: 1
BeatDivisor: 4
GridSize: 32
TimelineZoom: 0.9999999

[Metadata]
Title:Neppa feat. Butter
TitleUnicode:熱波 feat. Butter
Artist:tephe
ArtistUnicode:tephe
Creator:BlackBN
Version:Futsuu
Source:
Tags:BlackBq Japanese pop j-pop jpop rock j-rock jrock featured artist fa mappers' guild mpg mg iRedi Irone OSU Irone_OSU IroneOSU Heatwave heat wave cyclops monkey
BeatmapID:4181947
BeatmapSetID:2009899

[Difficulty]
HPDrainRate:7
CircleSize:2
OverallDifficulty:4
ApproachRate:10
SliderMultiplier:1.4
SliderTickRate:1

[Events]
//Background and Video events
0,0,"bg.jpg",0,50
//Break Periods
//Storyboard Layer 0 (Background)
//Storyboard Layer 1 (Fail)
//Storyboard Layer 2 (Pass)
//Storyboard Layer 3 (Foreground)
//Storyboard Layer 4 (Overlay)
//Storyboard Sound Samples

[TimingPoints]
-3355,333.333333333333,4,1,0,65,1,0
560,-100,4,1,0,65,0,0
1559,-100,4,1,0,75,0,0
1892,-100,4,1,0,85,0,0
12642,-100,4,1,0,80,0,0
14330,-100,4,1,0,40,0,0
14788,-100,4,1,0,80,0,0
19663,-100,4,1,0,40,0,0
20122,-100,4,1,0,80,0,0
33892,-100,4,1,0,75,0,0
38059,-100,4,1,0,80,0,0
39226,-100,4,1,0,85,0,0
39311,-100,4,1,0,85,0,1
49644,-100,4,1,0,85,0,0
49978,-100,4,1,0,85,0,1
60226,-100,4,1,0,70,0,1
60311,-100,4,1,0,70,0,0
60559,-100,4,1,0,85,0,0
71038,-100,4,1,0,70,0,0

[HitObjects]
256,192,644,5,8,0:0:0:0:
256,192,978,1,8,0:0:0:0:
256,192,1311,1,8,0:0:0:0:
256,192,1644,1,0,0:0:0:0:
384,96,1978,1,12,0:0:0:0:
256,192,2311,1,0,0:0:0:0:
256,192,2478,1,0,0:0:0:0:
256,192,2644,1,8,0:0:0:0:
256,192,2978,1,8,0:0:0:0:
256,192,3144,1,0,0:0:0:0:
256,192,3478,1,0,0:0:0:0:
256,192,3644,1,8,0:0:0:0:
256,192,3811,1,0,0:0:0:0:
256,192,4311,1,8,0:0:0:0:
256,192,4644,1,0,0:0:0:0:
256,192,4978,1,8,0:0:0:0:
256,192,5311,1,0,0:0:0:0:
256,192,5644,1,0,0:0:0:0:
256,192,5811,1,8,0:0:0:0:
256,192,6144,1,0,0:0:0:0:
256,192,6311,1,8,0:0:0:0:
256,192,6478,1,8,0:0:0:0:
256,192,6644,1,0,0:0:0:0:
384,96,7311,1,12,0:0:0:0:
256,192,7644,1,0,0:0:0:0:
256,192,7811,1,0,0:0:0:0:
256,192,7978,1,8,0:0:0:0:
256,192,8311,1,8,0:0:0:0:
256,192,8478,1,0,0:0:0:0:
256,192,8811,1,8,0:0:0:0:
256,192,8978,1,8,0:0:0:0:
256,192,9144,1,0,0:0:0:0:
256,192,9644,1,8,0:0:0:0:
256,192,9978,1,0,0:0:0:0:
256,192,10311,1,8,0:0:0:0:
256,192,10644,1,0,0:0:0:0:
256,192,10978,1,8,0:0:0:0:
256,192,11144,1,0,0:0:0:0:
256,192,11478,1,8,0:0:0:0:
256,192,11644,1,0,0:0:0:0:
256,192,11811,1,0,0:0:0:0:
256,192,11978,1,8,0:0:0:0:
384,96,12644,1,4,0:0:0:0:
256,192,12978,1,8,0:0:0:0:
256,192,13144,1,8,0:0:0:0:
256,192,13311,1,0,0:0:0:0:
256,192,13644,1,8,0:0:0:0:
256,192,13978,1,0,0:0:0:0:
256,192,14811,1,8,0:0:0:0:
256,192,14978,1,8,0:0:0:0:
256,192,15311,1,0,0:0:0:0:
256,192,15644,1,8,0:0:0:0:
256,192,15978,1,0,0:0:0:0:
256,192,16144,1,0,0:0:0:0:
256,192,16311,1,8,0:0:0:0:
256,192,16644,1,0,0:0:0:0:
256,192,16978,1,8,0:0:0:0:
256,192,17144,1,0,0:0:0:0:
256,192,17311,1,8,0:0:0:0:
256,192,17644,1,8,0:0:0:0:
256,192,17978,1,0,0:0:0:0:
256,192,18311,1,8,0:0:0:0:
256,192,18644,1,0,0:0:0:0:
256,192,18811,1,0,0:0:0:0:
256,192,18978,1,8,0:0:0:0:
256,192,19311,1,0,0:0:0:0:
256,192,20144,1,8,0:0:0:0:
256,192,20311,1,8,0:0:0:0:
256,192,20644,1,0,0:0:0:0:
256,192,20978,1,8,0:0:0:0:
256,192,21311,1,0,0:0:0:0:
256,192,21644,1,8,0:0:0:0:
256,192,21811,1,0,0:0:0:0:
256,192,22144,1,8,0:0:0:0:
256,192,22478,1,8,0:0:0:0:
256,192,22811,1,0,0:0:0:0:
256,192,22978,1,8,0:0:0:0:
384,96,23311,1,12,0:0:0:0:
256,192,23644,1,0,0:0:0:0:
256,192,23978,1,8,0:0:0:0:
256,192,24144,1,8,0:0:0:0:
256,192,24311,1,0,0:0:0:0:
256,192,24644,1,0,0:0:0:0:
256,192,24978,1,8,0:0:0:0:
256,192,25144,1,0,0:0:0:0:
256,192,25478,1,8,0:0:0:0:
256,192,25644,1,8,0:0:0:0:
256,192,25978,1,0,0:0:0:0:
256,192,26311,1,8,0:0:0:0:
256,192,26644,1,0,0:0:0:0:
256,192,27311,1,0,0:0:0:0:
256,192,27644,1,8,0:0:0:0:
256,192,27978,1,0,0:0:0:0:
256,192,28144,1,0,0:0:0:0:
256,192,28311,1,8,0:0:0:0:
256,192,28644,1,0,0:0:0:0:
256,192,28978,1,8,0:0:0:0:
256,192,29144,1,0,0:0:0:0:
256,192,29311,1,8,0:0:0:0:
256,192,29644,1,8,0:0:0:0:
256,192,29978,1,0,0:0:0:0:
256,192,30311,1,8,0:0:0:0:
256,192,30478,1,0,0:0:0:0:
256,192,30811,1,8,0:0:0:0:
256,192,30978,1,8,0:0:0:0:
256,192,31311,1,0,0:0:0:0:
256,192,31644,1,8,0:0:0:0:
256,192,31978,1,0,0:0:0:0:
256,192,32644,1,0,0:0:0:0:
256,192,32811,1,8,0:0:0:0:
256,192,33144,1,8,0:0:0:0:
256,192,33311,1,0,0:0:0:0:
256,192,33478,1,0,0:0:0:0:
256,192,33644,1,8,0:0:0:0:
384,96,33978,1,4,0:0:0:0:
256,192,34311,1,8,0:0:0:0:
256,192,34478,1,0,0:0:0:0:
256,192,34978,1,8,0:0:0:0:
256,192,35311,1,0,0:0:0:0:
256,192,35644,1,8,0:0:0:0:
256,192,35811,1,0,0:0:0:0:
256,192,36311,1,8,0:0:0:0:
256,192,36644,1,0,0:0:0:0:
256,192,36978,1,8,0:0:0:0:
256,192,37144,1,0,0:0:0:0:
256,192,37644,1,8,0:0:0:0:
256,192,37811,1,0,0:0:0:0:
256,192,38144,1,8,0:0:0:0:
256,192,38478,1,8,0:0:0:0:
384,96,39311,1,12,0:0:0:0:
256,192,39644,1,8,0:0:0:0:
256,192,39811,1,8,0:0:0:0:
256,192,39978,1,0,0:0:0:0:
256,192,40311,1,8,0:0:0:0:
256,192,40478,1,0,0:0:0:0:
256,192,40811,1,0,0:0:0:0:
256,192,40978,1,8,0:0:0:0:
256,192,41311,1,0,0:0:0:0:
256,192,41478,1,8,0:0:0:0:
256,192,41644,1,0,0:0:0:0:
256,192,42311,1,8,0:0:0:0:
256,192,42644,1,0,0:0:0:0:
256,192,42811,1,8,0:0:0:0:
256,192,43144,1,0,0:0:0:0:
256,192,43478,1,0,0:0:0:0:
256,192,43644,1,8,0:0:0:0:
256,192,43811,1,8,0:0:0:0:
256,192,44144,1,8,0:0:0:0:
256,192,44311,1,0,0:0:0:0:
384,96,44644,1,12,0:0:0:0:
256,192,44978,1,8,0:0:0:0:
256,192,45144,1,0,0:0:0:0:
256,192,45311,1,8,0:0:0:0:
384,96,45811,1,4,0:0:0:0:
384,96,46478,1,4,0:0:0:0:
256,192,46978,1,8,0:0:0:0:
384,96,47311,1,4,0:0:0:0:
256,192,47978,1,0,0:0:0:0:
256,192,48311,1,8,0:0:0:0:
256,192,48478,1,0,0:0:0:0:
256,192,48811,1,0,0:0:0:0:
256,192,48978,1,8,0:0:0:0:
256,192,49311,1,0,0:0:0:0:
256,192,49478,1,8,0:0:0:0:
256,192,49644,1,8,0:0:0:0:
384,96,49978,1,4,0:0:0:0:
256,192,50311,1,8,0:0:0:0:
256,192,50478,1,8,0:0:0:0:
256,192,50644,1,0,0:0:0:0:
256,192,50978,1,8,0:0:0:0:
256,192,51144,1,0,0:0:0:0:
256,192,51478,1,0,0:0:0:0:
256,192,51644,1,8,0:0:0:0:
256,192,51978,1,8,0:0:0:0:
256,192,52144,1,0,0:0:0:0:
256,192,52311,1,8,0:0:0:0:
256,192,52978,1,0,0:0:0:0:
256,192,53311,1,8,0:0:0:0:
256,192,53478,1,0,0:0:0:0:
256,192,53644,1,0,0:0:0:0:
256,192,53811,1,8,0:0:0:0:
256,192,54144,1,0,0:0:0:0:
256,192,54311,1,8,0:0:0:0:
256,192,54478,1,0,0:0:0:0:
256,192,54811,1,8,0:0:0:0:
256,192,54978,1,0,0:0:0:0:
384,96,55311,1,12,0:0:0:0:
256,192,55644,1,8,0:0:0:0:
256,192,55811,1,0,0:0:0:0:
256,192,55978,1,8,0:0:0:0:
384,96,56478,1,12,0:0:0:0:
384,96,57144,1,4,0:0:0:0:
256,192,57644,1,8,0:0:0:0:
384,96,57978,1,4,0:0:0:0:
256,192,58644,1,8,0:0:0:0:
256,192,58978,1,0,0:0:0:0:
256,192,59144,1,0,0:0:0:0:
256,192,59644,1,8,0:0:0:0:
256,192,59978,1,0,0:0:0:0:
384,96,60644,1,12,0:0:0:0:
256,192,60978,1,0,0:0:0:0:
256,192,61144,1,0,0:0:0:0:
256,192,61311,1,8,0:0:0:0:
256,192,61644,1,8,0:0:0:0:
256,192,61811,1,0,0:0:0:0:
256,192,62144,1,0,0:0:0:0:
256,192,62311,1,8,0:0:0:0:
256,192,62478,1,0,0:0:0:0:
256,192,62978,1,8,0:0:0:0:
256,192,63311,1,0,0:0:0:0:
256,192,63644,1,8,0:0:0:0:
256,192,63978,1,0,0:0:0:0:
256,192,64311,1,0,0:0:0:0:
256,192,64478,1,8,0:0:0:0:
256,192,64811,1,0,0:0:0:0:
256,192,64978,1,8,0:0:0:0:
256,192,65144,1,8,0:0:0:0:
256,192,65311,1,0,0:0:0:0:
384,96,65978,1,12,0:0:0:0:
256,192,66311,1,0,0:0:0:0:
256,192,66478,1,0,0:0:0:0:
256,192,66644,1,8,0:0:0:0:
256,192,66978,1,8,0:0:0:0:
256,192,67144,1,0,0:0:0:0:
256,192,67478,1,8,0:0:0:0:
256,192,67644,1,8,0:0:0:0:
256,192,67811,1,0,0:0:0:0:
256,192,68311,1,8,0:0:0:0:
256,192,68644,1,0,0:0:0:0:
256,192,68978,1,8,0:0:0:0:
256,192,69311,1,0,0:0:0:0:
256,192,69644,1,8,0:0:0:0:
256,192,69811,1,0,0:0:0:0:
256,192,70144,1,0,0:0:0:0:
256,192,70311,1,8,0:0:0:0:
256,192,70644,1,0,0:0:0:0:
256,192,70811,1,8,0:0:0:0:
256,192,70978,1,8,0:0:0:0:
