osu file format v14

[General]
AudioFilename: audio.ogg
AudioLeadIn: 0
PreviewTime: 38608
Countdown: 0
SampleSet: Normal
StackLeniency: 0.7
Mode: 1
LetterboxInBreaks: 0
WidescreenStoryboard: 1

[Editor]
Bookmarks: 1613,12279,14946,17612,20279,22946,33612,38946,60279,70945,92279,97612,118945,129612
DistanceSpacing: 1
BeatDivisor: 1
GridSize: 32
TimelineZoom: 1.5

[Metadata]
Title:Neppa feat. Butter [Tanger Remix]
TitleUnicode:熱波 feat. Butter【Tanger Remix】
Artist:tephe
ArtistUnicode:tephe
Creator:Tsukani
Version:Tomat's Kantan
Source:
Tags:ft. featuring pop j-pop jpop japanese electronic heatwave heat wave itovero hess tangermusic cyclops monkey tomatdk undead alice undead_alice undeadalice slim-san slim_san slim san
BeatmapID:4236785
BeatmapSetID:2032533

[Difficulty]
HPDrainRate:8.5
CircleSize:5
OverallDifficulty:3
ApproachRate:5
SliderMultiplier:1.4
SliderTickRate:1

[Events]
//Background and Video events
0,0,"nep.jpg",0,45
//Break Periods
2,33479,37412
2,92146,96079
//Storyboard Layer 0 (Background)
//Storyboard Layer 1 (Fail)
//Storyboard Layer 2 (Pass)
//Storyboard Layer 3 (Foreground)
//Storyboard Layer 4 (Overlay)
//Storyboard Sound Samples

[TimingPoints]
280,333.333333333333,4,1,0,50,1,0
1232,-100,4,1,0,90,0,0
1613,333.333333333333,4,1,0,90,1,0
12232,-100,4,1,0,75,0,0
14899,-100,4,1,0,60,0,0
17565,-100,4,1,0,75,0,0
20232,-100,4,1,0,60,0,0
22899,-100,4,1,0,75,0,0
32071,-100,4,1,0,75,0,0
32155,-100,4,1,0,73,0,0
32238,-100,4,1,0,72,0,0
32321,-100,4,1,0,70,0,0
32405,-100,4,1,0,69,0,0
32488,-100,4,1,0,67,0,0
32571,-100,4,1,0,66,0,0
32655,-100,4,1,0,65,0,0
32738,-100,4,1,0,63,0,0
32821,-100,4,1,0,62,0,0
32905,-100,4,1,0,60,0,0
32988,-100,4,1,0,59,0,0
33071,-100,4,1,0,58,0,0
33155,-100,4,1,0,56,0,0
33238,-100,4,1,0,55,0,0
33321,-100,4,1,0,53,0,0
33405,-100,4,1,0,52,0,0
33488,-100,4,1,0,51,0,0
33571,-100,4,1,0,50,0,0
38565,-100,4,1,0,75,0,0
38899,-100,4,1,0,100,0,0
38946,-100,4,1,0,100,0,1
59779,-100,4,1,0,100,0,0
59899,-100,4,1,0,50,0,0
60232,-100,4,1,0,90,0,0
70904,-100,4,1,0,75,0,0
90738,-100,4,1,0,75,0,0
90822,-100,4,1,0,74,0,0
90905,-100,4,1,0,72,0,0
90988,-100,4,1,0,71,0,0
91072,-100,4,1,0,69,0,0
91155,-100,4,1,0,68,0,0
91238,-100,4,1,0,67,0,0
91322,-100,4,1,0,65,0,0
91405,-100,4,1,0,64,0,0
91488,-100,4,1,0,62,0,0
91572,-100,4,1,0,61,0,0
91655,-100,4,1,0,60,0,0
91738,-100,4,1,0,58,0,0
91822,-100,4,1,0,57,0,0
91905,-100,4,1,0,56,0,0
91988,-100,4,1,0,54,0,0
92072,-100,4,1,0,53,0,0
92155,-100,4,1,0,51,0,0
92238,-100,4,1,0,50,0,0
97232,-100,4,1,0,75,0,0
97566,-100,4,1,0,100,0,0
97612,-100,4,1,0,100,0,1
118446,-100,4,1,0,100,0,0
118565,-100,4,1,0,50,0,0
118898,-100,4,1,0,90,0,0

[HitObjects]
256,192,1279,5,12,0:0:0:0:
256,192,1613,1,0,0:0:0:0:
256,192,1946,1,8,0:0:0:0:
256,192,2612,1,8,0:0:0:0:
256,192,3279,1,8,0:0:0:0:
256,192,3612,1,0,0:0:0:0:
256,192,3946,1,8,0:0:0:0:
256,192,4612,1,8,0:0:0:0:
256,192,4946,1,8,0:0:0:0:
256,192,5279,1,0,0:0:0:0:
256,192,5612,1,0,0:0:0:0:
256,192,5946,1,8,0:0:0:0:
256,192,6946,1,0,0:0:0:0:
256,192,7279,1,8,0:0:0:0:
256,192,7946,1,8,0:0:0:0:
256,192,8612,1,8,0:0:0:0:
256,192,8946,1,0,0:0:0:0:
256,192,9279,1,8,0:0:0:0:
256,192,9946,1,0,0:0:0:0:
256,192,10279,1,8,0:0:0:0:
256,192,10612,1,0,0:0:0:0:
256,192,10946,1,0,0:0:0:0:
256,192,11279,1,8,0:0:0:0:
256,192,12279,1,0,0:0:0:0:
256,192,12612,1,8,0:0:0:0:
256,192,13279,1,8,0:0:0:0:
256,192,13612,1,0,0:0:0:0:
256,192,13946,1,8,0:0:0:0:
256,192,14612,1,8,0:0:0:0:
256,192,15279,1,0,0:0:0:0:
256,192,15946,1,0,0:0:0:0:
256,192,16612,1,0,0:0:0:0:
256,192,17612,1,0,0:0:0:0:
256,192,17946,1,8,0:0:0:0:
256,192,18612,1,8,0:0:0:0:
256,192,18946,1,0,0:0:0:0:
256,192,19279,1,8,0:0:0:0:
256,192,19946,1,8,0:0:0:0:
256,192,20612,1,0,0:0:0:0:
256,192,21279,1,0,0:0:0:0:
256,192,21946,1,0,0:0:0:0:
256,192,22946,1,0,0:0:0:0:
256,192,23279,1,8,0:0:0:0:
256,192,23946,1,8,0:0:0:0:
256,192,24279,1,0,0:0:0:0:
256,192,24612,1,8,0:0:0:0:
256,192,24946,1,8,0:0:0:0:
256,192,25279,1,0,0:0:0:0:
256,192,25946,1,8,0:0:0:0:
256,192,26612,1,8,0:0:0:0:
256,192,26946,1,0,0:0:0:0:
256,192,27279,1,8,0:0:0:0:
256,192,28279,1,8,0:0:0:0:
256,192,28612,1,8,0:0:0:0:
256,192,29279,1,0,0:0:0:0:
256,192,29612,1,8,0:0:0:0:
256,192,29946,1,0,0:0:0:0:
256,192,30279,1,0,0:0:0:0:
256,192,30612,1,8,0:0:0:0:
256,192,31279,1,8,0:0:0:0:
256,192,31612,1,0,0:0:0:0:
256,192,31946,1,8,0:0:0:0:
256,192,32612,1,8,0:0:0:0:
256,192,33279,1,8,0:0:0:0:
256,192,38612,5,0,0:0:0:0:
256,192,38946,1,12,0:0:0:0:
256,192,39612,1,0,0:0:0:0:
256,192,39946,1,8,0:0:0:0:
256,192,40279,1,8,0:0:0:0:
256,192,40612,1,0,0:0:0:0:
256,192,40946,1,0,0:0:0:0:
256,192,41612,1,12,0:0:0:0:
256,192,42279,1,8,0:0:0:0:
256,192,42612,1,0,0:0:0:0:
256,192,42946,1,8,0:0:0:0:
256,192,43279,1,8,0:0:0:0:
256,192,44279,1,12,0:0:0:0:
256,192,44946,1,8,0:0:0:0:
256,192,45446,1,12,0:0:0:0:
256,192,46112,1,4,0:0:0:0:
256,192,46946,1,4,0:0:0:0:
256,192,47612,1,8,0:0:0:0:
256,192,47946,1,0,0:0:0:0:
256,192,48279,1,8,0:0:0:0:
256,192,48612,1,0,0:0:0:0:
256,192,49612,1,12,0:0:0:0:
256,192,50279,1,8,0:0:0:0:
256,192,50612,1,0,0:0:0:0:
256,192,50946,1,0,0:0:0:0:
256,192,51279,1,8,0:0:0:0:
256,192,51612,1,8,0:0:0:0:
256,192,52279,1,4,0:0:0:0:
256,192,52946,1,8,0:0:0:0:
256,192,53279,1,8,0:0:0:0:
256,192,53612,1,0,0:0:0:0:
256,192,53946,1,8,0:0:0:0:
256,192,54946,1,12,0:0:0:0:
256,192,55612,1,0,0:0:0:0:
256,192,56112,1,12,0:0:0:0:
256,192,56779,1,4,0:0:0:0:
256,192,57612,1,12,0:0:0:0:
256,192,58279,1,0,0:0:0:0:
256,192,58612,1,8,0:0:0:0:
256,192,58946,1,8,0:0:0:0:
256,192,59946,1,8,0:0:0:0:
256,192,60279,1,0,0:0:0:0:
256,192,60612,1,8,0:0:0:0:
256,192,61279,1,8,0:0:0:0:
256,192,61946,1,8,0:0:0:0:
256,192,62279,1,0,0:0:0:0:
256,192,62612,1,8,0:0:0:0:
256,192,63279,1,8,0:0:0:0:
256,192,63612,1,8,0:0:0:0:
256,192,63946,1,0,0:0:0:0:
256,192,64279,1,0,0:0:0:0:
256,192,64612,1,8,0:0:0:0:
256,192,65612,1,0,0:0:0:0:
256,192,65946,1,8,0:0:0:0:
256,192,66612,1,8,0:0:0:0:
256,192,67279,1,8,0:0:0:0:
256,192,67612,1,0,0:0:0:0:
256,192,67946,1,8,0:0:0:0:
256,192,68612,1,8,0:0:0:0:
256,192,68946,1,0,0:0:0:0:
256,192,69279,1,0,0:0:0:0:
256,192,69612,1,8,0:0:0:0:
256,192,69946,1,0,0:0:0:0:
256,192,70946,1,0,0:0:0:0:
256,192,71279,1,8,0:0:0:0:
256,192,71946,1,8,0:0:0:0:
256,192,72612,1,8,0:0:0:0:
256,192,72946,1,0,0:0:0:0:
256,192,73279,1,8,0:0:0:0:
256,192,73946,1,0,0:0:0:0:
256,192,74612,1,0,0:0:0:0:
256,192,74946,1,2,0:0:0:0:
256,192,75279,1,0,0:0:0:0:
256,192,76279,1,0,0:0:0:0:
256,192,76612,1,8,0:0:0:0:
256,192,77279,1,8,0:0:0:0:
256,192,77946,1,8,0:0:0:0:
256,192,78279,1,0,0:0:0:0:
256,192,78612,1,8,0:0:0:0:
256,192,79279,1,0,0:0:0:0:
256,192,79946,1,0,0:0:0:0:
256,192,80279,1,2,0:0:0:0:
256,192,80612,1,2,0:0:0:0:
256,192,81612,1,0,0:0:0:0:
256,192,81946,1,8,0:0:0:0:
256,192,82612,1,8,0:0:0:0:
256,192,82946,1,0,0:0:0:0:
256,192,83279,1,8,0:0:0:0:
256,192,83612,1,8,0:0:0:0:
256,192,83946,1,0,0:0:0:0:
256,192,84612,1,8,0:0:0:0:
256,192,85279,1,8,0:0:0:0:
256,192,85612,1,0,0:0:0:0:
256,192,85946,1,8,0:0:0:0:
256,192,86946,1,8,0:0:0:0:
256,192,87279,1,8,0:0:0:0:
256,192,87946,1,0,0:0:0:0:
256,192,88279,1,8,0:0:0:0:
256,192,88612,1,0,0:0:0:0:
256,192,88946,1,0,0:0:0:0:
256,192,89279,1,8,0:0:0:0:
256,192,89946,1,8,0:0:0:0:
256,192,90279,1,0,0:0:0:0:
256,192,90612,1,8,0:0:0:0:
256,192,91279,1,8,0:0:0:0:
256,192,91946,1,8,0:0:0:0:
256,192,97279,5,0,0:0:0:0:
256,192,97612,1,12,0:0:0:0:
256,192,98279,1,0,0:0:0:0:
256,192,98612,1,8,0:0:0:0:
256,192,98946,1,8,0:0:0:0:
256,192,99279,1,0,0:0:0:0:
256,192,99612,1,0,0:0:0:0:
256,192,100279,1,12,0:0:0:0:
256,192,100946,1,8,0:0:0:0:
256,192,101279,1,0,0:0:0:0:
256,192,101612,1,8,0:0:0:0:
256,192,101946,1,8,0:0:0:0:
256,192,102946,1,12,0:0:0:0:
256,192,103612,1,8,0:0:0:0:
256,192,104112,1,12,0:0:0:0:
256,192,104779,1,4,0:0:0:0:
256,192,105612,1,4,0:0:0:0:
256,192,106279,1,8,0:0:0:0:
256,192,106612,1,0,0:0:0:0:
256,192,106946,1,8,0:0:0:0:
256,192,107279,1,0,0:0:0:0:
256,192,108279,1,12,0:0:0:0:
256,192,108946,1,8,0:0:0:0:
256,192,109279,1,0,0:0:0:0:
256,192,109612,1,0,0:0:0:0:
256,192,109946,1,8,0:0:0:0:
256,192,110279,1,8,0:0:0:0:
256,192,110946,1,4,0:0:0:0:
256,192,111612,1,8,0:0:0:0:
256,192,111946,1,8,0:0:0:0:
256,192,112279,1,0,0:0:0:0:
256,192,112612,1,8,0:0:0:0:
256,192,113612,1,12,0:0:0:0:
256,192,114279,1,0,0:0:0:0:
256,192,114779,1,12,0:0:0:0:
256,192,115446,1,4,0:0:0:0:
256,192,116279,1,12,0:0:0:0:
256,192,116946,1,0,0:0:0:0:
256,192,117279,1,8,0:0:0:0:
256,192,117612,1,8,0:0:0:0:
256,192,118612,1,8,0:0:0:0:
256,192,118946,1,0,0:0:0:0:
256,192,119279,1,8,0:0:0:0:
256,192,119946,1,8,0:0:0:0:
256,192,120612,1,8,0:0:0:0:
256,192,120946,1,0,0:0:0:0:
256,192,121279,1,8,0:0:0:0:
256,192,121946,1,8,0:0:0:0:
256,192,122279,1,8,0:0:0:0:
256,192,122612,1,0,0:0:0:0:
256,192,122946,1,0,0:0:0:0:
256,192,123279,1,8,0:0:0:0:
256,192,124279,1,0,0:0:0:0:
256,192,124612,1,8,0:0:0:0:
256,192,125279,1,8,0:0:0:0:
256,192,125946,1,8,0:0:0:0:
256,192,126279,1,0,0:0:0:0:
256,192,126612,1,8,0:0:0:0:
256,192,127279,1,8,0:0:0:0:
256,192,127612,1,8,0:0:0:0:
256,192,127946,1,0,0:0:0:0:
256,192,128279,1,0,0:0:0:0:
256,192,128612,1,8,0:0:0:0:
256,192,129279,1,0,0:0:0:0:
