osu file format v14

[General]
AudioFilename: audio.ogg
AudioLeadIn: 0
PreviewTime: 38608
Countdown: 0
SampleSet: Normal
StackLeniency: 0.7
Mode: 1
LetterboxInBreaks: 0
WidescreenStoryboard: 1

[Editor]
Bookmarks: 1613,12279,14946,17612,20279,22946,33612,38946,60279,70946,92279,97612,118946,129612
DistanceSpacing: 1
BeatDivisor: 4
GridSize: 32
TimelineZoom: 2.4

[Metadata]
Title:Neppa feat. Butter [Tanger Remix]
TitleUnicode:熱波 feat. Butter【Tanger Remix】
Artist:tephe
ArtistUnicode:tephe
Creator:Tsukani
Version:Muzukashii
Source:
Tags:ft. featuring pop j-pop jpop japanese electronic heatwave heat wave itovero hess tangermusic cyclops monkey tomatdk undead alice undead_alice undeadalice slim-san slim_san slim san
BeatmapID:4236783
BeatmapSetID:2032533

[Difficulty]
HPDrainRate:6.5
CircleSize:5
OverallDifficulty:5
ApproachRate:5
SliderMultiplier:1.4
SliderTickRate:1

[Events]
//Background and Video events
0,0,"nep.jpg",0,45
//Break Periods
//Storyboard Layer 0 (Background)
//Storyboard Layer 1 (Fail)
//Storyboard Layer 2 (Pass)
//Storyboard Layer 3 (Foreground)
//Storyboard Layer 4 (Overlay)
//Storyboard Sound Samples

[TimingPoints]
280,333.333333333333,4,1,0,50,1,0
280,-133.333333333333,4,1,0,50,0,0
1232,-114.285714285714,4,1,0,90,0,0
1613,333.333333333333,4,1,0,90,1,0
12232,-111.111111111111,4,1,0,75,0,0
14899,-125,4,1,0,60,0,0
17565,-111.111111111111,4,1,0,75,0,0
20232,-125,4,1,0,60,0,0
22899,-111.111111111111,4,1,0,75,0,0
31943,-111.111115,4,1,0,75,0,0
32071,-112.551476,4,1,0,75,0,0
32155,-113.5172,4,1,0,73,0,0
32238,-114.48783,4,1,0,72,0,0
32321,-115.4752,4,1,0,70,0,0
32405,-116.49197,4,1,0,69,0,0
32488,-117.514366,4,1,0,67,0,0
32571,-118.55488,4,1,0,66,0,0
32655,-119.62683,4,1,0,65,0,0
32738,-120.70525,4,1,0,63,0,0
32821,-121.803314,4,1,0,62,0,0
32905,-122.9351,4,1,0,60,0,0
32988,-124.07428,4,1,0,59,0,0
33071,-125.23477,4,1,0,58,0,0
33155,-126.43156,4,1,0,56,0,0
33238,-127.636765,4,1,0,55,0,0
33321,-128.86519,4,1,0,53,0,0
33405,-130.1327,4,1,0,52,0,0
33488,-131.40988,4,1,0,51,0,0
33571,-132.71237,4,1,0,50,0,0
38112,-133.333333333333,4,1,0,50,0,0
38155,-133.333333333333,4,1,0,45,0,0
38197,-133.333333333333,4,1,0,40,0,0
38238,-133.333333333333,4,1,0,35,0,0
38280,-133.333333333333,4,1,0,30,0,0
38322,-133.333333333333,4,1,0,25,0,0
38363,-133.333333333333,4,1,0,20,0,0
38405,-133.333333333333,4,1,0,15,0,0
38447,-133.333333333333,4,1,0,10,0,0
38565,-90.9090909090909,4,1,0,75,0,0
38899,-90.9090909090909,4,1,0,100,0,0
38946,-90.9090909090909,4,1,0,100,0,1
59779,-90.9090909090909,4,1,0,100,0,0
59899,-93.0232558139535,4,1,0,50,0,0
60232,-100,4,1,0,90,0,0
70071,-100,4,1,0,90,0,0
70154,-101.006424,4,1,0,89,0,0
70238,-102.045815,4,1,0,87,0,0
70321,-103.09406,4,1,0,85,0,0
70404,-104.16406,4,1,0,84,0,0
70488,-105.26981,4,1,0,82,0,0
70571,-106.3857,4,1,0,81,0,0
70654,-107.5255,4,1,0,80,0,0
70738,-108.70416,4,1,0,78,0,0
70821,-109.89446,4,1,0,76,0,0
70904,-111.111115,4,1,0,75,0,0
90613,-111.111115,4,1,0,75,0,0
90738,-112.51816,4,1,0,75,0,0
90822,-113.48388,4,1,0,74,0,0
90905,-114.45453,4,1,0,72,0,0
90988,-115.4419,4,1,0,71,0,0
91072,-116.45871,4,1,0,69,0,0
91155,-117.48114,4,1,0,68,0,0
91238,-118.52168,4,1,0,67,0,0
91322,-119.593704,4,1,0,65,0,0
91405,-120.67218,4,1,0,64,0,0
91488,-121.77026,4,1,0,62,0,0
91572,-122.902145,4,1,0,61,0,0
91655,-124.041405,4,1,0,60,0,0
91738,-125.20197,4,1,0,58,0,0
91822,-126.39886,4,1,0,57,0,0
91905,-127.60418,4,1,0,56,0,0
91988,-128.83269,4,1,0,54,0,0
92072,-130.10036,4,1,0,53,0,0
92155,-131.37766,4,1,0,51,0,0
92238,-133.33333,4,1,0,50,0,0
96779,-133.333333333333,4,1,0,50,0,0
96821,-133.333333333333,4,1,0,45,0,0
96863,-133.333333333333,4,1,0,40,0,0
96904,-133.333333333333,4,1,0,35,0,0
96946,-133.333333333333,4,1,0,30,0,0
96988,-133.333333333333,4,1,0,25,0,0
97029,-133.333333333333,4,1,0,20,0,0
97071,-133.333333333333,4,1,0,15,0,0
97113,-133.333333333333,4,1,0,10,0,0
97232,-90.9090909090909,4,1,0,75,0,0
97566,-90.9090909090909,4,1,0,100,0,0
97612,-90.9090909090909,4,1,0,100,0,1
118446,-90.9090909090909,4,1,0,100,0,0
118565,-93.0232558139535,4,1,0,50,0,0
118898,-100,4,1,0,90,0,0

[HitObjects]
256,192,280,5,2,0:0:0:0:
256,192,613,1,2,0:0:0:0:
256,192,946,1,2,0:0:0:0:
256,192,1113,1,0,0:0:0:0:
256,192,1279,1,6,0:0:0:0:
256,192,1613,1,2,0:0:0:0:
256,192,1696,1,2,0:0:0:0:
256,192,1779,1,2,0:0:0:0:
256,192,1946,1,2,0:0:0:0:
256,192,2112,1,0,0:0:0:0:
256,192,2279,1,2,0:0:0:0:
256,192,2612,1,2,0:0:0:0:
256,192,2779,1,0,0:0:0:0:
256,192,3112,1,2,0:0:0:0:
256,192,3196,1,2,0:0:0:0:
256,192,3279,1,2,0:0:0:0:
256,192,3446,1,0,0:0:0:0:
256,192,3612,1,0,0:0:0:0:
256,192,3696,1,0,0:0:0:0:
256,192,3779,1,0,0:0:0:0:
256,192,3946,1,2,0:0:0:0:
256,192,4112,1,0,0:0:0:0:
256,192,4279,1,2,0:0:0:0:
256,192,4612,1,0,0:0:0:0:
256,192,4946,1,2,0:0:0:0:
256,192,5279,1,2,0:0:0:0:
256,192,5446,1,0,0:0:0:0:
256,192,5779,1,0,0:0:0:0:
256,192,5946,1,2,0:0:0:0:
256,192,6029,1,2,0:0:0:0:
256,192,6112,1,2,0:0:0:0:
256,192,6279,1,2,0:0:0:0:
256,192,6446,1,2,0:0:0:0:
256,192,6612,1,0,0:0:0:0:
256,192,6946,1,2,0:0:0:0:
256,192,7029,1,2,0:0:0:0:
256,192,7112,1,2,0:0:0:0:
256,192,7279,1,2,0:0:0:0:
256,192,7446,1,0,0:0:0:0:
256,192,7612,1,2,0:0:0:0:
256,192,7946,1,2,0:0:0:0:
256,192,8112,1,0,0:0:0:0:
256,192,8446,1,2,0:0:0:0:
256,192,8529,1,2,0:0:0:0:
256,192,8612,1,2,0:0:0:0:
256,192,8779,1,0,0:0:0:0:
256,192,8946,1,0,0:0:0:0:
256,192,9029,1,0,0:0:0:0:
256,192,9112,1,0,0:0:0:0:
256,192,9279,1,2,0:0:0:0:
256,192,9446,1,0,0:0:0:0:
256,192,9612,1,2,0:0:0:0:
256,192,9946,1,0,0:0:0:0:
256,192,10279,1,2,0:0:0:0:
256,192,10612,1,2,0:0:0:0:
256,192,10779,1,0,0:0:0:0:
256,192,11112,1,0,0:0:0:0:
256,192,11279,1,2,0:0:0:0:
256,192,11362,1,2,0:0:0:0:
256,192,11446,1,2,0:0:0:0:
256,192,11612,1,2,0:0:0:0:
256,192,11779,1,2,0:0:0:0:
256,192,11946,1,0,0:0:0:0:
256,192,12279,1,0,0:0:0:0:
256,192,12612,1,2,0:0:0:0:
256,192,12779,1,0,0:0:0:0:
256,192,13112,1,2,0:0:0:0:
256,192,13279,1,2,0:0:0:0:
256,192,13446,1,0,0:0:0:0:
256,192,13612,1,2,0:0:0:0:
256,192,13946,1,2,0:0:0:0:
256,192,14112,1,0,0:0:0:0:
256,192,14446,1,2,0:0:0:0:
256,192,14612,1,2,0:0:0:0:
256,192,14946,1,0,0:0:0:0:
256,192,15279,1,2,0:0:0:0:
256,192,15946,1,0,0:0:0:0:
256,192,16279,1,2,0:0:0:0:
256,192,16612,1,0,0:0:0:0:
256,192,17279,1,2,0:0:0:0:
256,192,17612,1,2,0:0:0:0:
256,192,17946,1,0,0:0:0:0:
256,192,18112,1,2,0:0:0:0:
256,192,18446,1,2,0:0:0:0:
256,192,18612,1,2,0:0:0:0:
256,192,18779,1,0,0:0:0:0:
256,192,18946,1,2,0:0:0:0:
256,192,19279,1,0,0:0:0:0:
256,192,19446,1,2,0:0:0:0:
256,192,19779,1,2,0:0:0:0:
256,192,19946,1,2,0:0:0:0:
256,192,20279,1,0,0:0:0:0:
256,192,20612,1,2,0:0:0:0:
256,192,21279,1,2,0:0:0:0:
256,192,21612,1,0,0:0:0:0:
256,192,21946,1,2,0:0:0:0:
256,192,22612,1,2,0:0:0:0:
256,192,22946,1,2,0:0:0:0:
256,192,23279,1,2,0:0:0:0:
256,192,23446,1,0,0:0:0:0:
256,192,23779,1,0,0:0:0:0:
256,192,23946,1,2,0:0:0:0:
256,192,24112,1,2,0:0:0:0:
256,192,24279,1,0,0:0:0:0:
256,192,24612,1,2,0:0:0:0:
256,192,24779,1,0,0:0:0:0:
256,192,25112,1,2,0:0:0:0:
256,192,25279,1,2,0:0:0:0:
256,192,25612,1,2,0:0:0:0:
256,192,25779,1,0,0:0:0:0:
256,192,25946,1,2,0:0:0:0:
256,192,26112,1,2,0:0:0:0:
256,192,26279,1,0,0:0:0:0:
256,192,26612,1,2,0:0:0:0:
256,192,26946,1,2,0:0:0:0:
256,192,27112,1,2,0:0:0:0:
256,192,27279,1,0,0:0:0:0:
256,192,27612,1,2,0:0:0:0:
256,192,27946,1,0,0:0:0:0:
256,192,28279,1,2,0:0:0:0:
256,192,28612,1,2,0:0:0:0:
256,192,28779,1,0,0:0:0:0:
256,192,29112,1,0,0:0:0:0:
256,192,29279,1,2,0:0:0:0:
256,192,29446,1,0,0:0:0:0:
256,192,29612,1,2,0:0:0:0:
256,192,29946,1,2,0:0:0:0:
256,192,30112,1,0,0:0:0:0:
256,192,30446,1,2,0:0:0:0:
256,192,30612,1,2,0:0:0:0:
256,192,30946,1,2,0:0:0:0:
256,192,31112,1,0,0:0:0:0:
256,192,31279,1,2,0:0:0:0:
256,192,31446,1,2,0:0:0:0:
256,192,31612,1,0,0:0:0:0:
256,192,31946,1,2,0:0:0:0:
256,192,32279,1,2,0:0:0:0:
256,192,32612,1,0,0:0:0:0:
256,192,32946,1,2,0:0:0:0:
256,192,33279,1,2,0:0:0:0:
256,192,33612,1,0,0:0:0:0:
256,192,33946,1,2,0:0:0:0:
256,192,34612,1,2,0:0:0:0:
256,192,34946,1,0,0:0:0:0:
256,192,35279,1,2,0:0:0:0:
256,192,35946,1,2,0:0:0:0:
256,192,36279,1,0,0:0:0:0:
256,192,36612,1,0,0:0:0:0:
256,192,37279,1,0,0:0:0:0:
256,192,37446,1,2,0:0:0:0:
256,192,37779,1,2,0:0:0:0:
256,192,38946,5,6,0:0:0:0:
256,192,39279,1,2,0:0:0:0:
256,192,39446,1,0,0:0:0:0:
256,192,39612,1,2,0:0:0:0:
256,192,39696,1,2,0:0:0:0:
256,192,39779,1,2,0:0:0:0:
256,192,39946,1,0,0:0:0:0:
256,192,40112,1,0,0:0:0:0:
256,192,40446,1,2,0:0:0:0:
256,192,40612,1,2,0:0:0:0:
256,192,40696,1,2,0:0:0:0:
256,192,40779,1,2,0:0:0:0:
256,192,40946,1,0,0:0:0:0:
256,192,41112,1,0,0:0:0:0:
256,192,41279,1,2,0:0:0:0:
256,192,41612,1,6,0:0:0:0:
256,192,41946,1,0,0:0:0:0:
256,192,42112,1,2,0:0:0:0:
256,192,42279,1,0,0:0:0:0:
256,192,42446,1,2,0:0:0:0:
256,192,42529,1,2,0:0:0:0:
256,192,42612,1,2,0:0:0:0:
256,192,42779,1,0,0:0:0:0:
256,192,42862,1,0,0:0:0:0:
256,192,42946,1,0,0:0:0:0:
256,192,43112,1,0,0:0:0:0:
256,192,43279,1,2,0:0:0:0:
256,192,43446,1,2,0:0:0:0:
256,192,43946,1,0,0:0:0:0:
256,192,44279,1,6,0:0:0:0:
256,192,44612,1,2,0:0:0:0:
256,192,44779,1,0,0:0:0:0:
256,192,44946,1,2,0:0:0:0:
256,192,45029,1,2,0:0:0:0:
256,192,45112,1,2,0:0:0:0:
256,192,45279,1,0,0:0:0:0:
256,192,45446,1,6,0:0:0:0:
256,192,46112,1,6,0:0:0:0:
256,192,46446,1,2,0:0:0:0:
256,192,46612,1,2,0:0:0:0:
256,192,46946,1,6,0:0:0:0:
256,192,47279,1,0,0:0:0:0:
256,192,47446,1,2,0:0:0:0:
256,192,47612,1,0,0:0:0:0:
256,192,47696,1,0,0:0:0:0:
256,192,47779,1,0,0:0:0:0:
256,192,47946,1,2,0:0:0:0:
256,192,48112,1,2,0:0:0:0:
256,192,48446,1,0,0:0:0:0:
256,192,48612,1,2,0:0:0:0:
256,192,48946,1,2,0:0:0:0:
256,192,49279,1,0,0:0:0:0:
256,192,49612,1,6,0:0:0:0:
256,192,49946,1,2,0:0:0:0:
256,192,50112,1,0,0:0:0:0:
256,192,50279,1,2,0:0:0:0:
256,192,50362,1,2,0:0:0:0:
256,192,50446,1,2,0:0:0:0:
256,192,50612,1,0,0:0:0:0:
256,192,50779,1,0,0:0:0:0:
256,192,51112,1,2,0:0:0:0:
256,192,51279,1,2,0:0:0:0:
256,192,51362,1,2,0:0:0:0:
256,192,51446,1,2,0:0:0:0:
256,192,51612,1,0,0:0:0:0:
256,192,51779,1,0,0:0:0:0:
256,192,51946,1,2,0:0:0:0:
256,192,52279,1,6,0:0:0:0:
256,192,52612,1,0,0:0:0:0:
256,192,52779,1,2,0:0:0:0:
256,192,52946,1,0,0:0:0:0:
256,192,53112,1,2,0:0:0:0:
256,192,53196,1,2,0:0:0:0:
256,192,53279,1,2,0:0:0:0:
256,192,53446,1,0,0:0:0:0:
256,192,53529,1,0,0:0:0:0:
256,192,53612,1,0,0:0:0:0:
256,192,53779,1,0,0:0:0:0:
256,192,53946,1,2,0:0:0:0:
256,192,54112,1,2,0:0:0:0:
256,192,54612,1,0,0:0:0:0:
256,192,54946,1,6,0:0:0:0:
256,192,55279,1,2,0:0:0:0:
256,192,55446,1,0,0:0:0:0:
256,192,55612,1,2,0:0:0:0:
256,192,55696,1,2,0:0:0:0:
256,192,55779,1,2,0:0:0:0:
256,192,55946,1,0,0:0:0:0:
256,192,56112,1,6,0:0:0:0:
256,192,56779,1,6,0:0:0:0:
256,192,57112,1,2,0:0:0:0:
256,192,57279,1,2,0:0:0:0:
256,192,57612,1,6,0:0:0:0:
256,192,57946,1,0,0:0:0:0:
256,192,58112,1,2,0:0:0:0:
256,192,58279,1,0,0:0:0:0:
256,192,58362,1,0,0:0:0:0:
256,192,58446,1,0,0:0:0:0:
256,192,58612,1,2,0:0:0:0:
256,192,58779,1,2,0:0:0:0:
256,192,59112,1,0,0:0:0:0:
256,192,59279,1,2,0:0:0:0:
256,192,59612,1,2,0:0:0:0:
256,192,59946,1,0,0:0:0:0:
256,192,60279,1,2,0:0:0:0:
256,192,60362,1,2,0:0:0:0:
256,192,60446,1,2,0:0:0:0:
256,192,60612,1,2,0:0:0:0:
256,192,60779,1,0,0:0:0:0:
256,192,60946,1,2,0:0:0:0:
256,192,61279,1,2,0:0:0:0:
256,192,61446,1,0,0:0:0:0:
256,192,61779,1,2,0:0:0:0:
256,192,61862,1,2,0:0:0:0:
256,192,61946,1,2,0:0:0:0:
256,192,62112,1,0,0:0:0:0:
256,192,62279,1,0,0:0:0:0:
256,192,62362,1,0,0:0:0:0:
256,192,62446,1,0,0:0:0:0:
256,192,62612,1,2,0:0:0:0:
256,192,62779,1,0,0:0:0:0:
256,192,62946,1,2,0:0:0:0:
256,192,63279,1,0,0:0:0:0:
256,192,63612,1,2,0:0:0:0:
256,192,63946,1,2,0:0:0:0:
256,192,64112,1,0,0:0:0:0:
256,192,64446,1,0,0:0:0:0:
256,192,64612,1,2,0:0:0:0:
256,192,64696,1,2,0:0:0:0:
256,192,64779,1,2,0:0:0:0:
256,192,64946,1,2,0:0:0:0:
256,192,65112,1,0,0:0:0:0:
256,192,65279,1,0,0:0:0:0:
256,192,65612,1,2,0:0:0:0:
256,192,65696,1,2,0:0:0:0:
256,192,65779,1,2,0:0:0:0:
256,192,65946,1,2,0:0:0:0:
256,192,66112,1,0,0:0:0:0:
256,192,66279,1,2,0:0:0:0:
256,192,66612,1,2,0:0:0:0:
256,192,66779,1,0,0:0:0:0:
256,192,67112,1,2,0:0:0:0:
256,192,67196,1,2,0:0:0:0:
256,192,67279,1,2,0:0:0:0:
256,192,67446,1,0,0:0:0:0:
256,192,67612,1,0,0:0:0:0:
256,192,67696,1,0,0:0:0:0:
256,192,67779,1,0,0:0:0:0:
256,192,67946,1,2,0:0:0:0:
256,192,68112,1,0,0:0:0:0:
256,192,68279,1,2,0:0:0:0:
256,192,68612,1,0,0:0:0:0:
256,192,68946,1,2,0:0:0:0:
256,192,69279,1,2,0:0:0:0:
256,192,69446,1,0,0:0:0:0:
256,192,69779,1,0,0:0:0:0:
256,192,69946,1,2,0:0:0:0:
256,192,70279,1,2,0:0:0:0:
256,192,70612,1,0,0:0:0:0:
256,192,70946,1,2,0:0:0:0:
256,192,71446,1,2,0:0:0:0:
256,192,71612,1,2,0:0:0:0:
256,192,71946,1,2,0:0:0:0:
256,192,72112,1,0,0:0:0:0:
256,192,72279,1,2,0:0:0:0:
256,192,72612,1,2,0:0:0:0:
256,192,72779,1,0,0:0:0:0:
256,192,73112,1,2,0:0:0:0:
256,192,73279,1,2,0:0:0:0:
256,192,73612,1,2,0:0:0:0:
256,192,73779,1,0,0:0:0:0:
256,192,73946,1,2,0:0:0:0:
256,192,74112,1,2,0:0:0:0:
256,192,74279,1,0,0:0:0:0:
256,192,74612,1,0,0:0:0:0:
256,192,74779,1,2,0:0:0:0:
256,192,74946,1,2,0:0:0:0:
256,192,75279,1,0,0:0:0:0:
256,192,75612,1,2,0:0:0:0:
256,192,75946,1,0,0:0:0:0:
256,192,76112,1,0,0:0:0:0:
256,192,76279,1,2,0:0:0:0:
256,192,76612,1,0,0:0:0:0:
256,192,76779,1,2,0:0:0:0:
256,192,77112,1,2,0:0:0:0:
256,192,77279,1,2,0:0:0:0:
256,192,77446,1,0,0:0:0:0:
256,192,77612,1,2,0:0:0:0:
256,192,77946,1,0,0:0:0:0:
256,192,78112,1,2,0:0:0:0:
256,192,78446,1,2,0:0:0:0:
256,192,78612,1,2,0:0:0:0:
256,192,78946,1,0,0:0:0:0:
256,192,79279,1,2,0:0:0:0:
256,192,79446,1,0,0:0:0:0:
256,192,79612,1,2,0:0:0:0:
256,192,79779,1,2,0:0:0:0:
256,192,79946,1,0,0:0:0:0:
256,192,80279,1,2,0:0:0:0:
256,192,80612,1,0,0:0:0:0:
256,192,80946,1,2,0:0:0:0:
256,192,81112,1,2,0:0:0:0:
256,192,81279,1,0,0:0:0:0:
256,192,81446,1,0,0:0:0:0:
256,192,81612,1,2,0:0:0:0:
256,192,81946,1,2,0:0:0:0:
256,192,82112,1,0,0:0:0:0:
256,192,82446,1,0,0:0:0:0:
256,192,82612,1,2,0:0:0:0:
256,192,82779,1,2,0:0:0:0:
256,192,82946,1,0,0:0:0:0:
256,192,83279,1,2,0:0:0:0:
256,192,83446,1,0,0:0:0:0:
256,192,83779,1,2,0:0:0:0:
256,192,83946,1,2,0:0:0:0:
256,192,84279,1,2,0:0:0:0:
256,192,84446,1,0,0:0:0:0:
256,192,84612,1,2,0:0:0:0:
256,192,84779,1,2,0:0:0:0:
256,192,84946,1,0,0:0:0:0:
256,192,85279,1,2,0:0:0:0:
256,192,85612,1,2,0:0:0:0:
256,192,85779,1,2,0:0:0:0:
256,192,85946,1,0,0:0:0:0:
256,192,86279,1,2,0:0:0:0:
256,192,86612,1,0,0:0:0:0:
256,192,86946,1,2,0:0:0:0:
256,192,87279,1,2,0:0:0:0:
256,192,87446,1,0,0:0:0:0:
256,192,87779,1,0,0:0:0:0:
256,192,87946,1,2,0:0:0:0:
256,192,88112,1,0,0:0:0:0:
256,192,88279,1,2,0:0:0:0:
256,192,88612,1,2,0:0:0:0:
256,192,88779,1,0,0:0:0:0:
256,192,89112,1,2,0:0:0:0:
256,192,89279,1,2,0:0:0:0:
256,192,89612,1,2,0:0:0:0:
256,192,89779,1,0,0:0:0:0:
256,192,89946,1,2,0:0:0:0:
256,192,90112,1,2,0:0:0:0:
256,192,90279,1,0,0:0:0:0:
256,192,90612,1,2,0:0:0:0:
256,192,90946,1,2,0:0:0:0:
256,192,91279,1,0,0:0:0:0:
256,192,91612,1,2,0:0:0:0:
256,192,91946,1,2,0:0:0:0:
256,192,92279,1,0,0:0:0:0:
256,192,92612,1,2,0:0:0:0:
256,192,93279,1,2,0:0:0:0:
256,192,93612,1,0,0:0:0:0:
256,192,93946,1,2,0:0:0:0:
256,192,94612,1,2,0:0:0:0:
256,192,94946,1,0,0:0:0:0:
256,192,95279,1,0,0:0:0:0:
256,192,95946,1,0,0:0:0:0:
256,192,96112,1,2,0:0:0:0:
256,192,96612,1,0,0:0:0:0:
256,192,97612,5,6,0:0:0:0:
256,192,97946,1,2,0:0:0:0:
256,192,98112,1,0,0:0:0:0:
256,192,98279,1,2,0:0:0:0:
256,192,98362,1,2,0:0:0:0:
256,192,98446,1,2,0:0:0:0:
256,192,98612,1,0,0:0:0:0:
256,192,98779,1,0,0:0:0:0:
256,192,99112,1,2,0:0:0:0:
256,192,99279,1,2,0:0:0:0:
256,192,99362,1,2,0:0:0:0:
256,192,99446,1,2,0:0:0:0:
256,192,99612,1,0,0:0:0:0:
256,192,99779,1,0,0:0:0:0:
256,192,99946,1,2,0:0:0:0:
256,192,100279,1,6,0:0:0:0:
256,192,100612,1,0,0:0:0:0:
256,192,100779,1,2,0:0:0:0:
256,192,100946,1,0,0:0:0:0:
256,192,101112,1,2,0:0:0:0:
256,192,101196,1,2,0:0:0:0:
256,192,101279,1,2,0:0:0:0:
256,192,101446,1,0,0:0:0:0:
256,192,101529,1,0,0:0:0:0:
256,192,101612,1,0,0:0:0:0:
256,192,101779,1,0,0:0:0:0:
256,192,101946,1,2,0:0:0:0:
256,192,102112,1,2,0:0:0:0:
256,192,102612,1,0,0:0:0:0:
256,192,102946,1,6,0:0:0:0:
256,192,103279,1,2,0:0:0:0:
256,192,103446,1,0,0:0:0:0:
256,192,103612,1,2,0:0:0:0:
256,192,103696,1,2,0:0:0:0:
256,192,103779,1,2,0:0:0:0:
256,192,103946,1,0,0:0:0:0:
256,192,104112,1,6,0:0:0:0:
256,192,104779,1,6,0:0:0:0:
256,192,105112,1,2,0:0:0:0:
256,192,105279,1,2,0:0:0:0:
256,192,105612,1,6,0:0:0:0:
256,192,105946,1,0,0:0:0:0:
256,192,106112,1,2,0:0:0:0:
256,192,106279,1,0,0:0:0:0:
256,192,106362,1,0,0:0:0:0:
256,192,106446,1,0,0:0:0:0:
256,192,106612,1,2,0:0:0:0:
256,192,106779,1,2,0:0:0:0:
256,192,107112,1,0,0:0:0:0:
256,192,107279,1,2,0:0:0:0:
256,192,107612,1,2,0:0:0:0:
256,192,107946,1,0,0:0:0:0:
256,192,108279,1,6,0:0:0:0:
256,192,108612,1,2,0:0:0:0:
256,192,108779,1,0,0:0:0:0:
256,192,108946,1,2,0:0:0:0:
256,192,109029,1,2,0:0:0:0:
256,192,109112,1,2,0:0:0:0:
256,192,109279,1,0,0:0:0:0:
256,192,109446,1,0,0:0:0:0:
256,192,109779,1,2,0:0:0:0:
256,192,109946,1,2,0:0:0:0:
256,192,110029,1,2,0:0:0:0:
256,192,110112,1,2,0:0:0:0:
256,192,110279,1,0,0:0:0:0:
256,192,110446,1,0,0:0:0:0:
256,192,110612,1,2,0:0:0:0:
256,192,110946,1,6,0:0:0:0:
256,192,111279,1,0,0:0:0:0:
256,192,111446,1,2,0:0:0:0:
256,192,111612,1,0,0:0:0:0:
256,192,111779,1,2,0:0:0:0:
256,192,111862,1,2,0:0:0:0:
256,192,111946,1,2,0:0:0:0:
256,192,112112,1,0,0:0:0:0:
256,192,112196,1,0,0:0:0:0:
256,192,112279,1,0,0:0:0:0:
256,192,112446,1,0,0:0:0:0:
256,192,112612,1,2,0:0:0:0:
256,192,112779,1,2,0:0:0:0:
256,192,113279,1,0,0:0:0:0:
256,192,113612,1,6,0:0:0:0:
256,192,113946,1,2,0:0:0:0:
256,192,114112,1,0,0:0:0:0:
256,192,114279,1,2,0:0:0:0:
256,192,114362,1,2,0:0:0:0:
256,192,114446,1,2,0:0:0:0:
256,192,114612,1,0,0:0:0:0:
256,192,114779,1,6,0:0:0:0:
256,192,115446,1,6,0:0:0:0:
256,192,115779,1,2,0:0:0:0:
256,192,115946,1,2,0:0:0:0:
256,192,116279,1,6,0:0:0:0:
256,192,116612,1,0,0:0:0:0:
256,192,116779,1,2,0:0:0:0:
256,192,116946,1,0,0:0:0:0:
256,192,117029,1,0,0:0:0:0:
256,192,117112,1,0,0:0:0:0:
256,192,117279,1,2,0:0:0:0:
256,192,117446,1,2,0:0:0:0:
256,192,117779,1,0,0:0:0:0:
256,192,117946,1,2,0:0:0:0:
256,192,118279,1,2,0:0:0:0:
256,192,118612,1,0,0:0:0:0:
256,192,118946,1,2,0:0:0:0:
256,192,119029,1,2,0:0:0:0:
256,192,119112,1,2,0:0:0:0:
256,192,119279,1,2,0:0:0:0:
256,192,119446,1,0,0:0:0:0:
256,192,119612,1,2,0:0:0:0:
256,192,119946,1,2,0:0:0:0:
256,192,120112,1,0,0:0:0:0:
256,192,120446,1,2,0:0:0:0:
256,192,120529,1,2,0:0:0:0:
256,192,120612,1,2,0:0:0:0:
256,192,120779,1,0,0:0:0:0:
256,192,120946,1,0,0:0:0:0:
256,192,121029,1,0,0:0:0:0:
256,192,121112,1,0,0:0:0:0:
256,192,121279,1,2,0:0:0:0:
256,192,121446,1,0,0:0:0:0:
256,192,121612,1,2,0:0:0:0:
256,192,121946,1,0,0:0:0:0:
256,192,122279,1,2,0:0:0:0:
256,192,122612,1,2,0:0:0:0:
256,192,122779,1,0,0:0:0:0:
256,192,123112,1,0,0:0:0:0:
256,192,123279,1,2,0:0:0:0:
256,192,123362,1,2,0:0:0:0:
256,192,123446,1,2,0:0:0:0:
256,192,123612,1,2,0:0:0:0:
256,192,123779,1,2,0:0:0:0:
256,192,123946,1,0,0:0:0:0:
256,192,124279,1,2,0:0:0:0:
256,192,124362,1,2,0:0:0:0:
256,192,124446,1,2,0:0:0:0:
256,192,124612,1,2,0:0:0:0:
256,192,124779,1,0,0:0:0:0:
256,192,124946,1,2,0:0:0:0:
256,192,125279,1,2,0:0:0:0:
256,192,125446,1,0,0:0:0:0:
256,192,125779,1,2,0:0:0:0:
256,192,125862,1,2,0:0:0:0:
256,192,125946,1,2,0:0:0:0:
256,192,126112,1,0,0:0:0:0:
256,192,126279,1,0,0:0:0:0:
256,192,126362,1,0,0:0:0:0:
256,192,126446,1,0,0:0:0:0:
256,192,126612,1,2,0:0:0:0:
256,192,126779,1,0,0:0:0:0:
256,192,126946,1,2,0:0:0:0:
256,192,127279,1,0,0:0:0:0:
256,192,127612,1,2,0:0:0:0:
256,192,127946,1,2,0:0:0:0:
256,192,128112,1,0,0:0:0:0:
256,192,128446,1,0,0:0:0:0:
256,192,128612,1,2,0:0:0:0:
256,192,128696,1,2,0:0:0:0:
256,192,128779,1,2,0:0:0:0:
256,192,128946,1,2,0:0:0:0:
256,192,129112,1,2,0:0:0:0:
256,192,129279,1,0,0:0:0:0:
