osu file format v14

[General]
AudioFilename: audio.ogg
AudioLeadIn: 0
PreviewTime: 38608
Countdown: 0
SampleSet: Normal
StackLeniency: 0.7
Mode: 1
LetterboxInBreaks: 0
WidescreenStoryboard: 1

[Editor]
Bookmarks: 1613,12279,14946,17612,20279,22946,33612,38946,60279,70946,92279,97612,118946,129612
DistanceSpacing: 1
BeatDivisor: 4
GridSize: 32
TimelineZoom: 1.6

[Metadata]
Title:Neppa feat. Butter [Tanger Remix]
TitleUnicode:熱波 feat. Butter【Tanger Remix】
Artist:tephe
ArtistUnicode:tephe
Creator:Tsukani
Version:Alice's Oni
Source:
Tags:ft. featuring pop j-pop jpop japanese electronic heatwave heat wave itovero hess tangermusic cyclops monkey tomatdk undead alice undead_alice undeadalice slim-san slim_san slim san
BeatmapID:4260658
BeatmapSetID:2032533

[Difficulty]
HPDrainRate:5.5
CircleSize:4
OverallDifficulty:5.5
ApproachRate:9
SliderMultiplier:1.4
SliderTickRate:1

[Events]
//Background and Video events
0,0,"nep.jpg",0,45
//Break Periods
//Storyboard Layer 0 (Background)
//Storyboard Layer 1 (Fail)
//Storyboard Layer 2 (Pass)
//Storyboard Layer 3 (Foreground)
//Storyboard Layer 4 (Overlay)
//Storyboard Sound Samples

[TimingPoints]
280,333.333333333333,4,1,0,50,1,0
280,-142.85716,4,1,0,50,0,0
607,-124.23332,4,1,0,50,0,0
940,-109.905334,4,1,0,50,0,0
1024,-103.8961,4,1,0,70,0,0
1227,-100,4,1,0,90,0,0
1613,333.333333333333,4,1,0,90,1,0
11107,-100,4,1,0,90,0,0
11273,-101.505806,4,1,0,90,0,0
11440,-103.06715,4,1,0,90,0,0
11607,-104.67727,4,1,0,90,0,0
11690,-105.496376,4,1,0,90,0,0
11773,-106.32839,4,1,0,90,0,0
11940,-108.04286,4,1,0,90,0,0
12107,-109.81354,4,1,0,90,0,0
12227,-111.111111111111,4,1,0,75,0,0
14440,-111.111115,4,1,0,75,0,0
14607,-115.85677,4,1,0,75,0,0
14773,-120.99358,4,1,0,75,0,0
14857,-123.77049,4,1,0,75,0,0
14894,-125,4,1,0,60,0,0
16440,-125,4,1,0,60,0,0
16607,-122.443985,4,1,0,60,0,0
16773,-120.0048,4,1,0,60,0,0
16940,-117.64706,4,1,0,60,0,0
17107,-115.38018,4,1,0,60,0,0
17273,-113.211815,4,1,0,60,0,0
17440,-111.111115,4,1,0,60,0,0
17560,-111.111111111111,4,1,0,75,0,0
19773,-111.111115,4,1,0,75,0,0
19940,-115.85677,4,1,0,75,0,0
20107,-121.025925,4,1,0,75,0,0
20190,-123.77049,4,1,0,75,0,0
20227,-125,4,1,0,60,0,0
21773,-125,4,1,0,60,0,0
21940,-120.50785,4,1,0,60,0,0
22107,-116.32738,4,1,0,60,0,0
22273,-112.44981,4,1,0,60,0,0
22440,-108.80125,4,1,0,60,0,0
22607,-105.382,4,1,0,60,0,0
22773,-102.18978,4,1,0,60,0,0
22894,-100,4,1,0,75,0,0
31773,-100,4,1,0,75,0,0
32065,-105.13964,4,1,0,75,0,0
32149,-106.717476,4,1,0,73,0,0
32232,-108.32377,4,1,0,72,0,0
32315,-109.97913,4,1,0,70,0,0
32399,-111.70677,4,1,0,69,0,0
32482,-113.468,4,1,0,67,0,0
32565,-115.28564,4,1,0,66,0,0
32649,-117.185455,4,1,0,65,0,0
32732,-119.125175,4,1,0,63,0,0
32815,-121.13018,4,1,0,62,0,0
32899,-123.22928,4,1,0,60,0,0
32982,-125.37606,4,1,0,59,0,0
33065,-127.59898,4,1,0,58,0,0
33149,-129.9304,4,1,0,56,0,0
33232,-132.31929,4,1,0,55,0,0
33315,-134.79765,4,1,0,53,0,0
33399,-137.40224,4,1,0,52,0,0
33482,-140.0766,4,1,0,51,0,0
33565,-142.85716,4,1,0,50,0,0
38560,-100,4,1,0,75,0,0
38894,-93.8967136150235,4,1,0,100,0,0
38946,-85.8369098712446,4,1,0,100,0,1
39108,-93.8967136150235,4,1,0,100,0,1
41608,-85.8369098712446,4,1,0,100,0,1
41774,-93.8967136150235,4,1,0,100,0,1
44274,-85.8369098712446,4,1,0,100,0,1
44441,-93.8967136150235,4,1,0,100,0,1
45274,-89.6860986547085,4,1,0,100,0,1
45441,-85.8369098712446,4,1,0,100,0,1
45608,-93.8967136150235,4,1,0,100,0,1
45774,-93.8967136150235,4,1,0,100,0,1
45941,-89.6860986547085,4,1,0,100,0,1
46108,-85.8369098712446,4,1,0,100,0,1
46274,-93.8967136150235,4,1,0,100,0,1
46440,-93.8967126451982,4,1,0,100,0,1
46607,-91.0415212005316,4,1,0,100,0,1
46690,-89.6860968046814,4,1,0,100,0,1
46773,-88.3704500342569,4,1,0,100,0,1
46940,-85.8369063346166,4,1,0,100,0,1
47108,-93.8967136150235,4,1,0,100,0,1
49608,-85.8369098712446,4,1,0,100,0,1
49774,-93.8967136150235,4,1,0,100,0,1
52274,-85.8369098712446,4,1,0,100,0,1
52441,-93.8967136150235,4,1,0,100,0,1
54941,-85.8369098712446,4,1,0,100,0,1
55108,-93.8967136150235,4,1,0,100,0,1
55941,-89.6860986547085,4,1,0,100,0,1
56108,-85.8369098712446,4,1,0,100,0,1
56274,-93.8967136150235,4,1,0,100,0,1
56608,-89.6860986547085,4,1,0,100,0,1
56774,-85.8369098712446,4,1,0,100,0,1
56941,-93.8967136150235,4,1,0,100,0,1
57107,-93.8967126451982,4,1,0,100,0,1
57273,-91.0580993642676,4,1,0,100,0,1
57357,-89.6860968046814,4,1,0,100,0,1
57440,-88.3704500342569,4,1,0,100,0,1
57607,-85.8369063346166,4,1,0,100,0,1
57774,-93.8967136150235,4,1,0,100,0,1
59440,-93.8967126451982,4,1,0,100,0,1
59607,-94.6742755000839,4,1,0,100,0,1
59779,-96.6058950935379,4,1,0,100,0,0
59946,-98.7654320987654,4,1,0,50,0,0
60227,-100,4,1,0,90,0,0
69773,-100,4,1,0,90,0,0
70065,-102.66472,4,1,0,90,0,0
70148,-103.44828,4,1,0,89,0,0
70232,-104.25354,4,1,0,87,0,0
70315,-105.06164,4,1,0,85,0,0
70398,-105.882355,4,1,0,84,0,0
70482,-106.72611,4,1,0,82,0,0
70565,-107.57315,4,1,0,81,0,0
70648,-108.43374,4,1,0,80,0,0
70732,-109.31882,4,1,0,78,0,0
70815,-110.20768,4,1,0,76,0,0
70898,-111.111115,4,1,0,75,0,0
90732,-111.111115,4,1,0,75,0,0
90816,-112.59437,4,1,0,74,0,0
90899,-114.099365,4,1,0,72,0,0
90982,-115.64514,4,1,0,71,0,0
91066,-117.25279,4,1,0,69,0,0
91149,-118.8858,4,1,0,68,0,0
91232,-120.564964,4,1,0,67,0,0
91316,-122.31333,4,1,0,65,0,0
91399,-124.09143,4,1,0,64,0,0
91482,-125.92199,4,1,0,62,0,0
91566,-127.8304,4,1,0,61,0,0
91649,-129.77379,4,1,0,60,0,0
91732,-131.77718,4,1,0,58,0,0
91816,-133.8687,4,1,0,57,0,0
91899,-136.00154,4,1,0,56,0,0
91982,-138.20345,4,1,0,54,0,0
92066,-140.5057,4,1,0,53,0,0
92149,-142.85716,4,1,0,51,0,0
97227,-100,4,1,0,75,0,0
97561,-93.6768149882904,4,1,0,100,0,0
97612,-85.6531049250535,4,1,0,100,0,1
97774,-93.6768149882904,4,1,0,100,0,1
100274,-85.6531049250535,4,1,0,100,0,1
100441,-93.6768149882904,4,1,0,100,0,1
102941,-85.6531049250535,4,1,0,100,0,1
103108,-93.6768149882904,4,1,0,100,0,1
103941,-89.4854586129753,4,1,0,100,0,1
104108,-85.6531049250535,4,1,0,100,0,1
104274,-93.6768149882904,4,1,0,100,0,1
104441,-93.6768149882904,4,1,0,100,0,1
104608,-89.4854586129753,4,1,0,100,0,1
104774,-85.6531049250535,4,1,0,100,0,1
104941,-93.6768149882904,4,1,0,100,0,1
105107,-93.6768140230024,4,1,0,100,0,1
105273,-90.8512807405415,4,1,0,100,0,1
105357,-89.4854567712165,4,1,0,100,0,1
105440,-88.1756469940837,4,1,0,100,0,1
105607,-85.6531014035554,4,1,0,100,0,1
105774,-93.6768149882904,4,1,0,100,0,1
108274,-85.6531049250535,4,1,0,100,0,1
108441,-93.6768149882904,4,1,0,100,0,1
110941,-85.6531049250535,4,1,0,100,0,1
111108,-93.6768149882904,4,1,0,100,0,1
113608,-85.6531049250535,4,1,0,100,0,1
113774,-93.6768149882904,4,1,0,100,0,1
114608,-89.4854586129753,4,1,0,100,0,1
114774,-85.6531049250535,4,1,0,100,0,1
114941,-93.6768149882904,4,1,0,100,0,1
115108,-93.6768149882904,4,1,0,100,0,1
115274,-89.4854586129753,4,1,0,100,0,1
115441,-85.6531049250535,4,1,0,100,0,1
115608,-93.6768149882904,4,1,0,100,0,1
115773,-93.6768140230024,4,1,0,100,0,1
115940,-90.8347777918296,4,1,0,100,0,1
116023,-89.4854567712165,4,1,0,100,0,1
116107,-88.1600977707834,4,1,0,100,0,1
116273,-85.6531014035554,4,1,0,100,0,1
116441,-93.6768149882904,4,1,0,100,0,1
118107,-93.6768140230024,4,1,0,100,0,1
118273,-95.5699994291932,4,1,0,100,0,1
118446,-97.5533993480638,4,1,0,100,0,0
118560,-99.2555831265508,4,1,0,50,0,0
118893,-100,4,1,0,90,0,0
128440,-100,4,1,0,90,0,0
128607,-102.045815,4,1,0,90,0,0
128773,-104.16406,4,1,0,90,0,0
128940,-106.3857,4,1,0,90,0,0
129023,-107.5255,4,1,0,90,0,0
129107,-108.70416,4,1,0,90,0,0
129273,-111.111115,4,1,0,90,0,0

[HitObjects]
243,211,280,5,8,0:0:0:0:
244,211,613,1,8,0:0:0:0:
241,211,946,1,8,0:0:0:0:
226,188,1113,1,0,0:0:0:0:
226,188,1279,1,12,0:0:0:0:
226,188,1613,1,0,0:0:0:0:
298,237,1779,1,8,0:0:0:0:
298,237,1946,1,0,0:0:0:0:
227,197,2029,1,8,0:0:0:0:
298,237,2112,1,0,0:0:0:0:
298,237,2279,1,8,0:0:0:0:
298,237,2446,1,8,0:0:0:0:
396,301,2612,1,0,0:0:0:0:
298,237,2779,1,8,0:0:0:0:
416,303,3112,1,0,0:0:0:0:
416,303,3279,1,8,0:0:0:0:
394,252,3362,1,8,0:0:0:0:
415,295,3446,1,0,0:0:0:0:
415,295,3612,1,0,0:0:0:0:
415,295,3779,1,8,0:0:0:0:
415,295,3946,1,8,0:0:0:0:
415,295,4112,1,0,0:0:0:0:
391,254,4446,1,0,0:0:0:0:
415,235,4529,1,0,0:0:0:0:
391,254,4612,1,8,0:0:0:0:
391,254,4779,1,0,0:0:0:0:
391,254,4946,1,8,0:0:0:0:
391,254,5112,1,8,0:0:0:0:
391,254,5279,1,8,0:0:0:0:
391,254,5446,1,0,0:0:0:0:
391,254,5779,1,8,0:0:0:0:
391,254,5946,1,0,0:0:0:0:
364,245,6029,1,8,0:0:0:0:
391,254,6112,1,0,0:0:0:0:
391,254,6279,1,8,0:0:0:0:
391,254,6446,1,0,0:0:0:0:
391,254,6612,1,8,0:0:0:0:
391,254,6779,1,0,0:0:0:0:
431,279,7112,1,0,0:0:0:0:
431,279,7279,1,8,0:0:0:0:
431,279,7446,1,0,0:0:0:0:
437,313,7529,1,8,0:0:0:0:
431,279,7612,1,8,0:0:0:0:
431,279,7779,1,0,0:0:0:0:
431,279,7946,1,8,0:0:0:0:
431,279,8112,1,0,0:0:0:0:
346,242,8446,1,0,0:0:0:0:
346,242,8612,1,8,0:0:0:0:
432,285,8696,1,8,0:0:0:0:
346,242,8779,1,0,0:0:0:0:
346,242,8946,1,0,0:0:0:0:
346,242,9112,1,8,0:0:0:0:
346,242,9279,1,8,0:0:0:0:
346,242,9446,1,0,0:0:0:0:
342,218,9779,1,0,0:0:0:0:
369,262,9862,1,0,0:0:0:0:
342,218,9946,1,8,0:0:0:0:
342,218,10112,1,0,0:0:0:0:
342,218,10279,1,8,0:0:0:0:
342,218,10446,1,8,0:0:0:0:
342,218,10612,1,8,0:0:0:0:
342,218,10779,1,0,0:0:0:0:
367,248,11112,1,8,0:0:0:0:
367,248,11279,1,8,0:0:0:0:
367,248,11446,1,0,0:0:0:0:
367,248,11612,1,8,0:0:0:0:
383,217,11696,1,8,0:0:0:0:
367,248,11779,1,0,0:0:0:0:
367,248,11946,1,8,0:0:0:0:
367,248,12112,1,0,0:0:0:0:
226,207,12446,1,0,0:0:0:0:
247,206,12612,1,8,0:0:0:0:
408,281,12779,1,8,0:0:0:0:
408,281,12946,1,0,0:0:0:0:
375,263,13029,1,0,0:0:0:0:
408,281,13112,1,0,0:0:0:0:
408,281,13279,1,8,0:0:0:0:
409,307,13446,1,0,0:0:0:0:
403,282,13612,1,8,0:0:0:0:
403,282,13779,1,0,0:0:0:0:
390,271,14112,1,0,0:0:0:0:
399,278,14446,1,8,0:0:0:0:
399,278,14612,1,8,0:0:0:0:
407,257,14779,1,0,0:0:0:0:
380,283,14862,1,0,0:0:0:0:
407,257,14946,1,0,0:0:0:0:
424,302,15279,1,8,0:0:0:0:
426,309,15446,1,0,0:0:0:0:
406,262,15612,1,0,0:0:0:0:
406,262,15779,1,8,0:0:0:0:
436,297,16112,1,0,0:0:0:0:
310,292,16446,1,0,0:0:0:0:
328,308,16612,1,8,0:0:0:0:
426,299,16779,1,0,0:0:0:0:
416,293,16946,1,0,0:0:0:0:
416,293,17112,1,8,0:0:0:0:
416,293,17279,1,8,0:0:0:0:
416,293,17446,1,0,0:0:0:0:
416,293,17779,1,8,0:0:0:0:
411,255,17946,1,8,0:0:0:0:
427,299,18112,1,0,0:0:0:0:
427,291,18279,1,0,0:0:0:0:
189,188,18362,1,0,0:0:0:0:
427,291,18446,1,0,0:0:0:0:
427,291,18612,1,8,0:0:0:0:
425,303,18779,1,0,0:0:0:0:
412,279,18946,1,8,0:0:0:0:
412,279,19112,1,0,0:0:0:0:
405,272,19446,1,0,0:0:0:0:
405,272,19779,1,8,0:0:0:0:
405,272,19946,1,8,0:0:0:0:
420,288,20112,1,0,0:0:0:0:
203,185,20196,1,0,0:0:0:0:
420,288,20279,1,0,0:0:0:0:
408,267,20612,1,8,0:0:0:0:
414,256,20779,1,0,0:0:0:0:
414,256,20946,1,0,0:0:0:0:
422,285,21112,1,8,0:0:0:0:
412,291,21279,1,8,0:0:0:0:
412,291,21446,1,0,0:0:0:0:
383,272,21779,1,0,0:0:0:0:
383,272,21946,1,8,0:0:0:0:
413,298,22112,1,0,0:0:0:0:
413,298,22279,1,0,0:0:0:0:
413,298,22446,1,0,0:0:0:0:
413,298,22612,1,8,0:0:0:0:
420,309,22779,1,8,0:0:0:0:
405,291,23112,1,0,0:0:0:0:
277,242,23279,1,8,0:0:0:0:
396,225,23362,1,8,0:0:0:0:
425,289,23446,1,8,0:0:0:0:
425,289,23612,1,0,0:0:0:0:
425,289,23779,1,0,0:0:0:0:
425,289,23946,1,8,0:0:0:0:
425,289,24112,1,0,0:0:0:0:
451,307,24196,1,0,0:0:0:0:
425,289,24279,1,8,0:0:0:0:
425,289,24446,1,0,0:0:0:0:
437,308,24779,1,0,0:0:0:0:
440,307,25112,1,8,0:0:0:0:
411,256,25279,1,8,0:0:0:0:
408,229,25446,1,0,0:0:0:0:
441,308,25529,1,0,0:0:0:0:
141,208,25612,1,0,0:0:0:0:
436,303,25779,1,8,0:0:0:0:
436,303,25946,1,8,0:0:0:0:
437,310,26112,1,0,0:0:0:0:
446,328,26279,1,8,0:0:0:0:
353,268,26446,1,0,0:0:0:0:
447,307,26779,1,8,0:0:0:0:
431,317,27112,1,8,0:0:0:0:
431,317,27279,1,0,0:0:0:0:
431,317,27446,1,0,0:0:0:0:
431,317,27612,1,8,0:0:0:0:
464,306,27696,1,8,0:0:0:0:
446,303,27779,1,0,0:0:0:0:
446,303,27862,1,0,0:0:0:0:
431,317,27946,1,8,0:0:0:0:
431,317,28112,1,0,0:0:0:0:
431,317,28446,1,0,0:0:0:0:
431,300,28612,1,8,0:0:0:0:
413,277,28696,1,8,0:0:0:0:
431,300,28779,1,8,0:0:0:0:
431,300,28946,1,0,0:0:0:0:
431,300,29112,1,0,0:0:0:0:
431,300,29279,1,8,0:0:0:0:
431,300,29446,1,0,0:0:0:0:
409,297,29529,1,8,0:0:0:0:
409,297,29612,1,8,0:0:0:0:
431,300,29779,1,0,0:0:0:0:
416,299,30112,1,0,0:0:0:0:
429,325,30446,1,8,0:0:0:0:
429,325,30612,1,8,0:0:0:0:
438,321,30779,1,0,0:0:0:0:
436,296,30862,1,0,0:0:0:0:
396,253,30946,1,0,0:0:0:0:
396,253,31112,1,8,0:0:0:0:
396,253,31279,1,8,0:0:0:0:
396,253,31446,1,0,0:0:0:0:
396,253,31612,1,8,0:0:0:0:
439,301,31779,1,0,0:0:0:0:
432,312,32112,1,0,0:0:0:0:
429,301,32446,1,8,0:0:0:0:
375,237,32612,1,8,0:0:0:0:
375,237,32779,1,0,0:0:0:0:
375,237,32946,1,0,0:0:0:0:
375,237,33112,1,0,0:0:0:0:
418,307,33279,1,8,0:0:0:0:
426,337,33446,1,8,0:0:0:0:
301,211,33612,1,0,0:0:0:0:
332,193,33946,1,8,0:0:0:0:
418,264,34612,1,8,0:0:0:0:
315,194,34946,1,0,0:0:0:0:
418,264,35279,1,8,0:0:0:0:
291,234,35946,1,8,0:0:0:0:
406,267,36279,1,0,0:0:0:0:
426,277,36612,1,8,0:0:0:0:
373,249,37446,1,0,0:0:0:0:
373,249,37779,1,8,0:0:0:0:
373,249,38112,1,0,0:0:0:0:
291,181,38946,1,12,0:0:0:0:
418,259,39112,1,0,0:0:0:0:
418,259,39196,1,0,0:0:0:0:
418,259,39279,1,8,0:0:0:0:
418,259,39446,1,0,0:0:0:0:
428,279,39612,1,8,0:0:0:0:
386,282,39696,1,8,0:0:0:0:
422,298,39779,1,0,0:0:0:0:
422,298,39946,1,8,0:0:0:0:
431,310,40112,1,0,0:0:0:0:
431,310,40196,1,8,0:0:0:0:
431,310,40279,1,0,0:0:0:0:
438,288,40362,1,0,0:0:0:0:
431,310,40446,1,8,0:0:0:0:
411,282,40612,1,0,0:0:0:0:
411,282,40779,1,0,0:0:0:0:
411,282,40946,1,8,0:0:0:0:
411,282,41029,1,8,0:0:0:0:
411,282,41112,1,0,0:0:0:0:
411,282,41196,1,0,0:0:0:0:
255,244,41279,1,8,0:0:0:0:
396,273,41612,1,12,0:0:0:0:
286,228,41779,1,0,0:0:0:0:
286,228,41946,1,8,0:0:0:0:
420,261,42029,1,8,0:0:0:0:
286,228,42112,1,0,0:0:0:0:
286,228,42279,1,0,0:0:0:0:
286,228,42446,1,8,0:0:0:0:
286,228,42529,1,0,0:0:0:0:
286,228,42612,1,8,0:0:0:0:
423,284,42779,1,0,0:0:0:0:
417,288,43112,1,8,0:0:0:0:
417,288,43196,1,0,0:0:0:0:
417,288,43279,1,8,0:0:0:0:
417,288,43362,1,8,0:0:0:0:
404,261,43446,1,0,0:0:0:0:
417,288,43612,1,8,0:0:0:0:
427,298,43779,1,0,0:0:0:0:
450,314,43862,1,8,0:0:0:0:
427,298,43946,1,0,0:0:0:0:
427,298,44112,1,0,0:0:0:0:
408,298,44279,1,12,0:0:0:0:
201,215,44446,1,0,0:0:0:0:
201,215,44529,1,0,0:0:0:0:
201,215,44612,1,8,0:0:0:0:
201,215,44779,1,0,0:0:0:0:
201,215,44946,1,8,0:0:0:0:
201,215,45029,1,8,0:0:0:0:
201,215,45112,1,0,0:0:0:0:
206,217,45279,1,0,0:0:0:0:
270,216,45446,1,12,0:0:0:0:
208,236,45779,1,0,0:0:0:0:
208,236,45946,1,0,0:0:0:0:
208,236,46112,1,12,0:0:0:0:
326,237,46446,1,0,0:0:0:0:
301,242,46612,1,8,0:0:0:0:
301,242,46696,1,8,0:0:0:0:
301,242,46779,1,0,0:0:0:0:
301,242,46946,1,12,0:0:0:0:
412,282,47112,1,0,0:0:0:0:
412,282,47196,1,0,0:0:0:0:
412,282,47279,1,8,0:0:0:0:
412,282,47446,1,0,0:0:0:0:
422,295,47612,1,8,0:0:0:0:
422,295,47696,1,8,0:0:0:0:
422,295,47779,1,8,0:0:0:0:
422,295,47862,1,8,0:0:0:0:
422,295,47946,1,0,0:0:0:0:
287,196,48112,1,8,0:0:0:0:
405,288,48279,1,8,0:0:0:0:
408,265,48446,1,0,0:0:0:0:
437,289,48529,1,0,0:0:0:0:
437,289,48612,1,8,0:0:0:0:
437,289,48696,1,8,0:0:0:0:
437,289,48779,1,0,0:0:0:0:
437,289,48946,1,0,0:0:0:0:
421,292,49112,1,8,0:0:0:0:
421,292,49279,1,8,0:0:0:0:
267,163,49612,1,12,0:0:0:0:
361,249,49779,1,0,0:0:0:0:
361,249,49862,1,0,0:0:0:0:
361,249,49946,1,8,0:0:0:0:
361,249,50112,1,0,0:0:0:0:
361,249,50279,1,8,0:0:0:0:
361,249,50362,1,8,0:0:0:0:
361,249,50446,1,0,0:0:0:0:
361,249,50612,1,8,0:0:0:0:
361,249,50779,1,0,0:0:0:0:
406,276,50862,1,0,0:0:0:0:
406,276,50946,1,0,0:0:0:0:
406,276,51029,1,0,0:0:0:0:
406,276,51112,1,8,0:0:0:0:
406,276,51279,1,0,0:0:0:0:
406,276,51446,1,0,0:0:0:0:
217,216,51612,1,8,0:0:0:0:
217,216,51696,1,0,0:0:0:0:
217,216,51779,1,8,0:0:0:0:
217,216,51862,1,0,0:0:0:0:
217,216,51946,1,8,0:0:0:0:
285,191,52279,1,12,0:0:0:0:
401,287,52446,1,0,0:0:0:0:
401,287,52612,1,8,0:0:0:0:
401,287,52696,1,0,0:0:0:0:
401,287,52779,1,8,0:0:0:0:
401,287,52946,1,0,0:0:0:0:
354,244,53112,1,8,0:0:0:0:
354,244,53196,1,8,0:0:0:0:
354,244,53279,1,8,0:0:0:0:
354,244,53446,1,0,0:0:0:0:
340,259,53779,1,8,0:0:0:0:
418,302,53862,1,8,0:0:0:0:
418,302,53946,1,0,0:0:0:0:
418,302,54029,1,0,0:0:0:0:
416,293,54112,1,0,0:0:0:0:
416,293,54279,1,8,0:0:0:0:
416,293,54446,1,0,0:0:0:0:
412,283,54529,1,0,0:0:0:0:
419,308,54612,1,8,0:0:0:0:
419,308,54779,1,0,0:0:0:0:
337,230,54946,1,12,0:0:0:0:
431,284,55112,1,0,0:0:0:0:
424,283,55196,1,0,0:0:0:0:
419,285,55279,1,8,0:0:0:0:
424,283,55446,1,0,0:0:0:0:
424,283,55612,1,8,0:0:0:0:
424,283,55696,1,8,0:0:0:0:
424,283,55779,1,0,0:0:0:0:
424,283,55946,1,0,0:0:0:0:
407,294,56112,1,12,0:0:0:0:
400,276,56446,1,0,0:0:0:0:
400,276,56612,1,0,0:0:0:0:
410,272,56779,1,12,0:0:0:0:
350,295,57112,1,0,0:0:0:0:
350,295,57279,1,0,0:0:0:0:
350,295,57362,1,8,0:0:0:0:
416,291,57446,1,0,0:0:0:0:
366,210,57612,1,12,0:0:0:0:
325,262,57779,1,0,0:0:0:0:
325,262,57862,1,8,0:0:0:0:
325,262,57946,1,8,0:0:0:0:
325,262,58112,1,0,0:0:0:0:
198,202,58279,1,8,0:0:0:0:
198,202,58362,1,8,0:0:0:0:
198,202,58446,1,0,0:0:0:0:
198,202,58529,1,0,0:0:0:0:
198,202,58612,1,8,0:0:0:0:
271,231,58779,1,0,0:0:0:0:
271,231,58946,1,8,0:0:0:0:
271,231,59112,1,0,0:0:0:0:
203,230,59196,1,0,0:0:0:0:
203,230,59279,1,8,0:0:0:0:
203,230,59362,1,8,0:0:0:0:
203,230,59446,1,0,0:0:0:0:
198,227,59612,1,8,0:0:0:0:
206,232,59779,1,0,0:0:0:0:
276,184,59946,1,0,0:0:0:0:
226,188,60279,1,0,0:0:0:0:
298,237,60446,1,8,0:0:0:0:
298,237,60612,1,0,0:0:0:0:
227,197,60696,1,8,0:0:0:0:
298,237,60779,1,0,0:0:0:0:
298,237,60946,1,8,0:0:0:0:
298,237,61112,1,8,0:0:0:0:
396,301,61279,1,0,0:0:0:0:
298,237,61446,1,8,0:0:0:0:
416,303,61779,1,0,0:0:0:0:
416,303,61946,1,8,0:0:0:0:
394,252,62029,1,8,0:0:0:0:
415,295,62112,1,0,0:0:0:0:
415,295,62279,1,0,0:0:0:0:
415,295,62446,1,8,0:0:0:0:
415,295,62612,1,8,0:0:0:0:
415,295,62779,1,0,0:0:0:0:
391,254,63112,1,0,0:0:0:0:
415,235,63196,1,0,0:0:0:0:
391,254,63279,1,8,0:0:0:0:
391,254,63446,1,0,0:0:0:0:
391,254,63612,1,8,0:0:0:0:
391,254,63779,1,8,0:0:0:0:
391,254,63946,1,8,0:0:0:0:
391,254,64112,1,0,0:0:0:0:
391,254,64446,1,8,0:0:0:0:
391,254,64612,1,0,0:0:0:0:
364,245,64696,1,8,0:0:0:0:
391,254,64779,1,0,0:0:0:0:
391,254,64946,1,8,0:0:0:0:
391,254,65112,1,0,0:0:0:0:
391,254,65279,1,8,0:0:0:0:
391,254,65446,1,0,0:0:0:0:
431,279,65779,1,0,0:0:0:0:
431,279,65946,1,8,0:0:0:0:
431,279,66112,1,0,0:0:0:0:
437,313,66196,1,8,0:0:0:0:
431,279,66279,1,8,0:0:0:0:
431,279,66446,1,0,0:0:0:0:
431,279,66612,1,8,0:0:0:0:
431,279,66779,1,0,0:0:0:0:
346,242,67112,1,0,0:0:0:0:
346,242,67279,1,8,0:0:0:0:
432,285,67362,1,8,0:0:0:0:
346,242,67446,1,0,0:0:0:0:
346,242,67612,1,0,0:0:0:0:
346,242,67779,1,8,0:0:0:0:
346,242,67946,1,8,0:0:0:0:
346,242,68112,1,0,0:0:0:0:
342,218,68446,1,0,0:0:0:0:
369,262,68529,1,0,0:0:0:0:
342,218,68612,1,8,0:0:0:0:
342,218,68779,1,0,0:0:0:0:
342,218,68946,1,8,0:0:0:0:
342,218,69112,1,8,0:0:0:0:
342,218,69279,1,8,0:0:0:0:
342,218,69446,1,0,0:0:0:0:
367,248,69779,1,8,0:0:0:0:
367,248,69946,1,8,0:0:0:0:
367,248,70112,1,0,0:0:0:0:
367,248,70279,1,8,0:0:0:0:
367,248,70446,1,0,0:0:0:0:
367,248,70612,1,8,0:0:0:0:
367,248,70779,1,0,0:0:0:0:
280,231,70946,1,8,0:0:0:0:
277,242,71279,1,0,0:0:0:0:
396,225,71362,1,0,0:0:0:0:
425,289,71446,1,0,0:0:0:0:
425,289,71612,1,8,0:0:0:0:
425,289,71779,1,8,0:0:0:0:
425,289,71946,1,0,0:0:0:0:
425,289,72112,1,8,0:0:0:0:
451,307,72196,1,8,0:0:0:0:
425,289,72279,1,0,0:0:0:0:
425,289,72446,1,8,0:0:0:0:
437,308,72779,1,0,0:0:0:0:
440,307,73112,1,8,0:0:0:0:
411,256,73279,1,8,0:0:0:0:
408,229,73446,1,0,0:0:0:0:
141,208,73612,1,8,0:0:0:0:
436,303,73779,1,0,0:0:0:0:
436,303,73946,1,8,0:0:0:0:
234,229,74029,1,0,0:0:0:0:
437,310,74112,1,8,0:0:0:0:
446,328,74279,1,8,0:0:0:0:
353,268,74446,1,0,0:0:0:0:
263,257,74612,1,8,0:0:0:0:
447,307,74779,1,0,0:0:0:0:
198,9,74946,1,8,0:0:0:0:
431,317,75279,1,8,0:0:0:0:
431,317,75446,1,8,0:0:0:0:
431,317,75612,1,0,0:0:0:0:
464,306,75696,1,0,0:0:0:0:
446,303,75779,1,8,0:0:0:0:
446,303,75862,1,8,0:0:0:0:
431,317,75946,1,0,0:0:0:0:
431,317,76112,1,0,0:0:0:0:
375,188,76279,1,8,0:0:0:0:
431,300,76612,1,0,0:0:0:0:
413,277,76696,1,0,0:0:0:0:
431,300,76779,1,0,0:0:0:0:
431,300,76946,1,8,0:0:0:0:
431,300,77112,1,8,0:0:0:0:
431,300,77279,1,0,0:0:0:0:
431,300,77446,1,8,0:0:0:0:
409,297,77529,1,0,0:0:0:0:
409,297,77612,1,0,0:0:0:0:
431,300,77779,1,8,0:0:0:0:
416,299,78112,1,0,0:0:0:0:
429,325,78446,1,8,0:0:0:0:
429,325,78612,1,8,0:0:0:0:
438,321,78779,1,0,0:0:0:0:
396,253,78946,1,8,0:0:0:0:
396,253,79279,1,8,0:0:0:0:
396,253,79446,1,0,0:0:0:0:
396,253,79612,1,8,0:0:0:0:
387,237,79696,1,0,0:0:0:0:
439,301,79779,1,8,0:0:0:0:
351,244,79946,1,0,0:0:0:0:
432,312,80112,1,0,0:0:0:0:
349,248,80279,1,8,0:0:0:0:
375,237,80612,1,8,0:0:0:0:
375,237,80779,1,8,0:0:0:0:
375,237,80946,1,0,0:0:0:0:
338,243,81029,1,0,0:0:0:0:
375,237,81112,1,8,0:0:0:0:
338,243,81196,1,8,0:0:0:0:
418,307,81279,1,0,0:0:0:0:
426,337,81446,1,0,0:0:0:0:
322,182,81612,1,8,0:0:0:0:
277,242,81946,1,0,0:0:0:0:
396,225,82029,1,0,0:0:0:0:
425,289,82112,1,0,0:0:0:0:
425,289,82279,1,8,0:0:0:0:
425,289,82446,1,8,0:0:0:0:
425,289,82612,1,0,0:0:0:0:
425,289,82779,1,8,0:0:0:0:
451,307,82862,1,8,0:0:0:0:
425,289,82946,1,0,0:0:0:0:
425,289,83112,1,8,0:0:0:0:
437,308,83446,1,0,0:0:0:0:
440,307,83779,1,8,0:0:0:0:
411,256,83946,1,8,0:0:0:0:
408,229,84112,1,0,0:0:0:0:
141,208,84279,1,8,0:0:0:0:
436,303,84446,1,0,0:0:0:0:
436,303,84612,1,8,0:0:0:0:
234,229,84696,1,0,0:0:0:0:
437,310,84779,1,8,0:0:0:0:
446,328,84946,1,8,0:0:0:0:
353,268,85112,1,0,0:0:0:0:
263,257,85279,1,8,0:0:0:0:
447,307,85446,1,0,0:0:0:0:
198,9,85612,1,8,0:0:0:0:
431,317,85946,1,8,0:0:0:0:
431,317,86112,1,8,0:0:0:0:
431,317,86279,1,0,0:0:0:0:
464,306,86362,1,0,0:0:0:0:
446,303,86446,1,8,0:0:0:0:
446,303,86529,1,8,0:0:0:0:
431,317,86612,1,0,0:0:0:0:
431,317,86779,1,0,0:0:0:0:
375,188,86946,1,8,0:0:0:0:
431,300,87279,1,0,0:0:0:0:
413,277,87362,1,0,0:0:0:0:
431,300,87446,1,0,0:0:0:0:
431,300,87612,1,8,0:0:0:0:
431,300,87779,1,8,0:0:0:0:
431,300,87946,1,0,0:0:0:0:
431,300,88112,1,8,0:0:0:0:
409,297,88196,1,0,0:0:0:0:
409,297,88279,1,0,0:0:0:0:
431,300,88446,1,8,0:0:0:0:
416,299,88779,1,0,0:0:0:0:
429,325,89112,1,8,0:0:0:0:
429,325,89279,1,8,0:0:0:0:
438,321,89446,1,0,0:0:0:0:
396,253,89612,1,8,0:0:0:0:
396,253,89946,1,8,0:0:0:0:
396,253,90112,1,0,0:0:0:0:
396,253,90279,1,8,0:0:0:0:
387,237,90362,1,0,0:0:0:0:
439,301,90446,1,8,0:0:0:0:
351,244,90612,1,0,0:0:0:0:
432,312,90779,1,0,0:0:0:0:
349,248,90946,1,8,0:0:0:0:
375,237,91279,1,8,0:0:0:0:
375,237,91446,1,0,0:0:0:0:
375,237,91612,1,0,0:0:0:0:
375,237,91779,1,0,0:0:0:0:
418,307,91946,1,8,0:0:0:0:
426,337,92112,1,8,0:0:0:0:
301,211,92279,1,0,0:0:0:0:
332,193,92612,1,8,0:0:0:0:
418,264,93279,1,8,0:0:0:0:
315,194,93612,1,0,0:0:0:0:
418,264,93946,1,8,0:0:0:0:
291,234,94612,1,8,0:0:0:0:
406,267,94946,1,0,0:0:0:0:
426,277,95279,1,8,0:0:0:0:
190,238,95946,1,0,0:0:0:0:
347,207,96279,1,8,0:0:0:0:
347,207,96612,1,8,0:0:0:0:
373,249,96779,1,0,0:0:0:0:
291,181,97612,1,12,0:0:0:0:
418,259,97779,1,0,0:0:0:0:
418,259,97862,1,0,0:0:0:0:
418,259,97946,1,8,0:0:0:0:
418,259,98112,1,0,0:0:0:0:
428,279,98279,1,8,0:0:0:0:
386,282,98362,1,8,0:0:0:0:
422,298,98446,1,0,0:0:0:0:
422,298,98612,1,8,0:0:0:0:
431,310,98779,1,0,0:0:0:0:
431,310,98862,1,8,0:0:0:0:
431,310,98946,1,0,0:0:0:0:
438,288,99029,1,0,0:0:0:0:
431,310,99112,1,8,0:0:0:0:
411,282,99279,1,0,0:0:0:0:
411,282,99446,1,0,0:0:0:0:
411,282,99612,1,8,0:0:0:0:
411,282,99696,1,8,0:0:0:0:
411,282,99779,1,0,0:0:0:0:
411,282,99862,1,0,0:0:0:0:
255,244,99946,1,8,0:0:0:0:
396,273,100279,1,12,0:0:0:0:
286,228,100446,1,0,0:0:0:0:
286,228,100612,1,8,0:0:0:0:
420,261,100696,1,8,0:0:0:0:
286,228,100779,1,0,0:0:0:0:
286,228,100946,1,0,0:0:0:0:
286,228,101112,1,8,0:0:0:0:
286,228,101196,1,0,0:0:0:0:
286,228,101279,1,8,0:0:0:0:
423,284,101446,1,0,0:0:0:0:
417,288,101779,1,8,0:0:0:0:
417,288,101862,1,0,0:0:0:0:
417,288,101946,1,8,0:0:0:0:
417,288,102029,1,8,0:0:0:0:
404,261,102112,1,0,0:0:0:0:
417,288,102279,1,8,0:0:0:0:
427,298,102446,1,0,0:0:0:0:
450,314,102529,1,8,0:0:0:0:
427,298,102612,1,0,0:0:0:0:
427,298,102779,1,0,0:0:0:0:
408,298,102946,1,12,0:0:0:0:
201,215,103112,1,0,0:0:0:0:
201,215,103196,1,0,0:0:0:0:
201,215,103279,1,8,0:0:0:0:
201,215,103446,1,0,0:0:0:0:
201,215,103612,1,8,0:0:0:0:
201,215,103696,1,8,0:0:0:0:
201,215,103779,1,0,0:0:0:0:
206,217,103946,1,0,0:0:0:0:
270,216,104112,1,12,0:0:0:0:
208,236,104446,1,0,0:0:0:0:
208,236,104612,1,0,0:0:0:0:
208,236,104779,1,12,0:0:0:0:
326,237,105112,1,0,0:0:0:0:
301,242,105279,1,8,0:0:0:0:
301,242,105362,1,8,0:0:0:0:
301,242,105446,1,0,0:0:0:0:
301,242,105612,1,12,0:0:0:0:
412,282,105779,1,0,0:0:0:0:
412,282,105862,1,0,0:0:0:0:
412,282,105946,1,8,0:0:0:0:
412,282,106112,1,0,0:0:0:0:
422,295,106279,1,8,0:0:0:0:
422,295,106362,1,8,0:0:0:0:
422,295,106446,1,8,0:0:0:0:
422,295,106529,1,8,0:0:0:0:
422,295,106612,1,0,0:0:0:0:
287,196,106779,1,8,0:0:0:0:
405,288,106946,1,8,0:0:0:0:
408,265,107112,1,0,0:0:0:0:
437,289,107196,1,0,0:0:0:0:
437,289,107279,1,8,0:0:0:0:
437,289,107362,1,8,0:0:0:0:
437,289,107446,1,0,0:0:0:0:
437,289,107612,1,0,0:0:0:0:
421,292,107779,1,8,0:0:0:0:
421,292,107946,1,8,0:0:0:0:
267,163,108279,1,12,0:0:0:0:
361,249,108446,1,0,0:0:0:0:
361,249,108529,1,0,0:0:0:0:
361,249,108612,1,8,0:0:0:0:
361,249,108779,1,0,0:0:0:0:
361,249,108946,1,8,0:0:0:0:
361,249,109029,1,8,0:0:0:0:
361,249,109112,1,0,0:0:0:0:
361,249,109279,1,8,0:0:0:0:
361,249,109446,1,0,0:0:0:0:
406,276,109529,1,0,0:0:0:0:
406,276,109612,1,0,0:0:0:0:
406,276,109696,1,0,0:0:0:0:
406,276,109779,1,8,0:0:0:0:
406,276,109946,1,0,0:0:0:0:
406,276,110112,1,0,0:0:0:0:
217,216,110279,1,8,0:0:0:0:
217,216,110362,1,0,0:0:0:0:
217,216,110446,1,8,0:0:0:0:
217,216,110529,1,0,0:0:0:0:
217,216,110612,1,8,0:0:0:0:
285,191,110946,1,12,0:0:0:0:
401,287,111112,1,0,0:0:0:0:
401,287,111279,1,8,0:0:0:0:
401,287,111362,1,0,0:0:0:0:
401,287,111446,1,8,0:0:0:0:
401,287,111612,1,0,0:0:0:0:
354,244,111779,1,8,0:0:0:0:
354,244,111862,1,8,0:0:0:0:
354,244,111946,1,8,0:0:0:0:
354,244,112112,1,0,0:0:0:0:
340,259,112446,1,8,0:0:0:0:
418,302,112529,1,8,0:0:0:0:
418,302,112612,1,0,0:0:0:0:
418,302,112696,1,0,0:0:0:0:
416,293,112779,1,0,0:0:0:0:
416,293,112946,1,8,0:0:0:0:
416,293,113112,1,0,0:0:0:0:
412,283,113196,1,0,0:0:0:0:
419,308,113279,1,8,0:0:0:0:
419,308,113446,1,0,0:0:0:0:
337,230,113612,1,12,0:0:0:0:
431,284,113779,1,0,0:0:0:0:
424,283,113862,1,0,0:0:0:0:
419,285,113946,1,8,0:0:0:0:
424,283,114112,1,0,0:0:0:0:
424,283,114279,1,8,0:0:0:0:
424,283,114362,1,8,0:0:0:0:
424,283,114446,1,0,0:0:0:0:
424,283,114612,1,0,0:0:0:0:
407,294,114779,1,12,0:0:0:0:
400,276,115112,1,0,0:0:0:0:
400,276,115279,1,0,0:0:0:0:
410,272,115446,1,12,0:0:0:0:
350,295,115779,1,0,0:0:0:0:
350,295,115946,1,0,0:0:0:0:
350,295,116029,1,8,0:0:0:0:
416,291,116112,1,0,0:0:0:0:
366,210,116279,1,12,0:0:0:0:
325,262,116446,1,0,0:0:0:0:
325,262,116529,1,8,0:0:0:0:
325,262,116612,1,8,0:0:0:0:
325,262,116779,1,0,0:0:0:0:
198,202,116946,1,8,0:0:0:0:
198,202,117029,1,8,0:0:0:0:
198,202,117112,1,0,0:0:0:0:
198,202,117196,1,0,0:0:0:0:
198,202,117279,1,8,0:0:0:0:
271,231,117446,1,0,0:0:0:0:
271,231,117612,1,8,0:0:0:0:
271,231,117779,1,0,0:0:0:0:
203,230,117862,1,0,0:0:0:0:
203,230,117946,1,8,0:0:0:0:
203,230,118029,1,8,0:0:0:0:
203,230,118112,1,0,0:0:0:0:
198,227,118279,1,8,0:0:0:0:
206,232,118446,1,0,0:0:0:0:
276,184,118612,1,0,0:0:0:0:
226,188,118946,1,0,0:0:0:0:
298,237,119112,1,8,0:0:0:0:
298,237,119279,1,0,0:0:0:0:
227,197,119362,1,8,0:0:0:0:
298,237,119446,1,0,0:0:0:0:
298,237,119612,1,8,0:0:0:0:
298,237,119779,1,8,0:0:0:0:
396,301,119946,1,0,0:0:0:0:
298,237,120112,1,8,0:0:0:0:
416,303,120446,1,0,0:0:0:0:
416,303,120612,1,8,0:0:0:0:
394,252,120696,1,8,0:0:0:0:
415,295,120779,1,0,0:0:0:0:
415,295,120946,1,0,0:0:0:0:
415,295,121112,1,8,0:0:0:0:
415,295,121279,1,8,0:0:0:0:
415,295,121446,1,0,0:0:0:0:
391,254,121779,1,0,0:0:0:0:
415,235,121862,1,0,0:0:0:0:
391,254,121946,1,8,0:0:0:0:
391,254,122112,1,0,0:0:0:0:
391,254,122279,1,8,0:0:0:0:
391,254,122446,1,8,0:0:0:0:
391,254,122612,1,8,0:0:0:0:
391,254,122779,1,0,0:0:0:0:
391,254,123112,1,8,0:0:0:0:
391,254,123279,1,0,0:0:0:0:
364,245,123362,1,8,0:0:0:0:
391,254,123446,1,0,0:0:0:0:
391,254,123612,1,8,0:0:0:0:
391,254,123779,1,0,0:0:0:0:
391,254,123946,1,8,0:0:0:0:
391,254,124112,1,0,0:0:0:0:
431,279,124446,1,0,0:0:0:0:
431,279,124612,1,8,0:0:0:0:
431,279,124779,1,0,0:0:0:0:
437,313,124862,1,8,0:0:0:0:
431,279,124946,1,8,0:0:0:0:
431,279,125112,1,0,0:0:0:0:
431,279,125279,1,8,0:0:0:0:
431,279,125446,1,0,0:0:0:0:
346,242,125779,1,0,0:0:0:0:
346,242,125946,1,8,0:0:0:0:
432,285,126029,1,8,0:0:0:0:
346,242,126112,1,0,0:0:0:0:
346,242,126279,1,0,0:0:0:0:
346,242,126446,1,8,0:0:0:0:
346,242,126612,1,8,0:0:0:0:
346,242,126779,1,0,0:0:0:0:
342,218,127112,1,0,0:0:0:0:
369,262,127196,1,0,0:0:0:0:
342,218,127279,1,8,0:0:0:0:
342,218,127446,1,0,0:0:0:0:
342,218,127612,1,8,0:0:0:0:
342,218,127779,1,8,0:0:0:0:
342,218,127946,1,8,0:0:0:0:
342,218,128112,1,0,0:0:0:0:
367,248,128446,1,8,0:0:0:0:
367,248,128612,1,8,0:0:0:0:
367,248,128779,1,0,0:0:0:0:
367,248,128946,1,8,0:0:0:0:
351,236,129029,1,8,0:0:0:0:
367,248,129112,1,0,0:0:0:0:
367,248,129279,1,8,0:0:0:0:
