osu file format v14

[General]
AudioFilename: audio.mp3
AudioLeadIn: 0
PreviewTime: 111324
Countdown: 0
SampleSet: Soft
StackLeniency: 0.7
Mode: 3
LetterboxInBreaks: 0
SpecialStyle: 0
WidescreenStoryboard: 0

[Editor]
DistanceSpacing: 1
BeatDivisor: 4
GridSize: 32
TimelineZoom: 1.5

[Metadata]
Title:Genjitsu Escape
TitleUnicode:現実エスケープ
Artist:tephe
ArtistUnicode:tephe
Creator:Ilham
Version:NM
Source:
Tags:FA Featured Artist Mappers' Guild MPG Reality Vocaloid Japanese Rock J-Rock JRock Itovero SAW Kagamine Len 鏡音レン Ren
BeatmapID:4144863
BeatmapSetID:1994458

[Difficulty]
HPDrainRate:7
CircleSize:4
OverallDifficulty:7
ApproachRate:5
SliderMultiplier:1.4
SliderTickRate:1

[Events]
//Background and Video events
0,0,"bg.jpg",0,0
//Break Periods
//Storyboard Layer 0 (Background)
//Storyboard Layer 1 (Fail)
//Storyboard Layer 2 (Pass)
//Storyboard Layer 3 (Foreground)
//Storyboard Layer 4 (Overlay)
//Storyboard Sound Samples

[TimingPoints]
158,333.333333333333,4,2,1,30,1,0
5491,-100,4,2,1,50,0,0
48157,-100,4,2,1,30,0,0
52824,-100,4,2,1,50,0,0
58824,-100,4,2,1,50,0,1
79491,-100,4,2,1,50,0,0
90824,-100,4,2,1,30,0,0
95491,-100,4,2,1,50,0,0
112157,-100,4,2,1,50,0,1
132824,-100,4,2,1,50,0,0
145491,-100,4,2,1,30,0,0
161491,-100,4,2,1,50,0,0
164157,-100,4,2,1,50,0,1
184824,-100,4,2,1,50,0,0
204824,-100,4,2,1,30,0,0

[HitObjects]
192,192,158,5,0,0:0:0:0:
320,192,324,1,0,0:0:0:0:
64,192,491,1,0,0:0:0:15:clap.wav
448,192,491,1,0,0:0:0:0:
448,192,824,1,0,0:0:0:0:
320,192,991,1,0,0:0:0:0:
64,192,1157,1,0,0:0:0:15:clap.wav
192,192,1157,1,0,0:0:0:0:
64,192,1491,1,0,0:0:0:0:
192,192,1657,1,0,0:0:0:0:
320,192,1824,1,0,0:0:0:15:clap.wav
448,192,1824,1,0,0:0:0:0:
320,192,2157,1,0,0:0:0:0:
192,192,2324,1,0,0:0:0:0:
64,192,2491,1,0,0:0:0:15:clap.wav
448,192,2491,1,0,0:0:0:0:
320,192,2657,1,0,0:0:0:0:
64,192,2824,1,0,0:0:0:0:
192,192,2991,1,0,0:0:0:0:
320,192,3157,1,0,0:0:0:15:clap.wav
448,192,3157,1,0,0:0:0:0:
320,192,3491,1,0,0:0:0:0:
192,192,3657,1,0,0:0:0:0:
64,192,3824,1,0,0:0:0:15:clap.wav
448,192,3824,1,0,0:0:0:0:
320,192,3991,128,0,4157:0:0:0:0:
192,192,4157,128,0,4324:0:0:0:0:
448,192,4324,128,0,4491:0:0:0:0:
64,192,4491,128,0,4657:0:0:0:15:clap.wav
192,192,4657,128,0,4824:0:0:0:0:
320,192,4824,128,0,4991:0:0:0:0:
192,192,5157,1,0,0:0:0:30:snare.wav
448,192,5157,1,0,0:0:0:0:
64,192,5491,1,4,0:0:0:0:
448,192,5491,1,2,0:0:0:0:
320,192,5657,1,0,0:0:0:0:
64,192,5824,1,0,0:0:0:30:snare.wav
192,192,5824,1,0,0:0:0:0:
448,192,5991,1,0,0:0:0:0:
320,192,6157,1,2,0:0:0:0:
192,192,6324,1,0,0:0:0:0:
64,192,6491,1,0,0:0:0:30:snare.wav
448,192,6491,1,0,0:0:0:0:
320,192,6657,1,0,0:0:0:0:
192,192,6824,1,2,0:0:0:0:
448,192,6991,1,0,0:0:0:0:
64,192,7157,1,0,0:0:0:30:snare.wav
320,192,7157,1,0,0:0:0:0:
192,192,7324,1,0,0:0:0:0:
448,192,7491,1,2,0:0:0:0:
64,192,7657,1,0,0:0:0:0:
320,192,7824,1,0,0:0:0:30:snare.wav
448,192,7824,1,0,0:0:0:0:
192,192,7991,1,0,0:0:0:0:
320,192,8157,1,2,0:0:0:0:
64,192,8324,1,0,0:0:0:0:
192,192,8491,1,0,0:0:0:30:snare.wav
448,192,8491,1,0,0:0:0:0:
320,192,8657,1,0,0:0:0:0:
64,192,8824,1,2,0:0:0:0:
448,192,8991,1,0,0:0:0:0:
192,192,9157,1,0,0:0:0:30:snare.wav
320,192,9157,1,0,0:0:0:0:
64,192,9324,1,0,0:0:0:0:
448,192,9491,1,2,0:0:0:0:
192,192,9657,1,0,0:0:0:0:
320,192,9824,1,0,0:0:0:30:snare.wav
448,192,9824,1,0,0:0:0:0:
64,192,9991,1,0,0:0:0:0:
192,192,10157,1,2,0:0:0:0:
448,192,10324,1,0,0:0:0:0:
64,192,10491,1,4,0:0:0:0:
320,192,10491,1,8,0:0:0:0:
320,192,10657,1,8,0:0:0:0:
192,192,10824,1,4,0:0:0:0:
448,192,10824,1,2,0:0:0:0:
64,192,10991,1,0,0:0:0:0:
320,192,11157,1,0,0:0:0:30:snare.wav
448,192,11157,1,0,0:0:0:0:
192,192,11324,1,0,0:0:0:0:
448,192,11491,1,2,0:0:0:0:
320,192,11657,1,0,0:0:0:0:
64,192,11824,1,0,0:0:0:30:snare.wav
192,192,11824,1,0,0:0:0:0:
448,192,11991,1,0,0:0:0:0:
320,192,12157,1,2,0:0:0:0:
64,192,12324,1,0,0:0:0:0:
192,192,12491,1,0,0:0:0:30:snare.wav
448,192,12491,1,0,0:0:0:0:
320,192,12657,1,0,0:0:0:0:
64,192,12824,1,2,0:0:0:0:
448,192,12991,1,0,0:0:0:0:
192,192,13157,1,0,0:0:0:30:snare.wav
320,192,13157,1,0,0:0:0:0:
64,192,13324,1,0,0:0:0:0:
448,192,13491,1,2,0:0:0:0:
192,192,13657,1,0,0:0:0:0:
320,192,13824,1,0,0:0:0:30:snare.wav
448,192,13824,1,0,0:0:0:0:
64,192,13991,1,0,0:0:0:0:
448,192,14157,1,2,0:0:0:0:
320,192,14324,1,0,0:0:0:0:
64,192,14491,1,0,0:0:0:30:snare.wav
192,192,14491,1,0,0:0:0:0:
320,192,14657,1,4,0:0:0:0:
448,192,14657,1,2,0:0:0:0:
64,192,14991,1,8,0:0:0:0:
448,192,14991,1,0,0:0:0:0:
64,192,15157,1,8,0:0:0:0:
320,192,15324,128,0,15491:0:0:0:70:tom.wav
192,192,15491,1,0,0:0:0:0:
64,192,15657,1,8,0:0:0:0:
448,192,15657,1,0,0:0:0:0:
448,192,15824,1,8,0:0:0:0:
192,192,15991,1,0,0:0:0:70:tom.wav
320,192,16157,1,2,0:0:0:0:
448,192,16157,1,4,0:0:0:0:
64,192,16491,1,8,0:0:0:0:
320,192,16491,1,0,0:0:0:0:
192,192,16657,1,0,0:0:0:0:
64,192,16824,1,2,0:0:0:0:
320,192,17157,1,8,0:0:0:0:
448,192,17157,1,0,0:0:0:0:
192,192,17324,1,0,0:0:0:0:
64,192,17491,1,2,0:0:0:0:
320,192,17657,1,0,0:0:0:0:
64,192,17824,1,8,0:0:0:0:
448,192,17824,1,0,0:0:0:0:
320,192,17991,1,0,0:0:0:0:
192,192,18157,1,2,0:0:0:0:
64,192,18324,1,0,0:0:0:0:
320,192,18491,1,8,0:0:0:0:
448,192,18491,1,0,0:0:0:0:
192,192,18657,1,0,0:0:0:0:
448,192,18824,1,2,0:0:0:0:
64,192,19157,1,8,0:0:0:0:
320,192,19157,1,0,0:0:0:0:
192,192,19324,1,0,0:0:0:0:
448,192,19491,1,2,0:0:0:0:
64,192,19824,1,8,0:0:0:0:
448,192,19824,1,0,0:0:0:0:
320,192,19991,1,0,0:0:0:0:
192,192,20157,1,2,0:0:0:0:
320,192,20324,1,0,0:0:0:0:
64,192,20491,1,8,0:0:0:0:
448,192,20491,1,0,0:0:0:0:
192,192,20657,1,0,0:0:0:0:
320,192,20741,1,0,0:0:0:30:snare.wav
64,192,20991,1,8,0:0:0:0:
448,192,21157,1,8,0:0:0:0:
64,192,21491,1,2,0:0:0:0:
192,192,21657,1,0,0:0:0:0:
320,192,21824,1,8,0:0:0:0:
448,192,21824,1,0,0:0:0:0:
192,192,21991,1,0,0:0:0:0:
448,192,22157,1,2,0:0:0:0:
64,192,22491,1,8,0:0:0:0:
320,192,22491,1,0,0:0:0:0:
192,192,22657,1,0,0:0:0:0:
448,192,22824,1,2,0:0:0:0:
320,192,22991,1,0,0:0:0:0:
64,192,23157,1,8,0:0:0:0:
192,192,23157,1,0,0:0:0:0:
320,192,23324,1,0,0:0:0:0:
448,192,23491,1,2,0:0:0:0:
192,192,23657,1,0,0:0:0:0:
64,192,23824,1,8,0:0:0:0:
320,192,23824,1,0,0:0:0:0:
192,192,23991,1,0,0:0:0:0:
448,192,24157,1,2,0:0:0:0:
64,192,24491,1,8,0:0:0:0:
448,192,24491,1,0,0:0:0:0:
192,192,24657,1,0,0:0:0:0:
320,192,24824,1,2,0:0:0:0:
320,192,25157,1,8,0:0:0:0:
448,192,25157,1,0,0:0:0:0:
192,192,25324,1,0,0:0:0:0:
64,192,25491,1,2,0:0:0:0:
320,192,25824,1,8,0:0:0:0:
448,192,25824,1,0,0:0:0:0:
320,192,26074,1,8,0:0:0:0:
64,192,26324,1,8,0:0:0:0:
192,192,26324,1,0,0:0:0:0:
320,192,26491,1,8,0:0:0:0:
448,192,26491,1,0,0:0:0:0:
192,192,26657,1,8,0:0:0:0:
320,192,26741,1,0,0:0:0:30:snare.wav
64,192,26824,1,2,0:0:0:0:
448,192,26824,1,4,0:0:0:0:
192,192,26991,1,0,0:0:0:0:
320,192,27157,1,0,0:0:0:30:snare.wav
448,192,27157,1,0,0:0:0:0:
64,192,27324,1,0,0:0:0:0:
192,192,27491,1,2,0:0:0:0:
320,192,27657,1,0,0:0:0:0:
64,192,27824,1,0,0:0:0:30:snare.wav
448,192,27824,1,0,0:0:0:0:
192,192,27991,1,0,0:0:0:0:
320,192,28157,1,2,0:0:0:0:
64,192,28324,1,0,0:0:0:0:
192,192,28491,1,0,0:0:0:30:snare.wav
448,192,28491,1,0,0:0:0:0:
320,192,28657,1,0,0:0:0:0:
64,192,28824,1,2,0:0:0:0:
448,192,28991,1,0,0:0:0:0:
64,192,29157,1,0,0:0:0:30:snare.wav
192,192,29157,1,0,0:0:0:0:
320,192,29324,1,0,0:0:0:0:
192,192,29491,1,2,0:0:0:0:
448,192,29657,1,0,0:0:0:0:
64,192,29824,1,0,0:0:0:30:snare.wav
320,192,29824,1,0,0:0:0:0:
192,192,29991,1,0,0:0:0:0:
448,192,30157,1,2,0:0:0:0:
64,192,30324,1,0,0:0:0:0:
192,192,30491,1,0,0:0:0:30:snare.wav
320,192,30491,1,0,0:0:0:0:
448,192,30657,1,0,0:0:0:0:
64,192,30824,1,2,0:0:0:0:
320,192,30991,1,0,0:0:0:0:
64,192,31157,1,0,0:0:0:30:snare.wav
192,192,31157,1,0,0:0:0:0:
448,192,31324,1,0,0:0:0:0:
320,192,31491,1,2,0:0:0:0:
64,192,31657,1,0,0:0:0:0:
192,192,31824,1,8,0:0:0:0:
448,192,31824,1,4,0:0:0:0:
192,192,31991,1,8,0:0:0:0:
64,192,32157,1,4,0:0:0:0:
320,192,32157,1,2,0:0:0:0:
448,192,32324,1,0,0:0:0:0:
64,192,32491,1,0,0:0:0:30:snare.wav
192,192,32491,1,0,0:0:0:0:
320,192,32657,1,0,0:0:0:0:
64,192,32824,1,2,0:0:0:0:
192,192,32991,1,0,0:0:0:0:
320,192,33157,1,0,0:0:0:30:snare.wav
448,192,33157,1,0,0:0:0:0:
64,192,33324,1,0,0:0:0:0:
192,192,33491,1,2,0:0:0:0:
448,192,33657,1,0,0:0:0:0:
64,192,33824,1,0,0:0:0:30:snare.wav
320,192,33824,1,0,0:0:0:0:
192,192,33991,1,0,0:0:0:0:
448,192,34157,1,2,0:0:0:0:
64,192,34324,1,0,0:0:0:0:
192,192,34491,1,0,0:0:0:30:snare.wav
320,192,34491,1,0,0:0:0:0:
448,192,34657,1,0,0:0:0:0:
64,192,34824,1,2,0:0:0:0:
320,192,34991,1,0,0:0:0:0:
64,192,35157,1,0,0:0:0:30:snare.wav
192,192,35157,1,0,0:0:0:0:
448,192,35324,1,0,0:0:0:0:
64,192,35491,1,2,0:0:0:0:
192,192,35657,1,0,0:0:0:0:
320,192,35824,1,0,0:0:0:30:snare.wav
448,192,35824,1,0,0:0:0:0:
192,192,35991,1,0,0:0:0:0:
64,192,36157,1,2,0:0:0:0:
448,192,36324,1,0,0:0:0:0:
64,192,36491,1,0,0:0:0:30:snare.wav
320,192,36491,1,0,0:0:0:0:
192,192,36657,1,0,0:0:0:0:
320,192,36824,1,2,0:0:0:0:
448,192,36824,1,4,0:0:0:0:
64,192,36991,128,0,37157:0:0:0:30:snare.wav
192,192,37157,128,0,37324:0:0:0:30:snare.wav
320,192,37324,128,0,37491:0:0:0:30:snare.wav
64,192,37491,1,2,0:0:0:0:
448,192,37491,1,4,0:0:0:0:
192,192,37824,1,8,0:0:0:0:
448,192,37824,1,0,0:0:0:0:
320,192,37991,1,0,0:0:0:0:
64,192,38157,1,2,0:0:0:0:
320,192,38491,1,8,0:0:0:0:
448,192,38491,1,0,0:0:0:0:
64,192,38657,1,0,0:0:0:0:
192,192,38824,1,2,0:0:0:0:
320,192,38991,1,0,0:0:0:0:
64,192,39157,1,8,0:0:0:0:
192,192,39157,1,0,0:0:0:0:
448,192,39324,1,0,0:0:0:0:
320,192,39491,1,2,0:0:0:0:
192,192,39657,1,0,0:0:0:0:
64,192,39824,1,8,0:0:0:0:
448,192,39824,1,0,0:0:0:0:
320,192,39991,1,0,0:0:0:0:
192,192,40157,1,2,0:0:0:0:
64,192,40491,1,8,0:0:0:0:
320,192,40491,1,0,0:0:0:0:
192,192,40657,1,0,0:0:0:0:
448,192,40824,1,2,0:0:0:0:
64,192,41157,1,8,0:0:0:0:
192,192,41157,1,0,0:0:0:0:
320,192,41324,1,0,0:0:0:0:
448,192,41491,1,2,0:0:0:0:
320,192,41657,1,0,0:0:0:0:
64,192,41824,1,8,0:0:0:0:
192,192,41824,1,0,0:0:0:0:
448,192,41991,1,0,0:0:0:0:
320,192,42074,1,0,0:0:0:30:snare.wav
192,192,42157,1,0,0:0:0:30:snare.wav
320,192,42324,1,8,0:0:0:0:
448,192,42324,1,0,0:0:0:0:
64,192,42491,1,8,0:0:0:0:
192,192,42491,1,0,0:0:0:0:
64,192,42824,1,2,0:0:0:0:
448,192,42824,1,4,0:0:0:0:
320,192,43157,1,8,0:0:0:0:
448,192,43157,1,0,0:0:0:0:
192,192,43324,1,0,0:0:0:0:
64,192,43491,1,2,0:0:0:0:
64,192,43824,1,8,0:0:0:0:
448,192,43824,1,0,0:0:0:0:
192,192,43991,1,0,0:0:0:0:
320,192,44157,1,2,0:0:0:0:
64,192,44324,1,0,0:0:0:0:
320,192,44491,1,8,0:0:0:0:
448,192,44491,1,0,0:0:0:0:
192,192,44657,1,0,0:0:0:0:
448,192,44824,1,2,0:0:0:0:
320,192,44991,1,0,0:0:0:0:
64,192,45157,1,8,0:0:0:0:
192,192,45157,1,0,0:0:0:0:
320,192,45324,1,0,0:0:0:0:
448,192,45491,1,2,0:0:0:0:
64,192,45824,1,8,0:0:0:0:
320,192,45824,1,0,0:0:0:0:
192,192,45991,1,0,0:0:0:0:
448,192,46157,1,2,0:0:0:0:
192,192,46491,1,8,0:0:0:0:
448,192,46491,1,0,0:0:0:0:
320,192,46657,1,0,0:0:0:0:
64,192,46824,1,2,0:0:0:0:
192,192,47157,1,8,0:0:0:0:
448,192,47157,1,0,0:0:0:0:
192,192,47407,1,8,0:0:0:0:
320,192,47657,1,8,0:0:0:0:
448,192,47657,1,0,0:0:0:0:
64,192,47824,128,8,48491:0:0:0:0:
192,192,47824,1,0,0:0:0:0:
448,192,48157,128,0,48491:0:0:0:0:
320,192,48491,1,0,0:0:0:15:clap.wav
192,192,48657,128,0,49157:0:0:0:0:
320,192,48824,128,0,49157:0:0:0:0:
448,192,49157,1,0,0:0:0:15:clap.wav
64,192,49324,128,0,49491:0:0:0:0:
192,192,49491,128,0,49657:0:0:0:0:
448,192,49824,128,0,50157:0:0:0:15:clap.wav
320,192,50157,128,0,50491:0:0:0:0:
192,192,50491,1,0,0:0:0:15:clap.wav
64,192,50657,128,0,50991:0:0:0:0:
448,192,50991,1,0,0:0:0:0:
320,192,51157,1,0,0:0:0:15:clap.wav
192,192,51324,1,0,0:0:0:0:
448,192,51491,128,0,51657:0:0:0:0:
64,192,51657,128,0,51824:0:0:0:0:
192,192,51824,1,0,0:0:0:15:clap.wav
320,192,51991,128,0,52324:0:0:0:0:
64,192,52324,1,0,0:0:0:0:
448,192,52657,1,0,0:0:0:0:
192,192,52824,1,0,0:0:0:70:tom.wav
320,192,52824,1,0,0:0:0:0:
64,192,52991,1,0,0:0:0:70:tom.wav
448,192,52991,1,0,0:0:0:0:
192,192,53157,1,0,0:0:0:0:
64,192,53324,1,4,0:0:0:0:
320,192,53324,1,2,0:0:0:0:
192,192,53657,1,2,0:0:0:0:
64,192,53824,1,8,0:0:0:0:
448,192,53824,1,0,0:0:0:0:
320,192,54157,1,2,0:0:0:0:
192,192,54324,1,2,0:0:0:0:
320,192,54491,1,8,0:0:0:0:
448,192,54491,1,0,0:0:0:0:
64,192,54657,1,2,0:0:0:0:
192,192,54657,1,4,0:0:0:0:
448,192,54991,1,2,0:0:0:0:
64,192,55157,1,8,0:0:0:0:
320,192,55157,1,0,0:0:0:0:
192,192,55491,1,2,0:0:0:0:
448,192,55657,1,2,0:0:0:0:
192,192,55824,1,8,0:0:0:0:
320,192,55824,1,0,0:0:0:0:
64,192,55991,1,2,0:0:0:0:
448,192,55991,1,0,0:0:0:0:
320,192,56324,1,2,0:0:0:0:
64,192,56491,1,8,0:0:0:0:
192,192,56491,1,0,0:0:0:0:
448,192,56824,1,2,0:0:0:0:
192,192,56991,1,2,0:0:0:0:
64,192,57157,1,8,0:0:0:0:
320,192,57157,1,0,0:0:0:0:
192,192,57324,1,2,0:0:0:0:
448,192,57324,128,4,57657:0:0:0:0:
320,192,57657,1,0,0:0:0:70:tom.wav
192,192,57741,1,0,0:0:0:70:tom.wav
64,192,57824,1,8,0:0:0:0:
448,192,57991,1,0,0:0:0:70:tom.wav
64,192,58157,1,8,0:0:0:0:
192,192,58157,128,0,58491:0:0:0:0:
448,192,58491,128,0,58657:0:0:0:30:snare.wav
64,192,58657,128,0,58824:0:0:0:30:snare.wav
192,192,58824,1,2,0:0:0:0:
320,192,58824,1,4,0:0:0:0:
64,192,59157,1,8,0:0:0:0:
320,192,59157,1,0,0:0:0:0:
320,192,59491,1,2,0:0:0:0:
192,192,59657,1,0,0:0:0:0:
64,192,59824,1,8,0:0:0:0:
448,192,59824,1,0,0:0:0:0:
320,192,59991,1,0,0:0:0:0:
192,192,60157,1,2,0:0:0:0:
448,192,60324,1,0,0:0:0:0:
64,192,60491,1,8,0:0:0:0:
192,192,60491,1,0,0:0:0:0:
448,192,60657,1,0,0:0:0:0:
320,192,60824,1,2,0:0:0:0:
192,192,61157,1,8,0:0:0:0:
448,192,61157,1,0,0:0:0:0:
320,192,61324,1,0,0:0:0:0:
64,192,61491,1,2,0:0:0:0:
64,192,61824,1,8,0:0:0:0:
448,192,61824,1,0,0:0:0:0:
192,192,61991,1,0,0:0:0:0:
320,192,62157,1,2,0:0:0:0:
64,192,62324,1,0,0:0:0:0:
192,192,62491,1,8,0:0:0:0:
448,192,62491,1,0,0:0:0:0:
64,192,62657,1,0,0:0:0:0:
320,192,62824,1,2,0:0:0:0:
448,192,62991,1,0,0:0:0:0:
64,192,63157,1,8,0:0:0:0:
320,192,63157,1,0,0:0:0:0:
192,192,63324,1,0,0:0:0:0:
448,192,63491,1,2,0:0:0:0:
64,192,63824,1,8,0:0:0:0:
448,192,63824,1,0,0:0:0:0:
64,192,63991,1,8,0:0:0:0:
192,192,64157,1,2,0:0:0:0:
320,192,64157,1,4,0:0:0:0:
448,192,64324,1,0,0:0:0:0:
64,192,64491,1,8,0:0:0:0:
192,192,64491,1,0,0:0:0:0:
320,192,64657,1,0,0:0:0:0:
448,192,64824,1,2,0:0:0:0:
192,192,64991,1,0,0:0:0:0:
64,192,65157,1,8,0:0:0:0:
320,192,65157,1,0,0:0:0:0:
192,192,65324,1,0,0:0:0:0:
448,192,65491,1,2,0:0:0:0:
320,192,65657,1,0,0:0:0:0:
64,192,65824,1,8,0:0:0:0:
192,192,65824,1,0,0:0:0:0:
448,192,65991,1,0,0:0:0:0:
320,192,66157,1,2,0:0:0:0:
448,192,66324,1,0,0:0:0:0:
64,192,66491,1,8,0:0:0:0:
192,192,66491,1,0,0:0:0:0:
320,192,66657,1,0,0:0:0:0:
64,192,66824,1,2,0:0:0:0:
192,192,66991,1,0,0:0:0:0:
320,192,67157,1,8,0:0:0:0:
448,192,67157,1,0,0:0:0:0:
192,192,67324,1,0,0:0:0:0:
64,192,67491,1,2,0:0:0:0:
320,192,67657,1,0,0:0:0:0:
192,192,67824,1,8,0:0:0:0:
448,192,67824,1,0,0:0:0:0:
64,192,67991,1,4,0:0:0:0:
320,192,67991,1,0,0:0:0:0:
192,192,68324,1,0,0:0:0:0:
64,192,68491,1,8,0:0:0:0:
448,192,68491,1,0,0:0:0:0:
320,192,68657,1,0,0:0:0:0:
64,192,68824,1,2,0:0:0:0:
192,192,69157,128,8,69324:0:0:0:0:
320,192,69324,128,8,69491:0:0:0:0:
64,192,69491,1,2,0:0:0:0:
448,192,69491,1,4,0:0:0:0:
64,192,69824,1,8,0:0:0:0:
192,192,69824,1,0,0:0:0:0:
64,192,70157,1,2,0:0:0:0:
320,192,70324,1,0,0:0:0:0:
192,192,70491,1,8,0:0:0:0:
448,192,70491,1,0,0:0:0:0:
320,192,70657,1,0,0:0:0:0:
64,192,70824,1,2,0:0:0:0:
192,192,70991,1,0,0:0:0:0:
64,192,71157,1,8,0:0:0:0:
320,192,71157,1,0,0:0:0:0:
448,192,71324,1,0,0:0:0:0:
192,192,71491,1,2,0:0:0:0:
320,192,71824,1,8,0:0:0:0:
448,192,71824,1,0,0:0:0:0:
192,192,71991,1,0,0:0:0:0:
64,192,72157,1,2,0:0:0:0:
192,192,72491,1,8,0:0:0:0:
448,192,72491,1,0,0:0:0:0:
320,192,72657,1,0,0:0:0:0:
64,192,72824,1,2,0:0:0:0:
448,192,72991,1,0,0:0:0:0:
64,192,73157,1,8,0:0:0:0:
192,192,73157,1,0,0:0:0:0:
320,192,73324,1,0,0:0:0:0:
448,192,73491,1,2,0:0:0:0:
192,192,73657,1,0,0:0:0:0:
64,192,73824,1,8,0:0:0:0:
320,192,73824,1,0,0:0:0:0:
192,192,73991,1,0,0:0:0:0:
448,192,74157,1,2,0:0:0:0:
64,192,74491,1,8,0:0:0:0:
320,192,74491,1,0,0:0:0:0:
64,192,74657,1,8,0:0:0:0:
192,192,74824,1,2,0:0:0:0:
448,192,74824,1,4,0:0:0:0:
320,192,74991,1,0,0:0:0:0:
64,192,75157,1,8,0:0:0:0:
192,192,75157,1,0,0:0:0:0:
448,192,75324,1,0,0:0:0:0:
64,192,75491,1,2,0:0:0:0:
320,192,75657,1,0,0:0:0:0:
192,192,75824,1,8,0:0:0:0:
448,192,75824,1,0,0:0:0:0:
320,192,75991,1,0,0:0:0:0:
64,192,76157,1,2,0:0:0:0:
192,192,76324,1,0,0:0:0:0:
320,192,76491,1,8,0:0:0:0:
448,192,76491,1,0,0:0:0:0:
64,192,76657,1,0,0:0:0:0:
192,192,76824,1,2,0:0:0:0:
64,192,76991,1,0,0:0:0:0:
320,192,77157,1,8,0:0:0:0:
448,192,77157,1,0,0:0:0:0:
192,192,77324,1,0,0:0:0:0:
448,192,77491,1,2,0:0:0:0:
64,192,77657,1,0,0:0:0:0:
192,192,77824,1,8,0:0:0:0:
320,192,77824,1,0,0:0:0:0:
448,192,77991,1,0,0:0:0:0:
64,192,78157,1,2,0:0:0:0:
192,192,78324,1,0,0:0:0:0:
320,192,78491,1,8,0:0:0:0:
448,192,78491,1,0,0:0:0:0:
64,192,78657,1,4,0:0:0:0:
192,192,78657,1,0,0:0:0:0:
192,192,78991,1,8,0:0:0:0:
320,192,79074,1,8,0:0:0:0:
448,192,79157,1,8,0:0:0:0:
64,192,79324,1,0,0:0:0:70:tom.wav
320,192,79491,1,0,0:0:0:30:snare.wav
448,192,79491,1,0,0:0:0:0:
192,192,79824,1,0,0:0:0:0:
61,192,80157,1,2,0:0:0:0:
448,192,80157,1,4,0:0:0:0:
320,192,80324,1,0,0:0:0:0:
64,192,80491,1,0,0:0:0:30:snare.wav
192,192,80491,1,0,0:0:0:0:
448,192,80657,1,0,0:0:0:0:
320,192,80824,1,2,0:0:0:0:
192,192,80991,1,0,0:0:0:0:
64,192,81157,1,0,0:0:0:30:snare.wav
448,192,81157,1,0,0:0:0:0:
320,192,81324,1,0,0:0:0:0:
192,192,81491,1,2,0:0:0:0:
448,192,81657,1,0,0:0:0:0:
64,192,81824,1,0,0:0:0:30:snare.wav
320,192,81824,1,0,0:0:0:0:
192,192,81991,1,0,0:0:0:0:
448,192,82157,1,2,0:0:0:0:
64,192,82324,1,0,0:0:0:0:
320,192,82491,1,0,0:0:0:30:snare.wav
448,192,82491,1,0,0:0:0:0:
192,192,82657,1,0,0:0:0:0:
320,192,82824,1,2,0:0:0:0:
64,192,82991,1,0,0:0:0:0:
192,192,83157,1,0,0:0:0:30:snare.wav
448,192,83157,1,0,0:0:0:0:
320,192,83324,1,0,0:0:0:0:
64,192,83491,1,2,0:0:0:0:
448,192,83657,1,0,0:0:0:0:
192,192,83824,1,0,0:0:0:30:snare.wav
320,192,83824,1,0,0:0:0:0:
64,192,83991,1,0,0:0:0:0:
448,192,84157,1,2,0:0:0:0:
192,192,84324,1,0,0:0:0:0:
320,192,84491,1,0,0:0:0:30:snare.wav
448,192,84491,1,0,0:0:0:0:
64,192,84657,1,0,0:0:0:0:
192,192,84824,1,2,0:0:0:0:
448,192,84991,1,0,0:0:0:0:
64,192,85157,1,8,0:0:0:0:
320,192,85157,1,4,0:0:0:0:
320,192,85324,1,8,0:0:0:0:
192,192,85491,1,2,0:0:0:0:
448,192,85491,1,4,0:0:0:0:
64,192,85657,1,0,0:0:0:0:
320,192,85824,1,0,0:0:0:30:snare.wav
448,192,85824,1,0,0:0:0:0:
192,192,85991,1,0,0:0:0:0:
448,192,86157,1,2,0:0:0:0:
320,192,86324,1,0,0:0:0:0:
64,192,86491,1,0,0:0:0:30:snare.wav
192,192,86491,1,0,0:0:0:0:
448,192,86657,1,0,0:0:0:0:
320,192,86824,1,2,0:0:0:0:
64,192,86991,1,0,0:0:0:0:
192,192,87157,1,0,0:0:0:30:snare.wav
448,192,87157,1,0,0:0:0:0:
320,192,87324,1,0,0:0:0:0:
64,192,87491,1,2,0:0:0:0:
448,192,87657,1,0,0:0:0:0:
192,192,87824,1,0,0:0:0:30:snare.wav
320,192,87824,1,0,0:0:0:0:
64,192,87991,1,0,0:0:0:0:
448,192,88157,1,2,0:0:0:0:
192,192,88324,1,0,0:0:0:0:
320,192,88491,1,0,0:0:0:30:snare.wav
448,192,88491,1,0,0:0:0:0:
64,192,88657,1,0,0:0:0:0:
448,192,88824,1,2,0:0:0:0:
320,192,88991,1,0,0:0:0:0:
64,192,89157,1,0,0:0:0:30:snare.wav
192,192,89157,1,0,0:0:0:0:
320,192,89324,1,2,0:0:0:0:
448,192,89324,1,4,0:0:0:0:
64,192,89657,1,0,0:0:0:30:snare.wav
448,192,89657,1,0,0:0:0:0:
64,192,89824,1,0,0:0:0:30:snare.wav
320,192,89991,128,0,90157:0:0:0:70:tom.wav
192,192,90157,1,0,0:0:0:70:tom.wav
64,192,90324,1,8,0:0:0:0:
448,192,90324,1,0,0:0:0:0:
448,192,90491,1,8,0:0:0:0:
192,192,90657,1,0,0:0:0:70:tom.wav
320,192,90824,1,4,0:0:0:0:
448,192,90824,1,0,0:0:0:0:
64,192,90991,128,0,91324:0:0:0:0:
448,192,91324,1,0,0:0:0:0:
192,192,91491,1,0,0:0:0:0:
320,192,91657,1,0,0:0:0:0:
64,192,91824,1,0,0:0:0:0:
448,192,91991,128,0,92324:0:0:0:0:
320,192,92324,1,0,0:0:0:0:
192,192,92491,1,0,0:0:0:0:
64,192,92657,1,0,0:0:0:0:
448,192,92824,1,0,0:0:0:0:
192,192,93157,1,0,0:0:0:0:
320,192,93324,1,0,0:0:0:0:
64,192,93491,128,0,93741:0:0:0:0:
192,192,93741,128,0,93991:0:0:0:0:
448,192,93991,1,0,0:0:0:0:
320,192,94157,1,0,0:0:0:0:
64,192,94324,1,0,0:0:0:0:
192,192,94491,1,0,0:0:0:0:
448,192,94657,128,0,94991:0:0:0:0:
320,192,94991,1,0,0:0:0:0:
64,192,95157,1,0,0:0:0:0:
192,192,95324,1,0,0:0:0:0:
448,192,95491,1,2,0:0:0:0:
64,192,95657,1,8,0:0:0:0:
320,192,95657,1,0,0:0:0:0:
320,192,95824,1,8,0:0:0:0:
192,192,96157,1,2,0:0:0:0:
448,192,96157,1,4,0:0:0:0:
64,192,96324,1,0,0:0:0:0:
320,192,96491,1,8,0:0:0:0:
448,192,96491,1,0,0:0:0:0:
192,192,96824,1,2,0:0:0:0:
320,192,96991,1,0,0:0:0:0:
64,192,97157,1,8,0:0:0:0:
192,192,97157,1,0,0:0:0:0:
448,192,97491,1,2,0:0:0:0:
64,192,97824,1,8,0:0:0:0:
448,192,97824,1,0,0:0:0:0:
192,192,97991,1,0,0:0:0:0:
320,192,98157,1,2,0:0:0:0:
64,192,98324,1,0,0:0:0:0:
192,192,98491,1,8,0:0:0:0:
448,192,98491,1,0,0:0:0:0:
320,192,98657,1,0,0:0:0:0:
64,192,98824,1,2,0:0:0:0:
320,192,99157,1,8,0:0:0:0:
448,192,99157,1,0,0:0:0:0:
192,192,99324,1,0,0:0:0:0:
64,192,99491,1,2,0:0:0:0:
320,192,99657,1,0,0:0:0:0:
192,192,99824,1,8,0:0:0:0:
448,192,99824,1,0,0:0:0:0:
320,192,99991,1,0,0:0:0:0:
64,192,100157,1,2,0:0:0:0:
192,192,100324,1,0,0:0:0:0:
320,192,100491,1,8,0:0:0:0:
448,192,100491,1,0,0:0:0:0:
320,192,100741,1,8,0:0:0:0:
64,192,100991,1,8,0:0:0:0:
448,192,100991,1,0,0:0:0:0:
64,192,101157,1,8,0:0:0:0:
320,192,101324,1,0,0:0:0:0:
192,192,101407,1,0,0:0:0:30:snare.wav
448,192,101491,128,2,101824:0:0:0:0:
192,192,101824,1,0,0:0:0:0:
320,192,101991,1,0,0:0:0:0:
64,192,102157,128,0,102491:0:0:0:0:
320,192,102491,1,0,0:0:0:0:
192,192,102657,128,0,102824:0:0:0:0:
448,192,102824,128,0,103157:0:0:0:0:
64,192,102991,1,0,0:0:0:0:
320,192,103157,128,2,103491:0:0:0:0:
192,192,103324,1,0,0:0:0:0:
448,192,103491,1,2,0:0:0:0:
64,192,103657,128,0,103824:0:0:0:0:
320,192,103824,128,2,103991:0:0:0:0:
192,192,103991,128,0,104157:0:0:0:0:
448,192,104324,128,0,104491:0:0:0:0:
64,192,104491,128,2,104657:0:0:0:0:
192,192,104657,128,0,104824:0:0:0:0:
448,192,104824,128,2,104991:0:0:0:0:
320,192,104991,128,0,105157:0:0:0:0:
192,192,105157,1,2,0:0:0:0:
64,192,105324,128,0,105657:0:0:0:0:
320,192,105491,1,2,0:0:0:0:
448,192,105657,1,0,0:0:0:0:
192,192,105824,1,2,0:0:0:0:
64,192,105991,1,2,0:0:0:0:
320,192,105991,1,0,0:0:0:0:
192,192,106324,1,2,0:0:0:0:
448,192,106324,1,0,0:0:0:0:
64,192,106657,1,2,0:0:0:0:
448,192,106657,1,4,0:0:0:0:
192,192,106991,1,2,0:0:0:0:
320,192,107157,1,8,0:0:0:0:
448,192,107157,1,0,0:0:0:0:
192,192,107491,1,2,0:0:0:0:
64,192,107657,1,2,0:0:0:0:
320,192,107824,1,8,0:0:0:0:
448,192,107824,1,0,0:0:0:0:
64,192,107991,1,2,0:0:0:0:
192,192,107991,1,4,0:0:0:0:
448,192,108324,1,2,0:0:0:0:
192,192,108491,1,8,0:0:0:0:
320,192,108491,1,0,0:0:0:0:
64,192,108824,1,2,0:0:0:0:
320,192,108991,1,2,0:0:0:0:
192,192,109157,1,8,0:0:0:0:
448,192,109157,1,0,0:0:0:0:
64,192,109324,1,2,0:0:0:0:
320,192,109324,1,0,0:0:0:0:
192,192,109657,1,2,0:0:0:0:
320,192,109824,1,8,0:0:0:0:
448,192,109824,1,0,0:0:0:0:
64,192,110157,1,2,0:0:0:0:
448,192,110324,1,2,0:0:0:0:
192,192,110491,1,8,0:0:0:0:
320,192,110491,1,0,0:0:0:0:
64,192,110657,128,2,110991:0:0:0:0:
448,192,110657,1,4,0:0:0:0:
192,192,110991,1,0,0:0:0:70:tom.wav
320,192,111074,1,0,0:0:0:70:tom.wav
448,192,111157,1,8,0:0:0:0:
64,192,111324,1,0,0:0:0:70:tom.wav
320,192,111491,128,8,111824:0:0:0:0:
448,192,111491,1,0,0:0:0:0:
64,192,111824,128,0,111991:0:0:0:30:snare.wav
448,192,111991,128,0,112157:0:0:0:30:snare.wav
192,192,112157,1,2,0:0:0:0:
320,192,112157,1,4,0:0:0:0:
192,192,112491,1,8,0:0:0:0:
448,192,112491,1,0,0:0:0:0:
192,192,112824,1,2,0:0:0:0:
320,192,112991,1,0,0:0:0:0:
64,192,113157,1,8,0:0:0:0:
448,192,113157,1,0,0:0:0:0:
192,192,113324,1,0,0:0:0:0:
320,192,113491,1,2,0:0:0:0:
64,192,113657,1,0,0:0:0:0:
320,192,113824,1,8,0:0:0:0:
448,192,113824,1,0,0:0:0:0:
64,192,113991,1,0,0:0:0:0:
192,192,114157,1,2,0:0:0:0:
64,192,114491,1,8,0:0:0:0:
320,192,114491,1,0,0:0:0:0:
192,192,114657,1,0,0:0:0:0:
448,192,114824,1,2,0:0:0:0:
64,192,115157,1,8,0:0:0:0:
448,192,115157,1,0,0:0:0:0:
320,192,115324,1,0,0:0:0:0:
192,192,115491,1,2,0:0:0:0:
448,192,115657,1,0,0:0:0:0:
64,192,115824,1,8,0:0:0:0:
320,192,115824,1,0,0:0:0:0:
448,192,115991,1,0,0:0:0:0:
192,192,116157,1,2,0:0:0:0:
64,192,116324,1,0,0:0:0:0:
192,192,116491,1,8,0:0:0:0:
448,192,116491,1,0,0:0:0:0:
320,192,116657,1,0,0:0:0:0:
64,192,116824,1,2,0:0:0:0:
64,192,117157,1,8,0:0:0:0:
448,192,117157,1,0,0:0:0:0:
448,192,117324,1,8,0:0:0:0:
192,192,117491,1,2,0:0:0:0:
320,192,117491,1,4,0:0:0:0:
64,192,117657,1,0,0:0:0:0:
320,192,117824,1,8,0:0:0:0:
448,192,117824,1,0,0:0:0:0:
192,192,117991,1,0,0:0:0:0:
64,192,118157,1,2,0:0:0:0:
320,192,118324,1,0,0:0:0:0:
192,192,118491,1,8,0:0:0:0:
448,192,118491,1,0,0:0:0:0:
320,192,118657,1,0,0:0:0:0:
64,192,118824,1,2,0:0:0:0:
192,192,118991,1,0,0:0:0:0:
320,192,119157,1,8,0:0:0:0:
448,192,119157,1,0,0:0:0:0:
64,192,119324,1,0,0:0:0:0:
192,192,119491,1,2,0:0:0:0:
64,192,119657,1,0,0:0:0:0:
320,192,119824,1,8,0:0:0:0:
448,192,119824,1,0,0:0:0:0:
192,192,119991,1,0,0:0:0:0:
448,192,120157,1,2,0:0:0:0:
320,192,120324,1,0,0:0:0:0:
64,192,120491,1,8,0:0:0:0:
192,192,120491,1,0,0:0:0:0:
320,192,120657,1,0,0:0:0:0:
448,192,120824,1,2,0:0:0:0:
192,192,120991,1,0,0:0:0:0:
64,192,121157,1,8,0:0:0:0:
320,192,121157,1,0,0:0:0:0:
192,192,121324,1,4,0:0:0:0:
448,192,121324,1,0,0:0:0:0:
320,192,121657,1,0,0:0:0:0:
64,192,121824,1,8,0:0:0:0:
448,192,121824,1,0,0:0:0:0:
192,192,121991,1,0,0:0:0:0:
448,192,122157,1,2,0:0:0:0:
320,192,122491,128,8,122657:0:0:0:0:
192,192,122657,128,8,122824:0:0:0:0:
64,192,122824,1,2,0:0:0:0:
448,192,122824,1,4,0:0:0:0:
320,192,123157,1,8,0:0:0:0:
448,192,123157,1,0,0:0:0:0:
448,192,123491,1,2,0:0:0:0:
192,192,123657,1,0,0:0:0:0:
64,192,123824,1,8,0:0:0:0:
320,192,123824,1,0,0:0:0:0:
192,192,123991,1,0,0:0:0:0:
448,192,124157,1,2,0:0:0:0:
320,192,124324,1,0,0:0:0:0:
192,192,124491,1,8,0:0:0:0:
448,192,124491,1,0,0:0:0:0:
64,192,124657,1,0,0:0:0:0:
320,192,124824,1,2,0:0:0:0:
64,192,125157,1,8,0:0:0:0:
192,192,125157,1,0,0:0:0:0:
320,192,125324,1,0,0:0:0:0:
448,192,125491,1,2,0:0:0:0:
64,192,125824,1,8,0:0:0:0:
320,192,125824,1,0,0:0:0:0:
192,192,125991,1,0,0:0:0:0:
448,192,126157,1,2,0:0:0:0:
64,192,126324,1,0,0:0:0:0:
320,192,126491,1,8,0:0:0:0:
448,192,126491,1,0,0:0:0:0:
192,192,126657,1,0,0:0:0:0:
64,192,126824,1,2,0:0:0:0:
320,192,126991,1,0,0:0:0:0:
192,192,127157,1,8,0:0:0:0:
448,192,127157,1,0,0:0:0:0:
320,192,127324,1,0,0:0:0:0:
64,192,127491,1,2,0:0:0:0:
192,192,127824,1,8,0:0:0:0:
448,192,127824,1,0,0:0:0:0:
448,192,127991,1,8,0:0:0:0:
64,192,128157,1,2,0:0:0:0:
320,192,128157,1,4,0:0:0:0:
192,192,128324,1,0,0:0:0:0:
320,192,128491,1,8,0:0:0:0:
448,192,128491,1,0,0:0:0:0:
64,192,128657,1,0,0:0:0:0:
448,192,128824,1,2,0:0:0:0:
192,192,128991,1,0,0:0:0:0:
64,192,129157,1,8,0:0:0:0:
320,192,129157,1,0,0:0:0:0:
192,192,129324,1,0,0:0:0:0:
448,192,129491,1,2,0:0:0:0:
320,192,129657,1,0,0:0:0:0:
64,192,129824,1,8,0:0:0:0:
192,192,129824,1,0,0:0:0:0:
448,192,129991,1,0,0:0:0:0:
320,192,130157,1,2,0:0:0:0:
448,192,130324,1,0,0:0:0:0:
64,192,130491,1,8,0:0:0:0:
192,192,130491,1,0,0:0:0:0:
320,192,130657,1,0,0:0:0:0:
64,192,130824,1,2,0:0:0:0:
448,192,130991,1,0,0:0:0:0:
192,192,131157,1,8,0:0:0:0:
320,192,131157,1,0,0:0:0:0:
64,192,131324,1,0,0:0:0:0:
448,192,131491,1,2,0:0:0:0:
320,192,131657,1,0,0:0:0:0:
64,192,131824,1,8,0:0:0:0:
192,192,131824,1,0,0:0:0:0:
320,192,131991,1,4,0:0:0:0:
448,192,131991,1,0,0:0:0:0:
320,192,132324,1,8,0:0:0:0:
192,192,132407,1,8,0:0:0:0:
64,192,132491,1,8,0:0:0:0:
448,192,132657,1,0,0:0:0:70:tom.wav
64,192,132824,1,0,0:0:0:30:snare.wav
192,192,132824,1,0,0:0:0:0:
320,192,133157,1,0,0:0:0:0:
64,192,133491,128,2,133824:0:0:0:0:
448,192,133491,1,4,0:0:0:0:
192,192,133824,128,8,134157:0:0:0:0:
448,192,133824,1,0,0:0:0:0:
320,192,134157,128,2,134324:0:0:0:0:
64,192,134324,128,0,134491:0:0:0:0:
320,192,134491,1,8,0:0:0:0:
448,192,134491,128,0,134657:0:0:0:0:
192,192,134657,128,0,134991:0:0:0:0:
320,192,134991,128,0,135157:0:0:0:0:
64,192,135157,128,8,135324:0:0:0:0:
448,192,135157,1,0,0:0:0:0:
192,192,135324,1,0,0:0:0:0:
320,192,135407,1,0,0:0:0:0:
448,192,135491,128,2,135657:0:0:0:0:
192,192,135657,128,0,135824:0:0:0:0:
64,192,135824,128,8,135991:0:0:0:0:
448,192,135824,1,0,0:0:0:0:
320,192,135991,128,0,136324:0:0:0:0:
192,192,136324,128,0,136491:0:0:0:0:
320,192,136491,1,8,0:0:0:0:
448,192,136491,128,0,136657:0:0:0:0:
64,192,136657,128,0,136824:0:0:0:0:
320,192,136824,128,2,136991:0:0:0:0:
192,192,136991,128,0,137157:0:0:0:0:
64,192,137157,128,8,137324:0:0:0:0:
448,192,137157,1,0,0:0:0:0:
320,192,137324,128,0,137657:0:0:0:0:
448,192,137657,128,0,137824:0:0:0:0:
64,192,137824,1,8,0:0:0:0:
192,192,137824,128,0,137991:0:0:0:0:
320,192,137991,128,0,138324:0:0:0:0:
64,192,138324,128,0,138491:0:0:0:0:
192,192,138491,1,8,0:0:0:0:
448,192,138491,1,0,0:0:0:0:
448,192,138657,1,8,0:0:0:0:
64,192,138824,1,2,0:0:0:0:
320,192,138824,1,4,0:0:0:0:
64,192,139157,1,8,0:0:0:0:
192,192,139157,128,0,139324:0:0:0:0:
320,192,139324,128,0,139491:0:0:0:0:
192,192,139491,1,2,0:0:0:0:
448,192,139491,128,0,139657:0:0:0:0:
64,192,139657,128,0,139824:0:0:0:0:
320,192,139824,128,8,139991:0:0:0:0:
448,192,139824,1,0,0:0:0:0:
192,192,139991,128,0,140157:0:0:0:0:
64,192,140157,128,2,140324:0:0:0:0:
320,192,140157,1,0,0:0:0:0:
448,192,140324,128,0,140491:0:0:0:0:
192,192,140491,1,8,0:0:0:0:
320,192,140491,128,0,140657:0:0:0:0:
64,192,140657,128,0,140824:0:0:0:0:
192,192,140824,128,2,140991:0:0:0:0:
320,192,140824,1,0,0:0:0:0:
448,192,140991,128,0,141157:0:0:0:0:
320,192,141157,1,8,0:0:0:0:
192,192,141241,1,0,0:0:0:0:
64,192,141324,128,0,141657:0:0:0:0:
448,192,141657,128,0,141824:0:0:0:0:
64,192,141824,1,8,0:0:0:0:
192,192,141824,128,0,141991:0:0:0:0:
320,192,141991,128,0,142157:0:0:0:0:
64,192,142157,128,2,142491:0:0:0:0:
192,192,142491,1,8,0:0:0:0:
448,192,142491,128,0,142657:0:0:0:0:
64,192,142657,1,4,0:0:0:0:
320,192,142657,128,0,142991:0:0:0:0:
64,192,142991,128,0,143157:0:0:0:0:
192,192,143157,1,8,0:0:0:0:
448,192,143157,128,0,143324:0:0:0:0:
64,192,143324,128,0,143491:0:0:0:0:
320,192,143657,128,0,143991:0:0:0:0:
192,192,143991,128,2,144657:0:0:0:0:
64,192,145491,1,4,0:0:0:0:
448,192,145491,128,0,145824:0:0:0:0:
64,192,145824,1,0,0:0:0:0:
192,192,145991,128,0,146657:0:0:0:0:
448,192,146657,128,0,147157:0:0:0:0:
320,192,147157,1,0,0:0:0:0:
64,192,147324,128,0,147657:0:0:0:0:
448,192,147657,128,0,147991:0:0:0:0:
320,192,147991,128,0,148157:0:0:0:0:
192,192,148157,128,0,148491:0:0:0:0:
64,192,148491,1,0,0:0:0:0:
448,192,148657,128,0,149324:0:0:0:0:
192,192,149324,128,0,149824:0:0:0:0:
64,192,149824,1,0,0:0:0:0:
320,192,149991,128,0,150407:0:0:0:0:
448,192,150407,128,0,150824:0:0:0:0:
64,192,150824,128,0,151157:0:0:0:0:
320,192,150824,1,0,0:0:0:0:
192,192,151157,1,0,0:0:0:0:
448,192,151324,128,0,151991:0:0:0:0:
320,192,151991,1,0,0:0:0:0:
320,192,152324,1,0,0:0:0:0:
64,192,152657,128,0,152991:0:0:0:0:
448,192,152991,128,0,153324:0:0:0:0:
320,192,153324,128,0,153491:0:0:0:0:
192,192,153491,128,0,153824:0:0:0:0:
64,192,153824,1,0,0:0:0:0:
448,192,153991,128,0,154657:0:0:0:0:
192,192,154657,128,0,155324:0:0:0:0:
320,192,155324,128,0,155824:0:0:0:0:
64,192,155824,128,0,156157:0:0:0:0:
192,192,156157,1,2,0:0:0:0:
448,192,156157,128,4,157324:0:0:0:0:
320,192,156491,1,0,0:0:0:0:
64,192,156657,1,0,0:0:0:0:
192,192,157157,1,0,0:0:0:0:
64,192,157324,128,0,158157:0:0:0:0:
320,192,157324,1,0,0:0:0:0:
448,192,157824,1,0,0:0:0:0:
320,192,158157,128,0,158491:0:0:0:0:
192,192,158491,128,0,158824:0:0:0:0:
64,192,158824,1,2,0:0:0:0:
448,192,158824,128,0,159491:0:0:0:0:
320,192,159157,128,0,159491:0:0:0:0:
64,192,159491,128,4,160157:0:0:0:0:
192,192,159491,1,2,0:0:0:0:
192,192,159824,128,0,160157:0:0:0:0:
320,192,160157,1,2,0:0:0:0:
448,192,160157,128,4,160824:0:0:0:0:
320,192,160491,128,0,160824:0:0:0:0:
64,192,160824,128,2,161491:0:0:0:0:
192,192,160824,1,4,0:0:0:0:
320,192,161157,128,0,161491:0:0:0:0:
192,192,161491,1,4,0:0:0:0:
448,192,161491,1,2,0:0:0:0:
448,192,161657,1,0,0:0:0:30:snare.wav
192,192,161824,1,2,0:0:0:0:
320,192,161991,1,8,0:0:0:30:snare.wav
192,192,162074,1,8,0:0:0:30:snare.wav
64,192,162157,1,0,0:0:0:30:snare.wav
320,192,162324,1,0,0:0:0:70:tom.wav
64,192,162491,1,0,0:0:0:70:tom.wav
192,192,162657,1,2,0:0:0:0:
448,192,162657,1,4,0:0:0:0:
64,192,162991,1,8,0:0:0:0:
448,192,162991,1,0,0:0:0:0:
320,192,163157,1,2,0:0:0:0:
64,192,163324,1,8,0:0:0:0:
192,192,163324,1,0,0:0:0:0:
320,192,163491,1,8,0:0:0:0:
448,192,163491,1,4,0:0:0:0:
192,192,163824,1,0,0:0:0:0:
192,192,163991,1,0,0:0:0:0:
64,192,164157,1,2,0:0:0:0:
320,192,164157,1,4,0:0:0:0:
320,192,164491,1,8,0:0:0:0:
448,192,164491,1,0,0:0:0:0:
320,192,164824,1,2,0:0:0:0:
192,192,164991,1,0,0:0:0:0:
64,192,165157,1,8,0:0:0:0:
448,192,165157,1,0,0:0:0:0:
320,192,165324,1,0,0:0:0:0:
192,192,165491,1,2,0:0:0:0:
448,192,165657,1,0,0:0:0:0:
64,192,165824,1,8,0:0:0:0:
192,192,165824,1,0,0:0:0:0:
448,192,165991,1,0,0:0:0:0:
320,192,166157,1,2,0:0:0:0:
192,192,166491,1,8,0:0:0:0:
448,192,166491,1,0,0:0:0:0:
320,192,166657,1,0,0:0:0:0:
64,192,166824,1,2,0:0:0:0:
64,192,167157,1,8,0:0:0:0:
448,192,167157,1,0,0:0:0:0:
192,192,167324,1,0,0:0:0:0:
320,192,167491,1,2,0:0:0:0:
64,192,167657,1,0,0:0:0:0:
192,192,167824,1,8,0:0:0:0:
448,192,167824,1,0,0:0:0:0:
64,192,167991,1,0,0:0:0:0:
320,192,168157,1,2,0:0:0:0:
448,192,168324,1,0,0:0:0:0:
64,192,168491,1,8,0:0:0:0:
320,192,168491,1,0,0:0:0:0:
192,192,168657,1,0,0:0:0:0:
448,192,168824,1,2,0:0:0:0:
64,192,169157,1,8,0:0:0:0:
448,192,169157,1,0,0:0:0:0:
64,192,169324,1,8,0:0:0:0:
192,192,169491,1,2,0:0:0:0:
320,192,169491,1,4,0:0:0:0:
448,192,169657,1,0,0:0:0:0:
64,192,169824,1,8,0:0:0:0:
192,192,169824,1,0,0:0:0:0:
320,192,169991,1,0,0:0:0:0:
448,192,170157,1,2,0:0:0:0:
192,192,170324,1,0,0:0:0:0:
64,192,170491,1,8,0:0:0:0:
320,192,170491,1,0,0:0:0:0:
192,192,170657,1,0,0:0:0:0:
448,192,170824,1,2,0:0:0:0:
320,192,170991,1,0,0:0:0:0:
64,192,171157,1,8,0:0:0:0:
192,192,171157,1,0,0:0:0:0:
448,192,171324,1,0,0:0:0:0:
320,192,171491,1,2,0:0:0:0:
448,192,171657,1,0,0:0:0:0:
64,192,171824,1,8,0:0:0:0:
192,192,171824,1,0,0:0:0:0:
320,192,171991,1,0,0:0:0:0:
64,192,172157,1,2,0:0:0:0:
192,192,172324,1,0,0:0:0:0:
320,192,172491,1,8,0:0:0:0:
448,192,172491,1,0,0:0:0:0:
192,192,172657,1,0,0:0:0:0:
64,192,172824,1,2,0:0:0:0:
320,192,172991,1,0,0:0:0:0:
192,192,173157,1,8,0:0:0:0:
448,192,173157,1,0,0:0:0:0:
64,192,173324,1,4,0:0:0:0:
320,192,173324,1,0,0:0:0:0:
192,192,173657,1,0,0:0:0:0:
64,192,173824,1,8,0:0:0:0:
448,192,173824,1,0,0:0:0:0:
320,192,173991,1,0,0:0:0:0:
64,192,174157,1,2,0:0:0:0:
192,192,174491,128,8,174657:0:0:0:0:
320,192,174657,128,8,174824:0:0:0:0:
64,192,174824,1,2,0:0:0:0:
448,192,174824,1,4,0:0:0:0:
64,192,175157,1,8,0:0:0:0:
192,192,175157,1,0,0:0:0:0:
64,192,175491,1,2,0:0:0:0:
320,192,175657,1,0,0:0:0:0:
192,192,175824,1,8,0:0:0:0:
448,192,175824,1,0,0:0:0:0:
320,192,175991,1,0,0:0:0:0:
64,192,176157,1,2,0:0:0:0:
192,192,176324,1,0,0:0:0:0:
64,192,176491,1,8,0:0:0:0:
320,192,176491,1,0,0:0:0:0:
448,192,176657,1,0,0:0:0:0:
192,192,176824,1,2,0:0:0:0:
320,192,177157,1,8,0:0:0:0:
448,192,177157,1,0,0:0:0:0:
192,192,177324,1,0,0:0:0:0:
64,192,177491,1,2,0:0:0:0:
192,192,177824,1,8,0:0:0:0:
448,192,177824,1,0,0:0:0:0:
320,192,177991,1,0,0:0:0:0:
64,192,178157,1,2,0:0:0:0:
448,192,178324,1,0,0:0:0:0:
64,192,178491,1,8,0:0:0:0:
192,192,178491,1,0,0:0:0:0:
320,192,178657,1,0,0:0:0:0:
448,192,178824,1,2,0:0:0:0:
192,192,178991,1,0,0:0:0:0:
64,192,179157,1,8,0:0:0:0:
320,192,179157,1,0,0:0:0:0:
192,192,179324,1,0,0:0:0:0:
448,192,179491,1,2,0:0:0:0:
64,192,179824,1,8,0:0:0:0:
320,192,179824,1,0,0:0:0:0:
64,192,179991,1,8,0:0:0:0:
192,192,180157,1,2,0:0:0:0:
448,192,180157,1,4,0:0:0:0:
320,192,180324,1,0,0:0:0:0:
64,192,180491,1,8,0:0:0:0:
192,192,180491,1,0,0:0:0:0:
448,192,180657,1,0,0:0:0:0:
64,192,180824,1,2,0:0:0:0:
320,192,180991,1,0,0:0:0:0:
192,192,181157,1,8,0:0:0:0:
448,192,181157,1,0,0:0:0:0:
320,192,181324,1,0,0:0:0:0:
64,192,181491,1,2,0:0:0:0:
192,192,181657,1,0,0:0:0:0:
320,192,181824,1,8,0:0:0:0:
448,192,181824,1,0,0:0:0:0:
64,192,181991,1,0,0:0:0:0:
192,192,182157,1,2,0:0:0:0:
64,192,182324,1,0,0:0:0:0:
320,192,182491,1,8,0:0:0:0:
448,192,182491,1,0,0:0:0:0:
192,192,182657,1,0,0:0:0:0:
448,192,182824,1,2,0:0:0:0:
64,192,182991,1,0,0:0:0:0:
192,192,183157,1,8,0:0:0:0:
320,192,183157,1,0,0:0:0:0:
448,192,183324,1,0,0:0:0:0:
64,192,183491,1,2,0:0:0:0:
192,192,183657,1,0,0:0:0:0:
320,192,183824,1,8,0:0:0:0:
448,192,183824,1,0,0:0:0:0:
64,192,183991,1,4,0:0:0:0:
192,192,183991,1,0,0:0:0:0:
192,192,184324,1,8,0:0:0:0:
320,192,184407,1,8,0:0:0:0:
448,192,184491,1,8,0:0:0:0:
64,192,184657,1,0,0:0:0:70:tom.wav
320,192,184824,1,0,0:0:0:30:snare.wav
448,192,184824,1,0,0:0:0:0:
192,192,185491,128,0,186157:0:0:0:30:snare.wav
320,192,185824,128,0,186157:0:0:0:30:snare.wav
64,192,186157,1,2,0:0:0:0:
448,192,186157,1,4,0:0:0:0:
64,192,186491,1,8,0:0:0:0:
320,192,186491,1,0,0:0:0:0:
448,192,186824,1,2,0:0:0:0:
448,192,186991,1,0,0:0:0:0:
64,192,187157,1,8,0:0:0:0:
192,192,187157,1,0,0:0:0:0:
320,192,187324,128,0,187657:0:0:0:0:
192,192,187657,1,0,0:0:0:0:
64,192,187824,1,8,0:0:0:0:
448,192,187824,1,0,0:0:0:0:
192,192,187991,1,0,0:0:0:0:
320,192,188157,1,2,0:0:0:0:
64,192,188324,1,0,0:0:0:0:
192,192,188491,1,8,0:0:0:0:
448,192,188491,1,0,0:0:0:0:
320,192,188657,1,0,0:0:0:0:
64,192,188824,1,2,0:0:0:0:
64,192,189157,1,8,0:0:0:0:
192,192,189157,1,0,0:0:0:0:
448,192,189491,1,2,0:0:0:0:
448,192,189657,1,0,0:0:0:0:
192,192,189824,1,8,0:0:0:0:
320,192,189824,1,0,0:0:0:0:
64,192,189991,128,0,190324:0:0:0:0:
448,192,190324,1,0,0:0:0:0:
192,192,190491,1,8,0:0:0:0:
320,192,190491,1,0,0:0:0:0:
64,192,190657,1,0,0:0:0:0:
448,192,190824,1,2,0:0:0:0:
320,192,190991,1,0,0:0:0:0:
64,192,191157,1,8,0:0:0:0:
192,192,191157,1,4,0:0:0:0:
192,192,191324,1,8,0:0:0:0:
64,192,191491,1,2,0:0:0:0:
448,192,191491,1,4,0:0:0:0:
320,192,191824,1,8,0:0:0:0:
448,192,191824,1,0,0:0:0:0:
192,192,191991,1,2,0:0:0:0:
64,192,192157,1,8,0:0:0:0:
448,192,192157,1,0,0:0:0:0:
64,192,192491,1,8,0:0:0:0:
192,192,192491,1,0,0:0:0:0:
320,192,192657,1,2,0:0:0:0:
64,192,192824,1,8,0:0:0:0:
448,192,192824,1,0,0:0:0:0:
192,192,193157,1,8,0:0:0:0:
448,192,193157,1,0,0:0:0:0:
320,192,193324,1,2,0:0:0:0:
64,192,193491,1,8,0:0:0:0:
192,192,193491,1,0,0:0:0:0:
64,192,193824,1,8,0:0:0:0:
448,192,193824,1,0,0:0:0:0:
192,192,193991,128,0,194157:0:0:0:70:tom.wav
320,192,194157,128,2,194491:0:0:0:0:
64,192,194491,1,0,0:0:0:0:
448,192,194657,1,0,0:0:0:0:
192,192,194824,128,2,195157:0:0:0:0:
448,192,195157,128,0,195324:0:0:0:0:
64,192,195324,128,2,195657:0:0:0:0:
320,192,195657,1,0,0:0:0:0:
192,192,195824,128,0,195991:0:0:0:0:
448,192,195991,128,0,196157:0:0:0:0:
64,192,196157,128,0,196324:0:0:0:0:
320,192,196491,1,0,0:0:0:0:
64,192,196824,1,2,0:0:0:0:
448,192,196824,1,4,0:0:0:0:
192,192,196991,1,0,0:0:0:0:
320,192,197157,1,0,0:0:0:30:snare.wav
448,192,197157,1,0,0:0:0:0:
64,192,197324,1,0,0:0:0:0:
192,192,197491,1,2,0:0:0:0:
320,192,197657,1,0,0:0:0:0:
64,192,197824,1,0,0:0:0:30:snare.wav
448,192,197824,1,0,0:0:0:0:
192,192,197991,1,0,0:0:0:0:
320,192,198157,1,2,0:0:0:0:
64,192,198324,1,0,0:0:0:0:
192,192,198491,1,0,0:0:0:30:snare.wav
448,192,198491,1,0,0:0:0:0:
320,192,198657,1,0,0:0:0:0:
64,192,198824,1,2,0:0:0:0:
448,192,198991,1,0,0:0:0:0:
64,192,199157,1,0,0:0:0:30:snare.wav
192,192,199157,1,0,0:0:0:0:
320,192,199324,1,0,0:0:0:0:
192,192,199491,1,2,0:0:0:0:
448,192,199657,1,0,0:0:0:0:
64,192,199824,1,0,0:0:0:30:snare.wav
320,192,199824,1,0,0:0:0:0:
192,192,199991,1,0,0:0:0:0:
448,192,200157,1,2,0:0:0:0:
64,192,200324,1,0,0:0:0:0:
192,192,200491,1,0,0:0:0:30:snare.wav
320,192,200491,1,0,0:0:0:0:
448,192,200657,1,0,0:0:0:0:
64,192,200824,1,2,0:0:0:0:
320,192,200991,1,0,0:0:0:0:
64,192,201157,1,0,0:0:0:30:snare.wav
192,192,201157,1,0,0:0:0:0:
448,192,201324,1,0,0:0:0:0:
320,192,201491,1,2,0:0:0:0:
64,192,201657,1,0,0:0:0:0:
192,192,201824,1,8,0:0:0:0:
448,192,201824,1,4,0:0:0:0:
192,192,201991,1,12,0:0:0:0:
64,192,202157,1,2,0:0:0:0:
320,192,202157,1,0,0:0:0:0:
448,192,202324,1,0,0:0:0:0:
64,192,202491,1,0,0:0:0:30:snare.wav
192,192,202491,1,0,0:0:0:0:
320,192,202657,1,0,0:0:0:0:
64,192,202824,1,2,0:0:0:0:
192,192,202991,1,0,0:0:0:0:
320,192,203157,1,0,0:0:0:30:snare.wav
448,192,203157,1,0,0:0:0:0:
64,192,203324,1,0,0:0:0:0:
192,192,203491,1,2,0:0:0:0:
448,192,203657,1,0,0:0:0:0:
64,192,203824,1,0,0:0:0:30:snare.wav
320,192,203824,1,0,0:0:0:0:
192,192,203991,1,0,0:0:0:0:
448,192,204157,1,2,0:0:0:0:
64,192,204324,1,0,0:0:0:0:
192,192,204491,1,0,0:0:0:30:snare.wav
320,192,204491,1,0,0:0:0:0:
448,192,204657,1,0,0:0:0:0:
64,192,204824,1,2,0:0:0:0:
320,192,204991,1,0,0:0:0:0:
64,192,205157,1,0,0:0:0:15:clap.wav
192,192,205157,1,0,0:0:0:0:
448,192,205324,1,0,0:0:0:0:
320,192,205491,1,0,0:0:0:0:
192,192,205657,1,0,0:0:0:0:
64,192,205824,1,0,0:0:0:15:clap.wav
448,192,205824,1,0,0:0:0:0:
192,192,205991,1,0,0:0:0:0:
320,192,206074,1,0,0:0:0:0:
448,192,206157,1,0,0:0:0:0:
64,192,206324,1,0,0:0:0:0:
320,192,206491,1,0,0:0:0:15:clap.wav
448,192,206491,1,0,0:0:0:0:
192,192,206657,1,0,0:0:0:0:
320,192,206824,1,0,0:0:0:0:
