osu file format v14

[General]
AudioFilename: audio.mp3
AudioLeadIn: 0
PreviewTime: 111324
Countdown: 0
SampleSet: Soft
StackLeniency: 0.7
Mode: 3
LetterboxInBreaks: 0
SpecialStyle: 0
WidescreenStoryboard: 1

[Editor]
Bookmarks: 16157,37491,47824,79491,90824
DistanceSpacing: 1
BeatDivisor: 4
GridSize: 32
TimelineZoom: 1.2

[Metadata]
Title:Genjitsu Escape
TitleUnicode:現実エスケープ
Artist:tephe
ArtistUnicode:tephe
Creator:Ilham
Version:MX
Source:
Tags:FA Featured Artist Mappers' Guild MPG Reality Vocaloid Japanese Rock J-Rock JRock Itovero SAW Kagamine Len 鏡音レン Ren
BeatmapID:4144862
BeatmapSetID:1994458

[Difficulty]
HPDrainRate:8
CircleSize:4
OverallDifficulty:7.7
ApproachRate:5
SliderMultiplier:1.4
SliderTickRate:1

[Events]
//Background and Video events
0,0,"bg.jpg",0,0
//Break Periods
//Storyboard Layer 0 (Background)
//Storyboard Layer 1 (Fail)
//Storyboard Layer 2 (Pass)
//Storyboard Layer 3 (Foreground)
//Storyboard Layer 4 (Overlay)
//Storyboard Sound Samples

[TimingPoints]
158,333.333333333333,4,2,1,30,1,0
5491,-100,4,2,1,50,0,0
48157,-100,4,2,1,30,0,0
52824,-100,4,2,1,50,0,0
58824,-100,4,2,1,50,0,1
79491,-100,4,2,1,50,0,0
90824,-100,4,2,1,30,0,0
95491,-100,4,2,1,50,0,0
112157,-100,4,2,1,50,0,1
132824,-100,4,2,1,50,0,0
145491,-100,4,2,1,30,0,0
161491,-100,4,2,1,50,0,0
164157,-100,4,2,1,50,0,1
184824,-100,4,2,1,50,0,0
204824,-100,4,2,1,30,0,0

[HitObjects]
448,192,158,5,0,0:0:0:0:
448,192,324,1,0,0:0:0:0:
64,192,491,1,0,0:0:0:15:clap.wav
320,192,491,1,0,0:0:0:0:
448,192,657,1,0,0:0:0:0:
192,192,824,1,0,0:0:0:0:
192,192,991,1,0,0:0:0:0:
64,192,1157,1,0,0:0:0:15:clap.wav
448,192,1157,1,0,0:0:0:0:
320,192,1324,1,0,0:0:0:0:
192,192,1407,1,0,0:0:0:0:
320,192,1491,1,0,0:0:0:0:
64,192,1657,1,0,0:0:0:0:
192,192,1824,1,0,0:0:0:15:clap.wav
448,192,1824,1,0,0:0:0:0:
64,192,1991,1,0,0:0:0:0:
320,192,2157,1,0,0:0:0:0:
64,192,2324,1,0,0:0:0:0:
320,192,2491,1,0,0:0:0:15:clap.wav
448,192,2491,1,0,0:0:0:0:
448,192,2657,1,0,0:0:0:0:
64,192,2824,1,0,0:0:0:0:
64,192,2991,1,0,0:0:0:0:
192,192,3157,1,0,0:0:0:15:clap.wav
448,192,3157,1,0,0:0:0:0:
64,192,3324,1,0,0:0:0:0:
320,192,3491,1,0,0:0:0:0:
320,192,3657,1,0,0:0:0:0:
64,192,3824,1,0,0:0:0:15:clap.wav
448,192,3824,1,0,0:0:0:0:
192,192,3991,128,0,4074:0:0:0:0:
320,192,4074,128,0,4157:0:0:0:0:
192,192,4157,128,0,4324:0:0:0:0:
448,192,4324,128,0,4491:0:0:0:0:
64,192,4491,128,0,4657:0:0:0:15:clap.wav
320,192,4491,1,0,0:0:0:0:
320,192,4657,128,0,4824:0:0:0:0:
192,192,4824,128,0,4991:0:0:0:0:
320,192,4991,1,0,0:0:0:0:
64,192,5157,1,0,0:0:0:30:snare.wav
192,192,5157,1,0,0:0:0:0:
448,192,5157,1,0,0:0:0:0:
64,192,5491,1,4,0:0:0:0:
192,192,5491,1,2,0:0:0:0:
320,192,5491,1,0,0:0:0:0:
448,192,5491,1,0,0:0:0:0:
192,192,5657,128,0,5824:0:0:0:0:
64,192,5824,128,0,5991:0:0:0:30:snare.wav
320,192,5824,1,0,0:0:0:0:
448,192,5824,1,0,0:0:0:0:
448,192,5991,128,0,6157:0:0:0:0:
64,192,6157,1,2,0:0:0:0:
320,192,6157,128,0,6324:0:0:0:0:
192,192,6324,128,0,6491:0:0:0:0:
64,192,6491,1,0,0:0:0:30:snare.wav
320,192,6491,1,0,0:0:0:0:
448,192,6491,1,0,0:0:0:0:
192,192,6657,128,0,6824:0:0:0:0:
64,192,6824,1,2,0:0:0:0:
448,192,6824,128,0,6991:0:0:0:0:
192,192,6991,128,0,7157:0:0:0:0:
64,192,7157,128,0,7324:0:0:0:30:snare.wav
320,192,7157,1,0,0:0:0:0:
448,192,7157,1,0,0:0:0:0:
448,192,7324,128,0,7491:0:0:0:0:
192,192,7491,128,2,7657:0:0:0:0:
320,192,7491,1,0,0:0:0:0:
320,192,7657,128,0,7824:0:0:0:0:
64,192,7824,1,0,0:0:0:30:snare.wav
192,192,7824,1,0,0:0:0:0:
448,192,7824,128,0,7991:0:0:0:0:
192,192,7991,128,0,8157:0:0:0:0:
64,192,8157,1,2,0:0:0:0:
448,192,8157,1,0,0:0:0:0:
192,192,8324,128,0,8491:0:0:0:0:
64,192,8491,1,0,0:0:0:30:snare.wav
320,192,8491,1,0,0:0:0:0:
448,192,8491,128,0,8657:0:0:0:0:
320,192,8657,128,0,8824:0:0:0:0:
64,192,8824,128,2,8991:0:0:0:0:
192,192,8824,1,0,0:0:0:0:
448,192,8991,128,0,9157:0:0:0:0:
64,192,9157,1,0,0:0:0:30:snare.wav
192,192,9157,1,0,0:0:0:0:
320,192,9157,1,0,0:0:0:0:
448,192,9324,128,0,9491:0:0:0:0:
64,192,9491,1,2,0:0:0:0:
192,192,9491,128,0,9657:0:0:0:0:
448,192,9657,128,0,9824:0:0:0:0:
64,192,9824,128,0,9991:0:0:0:30:snare.wav
192,192,9824,1,0,0:0:0:0:
320,192,9824,1,0,0:0:0:0:
320,192,9991,128,0,10157:0:0:0:0:
64,192,10157,1,2,0:0:0:0:
192,192,10157,128,0,10324:0:0:0:0:
448,192,10324,128,0,10491:0:0:0:0:
64,192,10491,1,4,0:0:0:0:
192,192,10491,1,8,0:0:0:0:
320,192,10491,1,0,0:0:0:0:
64,192,10657,1,8,0:0:0:0:
192,192,10657,1,0,0:0:0:0:
448,192,10657,1,0,0:0:0:0:
64,192,10824,1,4,0:0:0:0:
320,192,10824,1,2,0:0:0:0:
448,192,10824,1,0,0:0:0:0:
192,192,10991,128,0,11157:0:0:0:0:
64,192,11157,1,0,0:0:0:30:snare.wav
320,192,11157,128,0,11324:0:0:0:0:
448,192,11157,1,0,0:0:0:0:
64,192,11324,128,0,11491:0:0:0:0:
320,192,11491,1,2,0:0:0:0:
448,192,11491,128,0,11657:0:0:0:0:
192,192,11657,128,0,11824:0:0:0:0:
64,192,11824,1,0,0:0:0:30:snare.wav
320,192,11824,1,0,0:0:0:0:
448,192,11824,1,0,0:0:0:0:
192,192,11991,128,0,12157:0:0:0:0:
320,192,12157,1,2,0:0:0:0:
448,192,12157,128,0,12324:0:0:0:0:
192,192,12324,128,0,12491:0:0:0:0:
64,192,12491,1,0,0:0:0:30:snare.wav
320,192,12491,128,0,12657:0:0:0:0:
448,192,12491,1,0,0:0:0:0:
64,192,12657,128,0,12824:0:0:0:0:
192,192,12824,128,2,12991:0:0:0:0:
448,192,12824,1,0,0:0:0:0:
448,192,12991,128,0,13157:0:0:0:0:
64,192,13157,128,0,13324:0:0:0:30:snare.wav
192,192,13157,1,0,0:0:0:0:
320,192,13157,1,0,0:0:0:0:
320,192,13324,128,0,13491:0:0:0:0:
64,192,13491,1,2,0:0:0:0:
192,192,13491,1,0,0:0:0:0:
320,192,13657,128,0,13824:0:0:0:0:
64,192,13824,1,0,0:0:0:30:snare.wav
192,192,13824,1,0,0:0:0:0:
448,192,13824,128,0,13991:0:0:0:0:
320,192,13991,128,0,14157:0:0:0:0:
64,192,14157,128,2,14324:0:0:0:0:
448,192,14157,1,0,0:0:0:0:
192,192,14324,128,0,14491:0:0:0:0:
64,192,14491,1,0,0:0:0:30:snare.wav
320,192,14491,1,0,0:0:0:0:
448,192,14491,1,0,0:0:0:0:
64,192,14657,1,4,0:0:0:0:
192,192,14657,1,2,0:0:0:0:
320,192,14657,128,0,14991:0:0:0:0:
448,192,14657,1,0,0:0:0:0:
64,192,14991,1,8,0:0:0:0:
192,192,14991,1,0,0:0:0:0:
448,192,14991,1,0,0:0:0:0:
64,192,15157,1,8,0:0:0:0:
192,192,15157,1,0,0:0:0:0:
448,192,15157,1,0,0:0:0:0:
320,192,15324,1,0,0:0:0:70:tom.wav
448,192,15324,1,0,0:0:0:0:
64,192,15407,1,0,0:0:0:70:tom.wav
192,192,15407,1,0,0:0:0:0:
320,192,15491,1,0,0:0:0:0:
64,192,15657,1,8,0:0:0:0:
320,192,15657,1,0,0:0:0:0:
448,192,15657,1,0,0:0:0:0:
64,192,15824,1,8,0:0:0:0:
320,192,15824,1,0,0:0:0:0:
448,192,15824,1,0,0:0:0:0:
64,192,15991,1,0,0:0:0:70:tom.wav
192,192,15991,1,0,0:0:0:0:
64,192,16157,1,2,0:0:0:0:
192,192,16157,1,4,0:0:0:0:
320,192,16157,128,0,16491:0:0:0:0:
448,192,16157,1,0,0:0:0:0:
64,192,16491,1,8,0:0:0:0:
192,192,16491,1,0,0:0:0:0:
448,192,16491,1,0,0:0:0:0:
448,192,16657,128,0,16991:0:0:0:0:
192,192,16824,1,2,0:0:0:0:
320,192,16824,1,0,0:0:0:0:
64,192,16991,1,0,0:0:0:0:
64,192,17157,1,8,0:0:0:0:
192,192,17157,1,0,0:0:0:0:
448,192,17157,1,0,0:0:0:0:
320,192,17324,128,0,17657:0:0:0:0:
64,192,17491,1,2,0:0:0:0:
192,192,17491,1,0,0:0:0:0:
448,192,17657,128,0,17824:0:0:0:0:
64,192,17824,1,8,0:0:0:0:
192,192,17824,1,0,0:0:0:0:
320,192,17824,1,0,0:0:0:0:
448,192,17991,128,0,18324:0:0:0:0:
64,192,18157,1,2,0:0:0:0:
192,192,18157,1,0,0:0:0:0:
64,192,18324,128,0,18491:0:0:0:0:
192,192,18491,1,8,0:0:0:0:
320,192,18491,1,0,0:0:0:0:
448,192,18491,128,0,18657:0:0:0:0:
192,192,18657,128,0,18824:0:0:0:0:
64,192,18824,1,2,0:0:0:0:
320,192,18824,128,0,18991:0:0:0:0:
192,192,18991,128,0,19157:0:0:0:0:
64,192,19157,1,8,0:0:0:0:
320,192,19157,1,0,0:0:0:0:
448,192,19157,1,0,0:0:0:0:
192,192,19324,128,0,19657:0:0:0:0:
320,192,19491,1,2,0:0:0:0:
448,192,19491,1,0,0:0:0:0:
64,192,19657,1,0,0:0:0:0:
192,192,19824,1,8,0:0:0:0:
320,192,19824,1,0,0:0:0:0:
448,192,19824,1,0,0:0:0:0:
320,192,19991,128,0,20324:0:0:0:0:
64,192,20157,1,2,0:0:0:0:
192,192,20157,1,0,0:0:0:0:
448,192,20324,1,0,0:0:0:0:
64,192,20491,1,8,0:0:0:0:
192,192,20491,1,0,0:0:0:0:
320,192,20491,1,0,0:0:0:0:
448,192,20657,1,0,0:0:0:0:
64,192,20741,1,0,0:0:0:30:snare.wav
320,192,20741,1,0,0:0:0:0:
192,192,20824,1,0,0:0:0:30:snare.wav
448,192,20824,1,0,0:0:0:0:
64,192,20991,1,8,0:0:0:0:
192,192,20991,1,0,0:0:0:0:
320,192,20991,1,0,0:0:0:0:
64,192,21157,1,8,0:0:0:0:
320,192,21157,1,0,0:0:0:0:
448,192,21157,1,0,0:0:0:0:
192,192,21324,1,0,0:0:0:0:
64,192,21491,128,2,21824:0:0:0:0:
448,192,21491,1,0,0:0:0:0:
320,192,21657,1,0,0:0:0:0:
192,192,21824,1,8,0:0:0:0:
320,192,21824,1,0,0:0:0:0:
448,192,21824,1,0,0:0:0:0:
448,192,21991,128,0,22324:0:0:0:0:
64,192,22157,1,2,0:0:0:0:
192,192,22157,1,0,0:0:0:0:
320,192,22324,1,0,0:0:0:0:
64,192,22491,1,8,0:0:0:0:
320,192,22491,1,0,0:0:0:0:
448,192,22491,1,0,0:0:0:0:
192,192,22657,128,0,22991:0:0:0:0:
320,192,22824,1,2,0:0:0:0:
448,192,22824,1,0,0:0:0:0:
64,192,22991,1,0,0:0:0:0:
192,192,23157,1,8,0:0:0:0:
320,192,23157,1,0,0:0:0:0:
448,192,23157,1,0,0:0:0:0:
320,192,23324,128,0,23657:0:0:0:0:
64,192,23491,1,2,0:0:0:0:
192,192,23491,1,0,0:0:0:0:
448,192,23657,128,0,23824:0:0:0:0:
64,192,23824,128,8,23991:0:0:0:0:
192,192,23824,1,0,0:0:0:0:
320,192,23824,1,0,0:0:0:0:
448,192,23991,128,0,24157:0:0:0:0:
64,192,24157,1,2,0:0:0:0:
192,192,24157,128,0,24241:0:0:0:0:
192,192,24324,128,0,24407:0:0:0:0:
64,192,24491,1,8,0:0:0:0:
320,192,24491,1,0,0:0:0:0:
448,192,24491,1,0,0:0:0:0:
320,192,24657,128,0,24991:0:0:0:0:
64,192,24824,1,2,0:0:0:0:
192,192,24824,1,0,0:0:0:0:
448,192,24991,128,0,25074:0:0:0:0:
64,192,25157,1,8,0:0:0:0:
192,192,25157,1,0,0:0:0:0:
448,192,25157,128,0,25241:0:0:0:0:
64,192,25324,128,0,25657:0:0:0:0:
320,192,25491,1,2,0:0:0:0:
448,192,25491,1,0,0:0:0:0:
192,192,25657,1,0,0:0:0:0:
64,192,25824,1,8,0:0:0:0:
320,192,25824,1,0,0:0:0:0:
448,192,25824,1,0,0:0:0:0:
64,192,26074,1,8,0:0:0:0:
320,192,26074,1,0,0:0:0:0:
192,192,26157,1,2,0:0:0:0:
448,192,26157,1,0,0:0:0:0:
64,192,26324,1,8,0:0:0:0:
192,192,26324,1,0,0:0:0:0:
320,192,26324,1,0,0:0:0:0:
64,192,26491,1,8,0:0:0:0:
320,192,26491,1,0,0:0:0:0:
448,192,26491,1,0,0:0:0:0:
192,192,26657,1,8,0:0:0:0:
448,192,26657,1,0,0:0:0:0:
320,192,26741,1,0,0:0:0:30:snare.wav
64,192,26824,1,2,0:0:0:0:
192,192,26824,1,4,0:0:0:0:
448,192,26824,1,0,0:0:0:0:
320,192,26991,128,0,27157:0:0:0:0:
64,192,27157,1,0,0:0:0:30:snare.wav
192,192,27157,1,0,0:0:0:0:
448,192,27157,128,0,27324:0:0:0:0:
64,192,27324,128,0,27491:0:0:0:0:
192,192,27491,128,2,27657:0:0:0:0:
448,192,27491,1,0,0:0:0:0:
320,192,27657,128,0,27824:0:0:0:0:
64,192,27824,1,0,0:0:0:30:snare.wav
192,192,27824,1,0,0:0:0:0:
448,192,27824,1,0,0:0:0:0:
320,192,27991,128,0,28157:0:0:0:0:
64,192,28157,128,2,28324:0:0:0:0:
448,192,28157,1,0,0:0:0:0:
320,192,28324,128,0,28491:0:0:0:0:
64,192,28491,1,0,0:0:0:30:snare.wav
192,192,28491,1,0,0:0:0:0:
448,192,28491,128,0,28657:0:0:0:0:
64,192,28657,128,0,28824:0:0:0:0:
192,192,28824,1,2,0:0:0:0:
448,192,28824,128,0,28991:0:0:0:0:
192,192,28991,128,0,29157:0:0:0:0:
64,192,29157,128,0,29324:0:0:0:30:snare.wav
320,192,29157,1,0,0:0:0:0:
448,192,29157,1,0,0:0:0:0:
320,192,29324,128,0,29491:0:0:0:0:
64,192,29491,1,2,0:0:0:0:
448,192,29491,1,0,0:0:0:0:
320,192,29657,128,0,29824:0:0:0:0:
64,192,29824,128,0,29991:0:0:0:30:snare.wav
192,192,29824,1,0,0:0:0:0:
448,192,29824,1,0,0:0:0:0:
192,192,29991,128,0,30157:0:0:0:0:
320,192,30157,1,2,0:0:0:0:
448,192,30157,128,0,30324:0:0:0:0:
64,192,30324,128,0,30491:0:0:0:0:
192,192,30491,1,0,0:0:0:30:snare.wav
320,192,30491,1,0,0:0:0:0:
448,192,30491,1,0,0:0:0:0:
64,192,30657,128,0,30824:0:0:0:0:
320,192,30824,128,2,30991:0:0:0:0:
448,192,30824,1,0,0:0:0:0:
64,192,30991,128,0,31157:0:0:0:0:
192,192,31157,1,0,0:0:0:30:snare.wav
320,192,31157,1,0,0:0:0:0:
448,192,31157,128,0,31324:0:0:0:0:
192,192,31324,128,0,31491:0:0:0:0:
320,192,31491,128,2,31657:0:0:0:0:
448,192,31491,1,0,0:0:0:0:
64,192,31657,128,0,31824:0:0:0:0:
192,192,31824,1,8,0:0:0:0:
320,192,31824,1,4,0:0:0:0:
448,192,31824,1,0,0:0:0:0:
64,192,31991,1,8,0:0:0:0:
320,192,31991,1,0,0:0:0:0:
448,192,31991,1,0,0:0:0:0:
64,192,32157,1,4,0:0:0:0:
192,192,32157,1,2,0:0:0:0:
448,192,32157,1,0,0:0:0:0:
320,192,32324,128,0,32491:0:0:0:0:
64,192,32491,1,0,0:0:0:30:snare.wav
192,192,32491,1,0,0:0:0:0:
448,192,32491,128,0,32657:0:0:0:0:
192,192,32657,128,0,32824:0:0:0:0:
64,192,32824,128,2,32991:0:0:0:0:
320,192,32824,1,0,0:0:0:0:
448,192,32991,128,0,33157:0:0:0:0:
64,192,33157,1,0,0:0:0:30:snare.wav
192,192,33157,1,0,0:0:0:0:
320,192,33157,1,0,0:0:0:0:
448,192,33324,128,0,33491:0:0:0:0:
64,192,33491,1,2,0:0:0:0:
192,192,33491,128,0,33657:0:0:0:0:
448,192,33657,128,0,33824:0:0:0:0:
64,192,33824,128,0,33991:0:0:0:30:snare.wav
192,192,33824,1,0,0:0:0:0:
320,192,33824,1,0,0:0:0:0:
320,192,33991,128,0,34157:0:0:0:0:
192,192,34157,128,2,34324:0:0:0:0:
448,192,34157,1,0,0:0:0:0:
448,192,34324,128,0,34491:0:0:0:0:
64,192,34491,1,0,0:0:0:30:snare.wav
192,192,34491,1,0,0:0:0:0:
320,192,34491,128,0,34657:0:0:0:0:
192,192,34657,128,0,34824:0:0:0:0:
64,192,34824,1,2,0:0:0:0:
448,192,34824,1,0,0:0:0:0:
320,192,34991,128,0,35157:0:0:0:0:
64,192,35157,1,0,0:0:0:30:snare.wav
192,192,35157,128,0,35324:0:0:0:0:
448,192,35157,1,0,0:0:0:0:
448,192,35324,128,0,35491:0:0:0:0:
64,192,35491,128,2,35657:0:0:0:0:
192,192,35491,1,0,0:0:0:0:
320,192,35657,128,0,35824:0:0:0:0:
64,192,35824,1,0,0:0:0:30:snare.wav
192,192,35824,1,0,0:0:0:0:
448,192,35824,1,0,0:0:0:0:
448,192,35991,128,0,36157:0:0:0:0:
64,192,36157,1,2,0:0:0:0:
192,192,36157,128,0,36324:0:0:0:0:
320,192,36324,128,0,36491:0:0:0:0:
64,192,36491,128,0,36657:0:0:0:30:snare.wav
192,192,36491,1,0,0:0:0:0:
448,192,36491,1,0,0:0:0:0:
320,192,36657,128,0,36824:0:0:0:0:
64,192,36824,1,2,0:0:0:0:
192,192,36824,128,4,36991:0:0:0:0:
448,192,36824,1,0,0:0:0:0:
320,192,36991,1,0,0:0:0:30:snare.wav
448,192,36991,1,0,0:0:0:0:
64,192,37074,1,0,0:0:0:30:snare.wav
192,192,37074,1,0,0:0:0:0:
320,192,37157,1,0,0:0:0:30:snare.wav
448,192,37157,1,0,0:0:0:0:
64,192,37241,1,0,0:0:0:30:snare.wav
192,192,37241,1,0,0:0:0:0:
320,192,37324,1,0,0:0:0:30:snare.wav
448,192,37324,1,0,0:0:0:0:
192,192,37407,1,0,0:0:0:30:snare.wav
64,192,37491,1,2,0:0:0:0:
320,192,37491,1,4,0:0:0:0:
448,192,37491,1,0,0:0:0:0:
192,192,37657,128,0,37824:0:0:0:0:
64,192,37824,1,8,0:0:0:0:
320,192,37824,128,0,37991:0:0:0:0:
448,192,37824,1,0,0:0:0:0:
192,192,37991,128,0,38157:0:0:0:0:
320,192,38157,1,2,0:0:0:0:
448,192,38157,128,0,38324:0:0:0:0:
64,192,38324,128,0,38491:0:0:0:0:
192,192,38491,1,8,0:0:0:0:
320,192,38491,1,0,0:0:0:0:
448,192,38491,1,0,0:0:0:0:
320,192,38657,128,0,38991:0:0:0:0:
64,192,38824,1,2,0:0:0:0:
192,192,38824,1,0,0:0:0:0:
192,192,38991,128,0,39157:0:0:0:0:
64,192,39157,1,8,0:0:0:0:
320,192,39157,1,0,0:0:0:0:
448,192,39157,128,0,39324:0:0:0:0:
192,192,39324,128,0,39491:0:0:0:0:
64,192,39491,128,2,39657:0:0:0:0:
448,192,39491,1,0,0:0:0:0:
320,192,39657,1,0,0:0:0:0:
64,192,39824,1,8,0:0:0:0:
192,192,39824,1,0,0:0:0:0:
448,192,39824,128,0,39991:0:0:0:0:
320,192,39991,128,0,40157:0:0:0:0:
64,192,40157,1,2,0:0:0:0:
192,192,40157,128,0,40324:0:0:0:0:
448,192,40324,128,0,40491:0:0:0:0:
192,192,40491,1,0,0:0:0:0:
320,192,40491,1,0,0:0:0:0:
64,192,40491,1,8,0:0:0:0:
64,192,40657,128,0,40824:0:0:0:0:
448,192,40824,1,2,0:0:0:0:
192,192,40824,128,0,40991:0:0:0:0:
320,192,40991,128,0,41157:0:0:0:0:
64,192,41157,128,8,41324:0:0:0:0:
192,192,41157,1,0,0:0:0:0:
448,192,41157,1,0,0:0:0:0:
448,192,41324,128,0,41657:0:0:0:0:
64,192,41491,1,2,0:0:0:0:
192,192,41491,1,0,0:0:0:0:
192,192,41657,128,0,41824:0:0:0:0:
64,192,41824,128,8,41991:0:0:0:0:
320,192,41824,1,0,0:0:0:0:
448,192,41824,1,0,0:0:0:0:
192,192,41991,1,0,0:0:0:0:
320,192,42074,1,0,0:0:0:30:snare.wav
448,192,42074,1,0,0:0:0:0:
64,192,42157,1,0,0:0:0:30:snare.wav
192,192,42157,1,0,0:0:0:0:
320,192,42324,1,8,0:0:0:0:
448,192,42324,1,0,0:0:0:0:
64,192,42491,1,8,0:0:0:0:
192,192,42491,1,0,0:0:0:0:
448,192,42491,1,0,0:0:0:0:
320,192,42657,1,0,0:0:0:0:
192,192,42824,1,2,0:0:0:0:
320,192,42824,1,4,0:0:0:0:
448,192,42824,1,0,0:0:0:0:
64,192,42991,1,0,0:0:0:0:
320,192,43074,1,0,0:0:0:0:
192,192,43157,1,8,0:0:0:0:
448,192,43157,128,0,43324:0:0:0:0:
320,192,43324,128,0,43491:0:0:0:0:
192,192,43407,1,0,0:0:0:0:
64,192,43491,128,2,43657:0:0:0:0:
448,192,43491,1,0,0:0:0:0:
320,192,43574,1,0,0:0:0:0:
192,192,43657,128,0,43824:0:0:0:0:
320,192,43741,1,0,0:0:0:0:
64,192,43824,1,8,0:0:0:0:
448,192,43824,128,0,43991:0:0:0:0:
192,192,43907,1,0,0:0:0:0:
320,192,43991,128,0,44157:0:0:0:0:
64,192,44157,1,2,0:0:0:0:
192,192,44157,1,0,0:0:0:0:
448,192,44241,1,0,0:0:0:0:
64,192,44324,128,0,44407:0:0:0:0:
64,192,44491,1,8,0:0:0:0:
192,192,44491,128,0,44657:0:0:0:0:
320,192,44491,1,0,0:0:0:0:
448,192,44657,128,0,44741:0:0:0:0:
320,192,44824,128,2,44991:0:0:0:0:
448,192,44824,1,0,0:0:0:0:
64,192,44991,128,0,45157:0:0:0:0:
192,192,45157,1,8,0:0:0:0:
320,192,45157,1,0,0:0:0:0:
448,192,45157,128,0,45324:0:0:0:0:
192,192,45324,128,0,45491:0:0:0:0:
64,192,45491,1,2,0:0:0:0:
320,192,45491,1,0,0:0:0:0:
448,192,45657,1,0,0:0:0:0:
192,192,45741,1,0,0:0:0:0:
64,192,45824,1,8,0:0:0:0:
320,192,45824,128,0,46157:0:0:0:0:
448,192,45824,1,0,0:0:0:0:
192,192,45991,1,0,0:0:0:0:
64,192,46157,1,2,0:0:0:0:
448,192,46157,128,0,46324:0:0:0:0:
64,192,46324,128,0,46491:0:0:0:0:
192,192,46491,1,8,0:0:0:0:
320,192,46491,1,0,0:0:0:0:
448,192,46491,1,0,0:0:0:0:
448,192,46657,128,0,46991:0:0:0:0:
64,192,46824,1,2,0:0:0:0:
192,192,46824,1,0,0:0:0:0:
320,192,46991,128,0,47157:0:0:0:0:
64,192,47157,1,8,0:0:0:0:
192,192,47157,1,0,0:0:0:0:
448,192,47157,1,0,0:0:0:0:
192,192,47324,1,0,0:0:0:0:
320,192,47407,1,8,0:0:0:0:
448,192,47407,1,0,0:0:0:0:
64,192,47491,1,2,0:0:0:0:
192,192,47491,1,0,0:0:0:0:
64,192,47657,1,8,0:0:0:0:
320,192,47657,1,0,0:0:0:0:
448,192,47657,1,0,0:0:0:0:
192,192,47824,1,8,0:0:0:0:
320,192,47824,1,0,0:0:0:0:
448,192,47824,128,0,48074:0:0:0:0:
448,192,48157,128,0,48491:0:0:0:0:
64,192,48324,1,0,0:0:0:0:
192,192,48491,1,0,0:0:0:15:clap.wav
320,192,48491,1,0,0:0:0:0:
64,192,48657,128,0,48741:0:0:0:0:
64,192,48824,128,0,49157:0:0:0:0:
320,192,48991,1,0,0:0:0:0:
192,192,49157,1,0,0:0:0:15:clap.wav
448,192,49157,1,0,0:0:0:0:
320,192,49324,128,0,49407:0:0:0:0:
192,192,49407,1,0,0:0:0:0:
320,192,49491,128,0,49657:0:0:0:0:
192,192,49657,1,0,0:0:0:0:
64,192,49824,1,0,0:0:0:15:clap.wav
448,192,49824,128,0,50157:0:0:0:0:
64,192,49991,1,0,0:0:0:0:
192,192,50157,128,0,50491:0:0:0:0:
320,192,50157,1,0,0:0:0:0:
64,192,50324,1,0,0:0:0:0:
320,192,50491,1,0,0:0:0:15:clap.wav
448,192,50491,1,0,0:0:0:0:
64,192,50657,128,0,50991:0:0:0:0:
192,192,50657,128,0,50824:0:0:0:0:
448,192,50824,1,0,0:0:0:0:
320,192,50991,1,0,0:0:0:0:
192,192,51157,1,0,0:0:0:15:clap.wav
448,192,51157,1,0,0:0:0:0:
64,192,51324,1,0,0:0:0:0:
448,192,51491,128,0,51824:0:0:0:0:
320,192,51657,128,0,51824:0:0:0:0:
64,192,51824,1,0,0:0:0:15:clap.wav
192,192,51824,1,0,0:0:0:0:
448,192,51991,1,0,0:0:0:0:
320,192,52074,1,0,0:0:0:0:
192,192,52157,1,0,0:0:0:0:
320,192,52324,1,0,0:0:0:0:
64,192,52491,1,0,0:0:0:15:clap.wav
448,192,52491,1,0,0:0:0:0:
192,192,52657,1,0,0:0:0:0:
64,192,52824,1,0,0:0:0:70:tom.wav
320,192,52824,1,0,0:0:0:0:
448,192,52824,1,0,0:0:0:0:
64,192,52991,1,0,0:0:0:70:tom.wav
320,192,52991,1,0,0:0:0:0:
448,192,52991,1,0,0:0:0:0:
192,192,53157,1,0,0:0:0:0:
64,192,53324,128,4,53657:0:0:0:0:
192,192,53324,1,2,0:0:0:0:
320,192,53324,1,0,0:0:0:0:
448,192,53324,1,0,0:0:0:0:
320,192,53657,1,2,0:0:0:0:
448,192,53657,1,0,0:0:0:0:
64,192,53824,1,8,0:0:0:0:
192,192,53824,1,0,0:0:0:0:
320,192,53824,1,0,0:0:0:0:
320,192,54157,1,2,0:0:0:0:
448,192,54157,1,0,0:0:0:0:
64,192,54324,1,2,0:0:0:0:
192,192,54324,1,0,0:0:0:0:
64,192,54491,1,8,0:0:0:0:
320,192,54491,1,0,0:0:0:0:
448,192,54491,1,0,0:0:0:0:
64,192,54657,1,2,0:0:0:0:
192,192,54657,1,4,0:0:0:0:
320,192,54657,1,0,0:0:0:0:
448,192,54657,128,0,54991:0:0:0:0:
192,192,54991,1,2,0:0:0:0:
320,192,54991,1,0,0:0:0:0:
64,192,55157,1,8,0:0:0:0:
320,192,55157,1,0,0:0:0:0:
448,192,55157,1,0,0:0:0:0:
192,192,55491,1,2,0:0:0:0:
448,192,55491,1,0,0:0:0:0:
64,192,55657,1,2,0:0:0:0:
320,192,55657,1,0,0:0:0:0:
192,192,55824,1,8,0:0:0:0:
320,192,55824,1,0,0:0:0:0:
448,192,55824,1,0,0:0:0:0:
64,192,55991,1,2,0:0:0:0:
192,192,55991,128,0,56324:0:0:0:0:
448,192,55991,1,0,0:0:0:0:
64,192,56324,1,2,0:0:0:0:
448,192,56324,1,0,0:0:0:0:
64,192,56491,1,8,0:0:0:0:
192,192,56491,1,0,0:0:0:0:
320,192,56491,1,0,0:0:0:0:
64,192,56824,1,2,0:0:0:0:
448,192,56824,1,0,0:0:0:0:
192,192,56991,1,2,0:0:0:0:
320,192,56991,1,0,0:0:0:0:
64,192,57157,1,8,0:0:0:0:
320,192,57157,1,0,0:0:0:0:
448,192,57157,1,0,0:0:0:0:
64,192,57324,1,2,0:0:0:0:
192,192,57324,1,4,0:0:0:0:
320,192,57324,1,0,0:0:0:0:
448,192,57324,128,0,57657:0:0:0:0:
64,192,57657,1,0,0:0:0:70:tom.wav
192,192,57657,1,0,0:0:0:0:
320,192,57741,1,0,0:0:0:70:tom.wav
64,192,57824,1,8,0:0:0:0:
192,192,57824,1,0,0:0:0:0:
448,192,57824,1,0,0:0:0:0:
320,192,57991,1,0,0:0:0:70:tom.wav
448,192,57991,1,0,0:0:0:0:
64,192,58157,128,8,58491:0:0:0:0:
320,192,58157,1,0,0:0:0:0:
448,192,58157,1,0,0:0:0:0:
320,192,58491,1,0,0:0:0:30:snare.wav
448,192,58491,1,0,0:0:0:0:
64,192,58574,1,0,0:0:0:30:snare.wav
192,192,58574,1,0,0:0:0:0:
320,192,58657,1,0,0:0:0:30:snare.wav
448,192,58657,1,0,0:0:0:0:
192,192,58741,1,0,0:0:0:30:snare.wav
64,192,58824,1,2,0:0:0:0:
320,192,58824,1,4,0:0:0:0:
448,192,58824,1,0,0:0:0:0:
64,192,58991,1,0,0:0:0:0:
192,192,59157,1,8,0:0:0:0:
320,192,59157,1,0,0:0:0:0:
448,192,59157,1,0,0:0:0:0:
192,192,59324,1,0,0:0:0:0:
320,192,59491,1,2,0:0:0:0:
448,192,59491,1,0,0:0:0:0:
448,192,59657,1,0,0:0:0:0:
64,192,59824,128,8,59991:0:0:0:0:
192,192,59824,1,0,0:0:0:0:
320,192,59824,1,0,0:0:0:0:
448,192,59991,128,0,60324:0:0:0:0:
64,192,60157,1,2,0:0:0:0:
192,192,60157,1,0,0:0:0:0:
320,192,60324,128,0,60491:0:0:0:0:
64,192,60491,128,8,60657:0:0:0:0:
192,192,60491,1,0,0:0:0:0:
448,192,60491,1,0,0:0:0:0:
320,192,60657,128,0,60824:0:0:0:0:
64,192,60824,1,2,0:0:0:0:
448,192,60824,128,0,60991:0:0:0:0:
192,192,60991,1,0,0:0:0:0:
64,192,61157,1,8,0:0:0:0:
320,192,61157,1,0,0:0:0:0:
448,192,61157,1,0,0:0:0:0:
320,192,61324,1,0,0:0:0:0:
192,192,61491,1,2,0:0:0:0:
448,192,61491,128,0,61657:0:0:0:0:
64,192,61657,1,0,0:0:0:0:
64,192,61824,1,8,0:0:0:0:
192,192,61824,1,0,0:0:0:0:
320,192,61824,128,0,61991:0:0:0:0:
448,192,61991,1,0,0:0:0:0:
64,192,62157,1,2,0:0:0:0:
192,192,62157,128,0,62324:0:0:0:0:
320,192,62324,128,0,62491:0:0:0:0:
64,192,62491,1,8,0:0:0:0:
192,192,62491,128,0,62657:0:0:0:0:
448,192,62491,1,0,0:0:0:0:
448,192,62657,128,0,62991:0:0:0:0:
64,192,62824,1,2,0:0:0:0:
320,192,62824,1,0,0:0:0:0:
64,192,62991,128,0,63157:0:0:0:0:
192,192,63157,1,8,0:0:0:0:
320,192,63157,1,0,0:0:0:0:
448,192,63157,128,0,63324:0:0:0:0:
64,192,63324,128,0,63491:0:0:0:0:
320,192,63491,128,2,63657:0:0:0:0:
448,192,63491,1,0,0:0:0:0:
192,192,63657,1,0,0:0:0:0:
64,192,63824,1,8,0:0:0:0:
320,192,63824,1,0,0:0:0:0:
448,192,63824,1,0,0:0:0:0:
192,192,63991,1,8,0:0:0:0:
320,192,63991,1,0,0:0:0:0:
448,192,63991,1,0,0:0:0:0:
64,192,64157,1,2,0:0:0:0:
192,192,64157,1,4,0:0:0:0:
448,192,64157,1,0,0:0:0:0:
320,192,64324,1,0,0:0:0:0:
192,192,64407,1,0,0:0:0:0:
64,192,64491,128,8,64657:0:0:0:0:
320,192,64491,1,0,0:0:0:0:
448,192,64491,1,0,0:0:0:0:
192,192,64657,128,0,64824:0:0:0:0:
320,192,64824,128,2,64991:0:0:0:0:
448,192,64824,1,0,0:0:0:0:
64,192,64991,128,0,65157:0:0:0:0:
192,192,65157,1,8,0:0:0:0:
320,192,65157,1,0,0:0:0:0:
448,192,65157,128,0,65324:0:0:0:0:
64,192,65324,128,0,65657:0:0:0:0:
320,192,65491,1,2,0:0:0:0:
448,192,65491,1,0,0:0:0:0:
192,192,65657,128,0,65824:0:0:0:0:
64,192,65824,1,8,0:0:0:0:
320,192,65824,1,0,0:0:0:0:
448,192,65824,1,0,0:0:0:0:
64,192,65991,128,0,66157:0:0:0:0:
320,192,66157,1,2,0:0:0:0:
448,192,66157,128,0,66324:0:0:0:0:
64,192,66324,128,0,66491:0:0:0:0:
192,192,66491,1,8,0:0:0:0:
320,192,66491,1,0,0:0:0:0:
448,192,66491,1,0,0:0:0:0:
320,192,66657,128,0,66991:0:0:0:0:
64,192,66824,1,2,0:0:0:0:
192,192,66824,1,0,0:0:0:0:
192,192,66991,128,0,67157:0:0:0:0:
64,192,67157,128,8,67324:0:0:0:0:
320,192,67157,1,0,0:0:0:0:
448,192,67157,1,0,0:0:0:0:
448,192,67324,128,0,67491:0:0:0:0:
320,192,67491,1,2,0:0:0:0:
192,192,67491,1,0,0:0:0:0:
192,192,67657,128,0,67824:0:0:0:0:
64,192,67824,1,8,0:0:0:0:
320,192,67824,1,0,0:0:0:0:
448,192,67824,1,0,0:0:0:0:
64,192,67991,1,4,0:0:0:0:
192,192,67991,128,0,68324:0:0:0:0:
448,192,67991,1,0,0:0:0:0:
448,192,68324,1,0,0:0:0:0:
64,192,68491,1,8,0:0:0:0:
320,192,68491,128,0,68657:0:0:0:0:
448,192,68491,1,0,0:0:0:0:
64,192,68657,1,0,0:0:0:0:
192,192,68657,128,0,68824:0:0:0:0:
320,192,68824,1,2,0:0:0:0:
448,192,68824,1,0,0:0:0:0:
64,192,69157,1,8,0:0:0:0:
448,192,69157,1,0,0:0:0:0:
192,192,69241,1,8,0:0:0:0:
320,192,69241,1,0,0:0:0:0:
64,192,69324,1,8,0:0:0:0:
448,192,69324,1,0,0:0:0:0:
192,192,69407,1,8,0:0:0:0:
64,192,69491,1,2,0:0:0:0:
320,192,69491,1,4,0:0:0:0:
448,192,69491,1,0,0:0:0:0:
320,192,69657,1,0,0:0:0:0:
64,192,69824,1,8,0:0:0:0:
192,192,69824,1,0,0:0:0:0:
448,192,69824,1,0,0:0:0:0:
192,192,69991,1,0,0:0:0:0:
320,192,70157,1,2,0:0:0:0:
64,192,70157,128,0,70324:0:0:0:0:
448,192,70324,128,0,70491:0:0:0:0:
320,192,70491,1,8,0:0:0:0:
64,192,70491,128,0,70657:0:0:0:0:
192,192,70491,1,0,0:0:0:0:
448,192,70657,128,0,70991:0:0:0:0:
64,192,70824,1,2,0:0:0:0:
320,192,70824,1,0,0:0:0:0:
192,192,70991,128,0,71157:0:0:0:0:
64,192,71157,1,8,0:0:0:0:
320,192,71157,1,0,0:0:0:0:
448,192,71157,128,0,71324:0:0:0:0:
64,192,71324,128,0,71491:0:0:0:0:
320,192,71491,128,2,71657:0:0:0:0:
448,192,71491,1,0,0:0:0:0:
192,192,71657,1,0,0:0:0:0:
64,192,71824,1,8,0:0:0:0:
320,192,71824,1,0,0:0:0:0:
448,192,71824,1,0,0:0:0:0:
320,192,71991,1,0,0:0:0:0:
64,192,72157,128,2,72324:0:0:0:0:
192,192,72157,1,0,0:0:0:0:
448,192,72324,1,0,0:0:0:0:
192,192,72491,1,8,0:0:0:0:
320,192,72491,128,0,72657:0:0:0:0:
448,192,72491,1,0,0:0:0:0:
64,192,72657,1,0,0:0:0:0:
320,192,72824,1,2,0:0:0:0:
448,192,72824,128,0,72991:0:0:0:0:
192,192,72991,128,0,73157:0:0:0:0:
64,192,73157,128,8,73324:0:0:0:0:
320,192,73157,1,0,0:0:0:0:
448,192,73157,1,0,0:0:0:0:
320,192,73324,128,0,73657:0:0:0:0:
64,192,73491,1,2,0:0:0:0:
192,192,73491,1,0,0:0:0:0:
192,192,73657,128,0,73824:0:0:0:0:
64,192,73824,128,8,73991:0:0:0:0:
320,192,73824,1,0,0:0:0:0:
448,192,73824,1,0,0:0:0:0:
320,192,73991,128,0,74157:0:0:0:0:
64,192,74157,1,2,0:0:0:0:
448,192,74157,128,0,74324:0:0:0:0:
192,192,74324,1,0,0:0:0:0:
64,192,74491,1,8,0:0:0:0:
320,192,74491,1,0,0:0:0:0:
448,192,74491,1,0,0:0:0:0:
192,192,74657,1,8,0:0:0:0:
320,192,74657,1,0,0:0:0:0:
448,192,74657,1,0,0:0:0:0:
64,192,74824,1,2,0:0:0:0:
192,192,74824,1,4,0:0:0:0:
448,192,74824,1,0,0:0:0:0:
320,192,74991,128,0,75157:0:0:0:0:
64,192,75157,1,8,0:0:0:0:
192,192,75157,128,0,75324:0:0:0:0:
448,192,75157,1,0,0:0:0:0:
320,192,75324,128,0,75491:0:0:0:0:
64,192,75491,128,2,75657:0:0:0:0:
448,192,75491,1,0,0:0:0:0:
448,192,75657,128,0,75824:0:0:0:0:
64,192,75824,1,8,0:0:0:0:
192,192,75824,1,0,0:0:0:0:
320,192,75824,128,0,75991:0:0:0:0:
192,192,75991,128,0,76324:0:0:0:0:
320,192,76157,1,2,0:0:0:0:
448,192,76157,1,0,0:0:0:0:
448,192,76324,128,0,76491:0:0:0:0:
64,192,76491,1,8,0:0:0:0:
192,192,76491,1,0,0:0:0:0:
320,192,76491,1,0,0:0:0:0:
192,192,76657,128,0,76824:0:0:0:0:
320,192,76824,128,2,76991:0:0:0:0:
448,192,76824,1,0,0:0:0:0:
192,192,76991,128,0,77157:0:0:0:0:
64,192,77157,1,8,0:0:0:0:
320,192,77157,1,0,0:0:0:0:
448,192,77157,1,0,0:0:0:0:
64,192,77324,128,0,77491:0:0:0:0:
192,192,77491,1,2,0:0:0:0:
320,192,77491,1,0,0:0:0:0:
448,192,77657,128,0,77824:0:0:0:0:
64,192,77824,128,8,77991:0:0:0:0:
192,192,77824,1,0,0:0:0:0:
320,192,77824,1,0,0:0:0:0:
448,192,77991,128,0,78157:0:0:0:0:
64,192,78157,1,2,0:0:0:0:
192,192,78157,1,0,0:0:0:0:
320,192,78324,128,0,78491:0:0:0:0:
64,192,78491,1,8,0:0:0:0:
192,192,78491,1,0,0:0:0:0:
448,192,78491,1,0,0:0:0:0:
64,192,78657,128,4,78991:0:0:0:0:
320,192,78657,1,0,0:0:0:0:
448,192,78657,1,0,0:0:0:0:
192,192,78991,1,8,0:0:0:0:
448,192,78991,1,0,0:0:0:0:
64,192,79074,1,8,0:0:0:0:
320,192,79074,1,0,0:0:0:0:
192,192,79157,1,8,0:0:0:0:
448,192,79157,1,0,0:0:0:0:
64,192,79324,1,0,0:0:0:70:tom.wav
320,192,79324,1,0,0:0:0:0:
64,192,79491,1,0,0:0:0:30:snare.wav
192,192,79491,1,0,0:0:0:0:
448,192,79491,1,0,0:0:0:0:
192,192,79824,128,0,79907:0:0:0:0:
320,192,79866,128,0,79949:0:0:0:0:
64,192,80157,1,2,0:0:0:0:
192,192,80157,1,4,0:0:0:0:
320,192,80157,1,0,0:0:0:0:
448,192,80157,1,0,0:0:0:0:
192,192,80324,128,0,80491:0:0:0:0:
64,192,80491,128,0,80657:0:0:0:30:snare.wav
320,192,80491,1,0,0:0:0:0:
448,192,80491,1,0,0:0:0:0:
448,192,80657,128,0,80824:0:0:0:0:
64,192,80824,1,2,0:0:0:0:
320,192,80824,128,0,80991:0:0:0:0:
192,192,80991,128,0,81157:0:0:0:0:
64,192,81157,1,0,0:0:0:30:snare.wav
320,192,81157,1,0,0:0:0:0:
448,192,81157,1,0,0:0:0:0:
192,192,81324,128,0,81491:0:0:0:0:
64,192,81491,1,2,0:0:0:0:
448,192,81491,128,0,81657:0:0:0:0:
192,192,81657,128,0,81824:0:0:0:0:
64,192,81824,128,0,81991:0:0:0:30:snare.wav
320,192,81824,1,0,0:0:0:0:
448,192,81824,1,0,0:0:0:0:
448,192,81991,128,0,82157:0:0:0:0:
192,192,82157,128,2,82324:0:0:0:0:
320,192,82157,1,0,0:0:0:0:
320,192,82324,128,0,82491:0:0:0:0:
64,192,82491,1,0,0:0:0:30:snare.wav
192,192,82491,1,0,0:0:0:0:
448,192,82491,128,0,82657:0:0:0:0:
192,192,82657,128,0,82824:0:0:0:0:
64,192,82824,1,2,0:0:0:0:
448,192,82824,1,0,0:0:0:0:
192,192,82991,128,0,83157:0:0:0:0:
64,192,83157,1,0,0:0:0:30:snare.wav
320,192,83157,1,0,0:0:0:0:
448,192,83157,128,0,83324:0:0:0:0:
320,192,83324,128,0,83491:0:0:0:0:
64,192,83491,128,2,83657:0:0:0:0:
192,192,83491,1,0,0:0:0:0:
448,192,83657,128,0,83824:0:0:0:0:
64,192,83824,1,0,0:0:0:30:snare.wav
192,192,83824,1,0,0:0:0:0:
320,192,83824,1,0,0:0:0:0:
448,192,83991,128,0,84157:0:0:0:0:
64,192,84157,1,2,0:0:0:0:
192,192,84157,128,0,84324:0:0:0:0:
448,192,84324,128,0,84491:0:0:0:0:
64,192,84491,128,0,84657:0:0:0:30:snare.wav
192,192,84491,1,0,0:0:0:0:
320,192,84491,1,0,0:0:0:0:
320,192,84657,128,0,84824:0:0:0:0:
64,192,84824,1,2,0:0:0:0:
192,192,84824,128,0,84991:0:0:0:0:
448,192,84991,128,0,85157:0:0:0:0:
64,192,85157,1,8,0:0:0:0:
192,192,85157,1,4,0:0:0:0:
320,192,85157,1,0,0:0:0:0:
64,192,85324,1,8,0:0:0:0:
192,192,85324,1,0,0:0:0:0:
448,192,85324,1,0,0:0:0:0:
64,192,85491,1,2,0:0:0:0:
320,192,85491,1,4,0:0:0:0:
448,192,85491,1,0,0:0:0:0:
192,192,85657,128,0,85824:0:0:0:0:
64,192,85824,1,0,0:0:0:30:snare.wav
320,192,85824,128,0,85991:0:0:0:0:
448,192,85824,1,0,0:0:0:0:
64,192,85991,128,0,86157:0:0:0:0:
320,192,86157,1,2,0:0:0:0:
448,192,86157,128,0,86324:0:0:0:0:
192,192,86324,128,0,86491:0:0:0:0:
64,192,86491,1,0,0:0:0:30:snare.wav
320,192,86491,1,0,0:0:0:0:
448,192,86491,1,0,0:0:0:0:
192,192,86657,128,0,86824:0:0:0:0:
320,192,86824,1,2,0:0:0:0:
448,192,86824,128,0,86991:0:0:0:0:
192,192,86991,128,0,87157:0:0:0:0:
64,192,87157,1,0,0:0:0:30:snare.wav
320,192,87157,128,0,87324:0:0:0:0:
448,192,87157,1,0,0:0:0:0:
64,192,87324,128,0,87491:0:0:0:0:
192,192,87491,128,2,87657:0:0:0:0:
448,192,87491,1,0,0:0:0:0:
448,192,87657,128,0,87824:0:0:0:0:
64,192,87824,128,0,87991:0:0:0:30:snare.wav
192,192,87824,1,0,0:0:0:0:
320,192,87824,1,0,0:0:0:0:
320,192,87991,128,0,88157:0:0:0:0:
64,192,88157,1,2,0:0:0:0:
192,192,88157,1,0,0:0:0:0:
320,192,88324,128,0,88491:0:0:0:0:
64,192,88491,1,0,0:0:0:30:snare.wav
192,192,88491,1,0,0:0:0:0:
448,192,88491,128,0,88657:0:0:0:0:
320,192,88657,128,0,88824:0:0:0:0:
64,192,88824,128,2,88991:0:0:0:0:
448,192,88824,1,0,0:0:0:0:
192,192,88991,128,0,89157:0:0:0:0:
64,192,89157,1,0,0:0:0:30:snare.wav
320,192,89157,1,0,0:0:0:0:
448,192,89157,1,0,0:0:0:0:
64,192,89324,1,2,0:0:0:0:
192,192,89324,1,4,0:0:0:0:
320,192,89324,128,0,89657:0:0:0:0:
448,192,89324,1,0,0:0:0:0:
64,192,89657,1,0,0:0:0:30:snare.wav
192,192,89657,1,0,0:0:0:0:
448,192,89657,1,0,0:0:0:0:
64,192,89824,1,0,0:0:0:30:snare.wav
192,192,89824,1,0,0:0:0:0:
448,192,89824,1,0,0:0:0:0:
320,192,89991,1,0,0:0:0:70:tom.wav
448,192,89991,1,0,0:0:0:0:
64,192,90074,1,0,0:0:0:70:tom.wav
192,192,90074,1,0,0:0:0:0:
320,192,90157,1,0,0:0:0:70:tom.wav
64,192,90324,1,8,0:0:0:0:
320,192,90324,1,0,0:0:0:0:
448,192,90324,1,0,0:0:0:0:
64,192,90491,1,8,0:0:0:0:
320,192,90491,1,0,0:0:0:0:
448,192,90491,1,0,0:0:0:0:
192,192,90657,1,0,0:0:0:70:tom.wav
448,192,90657,1,0,0:0:0:0:
64,192,90824,1,4,0:0:0:0:
192,192,90824,1,0,0:0:0:0:
320,192,90824,1,0,0:0:0:0:
448,192,90824,1,0,0:0:0:0:
320,192,90991,128,0,91157:0:0:0:0:
192,192,91157,128,0,91324:0:0:0:0:
448,192,91324,128,0,91491:0:0:0:0:
64,192,91491,128,0,91657:0:0:0:0:
320,192,91657,128,0,91824:0:0:0:0:
192,192,91824,128,0,92157:0:0:0:0:
448,192,91991,128,0,92157:0:0:0:0:
64,192,92324,128,0,92491:0:0:0:0:
192,192,92491,128,0,92657:0:0:0:0:
448,192,92657,128,0,92991:0:0:0:0:
320,192,92824,128,0,92991:0:0:0:0:
192,192,92991,128,0,93157:0:0:0:0:
64,192,93157,128,0,93324:0:0:0:0:
320,192,93324,128,0,93491:0:0:0:0:
448,192,93491,128,0,93657:0:0:0:0:
192,192,93657,128,0,93824:0:0:0:0:
320,192,93824,128,0,93991:0:0:0:0:
64,192,93991,128,0,94157:0:0:0:0:
448,192,94157,128,0,94324:0:0:0:0:
192,192,94324,128,0,94491:0:0:0:0:
320,192,94491,128,0,94824:0:0:0:0:
64,192,94657,128,0,94824:0:0:0:0:
448,192,94991,128,0,95157:0:0:0:0:
192,192,95157,128,0,95324:0:0:0:0:
320,192,95324,128,0,95491:0:0:0:0:
64,192,95491,1,2,0:0:0:0:
192,192,95491,1,0,0:0:0:0:
64,192,95657,1,8,0:0:0:0:
320,192,95657,1,0,0:0:0:0:
448,192,95657,1,0,0:0:0:0:
192,192,95824,1,8,0:0:0:0:
320,192,95824,1,0,0:0:0:0:
448,192,95824,1,0,0:0:0:0:
64,192,96157,1,2,0:0:0:0:
192,192,96157,128,4,96241:0:0:0:0:
320,192,96157,1,0,0:0:0:0:
448,192,96157,1,0,0:0:0:0:
192,192,96324,128,0,96657:0:0:0:0:
64,192,96491,1,8,0:0:0:0:
320,192,96491,128,0,96657:0:0:0:0:
448,192,96491,1,0,0:0:0:0:
320,192,96824,1,2,0:0:0:0:
448,192,96824,128,0,96907:0:0:0:0:
448,192,96991,128,0,97324:0:0:0:0:
64,192,97157,128,8,97324:0:0:0:0:
192,192,97157,1,0,0:0:0:0:
320,192,97157,1,0,0:0:0:0:
64,192,97491,1,2,0:0:0:0:
320,192,97491,128,0,97657:0:0:0:0:
448,192,97657,128,0,97741:0:0:0:0:
192,192,97741,128,0,97824:0:0:0:0:
64,192,97824,1,8,0:0:0:0:
320,192,97824,128,0,97991:0:0:0:0:
448,192,97824,1,0,0:0:0:0:
64,192,97991,128,0,98157:0:0:0:0:
192,192,98157,128,2,98324:0:0:0:0:
448,192,98157,1,0,0:0:0:0:
448,192,98324,128,0,98491:0:0:0:0:
64,192,98491,1,8,0:0:0:0:
192,192,98491,1,0,0:0:0:0:
320,192,98491,128,0,98657:0:0:0:0:
192,192,98657,128,0,98824:0:0:0:0:
64,192,98824,128,2,98991:0:0:0:0:
448,192,98824,1,0,0:0:0:0:
320,192,98991,1,0,0:0:0:0:
64,192,99157,1,8,0:0:0:0:
192,192,99157,1,0,0:0:0:0:
448,192,99157,128,0,99324:0:0:0:0:
320,192,99324,1,0,0:0:0:0:
64,192,99491,128,2,99657:0:0:0:0:
448,192,99491,1,0,0:0:0:0:
192,192,99657,128,0,99824:0:0:0:0:
64,192,99824,128,8,99991:0:0:0:0:
320,192,99824,1,0,0:0:0:0:
448,192,99824,1,0,0:0:0:0:
320,192,99991,128,0,100324:0:0:0:0:
64,192,100157,1,2,0:0:0:0:
192,192,100157,1,0,0:0:0:0:
448,192,100324,1,0,0:0:0:0:
192,192,100407,1,0,0:0:0:0:
64,192,100491,1,8,0:0:0:0:
320,192,100491,1,0,0:0:0:0:
448,192,100491,1,0,0:0:0:0:
192,192,100657,1,0,0:0:0:0:
64,192,100741,1,8,0:0:0:0:
320,192,100741,1,0,0:0:0:0:
192,192,100824,1,2,0:0:0:0:
448,192,100824,1,0,0:0:0:0:
64,192,100991,1,8,0:0:0:0:
320,192,100991,1,0,0:0:0:0:
448,192,100991,1,0,0:0:0:0:
64,192,101157,1,8,0:0:0:0:
320,192,101157,1,0,0:0:0:0:
448,192,101157,1,0,0:0:0:0:
64,192,101324,1,0,0:0:0:0:
192,192,101324,1,0,0:0:0:0:
320,192,101407,1,0,0:0:0:30:snare.wav
448,192,101407,1,0,0:0:0:0:
64,192,101491,1,2,0:0:0:0:
192,192,101491,128,0,101824:0:0:0:0:
320,192,101657,1,0,0:0:0:0:
448,192,101824,1,0,0:0:0:0:
64,192,101991,1,0,0:0:0:0:
320,192,102157,128,0,102491:0:0:0:0:
192,192,102324,1,0,0:0:0:0:
64,192,102491,1,0,0:0:0:0:
448,192,102491,1,0,0:0:0:0:
64,192,102657,128,0,102824:0:0:0:0:
448,192,102657,1,0,0:0:0:0:
192,192,102824,128,0,103157:0:0:0:0:
320,192,102991,1,0,0:0:0:0:
320,192,103157,128,2,103491:0:0:0:0:
448,192,103157,1,0,0:0:0:0:
64,192,103324,1,0,0:0:0:0:
64,192,103491,1,2,0:0:0:0:
192,192,103491,128,0,103657:0:0:0:0:
448,192,103657,128,0,103824:0:0:0:0:
64,192,103824,1,2,0:0:0:0:
192,192,103824,128,0,103991:0:0:0:0:
320,192,103991,128,0,104157:0:0:0:0:
64,192,104157,1,2,0:0:0:0:
192,192,104157,1,0,0:0:0:0:
320,192,104324,128,0,104407:0:0:0:0:
192,192,104407,128,0,104491:0:0:0:0:
64,192,104491,128,2,104824:0:0:0:0:
448,192,104491,1,0,0:0:0:0:
448,192,104657,128,0,104824:0:0:0:0:
192,192,104824,128,2,105157:0:0:0:0:
320,192,104824,1,0,0:0:0:0:
320,192,104991,128,0,105157:0:0:0:0:
64,192,105157,1,2,0:0:0:0:
448,192,105157,128,0,105491:0:0:0:0:
320,192,105324,128,0,105657:0:0:0:0:
64,192,105491,1,2,0:0:0:0:
192,192,105491,128,0,105824:0:0:0:0:
448,192,105657,128,0,105824:0:0:0:0:
64,192,105824,1,2,0:0:0:0:
320,192,105824,128,0,105991:0:0:0:0:
64,192,105991,128,2,106116:0:0:0:0:
192,192,105991,128,0,106116:0:0:0:0:
448,192,105991,128,0,106116:0:0:0:0:
64,192,106324,128,2,106449:0:0:0:0:
192,192,106324,128,0,106449:0:0:0:0:
320,192,106324,128,0,106449:0:0:0:0:
64,192,106657,1,2,0:0:0:0:
192,192,106657,1,4,0:0:0:0:
320,192,106657,1,0,0:0:0:0:
448,192,106657,128,0,106991:0:0:0:0:
64,192,106991,1,2,0:0:0:0:
192,192,106991,1,0,0:0:0:0:
192,192,107157,1,8,0:0:0:0:
320,192,107157,1,0,0:0:0:0:
448,192,107157,1,0,0:0:0:0:
64,192,107491,1,2,0:0:0:0:
192,192,107491,1,0,0:0:0:0:
320,192,107657,1,2,0:0:0:0:
448,192,107657,1,0,0:0:0:0:
64,192,107824,1,8,0:0:0:0:
192,192,107824,1,0,0:0:0:0:
448,192,107824,1,0,0:0:0:0:
64,192,107991,128,2,108324:0:0:0:0:
192,192,107991,1,4,0:0:0:0:
320,192,107991,1,0,0:0:0:0:
448,192,107991,1,0,0:0:0:0:
192,192,108324,1,2,0:0:0:0:
320,192,108324,1,0,0:0:0:0:
64,192,108491,1,8,0:0:0:0:
192,192,108491,1,0,0:0:0:0:
448,192,108491,1,0,0:0:0:0:
64,192,108824,1,2,0:0:0:0:
320,192,108824,1,0,0:0:0:0:
192,192,108991,1,2,0:0:0:0:
448,192,108991,1,0,0:0:0:0:
64,192,109157,1,8,0:0:0:0:
192,192,109157,1,0,0:0:0:0:
320,192,109157,1,0,0:0:0:0:
64,192,109324,1,2,0:0:0:0:
320,192,109324,128,0,109657:0:0:0:0:
448,192,109324,1,0,0:0:0:0:
64,192,109657,1,2,0:0:0:0:
448,192,109657,1,0,0:0:0:0:
192,192,109824,1,8,0:0:0:0:
320,192,109824,1,0,0:0:0:0:
448,192,109824,1,0,0:0:0:0:
64,192,110157,1,2,0:0:0:0:
448,192,110157,1,0,0:0:0:0:
192,192,110324,1,2,0:0:0:0:
320,192,110324,1,0,0:0:0:0:
64,192,110491,1,8,0:0:0:0:
192,192,110491,1,0,0:0:0:0:
448,192,110491,1,0,0:0:0:0:
64,192,110657,128,2,110991:0:0:0:0:
192,192,110657,1,4,0:0:0:0:
320,192,110657,1,0,0:0:0:0:
448,192,110657,1,0,0:0:0:0:
320,192,110991,1,0,0:0:0:70:tom.wav
448,192,110991,1,0,0:0:0:0:
192,192,111074,1,0,0:0:0:70:tom.wav
64,192,111157,1,8,0:0:0:0:
320,192,111157,1,0,0:0:0:0:
448,192,111157,1,0,0:0:0:0:
64,192,111324,1,0,0:0:0:70:tom.wav
192,192,111324,1,0,0:0:0:0:
64,192,111491,1,8,0:0:0:0:
192,192,111491,1,0,0:0:0:0:
448,192,111491,128,0,111824:0:0:0:0:
64,192,111824,1,0,0:0:0:30:snare.wav
192,192,111824,1,0,0:0:0:0:
320,192,111907,1,0,0:0:0:30:snare.wav
448,192,111907,1,0,0:0:0:0:
64,192,111991,1,0,0:0:0:30:snare.wav
192,192,111991,1,0,0:0:0:0:
320,192,112074,1,0,0:0:0:30:snare.wav
64,192,112157,1,2,0:0:0:0:
192,192,112157,1,4,0:0:0:0:
448,192,112157,1,0,0:0:0:0:
448,192,112324,1,0,0:0:0:0:
64,192,112491,1,8,0:0:0:0:
192,192,112491,1,0,0:0:0:0:
320,192,112491,1,0,0:0:0:0:
320,192,112657,1,0,0:0:0:0:
64,192,112824,1,2,0:0:0:0:
192,192,112824,1,0,0:0:0:0:
64,192,112991,1,0,0:0:0:0:
192,192,113157,1,8,0:0:0:0:
320,192,113157,1,0,0:0:0:0:
448,192,113157,128,0,113324:0:0:0:0:
64,192,113324,128,0,113657:0:0:0:0:
320,192,113491,1,2,0:0:0:0:
448,192,113491,1,0,0:0:0:0:
192,192,113657,128,0,113824:0:0:0:0:
64,192,113824,1,8,0:0:0:0:
320,192,113824,1,0,0:0:0:0:
448,192,113824,128,0,113991:0:0:0:0:
192,192,113991,128,0,114157:0:0:0:0:
64,192,114157,128,2,114324:0:0:0:0:
448,192,114157,1,0,0:0:0:0:
320,192,114324,1,0,0:0:0:0:
64,192,114491,1,8,0:0:0:0:
192,192,114491,1,0,0:0:0:0:
448,192,114491,1,0,0:0:0:0:
192,192,114657,1,0,0:0:0:0:
64,192,114824,128,2,114991:0:0:0:0:
320,192,114824,1,0,0:0:0:0:
448,192,114991,1,0,0:0:0:0:
192,192,115157,128,8,115324:0:0:0:0:
320,192,115157,1,0,0:0:0:0:
448,192,115157,1,0,0:0:0:0:
64,192,115324,1,0,0:0:0:0:
320,192,115491,128,2,115657:0:0:0:0:
448,192,115491,1,0,0:0:0:0:
192,192,115657,128,0,115824:0:0:0:0:
64,192,115824,1,8,0:0:0:0:
320,192,115824,128,0,115991:0:0:0:0:
448,192,115824,1,0,0:0:0:0:
64,192,115991,128,0,116324:0:0:0:0:
192,192,116157,1,2,0:0:0:0:
448,192,116157,1,0,0:0:0:0:
448,192,116324,128,0,116491:0:0:0:0:
64,192,116491,128,8,116657:0:0:0:0:
192,192,116491,1,0,0:0:0:0:
320,192,116491,1,0,0:0:0:0:
448,192,116657,128,0,116824:0:0:0:0:
64,192,116824,1,2,0:0:0:0:
192,192,116824,128,0,116991:0:0:0:0:
320,192,116991,1,0,0:0:0:0:
64,192,117157,1,8,0:0:0:0:
192,192,117157,1,0,0:0:0:0:
448,192,117157,1,0,0:0:0:0:
64,192,117324,1,8,0:0:0:0:
192,192,117324,1,0,0:0:0:0:
320,192,117324,1,0,0:0:0:0:
64,192,117491,1,2,0:0:0:0:
320,192,117491,1,4,0:0:0:0:
448,192,117491,1,0,0:0:0:0:
192,192,117657,1,0,0:0:0:0:
320,192,117741,1,0,0:0:0:0:
64,192,117824,1,8,0:0:0:0:
192,192,117824,1,0,0:0:0:0:
448,192,117824,128,0,117991:0:0:0:0:
320,192,117991,128,0,118157:0:0:0:0:
64,192,118157,128,2,118324:0:0:0:0:
192,192,118157,1,0,0:0:0:0:
448,192,118324,128,0,118491:0:0:0:0:
64,192,118491,128,8,118657:0:0:0:0:
192,192,118491,1,0,0:0:0:0:
320,192,118491,1,0,0:0:0:0:
448,192,118657,128,0,118991:0:0:0:0:
64,192,118824,1,2,0:0:0:0:
192,192,118824,1,0,0:0:0:0:
320,192,118991,128,0,119157:0:0:0:0:
64,192,119157,1,8,0:0:0:0:
192,192,119157,1,0,0:0:0:0:
448,192,119157,1,0,0:0:0:0:
448,192,119324,128,0,119491:0:0:0:0:
64,192,119491,128,2,119657:0:0:0:0:
192,192,119491,1,0,0:0:0:0:
448,192,119657,128,0,119824:0:0:0:0:
64,192,119824,1,8,0:0:0:0:
192,192,119824,1,0,0:0:0:0:
320,192,119824,1,0,0:0:0:0:
192,192,119991,128,0,120324:0:0:0:0:
320,192,120157,1,2,0:0:0:0:
448,192,120157,1,0,0:0:0:0:
320,192,120324,128,0,120491:0:0:0:0:
64,192,120491,1,8,0:0:0:0:
192,192,120491,1,0,0:0:0:0:
448,192,120491,128,0,120657:0:0:0:0:
64,192,120657,128,0,120824:0:0:0:0:
320,192,120824,1,2,0:0:0:0:
192,192,120824,1,0,0:0:0:0:
320,192,120991,128,0,121157:0:0:0:0:
64,192,121157,1,8,0:0:0:0:
192,192,121157,1,0,0:0:0:0:
448,192,121157,1,0,0:0:0:0:
64,192,121324,1,4,0:0:0:0:
320,192,121324,128,0,121657:0:0:0:0:
448,192,121324,1,0,0:0:0:0:
64,192,121657,1,0,0:0:0:0:
64,192,121824,1,8,0:0:0:0:
192,192,121824,128,0,121991:0:0:0:0:
448,192,121824,1,0,0:0:0:0:
320,192,121991,128,0,122157:0:0:0:0:
448,192,121991,1,0,0:0:0:0:
64,192,122157,1,2,0:0:0:0:
192,192,122157,1,0,0:0:0:0:
64,192,122491,1,8,0:0:0:0:
448,192,122491,1,0,0:0:0:0:
192,192,122574,1,8,0:0:0:0:
320,192,122574,1,0,0:0:0:0:
64,192,122657,1,8,0:0:0:0:
448,192,122657,1,0,0:0:0:0:
320,192,122741,1,8,0:0:0:0:
64,192,122824,1,2,0:0:0:0:
192,192,122824,1,4,0:0:0:0:
448,192,122824,1,0,0:0:0:0:
192,192,122991,1,0,0:0:0:0:
64,192,123157,1,8,0:0:0:0:
320,192,123157,1,0,0:0:0:0:
448,192,123157,1,0,0:0:0:0:
320,192,123324,1,0,0:0:0:0:
192,192,123491,128,2,123657:0:0:0:0:
448,192,123491,1,0,0:0:0:0:
320,192,123657,128,0,123824:0:0:0:0:
192,192,123824,1,8,0:0:0:0:
64,192,123824,128,0,123991:0:0:0:0:
448,192,123824,1,0,0:0:0:0:
448,192,123991,128,0,124324:0:0:0:0:
192,192,124157,1,2,0:0:0:0:
64,192,124157,1,0,0:0:0:0:
320,192,124324,128,0,124491:0:0:0:0:
64,192,124491,128,8,124657:0:0:0:0:
192,192,124491,1,0,0:0:0:0:
448,192,124491,1,0,0:0:0:0:
448,192,124657,128,0,124824:0:0:0:0:
64,192,124824,1,2,0:0:0:0:
192,192,124824,128,0,124991:0:0:0:0:
320,192,124991,1,0,0:0:0:0:
64,192,125157,1,8,0:0:0:0:
192,192,125157,1,0,0:0:0:0:
448,192,125157,1,0,0:0:0:0:
192,192,125324,1,0,0:0:0:0:
320,192,125491,1,2,0:0:0:0:
448,192,125491,128,0,125657:0:0:0:0:
64,192,125657,1,0,0:0:0:0:
64,192,125824,1,8,0:0:0:0:
192,192,125824,128,0,125991:0:0:0:0:
320,192,125824,1,0,0:0:0:0:
448,192,125991,1,0,0:0:0:0:
64,192,126157,128,2,126324:0:0:0:0:
192,192,126157,1,0,0:0:0:0:
320,192,126324,128,0,126491:0:0:0:0:
64,192,126491,1,8,0:0:0:0:
192,192,126491,1,0,0:0:0:0:
448,192,126491,128,0,126657:0:0:0:0:
192,192,126657,128,0,126991:0:0:0:0:
320,192,126824,1,2,0:0:0:0:
448,192,126824,1,0,0:0:0:0:
320,192,126991,128,0,127157:0:0:0:0:
64,192,127157,1,8,0:0:0:0:
192,192,127157,1,0,0:0:0:0:
448,192,127157,128,0,127324:0:0:0:0:
192,192,127324,128,0,127491:0:0:0:0:
64,192,127491,128,2,127657:0:0:0:0:
448,192,127491,1,0,0:0:0:0:
320,192,127657,1,0,0:0:0:0:
64,192,127824,1,8,0:0:0:0:
192,192,127824,1,0,0:0:0:0:
448,192,127824,1,0,0:0:0:0:
64,192,127991,1,8,0:0:0:0:
192,192,127991,1,0,0:0:0:0:
320,192,127991,1,0,0:0:0:0:
64,192,128157,1,2,0:0:0:0:
320,192,128157,1,4,0:0:0:0:
448,192,128157,1,0,0:0:0:0:
192,192,128324,128,0,128491:0:0:0:0:
64,192,128491,1,8,0:0:0:0:
448,192,128491,128,0,128657:0:0:0:0:
320,192,128491,1,0,0:0:0:0:
64,192,128657,128,0,128824:0:0:0:0:
448,192,128824,1,2,0:0:0:0:
320,192,128824,128,0,128991:0:0:0:0:
192,192,128991,128,0,129157:0:0:0:0:
448,192,129157,1,8,0:0:0:0:
64,192,129157,128,0,129324:0:0:0:0:
320,192,129157,1,0,0:0:0:0:
448,192,129324,128,0,129657:0:0:0:0:
192,192,129491,1,2,0:0:0:0:
64,192,129491,1,0,0:0:0:0:
320,192,129657,128,0,129824:0:0:0:0:
64,192,129824,1,8,0:0:0:0:
192,192,129824,1,0,0:0:0:0:
448,192,129824,1,0,0:0:0:0:
192,192,129991,128,0,130157:0:0:0:0:
320,192,130157,128,2,130324:0:0:0:0:
448,192,130157,1,0,0:0:0:0:
192,192,130324,128,0,130491:0:0:0:0:
64,192,130491,1,8,0:0:0:0:
320,192,130491,1,0,0:0:0:0:
448,192,130491,1,0,0:0:0:0:
448,192,130657,128,0,130824:0:0:0:0:
192,192,130824,1,2,0:0:0:0:
320,192,130824,1,0,0:0:0:0:
64,192,130991,128,0,131157:0:0:0:0:
192,192,131157,1,8,0:0:0:0:
320,192,131157,1,0,0:0:0:0:
448,192,131157,128,0,131324:0:0:0:0:
64,192,131324,128,0,131491:0:0:0:0:
320,192,131491,1,2,0:0:0:0:
448,192,131491,1,0,0:0:0:0:
192,192,131657,128,0,131824:0:0:0:0:
64,192,131824,1,8,0:0:0:0:
320,192,131824,1,0,0:0:0:0:
448,192,131824,1,0,0:0:0:0:
64,192,131991,1,4,0:0:0:0:
192,192,131991,1,0,0:0:0:0:
448,192,131991,128,0,132324:0:0:0:0:
192,192,132324,1,8,0:0:0:0:
320,192,132324,1,0,0:0:0:0:
64,192,132407,1,8,0:0:0:0:
448,192,132407,1,0,0:0:0:0:
192,192,132491,1,8,0:0:0:0:
320,192,132491,1,0,0:0:0:0:
64,192,132657,128,0,132741:0:0:0:70:tom.wav
448,192,132657,1,0,0:0:0:0:
64,192,132824,128,0,132907:0:0:0:30:snare.wav
320,192,132824,1,0,0:0:0:0:
448,192,132824,1,0,0:0:0:0:
192,192,132991,128,0,133074:0:0:0:0:
192,192,133157,128,0,133241:0:0:0:0:
448,192,133157,128,0,133324:0:0:0:0:
320,192,133324,128,0,133407:0:0:0:0:
64,192,133491,128,2,133741:0:0:0:0:
320,192,133491,128,4,133574:0:0:0:0:
448,192,133491,1,0,0:0:0:0:
192,192,133657,1,0,0:0:0:0:
64,192,133824,1,8,0:0:0:0:
320,192,133824,1,0,0:0:0:0:
448,192,133824,128,0,134157:0:0:0:0:
192,192,133991,1,0,0:0:0:0:
64,192,134157,128,2,134324:0:0:0:0:
320,192,134157,1,0,0:0:0:0:
448,192,134324,128,0,134491:0:0:0:0:
64,192,134491,1,8,0:0:0:0:
192,192,134491,128,0,134657:0:0:0:0:
320,192,134491,1,0,0:0:0:0:
448,192,134657,128,0,134991:0:0:0:0:
64,192,134824,1,2,0:0:0:0:
192,192,134824,1,0,0:0:0:0:
320,192,134991,128,0,135157:0:0:0:0:
64,192,135157,128,8,135324:0:0:0:0:
192,192,135157,1,0,0:0:0:0:
448,192,135157,1,0,0:0:0:0:
320,192,135324,128,0,135407:0:0:0:0:
192,192,135407,128,0,135491:0:0:0:0:
64,192,135491,1,2,0:0:0:0:
448,192,135491,128,0,135657:0:0:0:0:
320,192,135657,128,0,135824:0:0:0:0:
64,192,135824,128,8,135991:0:0:0:0:
192,192,135824,1,0,0:0:0:0:
448,192,135824,1,0,0:0:0:0:
320,192,135991,128,0,136324:0:0:0:0:
64,192,136157,1,2,0:0:0:0:
192,192,136157,1,0,0:0:0:0:
192,192,136324,128,0,136407:0:0:0:0:
448,192,136407,128,0,136491:0:0:0:0:
64,192,136491,128,8,136657:0:0:0:0:
192,192,136491,1,0,0:0:0:0:
320,192,136491,1,0,0:0:0:0:
320,192,136657,128,0,136824:0:0:0:0:
64,192,136824,1,2,0:0:0:0:
192,192,136824,1,0,0:0:0:0:
448,192,136824,128,0,136991:0:0:0:0:
192,192,136991,128,0,137157:0:0:0:0:
64,192,137157,1,8,0:0:0:0:
320,192,137157,128,0,137657:0:0:0:0:
448,192,137157,1,0,0:0:0:0:
192,192,137324,128,0,137657:0:0:0:0:
64,192,137491,1,2,0:0:0:0:
448,192,137491,1,0,0:0:0:0:
448,192,137657,128,0,137824:0:0:0:0:
64,192,137824,1,8,0:0:0:0:
192,192,137824,1,0,0:0:0:0:
320,192,137824,128,0,137991:0:0:0:0:
448,192,137991,128,0,138157:0:0:0:0:
192,192,138157,1,2,0:0:0:0:
320,192,138157,1,0,0:0:0:0:
64,192,138324,128,0,138407:0:0:0:0:
192,192,138491,128,8,138574:0:0:0:0:
320,192,138491,1,0,0:0:0:0:
448,192,138491,1,0,0:0:0:0:
64,192,138657,128,8,138824:0:0:0:0:
320,192,138657,1,0,0:0:0:0:
448,192,138657,1,0,0:0:0:0:
192,192,138824,1,2,0:0:0:0:
320,192,138824,1,4,0:0:0:0:
448,192,138824,1,0,0:0:0:0:
64,192,139157,1,8,0:0:0:0:
192,192,139157,1,0,0:0:0:0:
448,192,139157,128,0,139241:0:0:0:0:
320,192,139241,128,0,139324:0:0:0:0:
64,192,139324,128,0,139407:0:0:0:0:
192,192,139407,128,0,139491:0:0:0:0:
448,192,139491,1,2,0:0:0:0:
320,192,139491,128,0,139574:0:0:0:0:
192,192,139574,128,0,139657:0:0:0:0:
64,192,139657,128,0,139741:0:0:0:0:
448,192,139741,128,0,139824:0:0:0:0:
320,192,139824,128,8,139907:0:0:0:0:
192,192,139824,1,0,0:0:0:0:
64,192,139824,1,0,0:0:0:0:
448,192,139907,128,0,139991:0:0:0:0:
192,192,139991,128,0,140074:0:0:0:0:
320,192,140074,128,0,140157:0:0:0:0:
192,192,140157,1,2,0:0:0:0:
64,192,140157,128,0,140241:0:0:0:0:
448,192,140241,128,0,140324:0:0:0:0:
320,192,140324,128,0,140407:0:0:0:0:
192,192,140407,128,0,140491:0:0:0:0:
64,192,140491,1,8,0:0:0:0:
448,192,140491,128,0,140574:0:0:0:0:
320,192,140491,1,0,0:0:0:0:
192,192,140574,128,0,140657:0:0:0:0:
320,192,140657,128,0,140741:0:0:0:0:
448,192,140741,128,0,140824:0:0:0:0:
64,192,140824,1,2,0:0:0:0:
192,192,140824,128,0,140907:0:0:0:0:
448,192,140907,128,0,140991:0:0:0:0:
320,192,140991,128,0,141074:0:0:0:0:
64,192,141074,128,0,141157:0:0:0:0:
320,192,141157,128,8,141241:0:0:0:0:
448,192,141157,128,0,141241:0:0:0:0:
64,192,141241,128,0,141324:0:0:0:0:
192,192,141241,128,0,141324:0:0:0:0:
320,192,141324,128,0,141657:0:0:0:0:
448,192,141324,128,0,141657:0:0:0:0:
64,192,141491,1,2,0:0:0:0:
192,192,141491,1,0,0:0:0:0:
192,192,141657,128,0,141824:0:0:0:0:
64,192,141824,128,8,141991:0:0:0:0:
320,192,141824,1,0,0:0:0:0:
448,192,141824,1,0,0:0:0:0:
320,192,141991,128,0,142157:0:0:0:0:
192,192,142157,1,2,0:0:0:0:
448,192,142157,128,0,142407:0:0:0:0:
64,192,142324,128,0,142491:0:0:0:0:
192,192,142491,128,8,142657:0:0:0:0:
320,192,142491,1,0,0:0:0:0:
448,192,142491,1,0,0:0:0:0:
64,192,142657,1,4,0:0:0:0:
320,192,142657,128,0,142991:0:0:0:0:
448,192,142657,1,0,0:0:0:0:
64,192,142824,1,2,0:0:0:0:
192,192,142824,1,0,0:0:0:0:
448,192,142991,128,0,143157:0:0:0:0:
64,192,143157,128,8,143324:0:0:0:0:
192,192,143157,1,0,0:0:0:0:
320,192,143157,1,0,0:0:0:0:
448,192,143324,128,0,143491:0:0:0:0:
64,192,143491,1,2,0:0:0:0:
192,192,143491,1,0,0:0:0:0:
448,192,143657,128,0,143824:0:0:0:0:
64,192,143824,1,8,0:0:0:0:
320,192,143824,1,0,0:0:0:0:
192,192,143907,1,8,0:0:0:0:
448,192,143907,1,0,0:0:0:0:
64,192,143991,128,2,144657:0:0:0:0:
320,192,144074,1,8,0:0:0:0:
448,192,144074,128,0,144824:0:0:0:0:
64,192,145491,1,4,0:0:0:0:
192,192,145491,128,0,145824:0:0:0:0:
320,192,145491,128,0,145991:0:0:0:0:
448,192,145491,128,0,146491:0:0:0:0:
64,192,145824,128,0,146491:0:0:0:0:
192,192,145991,128,0,146657:0:0:0:0:
320,192,146491,128,0,146657:0:0:0:0:
64,192,146657,128,0,147157:0:0:0:0:
448,192,146657,128,0,147324:0:0:0:0:
320,192,147157,128,0,147657:0:0:0:0:
64,192,147324,128,0,147657:0:0:0:0:
448,192,147657,128,0,148157:0:0:0:0:
64,192,147991,128,0,149157:0:0:0:0:
192,192,148074,128,0,148657:0:0:0:0:
320,192,148157,128,0,148491:0:0:0:0:
448,192,148491,128,0,149157:0:0:0:0:
320,192,148657,128,0,149324:0:0:0:0:
192,192,149241,1,0,0:0:0:0:
64,192,149324,128,0,150407:0:0:0:0:
448,192,149324,128,0,149824:0:0:0:0:
320,192,149824,128,0,150407:0:0:0:0:
448,192,149991,128,0,150407:0:0:0:0:
192,192,150407,128,0,150824:0:0:0:0:
64,192,150824,128,0,151824:0:0:0:0:
320,192,150824,1,0,0:0:0:0:
448,192,150824,128,0,151157:0:0:0:0:
192,192,151157,128,0,151824:0:0:0:0:
320,192,151324,128,0,151991:0:0:0:0:
448,192,151907,1,0,0:0:0:0:
64,192,151991,128,0,152324:0:0:0:0:
192,192,151991,128,0,152324:0:0:0:0:
320,192,152324,128,0,152991:0:0:0:0:
64,192,152657,128,0,152991:0:0:0:0:
448,192,152991,128,0,153491:0:0:0:0:
320,192,153324,128,0,153824:0:0:0:0:
192,192,153407,128,0,153991:0:0:0:0:
64,192,153491,128,0,154491:0:0:0:0:
448,192,153824,128,0,154491:0:0:0:0:
320,192,153991,128,0,154491:0:0:0:0:
64,192,154657,128,0,155324:0:0:0:0:
192,192,154657,128,0,155324:0:0:0:0:
448,192,154657,128,0,155324:0:0:0:0:
320,192,155324,1,0,0:0:0:0:
192,192,155491,1,0,0:0:0:0:
64,192,155741,1,0,0:0:0:0:
192,192,155824,128,0,156157:0:0:0:0:
448,192,155991,1,0,0:0:0:0:
320,192,156074,1,0,0:0:0:0:
64,192,156157,128,2,156491:0:0:0:0:
448,192,156157,128,4,157157:0:0:0:0:
320,192,156491,128,0,156991:0:0:0:0:
64,192,156657,128,0,157157:0:0:0:0:
192,192,157157,128,0,157324:0:0:0:0:
320,192,157157,128,0,157324:0:0:0:0:
64,192,157324,128,0,157824:0:0:0:0:
448,192,157324,128,0,158157:0:0:0:0:
192,192,157824,1,0,0:0:0:0:
64,192,158157,128,0,158491:0:0:0:0:
320,192,158157,128,0,158824:0:0:0:0:
448,192,158491,128,0,158824:0:0:0:0:
64,192,158824,128,2,159491:0:0:0:0:
192,192,158824,128,0,159491:0:0:0:0:
448,192,158991,128,0,159407:0:0:0:0:
320,192,159157,128,0,159407:0:0:0:0:
320,192,159491,128,4,160157:0:0:0:0:
448,192,159491,128,2,160157:0:0:0:0:
192,192,159657,128,0,160074:0:0:0:0:
64,192,159824,128,0,160074:0:0:0:0:
64,192,160157,128,2,160741:0:0:0:0:
192,192,160157,128,4,160741:0:0:0:0:
448,192,160491,128,0,160657:0:0:0:0:
320,192,160657,128,0,160824:0:0:0:0:
64,192,160824,128,2,161407:0:0:0:0:
192,192,160824,128,4,161407:0:0:0:0:
448,192,160824,128,0,160991:0:0:0:0:
448,192,161157,128,0,161407:0:0:0:0:
64,192,161491,1,4,0:0:0:0:
192,192,161491,1,2,0:0:0:0:
320,192,161491,1,0,0:0:0:0:
448,192,161491,1,0,0:0:0:0:
64,192,161657,1,0,0:0:0:30:snare.wav
320,192,161657,1,0,0:0:0:0:
448,192,161657,1,0,0:0:0:0:
192,192,161824,1,2,0:0:0:0:
320,192,161824,1,0,0:0:0:0:
64,192,161991,1,8,0:0:0:30:snare.wav
448,192,161991,1,0,0:0:0:0:
192,192,162074,1,8,0:0:0:30:snare.wav
320,192,162074,1,0,0:0:0:0:
64,192,162157,1,0,0:0:0:30:snare.wav
448,192,162157,1,0,0:0:0:0:
64,192,162324,1,0,0:0:0:70:tom.wav
192,192,162324,1,0,0:0:0:0:
192,192,162491,1,0,0:0:0:70:tom.wav
320,192,162491,1,0,0:0:0:0:
64,192,162657,1,2,0:0:0:0:
192,192,162657,1,4,0:0:0:0:
320,192,162657,1,0,0:0:0:0:
448,192,162657,1,0,0:0:0:0:
64,192,162991,1,8,0:0:0:0:
192,192,162991,1,0,0:0:0:0:
448,192,162991,1,0,0:0:0:0:
320,192,163157,1,2,0:0:0:0:
448,192,163157,1,0,0:0:0:0:
64,192,163324,1,8,0:0:0:0:
192,192,163324,1,0,0:0:0:0:
320,192,163324,1,0,0:0:0:0:
64,192,163491,1,8,0:0:0:0:
192,192,163491,1,4,0:0:0:0:
448,192,163491,1,0,0:0:0:0:
320,192,163824,128,0,163907:0:0:0:0:
448,192,163824,128,0,163907:0:0:0:0:
320,192,163991,128,0,164074:0:0:0:0:
448,192,163991,128,0,164074:0:0:0:0:
64,192,164157,128,2,164407:0:0:0:0:
192,192,164157,1,4,0:0:0:0:
320,192,164157,1,0,0:0:0:0:
448,192,164157,1,0,0:0:0:0:
192,192,164324,128,0,164407:0:0:0:0:
64,192,164491,1,8,0:0:0:0:
192,192,164491,1,0,0:0:0:0:
448,192,164491,128,0,164741:0:0:0:0:
320,192,164657,128,0,164741:0:0:0:0:
320,192,164824,128,2,165074:0:0:0:0:
448,192,164824,1,0,0:0:0:0:
192,192,164991,128,0,165074:0:0:0:0:
64,192,165157,1,8,0:0:0:0:
192,192,165157,128,0,165657:0:0:0:0:
448,192,165157,1,0,0:0:0:0:
320,192,165324,128,0,165657:0:0:0:0:
64,192,165491,1,2,0:0:0:0:
448,192,165491,1,0,0:0:0:0:
448,192,165657,128,0,166157:0:0:0:0:
64,192,165824,128,8,165991:0:0:0:0:
192,192,165824,1,0,0:0:0:0:
320,192,165824,1,0,0:0:0:0:
320,192,165991,128,0,166157:0:0:0:0:
64,192,166157,1,2,0:0:0:0:
192,192,166157,128,0,166324:0:0:0:0:
320,192,166324,1,0,0:0:0:0:
64,192,166491,128,8,166824:0:0:0:0:
192,192,166491,1,0,0:0:0:0:
448,192,166491,1,0,0:0:0:0:
448,192,166657,128,0,166824:0:0:0:0:
192,192,166824,1,2,0:0:0:0:
320,192,166824,128,0,166991:0:0:0:0:
64,192,166991,1,0,0:0:0:0:
64,192,167157,1,8,0:0:0:0:
192,192,167157,1,0,0:0:0:0:
320,192,167157,128,0,167324:0:0:0:0:
448,192,167324,1,0,0:0:0:0:
64,192,167491,128,2,167657:0:0:0:0:
320,192,167491,1,0,0:0:0:0:
192,192,167657,128,0,167824:0:0:0:0:
64,192,167824,128,8,168324:0:0:0:0:
320,192,167824,1,0,0:0:0:0:
448,192,167824,1,0,0:0:0:0:
192,192,167991,128,0,168324:0:0:0:0:
320,192,168157,1,2,0:0:0:0:
448,192,168157,1,0,0:0:0:0:
448,192,168324,128,0,168824:0:0:0:0:
64,192,168491,128,8,168657:0:0:0:0:
192,192,168491,1,0,0:0:0:0:
320,192,168491,1,0,0:0:0:0:
192,192,168657,128,0,168824:0:0:0:0:
64,192,168824,1,2,0:0:0:0:
320,192,168824,128,0,168991:0:0:0:0:
192,192,168991,1,0,0:0:0:0:
64,192,169157,1,8,0:0:0:0:
320,192,169157,1,0,0:0:0:0:
448,192,169157,1,0,0:0:0:0:
192,192,169324,1,8,0:0:0:0:
320,192,169324,1,0,0:0:0:0:
448,192,169324,1,0,0:0:0:0:
64,192,169491,1,2,0:0:0:0:
192,192,169491,1,4,0:0:0:0:
448,192,169491,1,0,0:0:0:0:
320,192,169657,1,0,0:0:0:0:
192,192,169741,1,0,0:0:0:0:
64,192,169824,1,8,0:0:0:0:
320,192,169824,1,0,0:0:0:0:
448,192,169824,1,0,0:0:0:0:
192,192,169991,128,0,170324:0:0:0:0:
320,192,170157,128,2,170324:0:0:0:0:
448,192,170157,1,0,0:0:0:0:
64,192,170324,128,0,170657:0:0:0:0:
192,192,170491,1,8,0:0:0:0:
320,192,170491,1,0,0:0:0:0:
448,192,170491,128,0,170657:0:0:0:0:
320,192,170657,128,0,170991:0:0:0:0:
64,192,170824,1,2,0:0:0:0:
192,192,170824,1,0,0:0:0:0:
192,192,170991,128,0,171157:0:0:0:0:
64,192,171157,1,8,0:0:0:0:
320,192,171157,1,0,0:0:0:0:
448,192,171157,1,0,0:0:0:0:
448,192,171324,128,0,171657:0:0:0:0:
64,192,171491,128,2,171657:0:0:0:0:
192,192,171491,1,0,0:0:0:0:
320,192,171657,128,0,171824:0:0:0:0:
64,192,171824,1,8,0:0:0:0:
192,192,171824,1,0,0:0:0:0:
448,192,171824,1,0,0:0:0:0:
320,192,171991,128,0,172324:0:0:0:0:
64,192,172157,1,2,0:0:0:0:
192,192,172157,1,0,0:0:0:0:
192,192,172324,128,0,172657:0:0:0:0:
64,192,172491,1,8,0:0:0:0:
320,192,172491,128,0,172657:0:0:0:0:
448,192,172491,1,0,0:0:0:0:
64,192,172657,128,0,172824:0:0:0:0:
320,192,172824,1,2,0:0:0:0:
448,192,172824,1,0,0:0:0:0:
448,192,172991,128,0,173157:0:0:0:0:
64,192,173157,1,8,0:0:0:0:
192,192,173157,1,0,0:0:0:0:
320,192,173157,1,0,0:0:0:0:
64,192,173324,128,4,173657:0:0:0:0:
192,192,173324,1,0,0:0:0:0:
448,192,173324,1,0,0:0:0:0:
448,192,173491,1,2,0:0:0:0:
320,192,173657,128,0,173991:0:0:0:0:
64,192,173824,1,8,0:0:0:0:
192,192,173824,1,0,0:0:0:0:
448,192,173824,128,0,173991:0:0:0:0:
64,192,173991,128,0,174157:0:0:0:0:
192,192,173991,128,0,174157:0:0:0:0:
320,192,174157,128,2,174324:0:0:0:0:
448,192,174157,128,0,174324:0:0:0:0:
64,192,174491,1,8,0:0:0:0:
448,192,174491,1,0,0:0:0:0:
192,192,174574,1,8,0:0:0:0:
320,192,174574,1,0,0:0:0:0:
64,192,174657,1,8,0:0:0:0:
448,192,174657,1,0,0:0:0:0:
192,192,174741,1,8,0:0:0:0:
64,192,174824,128,2,175074:0:0:0:0:
320,192,174824,1,4,0:0:0:0:
448,192,174824,1,0,0:0:0:0:
192,192,174991,128,0,175074:0:0:0:0:
64,192,175157,128,8,175407:0:0:0:0:
192,192,175157,128,0,175407:0:0:0:0:
448,192,175157,1,0,0:0:0:0:
320,192,175324,1,0,0:0:0:0:
64,192,175491,1,2,0:0:0:0:
192,192,175491,128,0,175657:0:0:0:0:
320,192,175657,128,0,175824:0:0:0:0:
64,192,175824,128,8,176324:0:0:0:0:
192,192,175824,1,0,0:0:0:0:
448,192,175824,1,0,0:0:0:0:
192,192,175991,128,0,176324:0:0:0:0:
320,192,176157,1,2,0:0:0:0:
448,192,176157,1,0,0:0:0:0:
448,192,176324,128,0,176824:0:0:0:0:
64,192,176491,1,8,0:0:0:0:
192,192,176491,128,0,176657:0:0:0:0:
320,192,176491,1,0,0:0:0:0:
320,192,176657,128,0,176824:0:0:0:0:
64,192,176824,128,2,176991:0:0:0:0:
192,192,176824,1,0,0:0:0:0:
320,192,176991,1,0,0:0:0:0:
64,192,177157,1,8,0:0:0:0:
192,192,177157,1,0,0:0:0:0:
448,192,177157,128,0,177491:0:0:0:0:
320,192,177324,128,0,177491:0:0:0:0:
64,192,177491,128,2,177657:0:0:0:0:
192,192,177491,1,0,0:0:0:0:
448,192,177657,1,0,0:0:0:0:
64,192,177824,128,8,177991:0:0:0:0:
192,192,177824,1,0,0:0:0:0:
320,192,177824,1,0,0:0:0:0:
448,192,177991,1,0,0:0:0:0:
64,192,178157,1,2,0:0:0:0:
320,192,178157,128,0,178324:0:0:0:0:
192,192,178324,128,0,178491:0:0:0:0:
64,192,178491,1,8,0:0:0:0:
320,192,178491,1,0,0:0:0:0:
448,192,178491,128,0,178991:0:0:0:0:
320,192,178657,128,0,178991:0:0:0:0:
64,192,178824,1,2,0:0:0:0:
192,192,178824,1,0,0:0:0:0:
64,192,178991,128,0,179491:0:0:0:0:
192,192,179157,128,8,179324:0:0:0:0:
320,192,179157,1,0,0:0:0:0:
448,192,179157,1,0,0:0:0:0:
320,192,179324,128,0,179491:0:0:0:0:
192,192,179491,1,2,0:0:0:0:
448,192,179491,128,0,179657:0:0:0:0:
320,192,179657,1,0,0:0:0:0:
64,192,179824,1,8,0:0:0:0:
192,192,179824,1,0,0:0:0:0:
448,192,179824,1,0,0:0:0:0:
64,192,179991,1,8,0:0:0:0:
192,192,179991,1,0,0:0:0:0:
320,192,179991,1,0,0:0:0:0:
64,192,180157,1,2,0:0:0:0:
320,192,180157,1,4,0:0:0:0:
448,192,180157,1,0,0:0:0:0:
192,192,180324,1,0,0:0:0:0:
320,192,180407,1,0,0:0:0:0:
64,192,180491,1,8,0:0:0:0:
192,192,180491,1,0,0:0:0:0:
448,192,180491,1,0,0:0:0:0:
320,192,180657,128,0,180991:0:0:0:0:
64,192,180824,1,2,0:0:0:0:
448,192,180824,128,0,180991:0:0:0:0:
192,192,180991,128,0,181324:0:0:0:0:
64,192,181157,128,8,181324:0:0:0:0:
320,192,181157,1,0,0:0:0:0:
448,192,181157,1,0,0:0:0:0:
448,192,181324,128,0,181657:0:0:0:0:
64,192,181491,1,2,0:0:0:0:
192,192,181491,1,0,0:0:0:0:
64,192,181657,128,0,181824:0:0:0:0:
192,192,181824,1,8,0:0:0:0:
320,192,181824,1,0,0:0:0:0:
448,192,181824,1,0,0:0:0:0:
320,192,181991,128,0,182324:0:0:0:0:
64,192,182157,1,2,0:0:0:0:
192,192,182157,128,0,182324:0:0:0:0:
448,192,182324,128,0,182491:0:0:0:0:
64,192,182491,1,8,0:0:0:0:
192,192,182491,1,0,0:0:0:0:
320,192,182491,1,0,0:0:0:0:
448,192,182657,128,0,182991:0:0:0:0:
64,192,182824,1,2,0:0:0:0:
192,192,182824,1,0,0:0:0:0:
64,192,182991,128,0,183324:0:0:0:0:
192,192,183157,128,8,183324:0:0:0:0:
320,192,183157,1,0,0:0:0:0:
448,192,183157,1,0,0:0:0:0:
448,192,183324,128,0,183657:0:0:0:0:
64,192,183491,1,2,0:0:0:0:
192,192,183491,1,0,0:0:0:0:
192,192,183657,128,0,183824:0:0:0:0:
64,192,183824,1,8,0:0:0:0:
320,192,183824,1,0,0:0:0:0:
448,192,183824,1,0,0:0:0:0:
64,192,183991,128,4,184324:0:0:0:0:
192,192,183991,1,0,0:0:0:0:
320,192,183991,1,0,0:0:0:0:
448,192,183991,1,0,0:0:0:0:
192,192,184324,1,8,0:0:0:0:
448,192,184324,1,0,0:0:0:0:
64,192,184407,1,8,0:0:0:0:
320,192,184407,1,0,0:0:0:0:
192,192,184491,1,8,0:0:0:0:
448,192,184491,1,0,0:0:0:0:
64,192,184657,1,0,0:0:0:70:tom.wav
320,192,184657,1,0,0:0:0:0:
64,192,184824,128,0,184991:0:0:0:30:snare.wav
192,192,184824,128,0,184991:0:0:0:0:
448,192,184824,128,0,184991:0:0:0:0:
64,192,185491,1,0,0:0:0:30:snare.wav
448,192,185491,1,0,0:0:0:0:
192,192,185574,1,0,0:0:0:30:snare.wav
320,192,185574,1,0,0:0:0:0:
64,192,185657,1,0,0:0:0:30:snare.wav
448,192,185657,1,0,0:0:0:0:
192,192,185741,1,0,0:0:0:30:snare.wav
320,192,185741,1,0,0:0:0:0:
64,192,185824,1,0,0:0:0:30:snare.wav
448,192,185824,1,0,0:0:0:0:
192,192,185907,1,0,0:0:0:30:snare.wav
320,192,185907,1,0,0:0:0:0:
64,192,185991,1,0,0:0:0:30:snare.wav
448,192,185991,1,0,0:0:0:0:
320,192,186074,1,0,0:0:0:30:snare.wav
64,192,186157,128,2,186407:0:0:0:0:
192,192,186157,1,4,0:0:0:0:
448,192,186157,1,0,0:0:0:0:
64,192,186491,128,8,186741:0:0:0:0:
320,192,186491,1,0,0:0:0:0:
448,192,186491,1,0,0:0:0:0:
192,192,186657,1,0,0:0:0:0:
448,192,186824,1,0,0:0:0:0:
64,192,186824,1,2,0:0:0:0:
64,192,186991,128,0,187241:0:0:0:0:
192,192,187157,1,8,0:0:0:0:
320,192,187157,1,0,0:0:0:0:
448,192,187157,1,0,0:0:0:0:
64,192,187324,128,0,187657:0:0:0:0:
320,192,187491,1,2,0:0:0:0:
448,192,187491,1,0,0:0:0:0:
192,192,187657,1,0,0:0:0:0:
64,192,187824,1,8,0:0:0:0:
320,192,187824,1,0,0:0:0:0:
448,192,187824,1,0,0:0:0:0:
320,192,187991,1,0,0:0:0:0:
64,192,188157,1,2,0:0:0:0:
192,192,188157,1,0,0:0:0:0:
448,192,188324,1,0,0:0:0:0:
64,192,188491,1,8,0:0:0:0:
192,192,188491,1,0,0:0:0:0:
320,192,188491,1,0,0:0:0:0:
192,192,188657,1,0,0:0:0:0:
320,192,188824,1,2,0:0:0:0:
448,192,188824,128,0,189074:0:0:0:0:
64,192,189157,1,8,0:0:0:0:
192,192,189157,1,0,0:0:0:0:
448,192,189157,128,0,189407:0:0:0:0:
320,192,189324,1,0,0:0:0:0:
192,192,189491,1,2,0:0:0:0:
448,192,189491,1,0,0:0:0:0:
448,192,189657,128,0,189907:0:0:0:0:
64,192,189824,1,8,0:0:0:0:
192,192,189824,1,0,0:0:0:0:
320,192,189824,1,0,0:0:0:0:
448,192,189991,128,0,190324:0:0:0:0:
64,192,190157,1,2,0:0:0:0:
320,192,190157,1,0,0:0:0:0:
192,192,190324,1,0,0:0:0:0:
64,192,190491,1,8,0:0:0:0:
320,192,190491,1,0,0:0:0:0:
448,192,190491,1,0,0:0:0:0:
320,192,190657,1,0,0:0:0:0:
64,192,190824,1,2,0:0:0:0:
192,192,190824,1,0,0:0:0:0:
448,192,190991,1,0,0:0:0:0:
64,192,191157,1,8,0:0:0:0:
192,192,191157,1,4,0:0:0:0:
320,192,191157,1,0,0:0:0:0:
64,192,191324,1,8,0:0:0:0:
192,192,191324,1,0,0:0:0:0:
448,192,191324,1,0,0:0:0:0:
64,192,191491,1,2,0:0:0:0:
192,192,191491,128,4,191824:0:0:0:0:
320,192,191491,1,0,0:0:0:0:
448,192,191491,1,0,0:0:0:0:
64,192,191824,1,8,0:0:0:0:
320,192,191824,1,0,0:0:0:0:
448,192,191824,1,0,0:0:0:0:
192,192,191991,1,2,0:0:0:0:
320,192,191991,1,0,0:0:0:0:
64,192,192157,1,8,0:0:0:0:
192,192,192157,1,0,0:0:0:0:
448,192,192157,1,0,0:0:0:0:
320,192,192324,1,0,0:0:0:0:
448,192,192324,1,0,0:0:0:0:
64,192,192491,1,8,0:0:0:0:
192,192,192491,1,0,0:0:0:0:
448,192,192491,1,0,0:0:0:0:
64,192,192657,1,2,0:0:0:0:
192,192,192657,1,0,0:0:0:0:
192,192,192824,1,8,0:0:0:0:
320,192,192824,1,0,0:0:0:0:
448,192,192824,1,0,0:0:0:0:
320,192,192991,1,2,0:0:0:0:
448,192,192991,1,0,0:0:0:0:
64,192,193157,1,8,0:0:0:0:
192,192,193157,1,0,0:0:0:0:
320,192,193157,1,0,0:0:0:0:
64,192,193324,1,2,0:0:0:0:
192,192,193324,1,0,0:0:0:0:
64,192,193491,1,8,0:0:0:0:
320,192,193491,1,0,0:0:0:0:
448,192,193491,1,0,0:0:0:0:
192,192,193657,1,2,0:0:0:0:
320,192,193657,1,0,0:0:0:0:
64,192,193824,1,8,0:0:0:0:
192,192,193824,1,0,0:0:0:0:
448,192,193824,1,0,0:0:0:0:
320,192,193991,1,0,0:0:0:70:tom.wav
448,192,193991,1,0,0:0:0:0:
64,192,194074,1,0,0:0:0:70:tom.wav
192,192,194074,1,0,0:0:0:0:
320,192,194157,128,2,194491:0:0:0:0:
448,192,194157,1,0,0:0:0:0:
192,192,194491,1,0,0:0:0:0:
448,192,194657,1,0,0:0:0:0:
64,192,194824,1,2,0:0:0:0:
192,192,194824,128,0,195157:0:0:0:0:
448,192,194824,1,0,0:0:0:0:
320,192,194991,1,0,0:0:0:0:
64,192,195157,1,0,0:0:0:0:
64,192,195324,1,2,0:0:0:0:
320,192,195324,1,0,0:0:0:0:
448,192,195324,128,0,195657:0:0:0:0:
192,192,195657,1,0,0:0:0:0:
64,192,195824,128,0,195991:0:0:0:0:
448,192,195991,128,0,196157:0:0:0:0:
64,192,196157,128,0,196324:0:0:0:0:
320,192,196491,128,0,196574:0:0:0:0:
192,192,196532,128,0,196616:0:0:0:0:
64,192,196824,1,2,0:0:0:0:
192,192,196824,1,4,0:0:0:0:
320,192,196824,1,0,0:0:0:0:
448,192,196824,1,0,0:0:0:0:
192,192,196991,128,0,197157:0:0:0:0:
64,192,197157,128,0,197324:0:0:0:30:snare.wav
320,192,197157,1,0,0:0:0:0:
448,192,197157,1,0,0:0:0:0:
448,192,197324,128,0,197491:0:0:0:0:
64,192,197491,1,2,0:0:0:0:
320,192,197491,128,0,197657:0:0:0:0:
192,192,197657,128,0,197824:0:0:0:0:
64,192,197824,1,0,0:0:0:30:snare.wav
320,192,197824,1,0,0:0:0:0:
448,192,197824,1,0,0:0:0:0:
192,192,197991,128,0,198157:0:0:0:0:
64,192,198157,1,2,0:0:0:0:
448,192,198157,128,0,198324:0:0:0:0:
192,192,198324,128,0,198491:0:0:0:0:
64,192,198491,128,0,198657:0:0:0:30:snare.wav
320,192,198491,1,0,0:0:0:0:
448,192,198491,1,0,0:0:0:0:
448,192,198657,128,0,198824:0:0:0:0:
192,192,198824,128,2,198991:0:0:0:0:
320,192,198824,1,0,0:0:0:0:
320,192,198991,128,0,199157:0:0:0:0:
64,192,199157,1,0,0:0:0:30:snare.wav
192,192,199157,1,0,0:0:0:0:
448,192,199157,128,0,199324:0:0:0:0:
192,192,199324,128,0,199491:0:0:0:0:
64,192,199491,1,2,0:0:0:0:
448,192,199491,1,0,0:0:0:0:
192,192,199657,128,0,199824:0:0:0:0:
64,192,199824,1,0,0:0:0:30:snare.wav
320,192,199824,1,0,0:0:0:0:
448,192,199824,128,0,199991:0:0:0:0:
320,192,199991,128,0,200157:0:0:0:0:
64,192,200157,128,2,200324:0:0:0:0:
192,192,200157,1,0,0:0:0:0:
448,192,200324,128,0,200491:0:0:0:0:
64,192,200491,1,0,0:0:0:30:snare.wav
192,192,200491,1,0,0:0:0:0:
320,192,200491,1,0,0:0:0:0:
448,192,200657,128,0,200824:0:0:0:0:
64,192,200824,1,2,0:0:0:0:
192,192,200824,128,0,200991:0:0:0:0:
448,192,200991,128,0,201157:0:0:0:0:
64,192,201157,128,0,201324:0:0:0:30:snare.wav
192,192,201157,1,0,0:0:0:0:
320,192,201157,1,0,0:0:0:0:
320,192,201324,128,0,201491:0:0:0:0:
64,192,201491,1,2,0:0:0:0:
192,192,201491,128,0,201657:0:0:0:0:
448,192,201657,128,0,201824:0:0:0:0:
64,192,201824,1,8,0:0:0:0:
192,192,201824,1,4,0:0:0:0:
320,192,201824,1,0,0:0:0:0:
64,192,201991,1,8,0:0:0:0:
192,192,201991,1,4,0:0:0:0:
448,192,201991,1,0,0:0:0:0:
64,192,202157,1,2,0:0:0:0:
320,192,202157,1,0,0:0:0:0:
448,192,202157,1,0,0:0:0:0:
192,192,202324,128,0,202491:0:0:0:0:
64,192,202491,1,0,0:0:0:30:snare.wav
320,192,202491,128,0,202657:0:0:0:0:
448,192,202491,1,0,0:0:0:0:
64,192,202657,128,0,202824:0:0:0:0:
320,192,202824,1,2,0:0:0:0:
448,192,202824,128,0,202991:0:0:0:0:
192,192,202991,128,0,203157:0:0:0:0:
64,192,203157,1,0,0:0:0:30:snare.wav
320,192,203157,1,0,0:0:0:0:
448,192,203157,1,0,0:0:0:0:
192,192,203324,128,0,203491:0:0:0:0:
320,192,203491,1,2,0:0:0:0:
448,192,203491,128,0,203657:0:0:0:0:
192,192,203657,128,0,203824:0:0:0:0:
64,192,203824,1,0,0:0:0:30:snare.wav
320,192,203824,128,0,203991:0:0:0:0:
448,192,203824,1,0,0:0:0:0:
64,192,203991,128,0,204157:0:0:0:0:
192,192,204157,128,2,204324:0:0:0:0:
448,192,204157,1,0,0:0:0:0:
448,192,204324,128,0,204491:0:0:0:0:
64,192,204491,128,0,204657:0:0:0:30:snare.wav
192,192,204491,1,0,0:0:0:0:
320,192,204491,1,0,0:0:0:0:
320,192,204657,128,0,204824:0:0:0:0:
64,192,204824,128,2,205074:0:0:0:0:
448,192,204824,128,0,205157:0:0:0:0:
192,192,204991,128,0,205157:0:0:0:0:
64,192,205157,1,0,0:0:0:15:clap.wav
320,192,205157,128,0,205324:0:0:0:0:
448,192,205324,128,0,205491:0:0:0:0:
192,192,205491,128,0,205657:0:0:0:0:
320,192,205657,128,0,205824:0:0:0:0:
64,192,205824,1,0,0:0:0:15:clap.wav
448,192,205824,1,0,0:0:0:0:
192,192,205991,128,0,206074:0:0:0:0:
448,192,206074,128,0,206157:0:0:0:0:
64,192,206157,128,0,206324:0:0:0:0:
320,192,206324,128,0,206491:0:0:0:0:
192,192,206491,128,0,206657:0:0:0:15:clap.wav
448,192,206491,1,0,0:0:0:0:
448,192,206657,128,0,206824:0:0:0:0:
320,192,206824,128,0,206991:0:0:0:0:
