osu file format v14

[General]
AudioFilename: audio.mp3
AudioLeadIn: 0
PreviewTime: 58132
Countdown: 0
SampleSet: Normal
StackLeniency: 0.7
Mode: 1
LetterboxInBreaks: 0
WidescreenStoryboard: 0

[Editor]
Bookmarks: 5493,26826,53326,58826,80159,101493,112159,133493,145493,156159,164159,174826,186159,196825
DistanceSpacing: 0.1
BeatDivisor: 4
GridSize: 32
TimelineZoom: 2.7

[Metadata]
Title:Genjitsu Escape
TitleUnicode:現実エスケープ
Artist:tephe
ArtistUnicode:tephe
Creator:Hivie
Version:Reality feat. gaston_2199
Source:
Tags:gaston_2199 reality vocaloid japanese rock jrock j-rock JPOP J-POP POP Itovero saw mappers' guild mpg mg featured artist fa feat. Kagamine Len 鏡音レン
BeatmapID:4218764
BeatmapSetID:2025023

[Difficulty]
HPDrainRate:6
CircleSize:2
OverallDifficulty:6
ApproachRate:10
SliderMultiplier:1.4
SliderTickRate:1

[Events]
//Background and Video events
0,0,"genjitsu.png",0,60
//Break Periods
2,91025,95043
//Storyboard Layer 0 (Background)
//Storyboard Layer 1 (Fail)
//Storyboard Layer 2 (Pass)
//Storyboard Layer 3 (Foreground)
//Storyboard Layer 4 (Overlay)
//Storyboard Sound Samples

[TimingPoints]
160,333.333333333333,4,1,0,100,1,0
160,-125,4,1,0,50,0,0
5409,-100,4,1,0,80,0,0
16326,-111.111111111111,4,1,0,60,0,0
25990,-109.086942293008,4,1,0,60,0,0
26073,-108.108108108108,4,1,0,60,0,0
26156,-107.146683810136,4,1,0,60,0,0
26323,-105.263157894737,4,1,0,60,0,0
26490,-103.444708803145,4,1,0,60,0,0
26573,-102.564102564103,4,1,0,60,0,0
26656,-101.698362656361,4,1,0,60,0,0
26740,-100.836946657255,4,1,0,60,0,0
26823,-100,4,1,0,80,0,0
37659,-105.263157894737,4,1,0,70,0,0
48076,-117.64705882353,4,1,0,60,0,0
52823,-114.942528735632,4,1,0,60,0,0
52990,-111.111111111111,4,1,0,60,0,0
53323,-74.0740740740741,4,1,0,80,0,0
53493,-100,4,1,0,80,0,0
54659,-74.0740740740741,4,1,0,80,0,0
54825,-100,4,1,0,80,0,0
56323,-97.8985780797785,4,1,0,80,0,0
56490,-95.8836578752773,4,1,0,80,0,0
56656,-93.9613526570048,4,1,0,80,0,0
56740,-93.0176948828312,4,1,0,80,0,0
56823,-92.1037054575589,4,1,0,80,0,0
56906,-91.2075029308324,4,1,0,80,0,0
56990,-90.3180868353843,4,1,0,80,0,0
57073,-89.4561342991836,4,1,0,80,0,0
57156,-88.6104783599089,4,1,0,80,0,0
57323,-80,4,1,0,80,0,0
57490,-95.2380952380952,4,1,0,80,0,0
57656,-93.0297527587652,4,1,0,80,0,0
57740,-91.9508490956786,4,1,0,80,0,0
57823,-90.9090909090909,4,1,0,80,0,0
57990,-88.8829574269318,4,1,0,80,0,0
58156,-80,4,1,0,80,0,0
58490,-95.2380952380952,4,1,0,80,0,0
58573,-93.0297527587652,4,1,0,80,0,0
58656,-90.9215017064846,4,1,0,80,0,0
58740,-88.8829574269318,4,1,0,80,0,0
58826,-86.9565217391304,4,1,0,100,0,1
79826,-86.9565217391304,4,1,0,100,0,0
80159,-100,4,1,0,100,0,0
91159,-125,4,1,0,50,0,0
95409,-117.647058823529,4,1,0,60,0,0
96159,-111.111111111111,4,1,0,60,0,0
101826,-117.647058823529,4,1,0,60,0,0
105990,-117.647058823529,4,1,0,60,0,0
106323,-108.695652173913,4,1,0,60,0,0
106576,-74.0740740740741,4,1,0,80,0,0
106826,-100,4,1,0,80,0,0
107993,-74.0740740740741,4,1,0,80,0,0
108159,-100,4,1,0,80,0,0
109656,-97.9091443446133,4,1,0,80,0,0
109823,-95.8921008265143,4,1,0,80,0,0
109990,-93.9564867042708,4,1,0,80,0,0
110073,-93.0232558139535,4,1,0,80,0,0
110156,-92.1083813887353,4,1,0,80,0,0
110240,-91.2006257332812,4,1,0,80,0,0
110323,-90.3210813741818,4,1,0,80,0,0
110490,-88.6018237082067,4,1,0,80,0,0
110656,-80,4,1,0,80,0,0
110823,-95.2380952380952,4,1,0,80,0,0
110990,-93.020012551426,4,1,0,80,0,0
111073,-91.9556076376921,4,1,0,80,0,0
111156,-90.9152865807947,4,1,0,80,0,0
111240,-89.8861262718146,4,1,0,80,0,0
111323,-88.8918504697808,4,1,0,80,0,0
111406,-87.9193303895077,4,1,0,80,0,0
111490,-86.9565217391304,4,1,0,80,0,0
111823,-95.2380952380952,4,1,0,80,0,0
111906,-93.0297527587652,4,1,0,80,0,0
111990,-90.8966834993858,4,1,0,80,0,0
112073,-88.8829574269318,4,1,0,80,0,0
112159,-86.9565217391304,4,1,0,100,0,1
133159,-86.9565217391304,4,1,0,100,0,0
133326,-100,4,1,0,80,0,0
145409,-133.333333333333,4,1,0,50,0,0
156076,-117.647058823529,4,1,0,60,0,0
158823,-115.386834362199,4,1,0,60,0,0
159156,-113.211819313936,4,1,0,60,0,0
159490,-111.111111111111,4,1,0,60,0,0
159823,-109.092892598047,4,1,0,60,0,0
160156,-107.146683810136,4,1,0,60,0,0
160490,-105.263157894737,4,1,0,60,0,0
160823,-103.450059483784,4,1,0,60,0,0
161156,-101.698362656361,4,1,0,60,0,0
161490,-100,4,1,0,80,0,0
161656,-97.9091443446133,4,1,0,80,0,0
161823,-95.8921008265143,4,1,0,80,0,0
161990,-93.9564867042708,4,1,0,80,0,0
162073,-93.0232558139535,4,1,0,80,0,0
162156,-92.1083813887353,4,1,0,80,0,0
162323,-90.3210813741818,4,1,0,80,0,0
162490,-88.6018237082067,4,1,0,80,0,0
162656,-80,4,1,0,80,0,0
162823,-95.2380952380952,4,1,0,80,0,0
162990,-93.020012551426,4,1,0,80,0,0
163156,-90.9152865807947,4,1,0,80,0,0
163323,-88.8918504697808,4,1,0,80,0,0
163490,-80,4,1,0,80,0,0
164159,-86.9565217391304,4,1,0,100,0,1
184993,-100,4,1,0,100,0,0
185493,333.333333333333,4,1,0,60,1,8
185493,-105.263157894737,4,1,0,60,0,8
185573,-102.572000616048,4,1,0,60,0,8
185656,-100.01501726986,4,1,0,60,0,8
185740,-97.553830379376,4,1,0,60,0,8
185823,-95.2380952380953,4,1,0,60,0,8
185906,-93.0297527587652,4,1,0,60,0,8
185990,-90.8966834993858,4,1,0,60,0,8
186073,-88.8829574269318,4,1,0,60,0,8
186159,333.333333333333,4,1,0,100,1,1
186159,-86.9565217391304,4,1,0,100,0,1
191156,-85.7118368046627,4,1,0,100,0,1
191322,-84.5094228006423,4,1,0,100,0,1
191489,-83.3333333333333,4,1,0,100,0,1
194159,-83.3333333333333,4,1,0,100,0,0
195492,-100,4,1,0,50,0,0
196409,-100,4,1,0,80,0,0
196492,-86.9565217391304,4,1,0,80,0,1
196659,-100,4,1,0,80,0,1
196825,-100,4,1,0,80,0,0
204825,-100,4,1,0,60,0,0
204989,-101.698362656361,4,1,0,60,0,0
205155,-103.444708803145,4,1,0,60,0,0
205322,-105.263157894737,4,1,0,60,0,0
205489,-107.146683810136,4,1,0,60,0,0
205655,-109.086942293008,4,1,0,60,0,0
205822,-111.111111111111,4,1,0,60,0,0
205989,-113.211819313936,4,1,0,60,0,0
206072,-114.285714285714,4,1,0,60,0,0
206155,-115.380177685474,4,1,0,60,0,0
206322,-117.647058823529,4,1,0,60,0,0
206489,-120.004800192008,4,1,0,60,0,0
206655,-122.443981878291,4,1,0,60,0,0
206822,-125,4,1,0,60,0,0

[HitObjects]
256,192,5159,5,8,0:0:0:0:
256,192,5201,1,8,0:0:0:0:
256,96,5493,1,4,0:0:0:0:
256,192,5659,1,8,0:0:0:0:
256,192,5826,1,0,0:0:0:0:
256,192,5993,1,8,0:0:0:0:
256,192,6076,1,0,0:0:0:0:
256,192,6159,1,8,0:0:0:0:
256,192,6243,1,8,0:0:0:0:
256,192,6326,1,0,0:0:0:0:
256,192,6493,1,0,0:0:0:0:
256,192,6659,1,8,0:0:0:0:
256,192,6743,1,8,0:0:0:0:
256,192,6826,1,0,0:0:0:0:
256,192,6909,1,0,0:0:0:0:
256,192,6993,1,8,0:0:0:0:
256,192,7159,1,0,0:0:0:0:
256,192,7326,1,8,0:0:0:0:
256,192,7409,1,0,0:0:0:0:
256,192,7493,1,0,0:0:0:0:
256,192,7659,1,8,0:0:0:0:
256,192,7826,1,0,0:0:0:0:
256,192,7909,1,0,0:0:0:0:
256,192,7993,1,8,0:0:0:0:
256,192,8076,1,8,0:0:0:0:
256,192,8159,1,0,0:0:0:0:
256,192,8326,1,8,0:0:0:0:
256,192,8409,1,8,0:0:0:0:
256,192,8493,1,8,0:0:0:0:
256,192,8659,1,0,0:0:0:0:
256,192,8826,1,8,0:0:0:0:
256,192,8909,1,0,0:0:0:0:
256,192,8993,1,8,0:0:0:0:
256,192,9076,1,8,0:0:0:0:
256,192,9159,1,0,0:0:0:0:
256,192,9326,1,8,0:0:0:0:
256,192,9409,1,8,0:0:0:0:
256,192,9493,1,0,0:0:0:0:
256,192,9659,1,8,0:0:0:0:
256,192,9826,1,0,0:0:0:0:
256,192,9909,1,0,0:0:0:0:
256,192,9993,1,8,0:0:0:0:
256,192,10159,1,0,0:0:0:0:
256,192,10326,1,0,0:0:0:0:
256,96,10493,1,12,0:0:0:0:
256,192,10659,1,8,0:0:0:0:
256,96,10826,1,4,0:0:0:0:
256,192,10993,1,8,0:0:0:0:
256,192,11076,1,0,0:0:0:0:
256,192,11159,1,8,0:0:0:0:
256,192,11326,1,0,0:0:0:0:
256,192,11409,1,0,0:0:0:0:
256,192,11493,1,8,0:0:0:0:
256,192,11576,1,8,0:0:0:0:
256,192,11659,1,0,0:0:0:0:
256,192,11826,1,0,0:0:0:0:
256,192,11993,1,8,0:0:0:0:
256,192,12076,1,8,0:0:0:0:
256,192,12159,1,0,0:0:0:0:
256,192,12243,1,8,0:0:0:0:
256,192,12326,1,0,0:0:0:0:
256,192,12409,1,0,0:0:0:0:
256,192,12493,1,8,0:0:0:0:
256,192,12659,1,0,0:0:0:0:
256,192,12826,1,0,0:0:0:0:
256,192,12909,1,0,0:0:0:0:
256,192,12993,1,8,0:0:0:0:
256,192,13076,1,0,0:0:0:0:
256,192,13159,1,8,0:0:0:0:
256,192,13243,1,8,0:0:0:0:
256,192,13326,1,0,0:0:0:0:
256,192,13493,1,8,0:0:0:0:
256,192,13659,1,0,0:0:0:0:
256,192,13743,1,8,0:0:0:0:
256,192,13826,1,0,0:0:0:0:
256,192,13993,1,0,0:0:0:0:
256,192,14159,1,8,0:0:0:0:
256,192,14243,1,8,0:0:0:0:
256,192,14326,1,0,0:0:0:0:
256,192,14409,1,8,0:0:0:0:
256,192,14493,1,0,0:0:0:0:
256,96,14659,1,12,0:0:0:0:
256,192,14993,1,8,0:0:0:0:
256,192,15159,1,8,0:0:0:0:
256,192,15326,1,0,0:0:0:0:
256,192,15409,1,0,0:0:0:0:
256,192,15493,1,0,0:0:0:0:
256,192,15659,1,8,0:0:0:0:
256,192,15743,1,8,0:0:0:0:
256,192,15826,1,0,0:0:0:0:
256,192,15909,1,8,0:0:0:0:
256,192,15993,1,0,0:0:0:0:
256,96,16159,1,12,0:0:0:0:
256,192,16409,1,0,0:0:0:0:
256,192,16493,1,8,0:0:0:0:
256,192,16659,1,0,0:0:0:0:
256,192,16826,1,8,0:0:0:0:
256,192,16909,1,0,0:0:0:0:
256,192,16993,1,8,0:0:0:0:
256,192,17159,1,0,0:0:0:0:
256,192,17326,1,8,0:0:0:0:
256,192,17409,1,8,0:0:0:0:
256,192,17493,1,0,0:0:0:0:
256,192,17659,1,0,0:0:0:0:
256,192,17826,1,8,0:0:0:0:
256,192,17993,1,0,0:0:0:0:
256,192,18076,1,0,0:0:0:0:
256,192,18159,1,8,0:0:0:0:
256,192,18493,1,8,0:0:0:0:
256,192,18659,1,0,0:0:0:0:
256,192,18826,1,8,0:0:0:0:
256,192,18993,1,0,0:0:0:0:
256,192,19076,1,8,0:0:0:0:
256,192,19243,1,0,0:0:0:0:
256,192,19326,1,0,0:0:0:0:
256,192,19493,1,8,0:0:0:0:
256,192,19659,1,0,0:0:0:0:
256,192,19826,1,8,0:0:0:0:
256,192,19993,1,0,0:0:0:0:
256,192,20076,1,8,0:0:0:0:
256,192,20159,1,0,0:0:0:0:
256,192,20326,1,8,0:0:0:0:
256,192,20493,1,8,0:0:0:0:
256,192,20576,1,0,0:0:0:0:
256,192,20659,1,8,0:0:0:0:
256,192,20743,1,8,0:0:0:0:
256,192,20826,1,0,0:0:0:0:
256,192,20993,1,8,0:0:0:0:
256,192,21159,1,8,0:0:0:0:
256,192,21326,1,8,0:0:0:0:
256,192,21493,1,0,0:0:0:0:
256,192,21659,1,8,0:0:0:0:
256,192,21743,1,0,0:0:0:0:
256,192,21826,1,8,0:0:0:0:
256,192,21993,1,8,0:0:0:0:
256,192,22159,1,0,0:0:0:0:
256,192,22326,1,0,0:0:0:0:
256,192,22493,1,8,0:0:0:0:
256,192,22659,1,8,0:0:0:0:
256,192,22743,1,8,0:0:0:0:
256,192,22826,1,0,0:0:0:0:
256,192,22993,1,0,0:0:0:0:
256,192,23076,1,8,0:0:0:0:
256,192,23159,1,0,0:0:0:0:
256,192,23243,1,0,0:0:0:0:
256,192,23326,1,8,0:0:0:0:
256,192,23493,1,0,0:0:0:0:
256,192,23659,1,0,0:0:0:0:
256,192,23826,1,8,0:0:0:0:
256,192,23993,1,0,0:0:0:0:
256,192,24076,1,0,0:0:0:0:
256,192,24159,1,8,0:0:0:0:
256,192,24493,1,8,0:0:0:0:
256,192,24659,1,0,0:0:0:0:
256,192,24826,1,8,0:0:0:0:
256,192,24909,1,8,0:0:0:0:
256,192,24993,1,0,0:0:0:0:
256,192,25159,1,8,0:0:0:0:
256,192,25326,1,0,0:0:0:0:
256,192,25409,1,0,0:0:0:0:
256,192,25493,1,0,0:0:0:0:
256,192,25659,1,8,0:0:0:0:
256,192,25826,1,8,0:0:0:0:
256,192,25993,1,0,0:0:0:0:
256,192,26076,1,8,0:0:0:0:
256,192,26159,1,0,0:0:0:0:
256,192,26326,1,8,0:0:0:0:
256,192,26493,1,8,0:0:0:0:
256,192,26576,1,8,0:0:0:0:
256,192,26659,1,8,0:0:0:0:
256,192,26743,1,8,0:0:0:0:
256,160,26826,5,4,0:0:0:0:
256,160,26993,1,8,0:0:0:0:
256,128,27076,1,0,0:0:0:0:
256,192,27159,1,8,0:0:0:0:
256,192,27326,1,0,0:0:0:0:
256,192,27493,1,0,0:0:0:0:
256,160,27576,1,0,0:0:0:0:
256,192,27659,1,8,0:0:0:0:
256,128,27743,1,8,0:0:0:0:
256,192,27826,1,0,0:0:0:0:
256,192,27993,1,8,0:0:0:0:
256,128,28076,1,8,0:0:0:0:
256,192,28159,1,0,0:0:0:0:
224,160,28326,1,8,0:0:0:0:
256,192,28493,1,0,0:0:0:0:
256,160,28576,1,0,0:0:0:0:
256,192,28659,1,8,0:0:0:0:
256,192,28826,1,0,0:0:0:0:
256,192,28993,1,0,0:0:0:0:
224,192,29076,1,0,0:0:0:0:
256,192,29159,1,8,0:0:0:0:
224,160,29243,1,0,0:0:0:0:
256,192,29326,1,8,0:0:0:0:
256,160,29409,1,8,0:0:0:0:
256,192,29493,1,0,0:0:0:0:
256,192,29659,1,8,0:0:0:0:
256,160,29743,1,0,0:0:0:0:
256,192,29826,1,8,0:0:0:0:
256,160,29993,1,0,0:0:0:0:
256,192,30159,1,0,0:0:0:0:
256,192,30243,1,0,0:0:0:0:
256,192,30326,1,8,0:0:0:0:
256,160,30409,1,8,0:0:0:0:
256,192,30493,1,0,0:0:0:0:
256,192,30659,1,8,0:0:0:0:
256,160,30743,1,8,0:0:0:0:
256,192,30826,1,0,0:0:0:0:
256,192,30993,1,8,0:0:0:0:
256,192,31159,1,0,0:0:0:0:
256,160,31243,1,0,0:0:0:0:
256,192,31326,1,8,0:0:0:0:
256,192,31493,1,0,0:0:0:0:
256,192,31659,1,0,0:0:0:0:
256,192,31826,1,12,0:0:0:0:
256,192,31993,1,8,0:0:0:0:
256,160,32159,5,4,0:0:0:0:
256,160,32326,1,8,0:0:0:0:
256,128,32409,1,0,0:0:0:0:
256,192,32493,1,8,0:0:0:0:
256,192,32659,1,0,0:0:0:0:
256,192,32826,1,0,0:0:0:0:
256,160,32909,1,0,0:0:0:0:
256,192,32993,1,8,0:0:0:0:
256,128,33076,1,8,0:0:0:0:
256,192,33159,1,0,0:0:0:0:
256,192,33326,1,8,0:0:0:0:
256,128,33409,1,8,0:0:0:0:
256,192,33493,1,0,0:0:0:0:
224,160,33659,1,8,0:0:0:0:
256,192,33826,1,0,0:0:0:0:
256,160,33909,1,0,0:0:0:0:
256,192,33993,1,8,0:0:0:0:
256,192,34159,1,0,0:0:0:0:
256,192,34326,1,0,0:0:0:0:
224,192,34409,1,0,0:0:0:0:
256,192,34493,1,8,0:0:0:0:
224,128,34576,1,0,0:0:0:0:
256,192,34659,1,8,0:0:0:0:
256,160,34743,1,8,0:0:0:0:
256,192,34826,1,0,0:0:0:0:
256,192,34993,1,8,0:0:0:0:
256,160,35076,1,0,0:0:0:0:
256,192,35159,1,8,0:0:0:0:
256,160,35326,1,0,0:0:0:0:
256,192,35493,1,0,0:0:0:0:
256,192,35576,1,0,0:0:0:0:
256,192,35659,1,8,0:0:0:0:
256,160,35743,1,8,0:0:0:0:
256,192,35826,1,0,0:0:0:0:
256,192,35993,1,8,0:0:0:0:
256,160,36076,1,8,0:0:0:0:
256,192,36159,1,0,0:0:0:0:
256,192,36326,1,8,0:0:0:0:
256,192,36493,1,0,0:0:0:0:
256,160,36576,1,0,0:0:0:0:
256,192,36659,1,8,0:0:0:0:
256,192,36826,1,4,0:0:0:0:
256,192,36993,1,8,0:0:0:0:
256,192,37076,1,0,0:0:0:0:
256,192,37159,1,8,0:0:0:0:
256,192,37243,1,0,0:0:0:0:
256,192,37326,1,8,0:0:0:0:
256,192,37409,1,8,0:0:0:0:
256,192,37493,1,4,0:0:0:0:
256,192,37743,1,0,0:0:0:0:
256,192,37826,1,8,0:0:0:0:
256,192,37993,1,0,0:0:0:0:
288,192,38076,1,0,0:0:0:0:
256,192,38159,1,8,0:0:0:0:
256,192,38326,1,0,0:0:0:0:
256,192,38493,1,8,0:0:0:0:
288,192,38659,1,8,0:0:0:0:
288,192,38743,1,8,0:0:0:0:
288,192,38826,1,0,0:0:0:0:
288,192,38993,1,0,0:0:0:0:
288,192,39159,1,8,0:0:0:0:
288,192,39243,1,0,0:0:0:0:
288,192,39326,1,8,0:0:0:0:
288,192,39493,1,0,0:0:0:0:
277,194,39826,1,8,0:0:0:0:
288,192,39993,1,8,0:0:0:0:
288,192,40159,1,0,0:0:0:0:
288,192,40326,1,8,0:0:0:0:
288,192,40409,1,0,0:0:0:0:
288,192,40493,1,8,0:0:0:0:
277,194,40659,1,0,0:0:0:0:
277,194,40743,1,0,0:0:0:0:
277,194,40826,1,8,0:0:0:0:
288,192,40993,1,0,0:0:0:0:
288,192,41159,1,8,0:0:0:0:
288,192,41326,1,0,0:0:0:0:
288,192,41409,1,8,0:0:0:0:
288,192,41493,1,0,0:0:0:0:
277,194,41659,1,8,0:0:0:0:
277,194,41826,1,8,0:0:0:0:
256,160,41909,1,0,0:0:0:0:
288,192,41993,1,8,0:0:0:0:
256,160,42076,1,8,0:0:0:0:
288,192,42159,1,0,0:0:0:0:
256,192,42326,1,8,0:0:0:0:
256,192,42493,1,8,0:0:0:0:
256,192,42826,1,4,0:0:0:0:
256,192,42993,1,0,0:0:0:0:
256,192,43076,1,0,0:0:0:0:
288,192,43159,1,8,0:0:0:0:
256,192,43326,1,0,0:0:0:0:
256,192,43493,1,8,0:0:0:0:
256,192,43659,1,0,0:0:0:0:
256,192,43826,1,8,0:0:0:0:
256,192,43909,1,0,0:0:0:0:
256,192,43993,1,8,0:0:0:0:
256,192,44159,1,0,0:0:0:0:
256,192,44326,1,0,0:0:0:0:
256,192,44409,1,0,0:0:0:0:
256,192,44493,1,8,0:0:0:0:
256,192,44659,1,0,0:0:0:0:
256,192,44826,1,8,0:0:0:0:
256,192,44909,1,0,0:0:0:0:
256,192,44993,1,0,0:0:0:0:
256,192,45076,1,0,0:0:0:0:
256,192,45159,1,8,0:0:0:0:
256,192,45326,1,8,0:0:0:0:
256,192,45493,1,0,0:0:0:0:
256,192,45826,1,8,0:0:0:0:
256,192,45993,1,0,0:0:0:0:
256,192,46159,1,8,0:0:0:0:
256,192,46243,1,0,0:0:0:0:
256,192,46326,1,8,0:0:0:0:
256,192,46493,1,0,0:0:0:0:
256,192,46659,1,8,0:0:0:0:
256,192,46743,1,8,0:0:0:0:
256,192,46826,1,0,0:0:0:0:
256,192,46993,1,0,0:0:0:0:
256,192,47159,1,8,0:0:0:0:
256,192,47326,1,0,0:0:0:0:
256,192,47409,1,8,0:0:0:0:
256,192,47493,1,0,0:0:0:0:
256,192,47659,1,8,0:0:0:0:
256,192,47826,1,8,0:0:0:0:
256,192,48159,1,0,0:0:0:0:
256,192,48326,1,0,0:0:0:0:
256,192,48493,1,8,0:0:0:0:
256,192,48659,1,0,0:0:0:0:
256,192,48826,1,8,0:0:0:0:
256,192,48993,1,8,0:0:0:0:
256,192,49326,1,8,0:0:0:0:
256,192,49409,1,8,0:0:0:0:
256,192,49493,1,0,0:0:0:0:
256,192,49659,1,8,0:0:0:0:
256,192,49826,1,0,0:0:0:0:
256,192,49993,1,0,0:0:0:0:
256,192,50159,1,8,0:0:0:0:
256,192,50326,1,0,0:0:0:0:
256,192,50493,1,8,0:0:0:0:
256,192,50659,1,8,0:0:0:0:
256,192,50826,1,0,0:0:0:0:
256,192,50993,1,8,0:0:0:0:
256,192,51159,1,0,0:0:0:0:
256,192,51326,1,8,0:0:0:0:
256,192,51493,1,0,0:0:0:0:
256,192,51659,1,0,0:0:0:0:
256,192,51993,1,8,0:0:0:0:
256,192,52076,1,8,0:0:0:0:
256,192,52159,1,0,0:0:0:0:
256,192,52326,1,0,0:0:0:0:
256,192,52493,1,8,0:0:0:0:
256,192,52659,1,8,0:0:0:0:
256,192,52826,1,0,0:0:0:0:
256,192,52993,1,0,0:0:0:0:
256,96,53326,1,12,0:0:0:0:
256,192,53659,1,0,0:0:0:0:
256,192,53826,1,8,0:0:0:0:
256,192,53993,1,8,0:0:0:0:
256,192,54076,1,0,0:0:0:0:
256,192,54159,1,8,0:0:0:0:
256,192,54243,1,8,0:0:0:0:
256,192,54326,1,0,0:0:0:0:
256,192,54493,1,8,0:0:0:0:
256,96,54659,1,4,0:0:0:0:
256,192,54993,1,0,0:0:0:0:
256,192,55159,1,8,0:0:0:0:
256,192,55326,1,8,0:0:0:0:
256,192,55409,1,8,0:0:0:0:
256,192,55493,1,0,0:0:0:0:
256,192,55576,1,8,0:0:0:0:
256,192,55659,1,0,0:0:0:0:
256,192,55826,1,8,0:0:0:0:
256,192,55993,1,8,0:0:0:0:
256,192,56076,1,8,0:0:0:0:
256,192,56159,1,0,0:0:0:0:
256,192,56326,1,0,0:0:0:0:
256,192,56493,1,8,0:0:0:0:
256,192,56659,1,0,0:0:0:0:
256,192,56743,1,0,0:0:0:0:
256,192,56826,1,8,0:0:0:0:
256,192,56909,1,0,0:0:0:0:
256,192,56993,1,8,0:0:0:0:
256,192,57076,1,8,0:0:0:0:
256,192,57159,1,0,0:0:0:0:
256,96,57326,1,12,0:0:0:0:
256,192,57659,1,0,0:0:0:0:
256,192,57743,1,0,0:0:0:0:
256,192,57826,1,8,0:0:0:0:
256,192,57993,1,0,0:0:0:0:
256,96,58159,1,12,0:0:0:0:
256,192,58493,1,8,0:0:0:0:
256,192,58576,1,8,0:0:0:0:
256,192,58659,1,8,0:0:0:0:
256,192,58743,1,8,0:0:0:0:
256,192,58826,5,4,0:0:0:0:
256,192,58993,1,0,0:0:0:0:
256,192,59076,1,0,0:0:0:0:
256,192,59159,1,8,0:0:0:0:
256,192,59326,1,0,0:0:0:0:
256,192,59493,1,8,0:0:0:0:
256,192,59576,1,8,0:0:0:0:
256,192,59659,1,0,0:0:0:0:
256,192,59826,1,8,0:0:0:0:
224,160,59993,1,0,0:0:0:0:
256,160,60076,1,0,0:0:0:0:
240,175,60159,1,0,0:0:0:0:
256,192,60326,1,8,0:0:0:0:
256,192,60409,1,0,0:0:0:0:
256,192,60493,1,8,0:0:0:0:
224,160,60576,1,8,0:0:0:0:
256,192,60659,1,0,0:0:0:0:
224,160,60743,1,0,0:0:0:0:
256,192,60826,1,8,0:0:0:0:
256,192,60993,1,0,0:0:0:0:
256,192,61159,1,8,0:0:0:0:
256,192,61243,1,0,0:0:0:0:
256,192,61326,1,8,0:0:0:0:
256,192,61409,1,0,0:0:0:0:
256,192,61493,1,8,0:0:0:0:
256,192,61659,1,0,0:0:0:0:
247,188,61743,1,0,0:0:0:0:
256,192,61826,1,8,0:0:0:0:
256,192,61993,1,0,0:0:0:0:
256,192,62159,1,8,0:0:0:0:
256,192,62243,1,0,0:0:0:0:
256,192,62326,1,8,0:0:0:0:
256,192,62409,1,8,0:0:0:0:
256,192,62493,1,0,0:0:0:0:
224,192,62659,1,8,0:0:0:0:
224,192,62826,1,0,0:0:0:0:
224,192,62993,1,0,0:0:0:0:
224,192,63076,1,0,0:0:0:0:
256,160,63159,1,8,0:0:0:0:
224,192,63243,1,8,0:0:0:0:
256,160,63326,1,0,0:0:0:0:
256,160,63409,1,8,0:0:0:0:
256,160,63493,1,0,0:0:0:0:
256,160,63659,1,0,0:0:0:0:
224,160,63743,1,0,0:0:0:0:
224,160,63826,1,8,0:0:0:0:
224,160,63993,1,8,0:0:0:0:
224,160,64159,1,4,0:0:0:0:
224,160,64326,1,8,0:0:0:0:
224,160,64409,1,8,0:0:0:0:
228,153,64493,1,0,0:0:0:0:
224,160,64659,1,8,0:0:0:0:
224,160,64826,1,0,0:0:0:0:
224,160,64993,1,8,0:0:0:0:
224,128,65076,1,0,0:0:0:0:
224,128,65159,1,0,0:0:0:0:
224,128,65243,1,0,0:0:0:0:
224,128,65326,1,8,0:0:0:0:
224,128,65409,1,8,0:0:0:0:
224,128,65493,1,0,0:0:0:0:
224,160,65659,1,8,0:0:0:0:
224,160,65826,1,0,0:0:0:0:
224,160,65993,1,8,0:0:0:0:
192,128,66076,1,0,0:0:0:0:
224,160,66159,1,8,0:0:0:0:
224,96,66243,1,8,0:0:0:0:
224,160,66326,1,0,0:0:0:0:
224,160,66493,1,8,0:0:0:0:
224,160,66659,1,0,0:0:0:0:
224,128,66743,1,8,0:0:0:0:
224,160,66826,1,0,0:0:0:0:
224,160,66993,1,0,0:0:0:0:
224,160,67159,1,8,0:0:0:0:
224,160,67326,1,8,0:0:0:0:
224,160,67409,1,8,0:0:0:0:
224,160,67493,1,0,0:0:0:0:
224,160,67576,1,0,0:0:0:0:
224,160,67659,1,8,0:0:0:0:
224,160,67826,1,0,0:0:0:0:
224,160,67993,1,12,0:0:0:0:
224,160,68326,1,0,0:0:0:0:
224,160,68493,1,8,0:0:0:0:
224,160,68576,1,0,0:0:0:0:
192,160,68659,1,8,0:0:0:0:
192,160,68826,1,0,0:0:0:0:
192,160,69159,1,8,0:0:0:0:
192,160,69243,1,8,0:0:0:0:
192,160,69326,1,8,0:0:0:0:
192,160,69409,1,8,0:0:0:0:
256,192,69493,5,4,0:0:0:0:
256,192,69659,1,0,0:0:0:0:
256,192,69743,1,0,0:0:0:0:
256,192,69826,1,8,0:0:0:0:
256,192,69993,1,0,0:0:0:0:
256,192,70159,1,8,0:0:0:0:
256,192,70243,1,0,0:0:0:0:
256,192,70326,1,8,0:0:0:0:
256,192,70493,1,0,0:0:0:0:
224,160,70659,1,8,0:0:0:0:
256,160,70743,1,8,0:0:0:0:
240,175,70826,1,0,0:0:0:0:
256,192,70993,1,0,0:0:0:0:
256,192,71159,1,8,0:0:0:0:
224,160,71243,1,0,0:0:0:0:
256,192,71326,1,8,0:0:0:0:
224,160,71409,1,0,0:0:0:0:
256,192,71493,1,8,0:0:0:0:
256,128,71576,1,8,0:0:0:0:
256,192,71659,1,0,0:0:0:0:
256,192,71826,1,8,0:0:0:0:
256,192,71993,1,0,0:0:0:0:
256,192,72076,1,8,0:0:0:0:
256,192,72159,1,0,0:0:0:0:
256,192,72326,1,0,0:0:0:0:
247,188,72409,1,0,0:0:0:0:
256,192,72493,1,8,0:0:0:0:
256,192,72659,1,0,0:0:0:0:
256,192,72826,1,8,0:0:0:0:
256,192,72909,1,0,0:0:0:0:
256,192,72993,1,8,0:0:0:0:
256,192,73076,1,8,0:0:0:0:
256,192,73159,1,0,0:0:0:0:
224,192,73326,1,8,0:0:0:0:
224,192,73493,1,0,0:0:0:0:
224,192,73659,1,8,0:0:0:0:
224,192,73743,1,0,0:0:0:0:
256,160,73826,1,8,0:0:0:0:
224,192,73909,1,8,0:0:0:0:
256,160,73993,1,0,0:0:0:0:
256,160,74076,1,0,0:0:0:0:
256,160,74159,1,8,0:0:0:0:
256,160,74326,1,0,0:0:0:0:
224,160,74409,1,0,0:0:0:0:
224,160,74493,1,8,0:0:0:0:
224,160,74659,1,8,0:0:0:0:
224,160,74826,1,4,0:0:0:0:
224,160,74993,1,8,0:0:0:0:
224,160,75076,1,0,0:0:0:0:
228,153,75159,1,8,0:0:0:0:
224,160,75326,1,0,0:0:0:0:
224,160,75493,1,8,0:0:0:0:
224,160,75659,1,0,0:0:0:0:
224,128,75743,1,0,0:0:0:0:
224,128,75826,1,8,0:0:0:0:
224,128,75993,1,8,0:0:0:0:
224,128,76076,1,8,0:0:0:0:
224,128,76159,1,0,0:0:0:0:
224,96,76243,1,0,0:0:0:0:
224,160,76326,1,8,0:0:0:0:
224,160,76493,1,0,0:0:0:0:
224,160,76659,1,8,0:0:0:0:
192,128,76743,1,0,0:0:0:0:
224,160,76826,1,8,0:0:0:0:
224,96,76909,1,0,0:0:0:0:
224,160,76993,1,0,0:0:0:0:
224,96,77076,1,0,0:0:0:0:
224,160,77159,1,8,0:0:0:0:
224,160,77326,1,0,0:0:0:0:
224,128,77409,1,8,0:0:0:0:
224,160,77493,1,0,0:0:0:0:
224,160,77659,1,0,0:0:0:0:
224,160,77826,1,8,0:0:0:0:
224,160,77993,1,8,0:0:0:0:
224,160,78076,1,8,0:0:0:0:
224,160,78159,1,0,0:0:0:0:
224,160,78243,1,0,0:0:0:0:
224,160,78326,1,8,0:0:0:0:
224,160,78493,1,0,0:0:0:0:
224,160,78659,1,12,0:0:0:0:
224,160,78993,1,8,0:0:0:0:
192,128,79076,1,0,0:0:0:0:
224,160,79159,1,8,0:0:0:0:
192,160,79326,1,0,0:0:0:0:
192,160,79493,1,8,0:0:0:0:
192,128,79826,1,0,0:0:0:0:
192,128,79868,1,8,0:0:0:0:
256,96,80159,1,4,0:0:0:0:
256,192,80325,1,8,0:0:0:0:
256,192,80492,1,0,0:0:0:0:
256,192,80659,1,8,0:0:0:0:
256,192,80742,1,0,0:0:0:0:
256,192,80825,1,8,0:0:0:0:
256,192,80909,1,8,0:0:0:0:
256,192,80992,1,0,0:0:0:0:
256,192,81159,1,0,0:0:0:0:
256,192,81325,1,8,0:0:0:0:
256,192,81409,1,8,0:0:0:0:
256,192,81492,1,0,0:0:0:0:
256,192,81575,1,0,0:0:0:0:
256,192,81659,1,8,0:0:0:0:
256,192,81825,1,0,0:0:0:0:
256,192,81992,1,8,0:0:0:0:
256,192,82075,1,0,0:0:0:0:
256,192,82159,1,0,0:0:0:0:
256,192,82325,1,8,0:0:0:0:
256,192,82492,1,0,0:0:0:0:
256,192,82575,1,0,0:0:0:0:
256,192,82659,1,8,0:0:0:0:
256,192,82742,1,8,0:0:0:0:
256,192,82825,1,0,0:0:0:0:
256,192,82992,1,8,0:0:0:0:
256,192,83075,1,8,0:0:0:0:
256,192,83159,1,8,0:0:0:0:
256,192,83325,1,0,0:0:0:0:
256,192,83492,1,8,0:0:0:0:
256,192,83575,1,0,0:0:0:0:
256,192,83659,1,8,0:0:0:0:
256,192,83742,1,8,0:0:0:0:
256,192,83825,1,0,0:0:0:0:
256,192,83992,1,8,0:0:0:0:
256,192,84075,1,8,0:0:0:0:
256,192,84159,1,0,0:0:0:0:
256,192,84325,1,8,0:0:0:0:
256,192,84492,1,0,0:0:0:0:
256,192,84575,1,0,0:0:0:0:
256,192,84659,1,8,0:0:0:0:
256,192,84825,1,0,0:0:0:0:
256,192,84992,1,0,0:0:0:0:
256,96,85159,1,12,0:0:0:0:
256,192,85325,1,8,0:0:0:0:
256,96,85492,1,4,0:0:0:0:
256,192,85659,1,8,0:0:0:0:
256,192,85742,1,0,0:0:0:0:
256,192,85825,1,8,0:0:0:0:
256,192,85992,1,0,0:0:0:0:
256,192,86075,1,0,0:0:0:0:
256,192,86159,1,8,0:0:0:0:
256,192,86242,1,8,0:0:0:0:
256,192,86325,1,0,0:0:0:0:
256,192,86492,1,0,0:0:0:0:
256,192,86659,1,8,0:0:0:0:
256,192,86742,1,8,0:0:0:0:
256,192,86825,1,0,0:0:0:0:
256,192,86909,1,8,0:0:0:0:
256,192,86992,1,0,0:0:0:0:
256,192,87075,1,0,0:0:0:0:
256,192,87159,1,8,0:0:0:0:
256,192,87325,1,0,0:0:0:0:
256,192,87493,1,8,0:0:0:0:
256,192,87575,1,0,0:0:0:0:
256,192,87659,1,8,0:0:0:0:
256,192,87742,1,8,0:0:0:0:
256,192,87825,1,0,0:0:0:0:
256,192,87909,1,8,0:0:0:0:
256,192,87992,1,0,0:0:0:0:
256,192,88159,1,8,0:0:0:0:
256,192,88325,1,8,0:0:0:0:
256,192,88409,1,8,0:0:0:0:
256,192,88492,1,0,0:0:0:0:
256,192,88659,1,0,0:0:0:0:
256,192,88825,1,8,0:0:0:0:
256,192,88909,1,8,0:0:0:0:
256,192,88992,1,0,0:0:0:0:
256,192,89075,1,8,0:0:0:0:
256,192,89159,1,0,0:0:0:0:
256,96,89325,1,12,0:0:0:0:
256,192,89659,1,8,0:0:0:0:
256,192,89825,1,8,0:0:0:0:
256,192,89992,1,0,0:0:0:0:
256,192,90075,1,0,0:0:0:0:
256,192,90159,1,0,0:0:0:0:
256,192,90325,1,8,0:0:0:0:
256,192,90409,1,8,0:0:0:0:
256,192,90492,1,0,0:0:0:0:
256,192,90576,1,8,0:0:0:0:
256,192,90659,1,0,0:0:0:0:
256,96,90825,1,12,0:0:0:0:
256,192,95493,5,0,0:0:0:0:
256,192,95659,1,8,0:0:0:0:
256,192,95826,1,8,0:0:0:0:
256,96,96159,1,4,0:0:0:0:
256,192,96326,1,8,0:0:0:0:
256,192,96493,1,0,0:0:0:0:
256,192,96576,1,0,0:0:0:0:
256,192,96660,1,8,0:0:0:0:
256,192,96826,1,0,0:0:0:0:
256,192,96993,1,0,0:0:0:0:
256,192,97160,1,8,0:0:0:0:
256,192,97326,1,8,0:0:0:0:
256,192,97410,1,8,0:0:0:0:
256,192,97493,1,0,0:0:0:0:
256,192,97660,1,0,0:0:0:0:
256,192,97743,1,8,0:0:0:0:
256,192,97826,1,0,0:0:0:0:
256,192,97910,1,0,0:0:0:0:
256,192,97993,1,8,0:0:0:0:
256,192,98160,1,0,0:0:0:0:
256,192,98326,1,0,0:0:0:0:
256,192,98493,1,8,0:0:0:0:
256,192,98660,1,0,0:0:0:0:
256,192,98743,1,0,0:0:0:0:
256,192,98826,1,8,0:0:0:0:
256,192,99159,1,8,0:0:0:0:
256,192,99325,1,0,0:0:0:0:
256,192,99492,1,8,0:0:0:0:
256,192,99575,1,8,0:0:0:0:
256,192,99659,1,0,0:0:0:0:
256,192,99743,1,0,0:0:0:0:
256,192,99825,1,8,0:0:0:0:
256,192,99992,1,0,0:0:0:0:
256,192,100075,1,0,0:0:0:0:
256,192,100159,1,0,0:0:0:0:
256,192,100325,1,8,0:0:0:0:
256,192,100492,1,8,0:0:0:0:
256,192,100659,1,0,0:0:0:0:
256,192,100743,1,8,0:0:0:0:
256,192,100826,1,0,0:0:0:0:
256,192,100993,1,8,0:0:0:0:
256,192,101159,1,8,0:0:0:0:
256,192,101326,1,8,0:0:0:0:
256,192,101409,1,8,0:0:0:0:
256,192,101493,5,0,0:0:0:0:
256,192,101993,1,0,0:0:0:0:
256,192,102159,1,8,0:0:0:0:
256,192,102493,1,0,0:0:0:0:
256,192,102659,1,0,0:0:0:0:
256,192,102826,1,8,0:0:0:0:
256,192,103159,1,0,0:0:0:0:
256,192,103493,1,8,0:0:0:0:
256,192,103659,1,0,0:0:0:0:
256,192,103826,1,8,0:0:0:0:
256,192,103993,1,8,0:0:0:0:
288,160,104326,1,8,0:0:0:0:
256,160,104409,1,8,0:0:0:0:
256,192,104493,1,0,0:0:0:0:
256,192,104659,1,8,0:0:0:0:
256,192,104826,1,0,0:0:0:0:
256,192,104993,1,0,0:0:0:0:
256,192,105159,1,8,0:0:0:0:
256,192,105326,1,8,0:0:0:0:
256,192,105493,1,0,0:0:0:0:
256,192,105659,1,8,0:0:0:0:
256,192,105826,1,0,0:0:0:0:
224,192,105993,1,8,0:0:0:0:
224,192,106326,1,8,0:0:0:0:
224,192,106659,1,4,0:0:0:0:
224,192,106993,1,0,0:0:0:0:
224,192,107159,1,8,0:0:0:0:
224,192,107326,1,8,0:0:0:0:
256,160,107409,1,0,0:0:0:0:
224,192,107493,1,8,0:0:0:0:
256,160,107659,1,0,0:0:0:0:
256,160,107826,1,8,0:0:0:0:
256,160,107993,1,4,0:0:0:0:
256,160,108326,1,0,0:0:0:0:
244,158,108493,1,8,0:0:0:0:
256,160,108659,1,8,0:0:0:0:
244,158,108743,1,8,0:0:0:0:
256,160,108826,1,0,0:0:0:0:
256,160,108993,1,0,0:0:0:0:
256,160,109159,1,8,0:0:0:0:
256,160,109326,1,0,0:0:0:0:
244,158,109409,1,8,0:0:0:0:
244,158,109493,1,0,0:0:0:0:
256,160,109659,1,0,0:0:0:0:
256,160,109826,1,8,0:0:0:0:
256,160,109993,1,0,0:0:0:0:
224,128,110076,1,0,0:0:0:0:
256,160,110159,1,8,0:0:0:0:
224,128,110243,1,0,0:0:0:0:
256,160,110326,1,0,0:0:0:0:
244,158,110493,1,8,0:0:0:0:
224,128,110659,1,4,0:0:0:0:
224,128,110993,1,0,0:0:0:0:
224,128,111076,1,0,0:0:0:0:
224,128,111159,1,8,0:0:0:0:
224,128,111243,1,8,0:0:0:0:
224,128,111326,1,0,0:0:0:0:
224,128,111409,1,0,0:0:0:0:
224,128,111493,1,12,0:0:0:0:
224,128,111826,1,8,0:0:0:0:
224,128,111909,1,8,0:0:0:0:
224,128,111993,1,8,0:0:0:0:
224,128,112076,1,8,0:0:0:0:
256,96,112159,1,4,0:0:0:0:
256,192,112409,1,0,0:0:0:0:
256,192,112492,1,8,0:0:0:0:
256,192,112659,1,0,0:0:0:0:
256,192,112826,1,8,0:0:0:0:
256,192,112909,1,8,0:0:0:0:
256,192,112992,1,0,0:0:0:0:
256,192,113076,1,0,0:0:0:0:
256,192,113159,1,8,0:0:0:0:
256,192,113326,1,0,0:0:0:0:
256,192,113409,1,0,0:0:0:0:
256,192,113492,1,0,0:0:0:0:
256,192,113659,1,8,0:0:0:0:
256,192,113742,1,0,0:0:0:0:
256,192,113826,1,8,0:0:0:0:
256,192,113909,1,8,0:0:0:0:
256,192,113992,1,0,0:0:0:0:
256,192,114076,1,0,0:0:0:0:
256,192,114159,1,8,0:0:0:0:
256,192,114326,1,0,0:0:0:0:
256,192,114492,1,8,0:0:0:0:
256,192,114576,1,0,0:0:0:0:
256,192,114659,1,8,0:0:0:0:
256,192,114742,1,8,0:0:0:0:
256,192,114826,1,0,0:0:0:0:
256,192,114992,1,0,0:0:0:0:
256,192,115159,1,8,0:0:0:0:
256,192,115243,1,8,0:0:0:0:
256,192,115326,1,0,0:0:0:0:
256,192,115492,1,8,0:0:0:0:
256,192,115576,1,0,0:0:0:0:
256,192,115659,1,0,0:0:0:0:
256,192,115743,1,0,0:0:0:0:
256,192,115826,1,8,0:0:0:0:
256,192,115992,1,8,0:0:0:0:
256,192,116159,1,0,0:0:0:0:
256,192,116326,1,0,0:0:0:0:
256,192,116409,1,0,0:0:0:0:
256,192,116492,1,8,0:0:0:0:
256,192,116576,1,8,0:0:0:0:
256,192,116659,1,0,0:0:0:0:
256,192,116742,1,8,0:0:0:0:
256,192,116826,1,0,0:0:0:0:
256,192,116992,1,0,0:0:0:0:
256,192,117076,1,0,0:0:0:0:
256,192,117159,1,8,0:0:0:0:
256,192,117326,1,8,0:0:0:0:
256,96,117493,1,4,0:0:0:0:
256,192,117659,1,8,0:0:0:0:
256,192,117743,1,0,0:0:0:0:
256,192,117826,1,8,0:0:0:0:
256,192,117993,1,8,0:0:0:0:
256,192,118159,1,0,0:0:0:0:
256,192,118326,1,8,0:0:0:0:
256,192,118409,1,0,0:0:0:0:
256,192,118493,1,0,0:0:0:0:
256,192,118576,1,0,0:0:0:0:
256,192,118659,1,8,0:0:0:0:
256,192,118743,1,8,0:0:0:0:
256,192,118826,1,0,0:0:0:0:
256,192,118993,1,8,0:0:0:0:
256,192,119159,1,0,0:0:0:0:
256,192,119327,1,8,0:0:0:0:
256,192,119409,1,0,0:0:0:0:
256,192,119493,1,8,0:0:0:0:
256,192,119576,1,8,0:0:0:0:
256,192,119659,1,0,0:0:0:0:
256,192,119827,1,0,0:0:0:0:
256,192,119993,1,8,0:0:0:0:
256,192,120076,1,8,0:0:0:0:
256,192,120159,1,0,0:0:0:0:
256,192,120243,1,0,0:0:0:0:
256,192,120327,1,8,0:0:0:0:
256,192,120493,1,0,0:0:0:0:
256,192,120576,1,0,0:0:0:0:
256,192,120660,1,8,0:0:0:0:
256,192,120743,1,0,0:0:0:0:
256,192,120827,1,8,0:0:0:0:
256,192,120910,1,8,0:0:0:0:
256,192,120993,1,0,0:0:0:0:
256,192,121160,1,0,0:0:0:0:
256,96,121326,1,12,0:0:0:0:
256,192,121659,1,8,0:0:0:0:
256,192,121743,1,8,0:0:0:0:
256,192,121826,1,0,0:0:0:0:
256,96,121992,1,12,0:0:0:0:
256,192,122159,1,0,0:0:0:0:
192,160,122492,1,8,0:0:0:0:
192,160,122576,1,8,0:0:0:0:
192,160,122659,1,8,0:0:0:0:
192,160,122742,1,8,0:0:0:0:
256,192,122826,5,4,0:0:0:0:
256,192,123076,1,0,0:0:0:0:
256,192,123159,1,8,0:0:0:0:
256,192,123326,1,0,0:0:0:0:
256,192,123493,1,8,0:0:0:0:
256,192,123576,1,8,0:0:0:0:
256,192,123659,1,0,0:0:0:0:
256,192,123743,1,8,0:0:0:0:
256,192,123826,1,0,0:0:0:0:
256,192,123993,1,8,0:0:0:0:
256,192,124076,1,8,0:0:0:0:
256,192,124159,1,8,0:0:0:0:
256,192,124326,1,0,0:0:0:0:
256,192,124409,1,0,0:0:0:0:
256,192,124493,1,8,0:0:0:0:
256,192,124576,1,0,0:0:0:0:
256,192,124659,1,8,0:0:0:0:
256,192,124743,1,8,0:0:0:0:
256,192,124826,1,0,0:0:0:0:
256,192,124993,1,8,0:0:0:0:
256,192,125159,1,0,0:0:0:0:
256,192,125243,1,0,0:0:0:0:
256,192,125326,1,8,0:0:0:0:
256,192,125409,1,8,0:0:0:0:
256,192,125493,1,0,0:0:0:0:
256,192,125659,1,0,0:0:0:0:
256,192,125826,1,8,0:0:0:0:
256,192,125910,1,0,0:0:0:0:
256,192,125993,1,0,0:0:0:0:
256,192,126076,1,0,0:0:0:0:
256,192,126159,1,8,0:0:0:0:
256,192,126243,1,0,0:0:0:0:
256,192,126326,1,8,0:0:0:0:
256,192,126409,1,8,0:0:0:0:
256,192,126493,1,0,0:0:0:0:
256,192,126659,1,8,0:0:0:0:
256,192,126826,1,0,0:0:0:0:
256,192,126993,1,8,0:0:0:0:
256,192,127076,1,0,0:0:0:0:
256,192,127159,1,8,0:0:0:0:
256,192,127243,1,8,0:0:0:0:
256,192,127326,1,0,0:0:0:0:
256,192,127409,1,8,0:0:0:0:
256,192,127493,1,0,0:0:0:0:
256,192,127659,1,0,0:0:0:0:
256,192,127743,1,0,0:0:0:0:
256,192,127826,1,8,0:0:0:0:
256,192,127993,1,8,0:0:0:0:
256,96,128160,1,4,0:0:0:0:
256,192,128326,1,8,0:0:0:0:
256,192,128409,1,0,0:0:0:0:
256,192,128492,1,8,0:0:0:0:
256,192,128659,1,8,0:0:0:0:
256,192,128826,1,0,0:0:0:0:
256,192,128992,1,8,0:0:0:0:
256,192,129076,1,8,0:0:0:0:
256,192,129159,1,0,0:0:0:0:
256,192,129243,1,8,0:0:0:0:
256,192,129326,1,0,0:0:0:0:
256,192,129409,1,0,0:0:0:0:
256,192,129492,1,8,0:0:0:0:
256,192,129659,1,0,0:0:0:0:
256,192,129826,1,8,0:0:0:0:
256,192,129992,1,0,0:0:0:0:
256,192,130076,1,0,0:0:0:0:
256,192,130159,1,8,0:0:0:0:
256,192,130242,1,0,0:0:0:0:
256,192,130326,1,8,0:0:0:0:
256,192,130409,1,8,0:0:0:0:
256,192,130493,1,0,0:0:0:0:
256,192,130659,1,8,0:0:0:0:
256,192,130742,1,8,0:0:0:0:
256,192,130826,1,8,0:0:0:0:
256,192,130992,1,0,0:0:0:0:
256,192,131159,1,8,0:0:0:0:
256,192,131326,1,0,0:0:0:0:
256,192,131409,1,8,0:0:0:0:
256,192,131492,1,0,0:0:0:0:
256,192,131576,1,0,0:0:0:0:
256,192,131659,1,8,0:0:0:0:
256,192,131826,1,0,0:0:0:0:
256,96,131993,1,12,0:0:0:0:
256,192,132326,1,8,0:0:0:0:
256,192,132409,1,8,0:0:0:0:
256,192,132493,1,8,0:0:0:0:
256,192,132659,1,0,0:0:0:0:
256,192,132826,1,8,0:0:0:0:
256,192,133159,1,0,0:0:0:0:
256,192,133201,1,8,0:0:0:0:
224,160,133493,5,12,0:0:0:0:
224,160,133659,1,0,0:0:0:0:
224,160,133743,1,0,0:0:0:0:
224,192,133826,1,8,0:0:0:0:
224,192,133993,1,0,0:0:0:0:
224,192,134076,1,8,0:0:0:0:
224,192,134159,1,0,0:0:0:0:
224,192,134326,1,0,0:0:0:0:
224,192,134493,1,8,0:0:0:0:
224,160,134659,1,8,0:0:0:0:
224,128,134743,1,8,0:0:0:0:
224,160,134826,1,0,0:0:0:0:
224,160,134993,1,0,0:0:0:0:
224,160,135159,1,8,0:0:0:0:
224,160,135326,1,8,0:0:0:0:
224,160,135409,1,8,0:0:0:0:
224,160,135493,1,8,0:0:0:0:
224,160,135576,1,8,0:0:0:0:
224,160,135659,1,0,0:0:0:0:
224,160,135743,1,0,0:0:0:0:
224,160,135826,1,8,0:0:0:0:
224,160,135993,1,8,0:0:0:0:
224,160,136159,1,0,0:0:0:0:
224,160,136326,1,8,0:0:0:0:
224,128,136409,1,0,0:0:0:0:
224,160,136493,1,8,0:0:0:0:
224,160,136659,1,0,0:0:0:0:
224,160,136743,1,0,0:0:0:0:
224,128,136826,1,8,0:0:0:0:
224,160,136993,1,0,0:0:0:0:
224,160,137159,1,8,0:0:0:0:
224,128,137243,1,8,0:0:0:0:
224,160,137326,1,0,0:0:0:0:
224,128,137409,1,0,0:0:0:0:
224,160,137493,1,8,0:0:0:0:
224,160,137576,1,0,0:0:0:0:
224,160,137659,1,0,0:0:0:0:
224,128,137743,1,0,0:0:0:0:
224,160,137826,1,8,0:0:0:0:
224,160,137993,1,8,0:0:0:0:
192,160,138076,1,8,0:0:0:0:
224,160,138159,1,0,0:0:0:0:
224,160,138326,1,0,0:0:0:0:
224,128,138493,1,8,0:0:0:0:
224,128,138576,1,0,0:0:0:0:
224,160,138659,1,8,0:0:0:0:
224,160,138826,1,4,0:0:0:0:
224,128,139159,1,8,0:0:0:0:
222,144,139243,1,8,0:0:0:0:
224,128,139326,1,0,0:0:0:0:
224,128,139409,1,8,0:0:0:0:
224,128,139493,1,0,0:0:0:0:
224,128,139576,1,0,0:0:0:0:
224,128,139659,1,8,0:0:0:0:
222,144,139743,1,0,0:0:0:0:
224,128,139826,1,8,0:0:0:0:
224,128,139909,1,8,0:0:0:0:
224,192,139993,1,0,0:0:0:0:
224,128,140076,1,8,0:0:0:0:
224,160,140159,1,0,0:0:0:0:
222,144,140243,1,0,0:0:0:0:
224,160,140326,1,8,0:0:0:0:
224,128,140409,1,0,0:0:0:0:
222,144,140493,1,8,0:0:0:0:
224,128,140576,1,8,0:0:0:0:
222,144,140659,1,0,0:0:0:0:
222,144,140743,1,0,0:0:0:0:
224,128,140826,1,8,0:0:0:0:
224,128,140909,1,0,0:0:0:0:
224,128,140993,1,0,0:0:0:0:
224,128,141076,1,0,0:0:0:0:
224,128,141159,1,8,0:0:0:0:
256,192,141326,1,8,0:0:0:0:
256,192,141493,1,0,0:0:0:0:
256,192,141659,1,8,0:0:0:0:
222,144,141743,1,0,0:0:0:0:
256,192,141826,1,8,0:0:0:0:
256,192,141993,1,0,0:0:0:0:
256,192,142159,1,8,0:0:0:0:
224,128,142243,1,8,0:0:0:0:
256,192,142326,1,0,0:0:0:0:
224,128,142409,1,0,0:0:0:0:
256,192,142493,1,8,0:0:0:0:
256,192,142659,1,4,0:0:0:0:
256,192,142993,1,8,0:0:0:0:
224,128,143076,1,0,0:0:0:0:
256,192,143159,1,8,0:0:0:0:
256,192,143326,1,4,0:0:0:0:
256,192,143659,1,0,0:0:0:0:
256,192,143826,1,8,0:0:0:0:
224,160,143909,1,8,0:0:0:0:
256,192,143993,1,8,0:0:0:0:
224,160,144076,1,0,0:0:0:0:
256,192,144159,1,8,0:0:0:0:
256,192,145493,1,8,0:0:0:0:
256,192,146159,1,8,0:0:0:0:
256,192,146659,1,0,0:0:0:0:
256,192,147159,1,8,0:0:0:0:
256,192,147493,1,8,0:0:0:0:
256,192,148159,1,0,0:0:0:0:
256,192,148826,1,0,0:0:0:0:
256,192,149326,1,8,0:0:0:0:
256,192,149826,1,0,0:0:0:0:
256,192,150159,1,0,0:0:0:0:
256,192,150826,1,8,0:0:0:0:
256,192,151326,1,0,0:0:0:0:
256,192,151992,1,0,0:0:0:0:
256,192,152659,1,8,0:0:0:0:
256,192,152993,1,8,0:0:0:0:
256,192,153492,1,0,0:0:0:0:
256,192,153993,1,8,0:0:0:0:
256,192,154659,1,8,0:0:0:0:
256,192,155159,1,0,0:0:0:0:
256,192,155492,1,8,0:0:0:0:
256,192,156159,5,4,0:0:0:0:
256,192,156493,1,8,0:0:0:0:
256,192,157159,1,8,0:0:0:0:
256,160,157326,1,0,0:0:0:0:
256,160,157826,1,8,0:0:0:0:
256,160,157993,1,0,0:0:0:0:
256,160,158159,1,8,0:0:0:0:
256,160,158493,1,8,0:0:0:0:
256,160,158826,1,4,0:0:0:0:
256,160,159159,1,8,0:0:0:0:
256,160,159493,1,4,0:0:0:0:
256,160,159826,1,8,0:0:0:0:
256,160,160159,1,4,0:0:0:0:
256,160,160493,1,8,0:0:0:0:
256,160,160826,1,4,0:0:0:0:
256,160,161159,5,8,0:0:0:0:
256,160,161493,1,4,0:0:0:0:
256,160,161659,1,8,0:0:0:0:
256,160,161826,1,0,0:0:0:0:
246,168,161993,1,8,0:0:0:0:
256,160,162076,1,8,0:0:0:0:
256,160,162159,1,0,0:0:0:0:
256,160,162326,1,0,0:0:0:0:
256,160,162493,1,0,0:0:0:0:
256,160,162659,1,12,0:0:0:0:
246,168,162993,1,8,0:0:0:0:
256,160,163159,1,0,0:0:0:0:
256,160,163326,1,8,0:0:0:0:
256,160,163493,1,12,0:0:0:0:
256,96,164159,1,4,0:0:0:0:
256,192,164409,1,0,0:0:0:0:
256,192,164492,1,8,0:0:0:0:
256,192,164659,1,0,0:0:0:0:
256,192,164826,1,8,0:0:0:0:
256,192,164909,1,8,0:0:0:0:
256,192,164992,1,0,0:0:0:0:
256,192,165076,1,8,0:0:0:0:
256,192,165159,1,0,0:0:0:0:
256,192,165242,1,0,0:0:0:0:
256,192,165326,1,8,0:0:0:0:
256,192,165492,1,0,0:0:0:0:
256,192,165659,1,8,0:0:0:0:
256,192,165742,1,0,0:0:0:0:
256,192,165826,1,8,0:0:0:0:
256,192,165909,1,0,0:0:0:0:
256,192,165992,1,8,0:0:0:0:
256,192,166076,1,8,0:0:0:0:
256,192,166159,1,0,0:0:0:0:
256,192,166326,1,0,0:0:0:0:
256,192,166492,1,8,0:0:0:0:
256,192,166576,1,8,0:0:0:0:
256,192,166659,1,0,0:0:0:0:
256,192,166742,1,0,0:0:0:0:
256,192,166826,1,8,0:0:0:0:
256,192,166992,1,0,0:0:0:0:
256,192,167159,1,8,0:0:0:0:
256,192,167243,1,0,0:0:0:0:
256,192,167326,1,0,0:0:0:0:
256,192,167409,1,0,0:0:0:0:
256,192,167492,1,8,0:0:0:0:
256,192,167576,1,0,0:0:0:0:
256,192,167659,1,8,0:0:0:0:
256,192,167742,1,8,0:0:0:0:
256,192,167826,1,0,0:0:0:0:
256,192,167992,1,8,0:0:0:0:
256,192,168076,1,8,0:0:0:0:
256,192,168159,1,8,0:0:0:0:
256,192,168326,1,0,0:0:0:0:
256,192,168493,1,8,0:0:0:0:
256,192,168576,1,8,0:0:0:0:
256,192,168659,1,0,0:0:0:0:
256,192,168742,1,0,0:0:0:0:
256,192,168826,1,8,0:0:0:0:
256,192,168992,1,0,0:0:0:0:
256,192,169076,1,0,0:0:0:0:
256,192,169159,1,8,0:0:0:0:
256,192,169326,1,8,0:0:0:0:
256,96,169493,1,4,0:0:0:0:
256,192,169659,1,8,0:0:0:0:
256,192,169742,1,0,0:0:0:0:
256,192,169826,1,8,0:0:0:0:
256,192,169992,1,0,0:0:0:0:
256,192,170159,1,8,0:0:0:0:
256,192,170326,1,0,0:0:0:0:
256,192,170409,1,0,0:0:0:0:
256,192,170492,1,8,0:0:0:0:
256,192,170576,1,0,0:0:0:0:
256,192,170659,1,8,0:0:0:0:
256,192,170742,1,8,0:0:0:0:
256,192,170826,1,0,0:0:0:0:
256,192,170909,1,0,0:0:0:0:
256,192,170992,1,8,0:0:0:0:
256,192,171159,1,0,0:0:0:0:
256,192,171326,1,8,0:0:0:0:
256,192,171409,1,0,0:0:0:0:
256,192,171492,1,8,0:0:0:0:
256,192,171576,1,8,0:0:0:0:
256,192,171659,1,0,0:0:0:0:
256,192,171742,1,0,0:0:0:0:
256,192,171826,1,8,0:0:0:0:
256,192,171993,1,0,0:0:0:0:
256,192,172076,1,8,0:0:0:0:
256,192,172159,1,0,0:0:0:0:
256,192,172243,1,0,0:0:0:0:
256,192,172326,1,8,0:0:0:0:
256,192,172409,1,8,0:0:0:0:
256,192,172493,1,0,0:0:0:0:
256,192,172659,1,8,0:0:0:0:
256,192,172743,1,8,0:0:0:0:
256,192,172826,1,8,0:0:0:0:
256,192,172909,1,8,0:0:0:0:
256,192,172993,1,0,0:0:0:0:
256,192,173159,1,0,0:0:0:0:
256,96,173326,1,12,0:0:0:0:
256,192,173659,1,8,0:0:0:0:
256,192,173743,1,8,0:0:0:0:
256,192,173826,1,0,0:0:0:0:
256,96,173993,1,12,0:0:0:0:
256,192,174159,1,0,0:0:0:0:
256,192,174493,1,8,0:0:0:0:
256,192,174576,1,8,0:0:0:0:
256,192,174659,1,8,0:0:0:0:
256,192,174743,1,8,0:0:0:0:
256,192,174826,5,4,0:0:0:0:
256,192,174993,1,0,0:0:0:0:
256,192,175076,1,0,0:0:0:0:
256,192,175159,1,8,0:0:0:0:
256,192,175326,1,0,0:0:0:0:
256,192,175493,1,8,0:0:0:0:
256,192,175576,1,0,0:0:0:0:
256,192,175659,1,8,0:0:0:0:
224,160,175743,1,8,0:0:0:0:
256,192,175826,1,0,0:0:0:0:
224,160,175909,1,0,0:0:0:0:
224,160,175993,1,8,0:0:0:0:
240,175,176159,1,0,0:0:0:0:
256,192,176326,1,0,0:0:0:0:
256,160,176409,1,0,0:0:0:0:
256,192,176493,1,8,0:0:0:0:
224,160,176576,1,0,0:0:0:0:
256,192,176659,1,8,0:0:0:0:
224,160,176743,1,8,0:0:0:0:
256,192,176826,1,0,0:0:0:0:
256,192,176993,1,0,0:0:0:0:
256,192,177159,1,8,0:0:0:0:
224,160,177243,1,0,0:0:0:0:
256,192,177326,1,8,0:0:0:0:
256,192,177409,1,0,0:0:0:0:
256,192,177493,1,8,0:0:0:0:
256,192,177659,1,0,0:0:0:0:
247,188,177743,1,0,0:0:0:0:
256,192,177826,1,8,0:0:0:0:
256,192,177993,1,0,0:0:0:0:
256,192,178159,1,8,0:0:0:0:
256,192,178243,1,0,0:0:0:0:
256,192,178326,1,0,0:0:0:0:
256,192,178409,1,0,0:0:0:0:
256,192,178493,1,8,0:0:0:0:
224,160,178576,1,0,0:0:0:0:
224,192,178659,1,8,0:0:0:0:
224,160,178743,1,8,0:0:0:0:
224,192,178826,1,0,0:0:0:0:
224,192,178993,1,8,0:0:0:0:
256,160,179159,1,0,0:0:0:0:
224,192,179243,1,8,0:0:0:0:
256,160,179326,1,0,0:0:0:0:
256,160,179409,1,0,0:0:0:0:
256,160,179493,1,8,0:0:0:0:
256,160,179659,1,0,0:0:0:0:
224,160,179743,1,0,0:0:0:0:
224,160,179826,1,8,0:0:0:0:
224,160,179993,1,8,0:0:0:0:
224,160,180159,1,4,0:0:0:0:
224,160,180326,1,8,0:0:0:0:
224,160,180409,1,0,0:0:0:0:
228,153,180493,1,8,0:0:0:0:
224,160,180659,1,0,0:0:0:0:
224,160,180826,1,8,0:0:0:0:
224,160,180993,1,0,0:0:0:0:
224,128,181076,1,0,0:0:0:0:
224,128,181159,1,8,0:0:0:0:
192,160,181243,1,0,0:0:0:0:
224,128,181326,1,8,0:0:0:0:
224,128,181409,1,8,0:0:0:0:
224,128,181493,1,0,0:0:0:0:
224,128,181576,1,0,0:0:0:0:
224,160,181659,1,8,0:0:0:0:
224,160,181826,1,0,0:0:0:0:
224,160,181993,1,8,0:0:0:0:
192,128,182076,1,0,0:0:0:0:
224,160,182159,1,8,0:0:0:0:
224,96,182243,1,0,0:0:0:0:
224,160,182326,1,0,0:0:0:0:
224,96,182409,1,0,0:0:0:0:
224,160,182493,1,8,0:0:0:0:
224,160,182659,1,0,0:0:0:0:
224,128,182743,1,8,0:0:0:0:
224,160,182826,1,0,0:0:0:0:
224,160,182993,1,0,0:0:0:0:
224,160,183159,1,8,0:0:0:0:
224,160,183326,1,8,0:0:0:0:
224,160,183409,1,8,0:0:0:0:
224,160,183493,1,0,0:0:0:0:
224,160,183576,1,0,0:0:0:0:
224,160,183659,1,8,0:0:0:0:
224,96,183743,1,8,0:0:0:0:
224,160,183826,1,0,0:0:0:0:
224,160,183993,1,12,0:0:0:0:
224,160,184326,1,8,0:0:0:0:
192,128,184409,1,0,0:0:0:0:
224,160,184493,1,8,0:0:0:0:
192,160,184659,1,0,0:0:0:0:
192,160,184826,1,12,0:0:0:0:
192,128,185493,5,8,0:0:0:0:
192,128,185576,1,8,0:0:0:0:
192,128,185659,1,8,0:0:0:0:
192,128,185743,1,8,0:0:0:0:
192,128,185826,1,8,0:0:0:0:
192,128,185909,1,8,0:0:0:0:
192,128,185993,1,8,0:0:0:0:
192,128,186076,1,8,0:0:0:0:
256,96,186159,1,4,0:0:0:0:
256,192,186492,1,8,0:0:0:0:
256,192,186659,1,0,0:0:0:0:
256,192,186825,1,8,0:0:0:0:
256,192,186909,1,0,0:0:0:0:
256,192,186992,1,8,0:0:0:0:
256,192,187075,1,8,0:0:0:0:
256,192,187159,1,0,0:0:0:0:
256,192,187325,1,8,0:0:0:0:
256,192,187409,1,8,0:0:0:0:
256,192,187492,1,8,0:0:0:0:
256,192,187659,1,0,0:0:0:0:
256,192,187742,1,0,0:0:0:0:
256,192,187825,1,8,0:0:0:0:
256,192,187992,1,0,0:0:0:0:
256,192,188159,1,8,0:0:0:0:
256,192,188242,1,8,0:0:0:0:
256,192,188325,1,0,0:0:0:0:
256,192,188409,1,8,0:0:0:0:
256,192,188492,1,0,0:0:0:0:
256,192,188575,1,0,0:0:0:0:
256,192,188659,1,8,0:0:0:0:
256,192,188825,1,0,0:0:0:0:
256,192,188992,1,0,0:0:0:0:
256,192,189159,1,8,0:0:0:0:
256,192,189242,1,8,0:0:0:0:
256,192,189325,1,0,0:0:0:0:
256,192,189492,1,8,0:0:0:0:
256,192,189575,1,0,0:0:0:0:
256,192,189659,1,8,0:0:0:0:
256,192,189742,1,8,0:0:0:0:
256,192,189825,1,0,0:0:0:0:
256,192,189992,1,8,0:0:0:0:
256,192,190075,1,8,0:0:0:0:
256,192,190159,1,8,0:0:0:0:
256,192,190325,1,0,0:0:0:0:
256,192,190409,1,0,0:0:0:0:
256,192,190492,1,8,0:0:0:0:
256,192,190659,1,0,0:0:0:0:
256,192,190825,1,8,0:0:0:0:
256,192,190909,1,0,0:0:0:0:
256,192,190992,1,0,0:0:0:0:
256,96,191159,1,12,0:0:0:0:
256,192,191325,1,8,0:0:0:0:
256,96,191492,1,4,0:0:0:0:
256,192,191659,1,0,0:0:0:0:
256,192,191742,1,0,0:0:0:0:
256,192,191825,1,8,0:0:0:0:
256,192,191909,1,0,0:0:0:0:
256,192,191992,1,8,0:0:0:0:
256,192,192075,1,8,0:0:0:0:
256,192,192159,1,0,0:0:0:0:
256,192,192325,1,8,0:0:0:0:
256,192,192409,1,0,0:0:0:0:
256,192,192492,1,8,0:0:0:0:
256,192,192575,1,8,0:0:0:0:
256,192,192659,1,0,0:0:0:0:
256,192,192742,1,0,0:0:0:0:
256,192,192825,1,0,0:0:0:0:
256,192,192909,1,0,0:0:0:0:
256,192,192992,1,8,0:0:0:0:
256,192,193159,1,0,0:0:0:0:
256,192,193242,1,0,0:0:0:0:
256,192,193325,1,8,0:0:0:0:
256,192,193409,1,8,0:0:0:0:
256,192,193492,1,0,0:0:0:0:
256,192,193575,1,8,0:0:0:0:
256,192,193659,1,0,0:0:0:0:
256,192,193742,1,0,0:0:0:0:
256,192,193825,1,8,0:0:0:0:
256,192,193909,1,8,0:0:0:0:
256,192,193992,1,0,0:0:0:0:
256,192,194075,1,0,0:0:0:0:
256,96,194159,1,12,0:0:0:0:
256,96,194825,1,4,0:0:0:0:
256,96,195325,1,4,0:0:0:0:
256,192,196492,5,0,0:0:0:0:
256,192,196534,1,8,0:0:0:0:
256,160,196825,5,4,0:0:0:0:
256,160,196992,1,8,0:0:0:0:
256,128,197075,1,8,0:0:0:0:
256,192,197159,1,8,0:0:0:0:
256,192,197325,1,0,0:0:0:0:
256,192,197492,1,0,0:0:0:0:
256,160,197575,1,0,0:0:0:0:
256,192,197659,1,8,0:0:0:0:
256,128,197742,1,8,0:0:0:0:
256,192,197825,1,0,0:0:0:0:
256,192,197992,1,8,0:0:0:0:
256,128,198075,1,8,0:0:0:0:
256,192,198159,1,0,0:0:0:0:
224,160,198325,1,8,0:0:0:0:
256,192,198492,1,0,0:0:0:0:
256,160,198575,1,0,0:0:0:0:
256,192,198659,1,8,0:0:0:0:
256,192,198825,1,0,0:0:0:0:
256,192,198992,1,0,0:0:0:0:
224,192,199075,1,0,0:0:0:0:
256,192,199159,1,8,0:0:0:0:
224,160,199242,1,0,0:0:0:0:
256,192,199325,1,8,0:0:0:0:
256,160,199409,1,8,0:0:0:0:
256,192,199492,1,0,0:0:0:0:
256,192,199659,1,8,0:0:0:0:
256,160,199742,1,8,0:0:0:0:
256,192,199825,1,8,0:0:0:0:
256,160,199992,1,0,0:0:0:0:
256,192,200159,1,0,0:0:0:0:
256,192,200242,1,0,0:0:0:0:
256,192,200325,1,8,0:0:0:0:
256,160,200409,1,8,0:0:0:0:
256,192,200492,1,0,0:0:0:0:
256,192,200658,1,8,0:0:0:0:
256,160,200742,1,8,0:0:0:0:
256,192,200825,1,0,0:0:0:0:
256,192,200992,1,8,0:0:0:0:
256,192,201158,1,0,0:0:0:0:
256,160,201242,1,0,0:0:0:0:
256,192,201325,1,8,0:0:0:0:
256,192,201492,1,0,0:0:0:0:
256,192,201658,1,0,0:0:0:0:
256,192,201825,1,12,0:0:0:0:
256,192,201992,1,8,0:0:0:0:
256,160,202158,5,4,0:0:0:0:
256,160,202325,1,8,0:0:0:0:
256,128,202408,1,8,0:0:0:0:
256,192,202492,1,8,0:0:0:0:
256,192,202658,1,0,0:0:0:0:
256,192,202825,1,0,0:0:0:0:
256,160,202908,1,0,0:0:0:0:
256,192,202992,1,8,0:0:0:0:
256,128,203075,1,8,0:0:0:0:
256,192,203158,1,0,0:0:0:0:
256,192,203325,1,8,0:0:0:0:
256,128,203408,1,8,0:0:0:0:
256,192,203492,1,0,0:0:0:0:
224,160,203658,1,8,0:0:0:0:
256,192,203825,1,0,0:0:0:0:
256,160,203908,1,0,0:0:0:0:
256,192,203992,1,8,0:0:0:0:
256,192,204158,1,0,0:0:0:0:
256,192,204325,1,0,0:0:0:0:
224,192,204408,1,0,0:0:0:0:
256,192,204492,1,8,0:0:0:0:
224,128,204575,1,0,0:0:0:0:
256,192,204658,1,8,0:0:0:0:
256,160,204742,1,8,0:0:0:0:
256,192,204825,1,0,0:0:0:0:
224,192,204992,1,0,0:0:0:0:
224,192,205158,1,8,0:0:0:0:
224,192,205325,1,0,0:0:0:0:
224,192,205492,1,0,0:0:0:0:
224,192,205658,1,0,0:0:0:0:
224,192,205825,1,8,0:0:0:0:
224,192,205992,1,0,0:0:0:0:
224,192,206075,1,0,0:0:0:0:
224,192,206158,1,0,0:0:0:0:
224,192,206325,1,0,0:0:0:0:
224,192,206492,1,8,0:0:0:0:
224,192,206658,1,0,0:0:0:0:
224,192,206825,1,8,0:0:0:0:
