osu file format v14

[General]
AudioFilename: audio.mp3
AudioLeadIn: 0
PreviewTime:58132
Countdown: 0
SampleSet: Normal
StackLeniency: 0.7
Mode: 1
LetterboxInBreaks: 0
WidescreenStoryboard: 1

[Editor]
Bookmarks: 5493,26826,53326,58826,80159,101493,112159,133493,145493,156159,164159,174826,186159,196825
DistanceSpacing: 0.1
BeatDivisor: 4
GridSize: 32
TimelineZoom: 2.7

[Metadata]
Title:Genjitsu Escape
TitleUnicode:現実エスケープ
Artist:tephe
ArtistUnicode:tephe
Creator:Hivie
Version:Oni
Source:
Tags:gaston_2199 reality vocaloid japanese rock jrock j-rock JPOP J-POP POP Itovero saw mappers' guild mpg mg featured artist fa feat. Kagamine Len 鏡音レン
BeatmapID:4218763
BeatmapSetID:2025023

[Difficulty]
HPDrainRate:5.5
CircleSize:2
OverallDifficulty:5.5
ApproachRate:10
SliderMultiplier:1.4
SliderTickRate:1

[Events]
//Background and Video events
0,0,"genjitsu.png",0,60
//Break Periods
2,91025,95043
//Storyboard Layer 0 (Background)
//Storyboard Layer 1 (Fail)
//Storyboard Layer 2 (Pass)
//Storyboard Layer 3 (Foreground)
//Storyboard Layer 4 (Overlay)
//Storyboard Sound Samples

[TimingPoints]
160,333.333333333333,4,1,0,100,1,0
160,-125,4,1,0,50,0,0
5409,-100,4,1,0,80,0,0
16326,-111.111111111111,4,1,0,60,0,0
25990,-109.086942293008,4,1,0,60,0,0
26073,-108.108108108108,4,1,0,60,0,0
26156,-107.146683810136,4,1,0,60,0,0
26323,-105.263157894737,4,1,0,60,0,0
26490,-103.444708803145,4,1,0,60,0,0
26573,-102.564102564103,4,1,0,60,0,0
26656,-101.698362656361,4,1,0,60,0,0
26740,-100.836946657255,4,1,0,60,0,0
26823,-100,4,1,0,80,0,0
37659,-105.263157894737,4,1,0,70,0,0
48076,-117.64705882353,4,1,0,60,0,0
52823,-114.942528735632,4,1,0,60,0,0
52990,-111.111111111111,4,1,0,60,0,0
53323,-86.9565217391304,4,1,0,80,0,0
53493,-100,4,1,0,80,0,0
54576,-86.9565217391304,4,1,0,80,0,0
54746,-100,4,1,0,80,0,0
56323,-97.8985780797785,4,1,0,80,0,0
56490,-95.8836578752773,4,1,0,80,0,0
56656,-93.9613526570048,4,1,0,80,0,0
56823,-92.1037054575589,4,1,0,80,0,0
56906,-91.2075029308324,4,1,0,80,0,0
56990,-90.3180868353843,4,1,0,80,0,0
57073,-89.4561342991836,4,1,0,80,0,0
57156,-88.6104783599089,4,1,0,80,0,0
57323,-86.9565217391304,4,1,0,80,0,0
57490,-95.2380952380952,4,1,0,80,0,0
57656,-93.0297527587652,4,1,0,80,0,0
57740,-91.9508490956786,4,1,0,80,0,0
57823,-90.9090909090909,4,1,0,80,0,0
57990,-88.8829574269318,4,1,0,80,0,0
58156,-86.9565217391304,4,1,0,80,0,0
58490,-100,4,1,0,80,0,0
58573,-97.568121886903,4,1,0,80,0,0
58657,-95.2244781241064,4,1,0,80,0,0
58740,-93.0167597765363,4,1,0,80,0,0
58826,-90.9090909090909,4,1,0,100,0,1
79826,-90.9090909090909,4,1,0,100,0,0
80159,-100,4,1,0,100,0,0
91159,-125,4,1,0,50,0,0
95409,-117.647058823529,4,1,0,60,0,0
96159,-111.111111111111,4,1,0,60,0,0
101826,-117.647058823529,4,1,0,60,0,0
105990,-117.647058823529,4,1,0,60,0,0
106323,-108.695652173913,4,1,0,60,0,0
106576,-86.9565217391304,4,1,0,80,0,0
106826,-100,4,1,0,80,0,0
107909,-86.9565217391304,4,1,0,80,0,0
108079,-100,4,1,0,80,0,0
109656,-97.9091443446133,4,1,0,80,0,0
109823,-95.8921008265143,4,1,0,80,0,0
109990,-93.9564867042708,4,1,0,80,0,0
110073,-93.0232558139535,4,1,0,80,0,0
110156,-92.1083813887353,4,1,0,80,0,0
110323,-90.3210813741818,4,1,0,80,0,0
110490,-88.6018237082067,4,1,0,80,0,0
110656,-86.9565217391304,4,1,0,80,0,0
110823,-95.2380952380952,4,1,0,80,0,0
110990,-93.020012551426,4,1,0,80,0,0
111073,-91.9556076376921,4,1,0,80,0,0
111156,-90.9152865807947,4,1,0,80,0,0
111240,-89.8861262718146,4,1,0,80,0,0
111323,-88.8918504697808,4,1,0,80,0,0
111490,-86.9565217391304,4,1,0,80,0,0
111823,-100,4,1,0,80,0,0
111906,-97.568121886903,4,1,0,80,0,0
111990,-95.2244781241064,4,1,0,80,0,0
112073,-93.0167597765363,4,1,0,80,0,0
112159,-90.9090909090909,4,1,0,100,0,1
133159,-90.9090909090909,4,1,0,100,0,0
133326,-100,4,1,0,80,0,0
145409,-133.333333333333,4,1,0,50,0,0
156076,-117.647058823529,4,1,0,60,0,0
158823,-115.386834362199,4,1,0,60,0,0
159156,-113.211819313936,4,1,0,60,0,0
159490,-111.111111111111,4,1,0,60,0,0
159823,-109.092892598047,4,1,0,60,0,0
160156,-107.146683810136,4,1,0,60,0,0
160490,-105.263157894737,4,1,0,60,0,0
160823,-103.450059483784,4,1,0,60,0,0
161156,-101.698362656361,4,1,0,60,0,0
161490,-100,4,1,0,80,0,0
161656,-97.9091443446133,4,1,0,80,0,0
161823,-95.8921008265143,4,1,0,80,0,0
161990,-93.9564867042708,4,1,0,80,0,0
162073,-93.0232558139535,4,1,0,80,0,0
162156,-92.1083813887353,4,1,0,80,0,0
162323,-90.3210813741818,4,1,0,80,0,0
162490,-88.6018237082067,4,1,0,80,0,0
162656,-86.9565217391304,4,1,0,80,0,0
162823,-95.2380952380952,4,1,0,80,0,0
162990,-93.020012551426,4,1,0,80,0,0
163156,-90.9152865807947,4,1,0,80,0,0
163323,-88.8918504697808,4,1,0,80,0,0
163490,-86.9565217391304,4,1,0,80,0,0
164159,-90.9090909090909,4,1,0,100,0,1
184993,-100,4,1,0,100,0,0
185493,333.333333333333,4,1,0,60,1,8
185493,-100,4,1,0,60,0,8
185573,-98.7690938751298,4,1,0,60,0,8
185656,-97.568121886903,4,1,0,60,0,8
185740,-96.3820549927641,4,1,0,60,0,8
185823,-95.2380952380953,4,1,0,60,0,8
185906,-94.1209723007349,4,1,0,60,0,8
185990,-93.0167597765363,4,1,0,60,0,8
186159,333.333333333333,4,1,0,100,1,1
186159,-90.9090909090909,4,1,0,100,0,1
194159,-90.9090909090909,4,1,0,100,0,0
195492,-100,4,1,0,50,0,0
196409,-100,4,1,0,80,0,0
196492,-90.9090909090909,4,1,0,80,0,1
196659,-100,4,1,0,80,0,1
196825,-100,4,1,0,80,0,0
204825,-100,4,1,0,60,0,0
204989,-101.698362656361,4,1,0,60,0,0
205155,-103.444708803145,4,1,0,60,0,0
205322,-105.263157894737,4,1,0,60,0,0
205489,-107.146683810136,4,1,0,60,0,0
205655,-109.086942293008,4,1,0,60,0,0
205822,-111.111111111111,4,1,0,60,0,0
205989,-113.211819313936,4,1,0,60,0,0
206072,-114.285714285714,4,1,0,60,0,0
206155,-115.380177685474,4,1,0,60,0,0
206322,-117.647058823529,4,1,0,60,0,0
206489,-120.004800192008,4,1,0,60,0,0
206655,-122.443981878291,4,1,0,60,0,0
206822,-125,4,1,0,60,0,0

[HitObjects]
256,96,5493,5,4,0:0:0:0:
256,192,5659,1,8,0:0:0:0:
256,192,5826,1,0,0:0:0:0:
256,192,5993,1,8,0:0:0:0:
256,192,6076,1,0,0:0:0:0:
256,192,6159,1,8,0:0:0:0:
256,192,6243,1,8,0:0:0:0:
256,192,6326,1,0,0:0:0:0:
256,192,6493,1,0,0:0:0:0:
256,192,6659,1,8,0:0:0:0:
256,192,6743,1,8,0:0:0:0:
256,192,6826,1,0,0:0:0:0:
256,192,6993,1,8,0:0:0:0:
256,192,7159,1,0,0:0:0:0:
256,192,7326,1,8,0:0:0:0:
256,192,7409,1,0,0:0:0:0:
256,192,7493,1,0,0:0:0:0:
256,192,7659,1,8,0:0:0:0:
256,192,7826,1,0,0:0:0:0:
256,192,7909,1,0,0:0:0:0:
256,192,7993,1,8,0:0:0:0:
256,192,8159,1,0,0:0:0:0:
256,192,8326,1,8,0:0:0:0:
256,192,8409,1,8,0:0:0:0:
256,192,8493,1,8,0:0:0:0:
256,192,8659,1,0,0:0:0:0:
256,192,8826,1,8,0:0:0:0:
256,192,8909,1,0,0:0:0:0:
256,192,8993,1,8,0:0:0:0:
256,192,9076,1,8,0:0:0:0:
256,192,9159,1,0,0:0:0:0:
256,192,9326,1,8,0:0:0:0:
256,192,9493,1,0,0:0:0:0:
256,192,9659,1,8,0:0:0:0:
256,192,9826,1,0,0:0:0:0:
256,192,9909,1,0,0:0:0:0:
256,192,9993,1,8,0:0:0:0:
256,192,10159,1,0,0:0:0:0:
256,192,10326,1,0,0:0:0:0:
256,96,10493,1,12,0:0:0:0:
256,96,10826,1,4,0:0:0:0:
256,192,10993,1,8,0:0:0:0:
256,192,11076,1,0,0:0:0:0:
256,192,11159,1,8,0:0:0:0:
256,192,11326,1,0,0:0:0:0:
256,192,11493,1,8,0:0:0:0:
256,192,11576,1,8,0:0:0:0:
256,192,11659,1,0,0:0:0:0:
256,192,11826,1,0,0:0:0:0:
256,192,11993,1,8,0:0:0:0:
256,192,12076,1,8,0:0:0:0:
256,192,12159,1,0,0:0:0:0:
256,192,12243,1,8,0:0:0:0:
256,192,12326,1,0,0:0:0:0:
256,192,12493,1,8,0:0:0:0:
256,192,12659,1,0,0:0:0:0:
256,192,12826,1,0,0:0:0:0:
256,192,12909,1,0,0:0:0:0:
256,192,12993,1,8,0:0:0:0:
256,192,13159,1,8,0:0:0:0:
256,192,13326,1,0,0:0:0:0:
256,192,13493,1,8,0:0:0:0:
256,192,13659,1,0,0:0:0:0:
256,192,13743,1,8,0:0:0:0:
256,192,13826,1,0,0:0:0:0:
256,192,13993,1,0,0:0:0:0:
256,192,14159,1,8,0:0:0:0:
256,192,14243,1,8,0:0:0:0:
256,192,14326,1,0,0:0:0:0:
256,192,14409,1,8,0:0:0:0:
256,192,14493,1,0,0:0:0:0:
256,96,14659,1,12,0:0:0:0:
256,192,14993,1,8,0:0:0:0:
256,192,15159,1,8,0:0:0:0:
256,192,15326,1,0,0:0:0:0:
256,192,15409,1,0,0:0:0:0:
256,192,15493,1,0,0:0:0:0:
256,192,15659,1,8,0:0:0:0:
256,192,15743,1,8,0:0:0:0:
256,192,15826,1,0,0:0:0:0:
256,192,15993,1,0,0:0:0:0:
256,96,16159,1,12,0:0:0:0:
256,192,16493,1,8,0:0:0:0:
256,192,16659,1,0,0:0:0:0:
256,192,16826,1,8,0:0:0:0:
256,192,16909,1,0,0:0:0:0:
256,192,16993,1,8,0:0:0:0:
256,192,17159,1,0,0:0:0:0:
256,192,17326,1,8,0:0:0:0:
256,192,17493,1,0,0:0:0:0:
256,192,17659,1,0,0:0:0:0:
256,192,17826,1,8,0:0:0:0:
256,192,17993,1,0,0:0:0:0:
256,192,18076,1,0,0:0:0:0:
256,192,18159,1,8,0:0:0:0:
256,192,18493,1,8,0:0:0:0:
256,192,18659,1,0,0:0:0:0:
256,192,18826,1,8,0:0:0:0:
256,192,18993,1,0,0:0:0:0:
256,192,19076,1,8,0:0:0:0:
256,192,19243,1,0,0:0:0:0:
256,192,19326,1,0,0:0:0:0:
256,192,19493,1,8,0:0:0:0:
256,192,19659,1,0,0:0:0:0:
256,192,19826,1,8,0:0:0:0:
256,192,19993,1,0,0:0:0:0:
256,192,20076,1,8,0:0:0:0:
256,192,20159,1,0,0:0:0:0:
256,192,20326,1,8,0:0:0:0:
256,192,20493,1,0,0:0:0:0:
256,192,20659,1,8,0:0:0:0:
256,192,20743,1,8,0:0:0:0:
256,192,20826,1,0,0:0:0:0:
256,192,20993,1,8,0:0:0:0:
256,192,21159,1,8,0:0:0:0:
256,192,21493,1,0,0:0:0:0:
256,192,21659,1,8,0:0:0:0:
256,192,21743,1,0,0:0:0:0:
256,192,21826,1,8,0:0:0:0:
256,192,21993,1,8,0:0:0:0:
256,192,22159,1,0,0:0:0:0:
256,192,22326,1,0,0:0:0:0:
256,192,22493,1,8,0:0:0:0:
256,192,22659,1,8,0:0:0:0:
256,192,22743,1,8,0:0:0:0:
256,192,22826,1,0,0:0:0:0:
256,192,22993,1,8,0:0:0:0:
256,192,23159,1,0,0:0:0:0:
256,192,23243,1,0,0:0:0:0:
256,192,23326,1,8,0:0:0:0:
256,192,23493,1,0,0:0:0:0:
256,192,23659,1,0,0:0:0:0:
256,192,23826,1,8,0:0:0:0:
256,192,23993,1,0,0:0:0:0:
256,192,24076,1,0,0:0:0:0:
256,192,24159,1,8,0:0:0:0:
256,192,24493,1,8,0:0:0:0:
256,192,24659,1,0,0:0:0:0:
256,192,24826,1,8,0:0:0:0:
256,192,24909,1,8,0:0:0:0:
256,192,24993,1,0,0:0:0:0:
256,192,25159,1,8,0:0:0:0:
256,192,25326,1,0,0:0:0:0:
256,192,25409,1,0,0:0:0:0:
256,192,25493,1,0,0:0:0:0:
256,192,25659,1,8,0:0:0:0:
256,192,25826,1,8,0:0:0:0:
256,192,25993,1,0,0:0:0:0:
256,192,26076,1,8,0:0:0:0:
256,192,26159,1,0,0:0:0:0:
256,192,26326,1,8,0:0:0:0:
256,192,26493,1,8,0:0:0:0:
256,192,26576,1,8,0:0:0:0:
256,192,26659,1,8,0:0:0:0:
256,96,26826,1,4,0:0:0:0:
256,192,26992,1,8,0:0:0:0:
256,192,27159,1,0,0:0:0:0:
256,192,27326,1,8,0:0:0:0:
256,192,27409,1,0,0:0:0:0:
256,192,27492,1,8,0:0:0:0:
256,192,27576,1,8,0:0:0:0:
256,192,27659,1,0,0:0:0:0:
256,192,27826,1,0,0:0:0:0:
256,192,27992,1,8,0:0:0:0:
256,192,28076,1,8,0:0:0:0:
256,192,28159,1,0,0:0:0:0:
256,192,28326,1,8,0:0:0:0:
256,192,28492,1,0,0:0:0:0:
256,192,28659,1,8,0:0:0:0:
256,192,28742,1,0,0:0:0:0:
256,192,28826,1,0,0:0:0:0:
256,192,28992,1,8,0:0:0:0:
256,192,29159,1,0,0:0:0:0:
256,192,29242,1,0,0:0:0:0:
256,192,29326,1,8,0:0:0:0:
256,192,29492,1,0,0:0:0:0:
256,192,29659,1,8,0:0:0:0:
256,192,29742,1,8,0:0:0:0:
256,192,29826,1,8,0:0:0:0:
256,192,29992,1,0,0:0:0:0:
256,192,30159,1,8,0:0:0:0:
256,192,30242,1,0,0:0:0:0:
256,192,30326,1,8,0:0:0:0:
256,192,30409,1,8,0:0:0:0:
256,192,30492,1,0,0:0:0:0:
256,192,30659,1,8,0:0:0:0:
256,192,30826,1,0,0:0:0:0:
256,192,30992,1,8,0:0:0:0:
256,192,31159,1,0,0:0:0:0:
256,192,31242,1,0,0:0:0:0:
256,192,31326,1,8,0:0:0:0:
256,192,31492,1,0,0:0:0:0:
256,192,31659,1,0,0:0:0:0:
256,96,31826,1,12,0:0:0:0:
256,96,32159,1,4,0:0:0:0:
256,192,32326,1,8,0:0:0:0:
256,192,32409,1,0,0:0:0:0:
256,192,32492,1,8,0:0:0:0:
256,192,32659,1,0,0:0:0:0:
256,192,32826,1,8,0:0:0:0:
256,192,32909,1,8,0:0:0:0:
256,192,32992,1,0,0:0:0:0:
256,192,33159,1,0,0:0:0:0:
256,192,33326,1,8,0:0:0:0:
256,192,33409,1,8,0:0:0:0:
256,192,33492,1,0,0:0:0:0:
256,192,33576,1,0,0:0:0:0:
256,192,33659,1,8,0:0:0:0:
256,192,33826,1,8,0:0:0:0:
256,192,33992,1,0,0:0:0:0:
256,192,34159,1,0,0:0:0:0:
256,192,34242,1,0,0:0:0:0:
256,192,34326,1,8,0:0:0:0:
256,192,34492,1,8,0:0:0:0:
256,192,34659,1,0,0:0:0:0:
256,192,34826,1,8,0:0:0:0:
256,192,34992,1,0,0:0:0:0:
256,192,35076,1,8,0:0:0:0:
256,192,35159,1,0,0:0:0:0:
256,192,35326,1,0,0:0:0:0:
256,192,35492,1,8,0:0:0:0:
256,192,35576,1,8,0:0:0:0:
256,192,35659,1,0,0:0:0:0:
256,192,35742,1,8,0:0:0:0:
256,192,35826,1,0,0:0:0:0:
256,192,35992,1,8,0:0:0:0:
256,192,36159,1,0,0:0:0:0:
256,192,36326,1,0,0:0:0:0:
256,192,36409,1,0,0:0:0:0:
256,192,36492,1,8,0:0:0:0:
256,192,36659,1,0,0:0:0:0:
256,192,36826,1,12,0:0:0:0:
256,192,36993,1,0,0:0:0:0:
256,192,37076,1,0,0:0:0:0:
256,192,37159,1,8,0:0:0:0:
256,192,37243,1,8,0:0:0:0:
256,192,37326,1,0,0:0:0:0:
256,96,37493,1,12,0:0:0:0:
256,192,37826,1,8,0:0:0:0:
256,192,37992,1,0,0:0:0:0:
256,192,38159,1,8,0:0:0:0:
256,192,38242,1,0,0:0:0:0:
256,192,38326,1,8,0:0:0:0:
256,192,38492,1,0,0:0:0:0:
256,192,38659,1,8,0:0:0:0:
256,192,38743,1,8,0:0:0:0:
256,192,38826,1,0,0:0:0:0:
256,192,38992,1,0,0:0:0:0:
256,192,39159,1,8,0:0:0:0:
256,192,39326,1,0,0:0:0:0:
256,192,39492,1,8,0:0:0:0:
256,192,39826,1,8,0:0:0:0:
256,192,39992,1,0,0:0:0:0:
256,192,40159,1,8,0:0:0:0:
256,192,40326,1,0,0:0:0:0:
256,192,40409,1,8,0:0:0:0:
256,192,40576,1,0,0:0:0:0:
256,192,40659,1,0,0:0:0:0:
256,192,40826,1,8,0:0:0:0:
256,192,40992,1,0,0:0:0:0:
256,192,41159,1,8,0:0:0:0:
256,192,41326,1,0,0:0:0:0:
256,192,41409,1,8,0:0:0:0:
256,192,41492,1,0,0:0:0:0:
256,192,41659,1,8,0:0:0:0:
256,192,41826,1,0,0:0:0:0:
256,192,41992,1,8,0:0:0:0:
256,192,42076,1,8,0:0:0:0:
256,192,42159,1,0,0:0:0:0:
256,192,42326,1,8,0:0:0:0:
256,192,42492,1,8,0:0:0:0:
256,96,42826,1,4,0:0:0:0:
256,192,42992,1,8,0:0:0:0:
256,192,43076,1,0,0:0:0:0:
256,192,43159,1,0,0:0:0:0:
256,192,43326,1,8,0:0:0:0:
256,192,43492,1,0,0:0:0:0:
256,192,43659,1,0,0:0:0:0:
256,192,43826,1,8,0:0:0:0:
256,192,43992,1,8,0:0:0:0:
256,192,44076,1,8,0:0:0:0:
256,192,44159,1,0,0:0:0:0:
256,192,44326,1,8,0:0:0:0:
256,192,44492,1,0,0:0:0:0:
256,192,44659,1,8,0:0:0:0:
256,192,44743,1,0,0:0:0:0:
256,192,44826,1,8,0:0:0:0:
256,192,44992,1,0,0:0:0:0:
256,192,45159,1,8,0:0:0:0:
256,192,45326,1,0,0:0:0:0:
256,192,45409,1,0,0:0:0:0:
256,192,45492,1,8,0:0:0:0:
256,192,45826,1,8,0:0:0:0:
256,192,45992,1,0,0:0:0:0:
256,192,46159,1,8,0:0:0:0:
256,192,46242,1,8,0:0:0:0:
256,192,46326,1,0,0:0:0:0:
256,192,46492,1,8,0:0:0:0:
256,192,46659,1,0,0:0:0:0:
256,192,46742,1,0,0:0:0:0:
256,192,46826,1,0,0:0:0:0:
256,192,46993,1,0,0:0:0:0:
256,192,47159,1,8,0:0:0:0:
256,192,47326,1,0,0:0:0:0:
256,192,47409,1,8,0:0:0:0:
256,192,47493,1,0,0:0:0:0:
256,192,47659,1,8,0:0:0:0:
256,192,47826,1,8,0:0:0:0:
256,192,48159,1,0,0:0:0:0:
256,192,48493,1,8,0:0:0:0:
256,192,48659,1,0,0:0:0:0:
256,192,48826,1,8,0:0:0:0:
256,192,48993,1,8,0:0:0:0:
256,192,49326,1,8,0:0:0:0:
256,192,49493,1,0,0:0:0:0:
256,192,49826,1,0,0:0:0:0:
256,192,49993,1,0,0:0:0:0:
256,192,50159,1,8,0:0:0:0:
256,192,50326,1,0,0:0:0:0:
256,192,50493,1,8,0:0:0:0:
256,192,50659,1,0,0:0:0:0:
256,192,50993,1,8,0:0:0:0:
256,192,51159,1,0,0:0:0:0:
256,192,51326,1,8,0:0:0:0:
256,192,51493,1,0,0:0:0:0:
256,192,51659,1,0,0:0:0:0:
256,192,51993,1,8,0:0:0:0:
256,192,52326,1,0,0:0:0:0:
256,192,52659,1,8,0:0:0:0:
256,192,52826,1,0,0:0:0:0:
256,192,52993,1,0,0:0:0:0:
256,96,53326,1,12,0:0:0:0:
256,192,53659,1,0,0:0:0:0:
256,192,53826,1,8,0:0:0:0:
256,192,53993,1,0,0:0:0:0:
256,192,54076,1,0,0:0:0:0:
256,192,54159,1,8,0:0:0:0:
256,192,54326,1,0,0:0:0:0:
256,192,54493,1,8,0:0:0:0:
256,96,54659,1,4,0:0:0:0:
256,192,54993,1,0,0:0:0:0:
256,192,55159,1,8,0:0:0:0:
256,192,55326,1,0,0:0:0:0:
256,192,55409,1,8,0:0:0:0:
256,192,55493,1,0,0:0:0:0:
256,192,55659,1,0,0:0:0:0:
256,192,55826,1,8,0:0:0:0:
256,192,55993,1,8,0:0:0:0:
256,192,56076,1,8,0:0:0:0:
256,192,56159,1,0,0:0:0:0:
256,192,56326,1,0,0:0:0:0:
256,192,56493,1,8,0:0:0:0:
256,192,56659,1,0,0:0:0:0:
256,192,56826,1,8,0:0:0:0:
256,192,56909,1,0,0:0:0:0:
256,192,56993,1,8,0:0:0:0:
256,192,57076,1,8,0:0:0:0:
256,192,57159,1,0,0:0:0:0:
256,96,57326,1,12,0:0:0:0:
256,192,57659,1,0,0:0:0:0:
256,192,57743,1,0,0:0:0:0:
256,192,57826,1,8,0:0:0:0:
256,192,57993,1,0,0:0:0:0:
256,96,58159,1,12,0:0:0:0:
256,192,58493,1,8,0:0:0:0:
256,192,58576,1,8,0:0:0:0:
256,192,58659,1,8,0:0:0:0:
256,192,58743,1,8,0:0:0:0:
256,96,58826,1,4,0:0:0:0:
256,192,59159,1,8,0:0:0:0:
256,192,59326,1,0,0:0:0:0:
256,192,59493,1,8,0:0:0:0:
256,192,59576,1,8,0:0:0:0:
256,192,59659,1,0,0:0:0:0:
256,192,59826,1,8,0:0:0:0:
256,192,59993,1,0,0:0:0:0:
256,192,60076,1,0,0:0:0:0:
256,192,60159,1,0,0:0:0:0:
256,192,60326,1,8,0:0:0:0:
256,192,60493,1,8,0:0:0:0:
256,192,60576,1,8,0:0:0:0:
256,192,60659,1,0,0:0:0:0:
256,192,60743,1,0,0:0:0:0:
256,192,60826,1,8,0:0:0:0:
256,192,60993,1,0,0:0:0:0:
256,192,61159,1,8,0:0:0:0:
256,192,61243,1,0,0:0:0:0:
256,192,61326,1,0,0:0:0:0:
256,192,61493,1,8,0:0:0:0:
256,192,61826,1,8,0:0:0:0:
256,192,61993,1,0,0:0:0:0:
256,192,62159,1,8,0:0:0:0:
256,192,62243,1,0,0:0:0:0:
256,192,62326,1,8,0:0:0:0:
256,192,62409,1,8,0:0:0:0:
256,192,62493,1,0,0:0:0:0:
256,192,62659,1,8,0:0:0:0:
256,192,62826,1,0,0:0:0:0:
256,192,62993,1,0,0:0:0:0:
256,192,63159,1,8,0:0:0:0:
256,192,63243,1,8,0:0:0:0:
256,192,63326,1,0,0:0:0:0:
256,192,63409,1,0,0:0:0:0:
256,192,63493,1,8,0:0:0:0:
256,192,63826,1,8,0:0:0:0:
256,192,63993,1,8,0:0:0:0:
256,96,64159,1,4,0:0:0:0:
256,192,64326,1,8,0:0:0:0:
256,192,64409,1,8,0:0:0:0:
256,192,64493,1,0,0:0:0:0:
256,192,64659,1,8,0:0:0:0:
256,192,64826,1,0,0:0:0:0:
256,192,64993,1,8,0:0:0:0:
256,192,65159,1,0,0:0:0:0:
256,192,65243,1,0,0:0:0:0:
256,192,65326,1,8,0:0:0:0:
256,192,65409,1,8,0:0:0:0:
256,192,65493,1,0,0:0:0:0:
256,192,65659,1,8,0:0:0:0:
256,192,65826,1,0,0:0:0:0:
256,192,65993,1,8,0:0:0:0:
256,192,66076,1,0,0:0:0:0:
256,192,66159,1,8,0:0:0:0:
256,192,66243,1,8,0:0:0:0:
256,192,66326,1,0,0:0:0:0:
256,192,66493,1,8,0:0:0:0:
256,192,66659,1,0,0:0:0:0:
256,192,66743,1,8,0:0:0:0:
256,192,66826,1,0,0:0:0:0:
256,192,66993,1,0,0:0:0:0:
256,192,67159,1,8,0:0:0:0:
256,192,67326,1,8,0:0:0:0:
256,192,67409,1,8,0:0:0:0:
256,192,67493,1,0,0:0:0:0:
256,192,67576,1,0,0:0:0:0:
256,192,67659,1,8,0:0:0:0:
256,192,67826,1,0,0:0:0:0:
256,96,67993,1,12,0:0:0:0:
256,192,68326,1,0,0:0:0:0:
256,192,68493,1,8,0:0:0:0:
256,96,68659,1,12,0:0:0:0:
256,192,68826,1,0,0:0:0:0:
256,192,69159,1,8,0:0:0:0:
256,192,69243,1,8,0:0:0:0:
256,192,69326,1,8,0:0:0:0:
256,192,69409,1,8,0:0:0:0:
256,96,69493,1,4,0:0:0:0:
256,192,69826,1,8,0:0:0:0:
256,192,69993,1,0,0:0:0:0:
256,192,70160,1,8,0:0:0:0:
256,192,70243,1,8,0:0:0:0:
256,192,70326,1,0,0:0:0:0:
256,192,70409,1,0,0:0:0:0:
256,192,70493,1,8,0:0:0:0:
256,192,70659,1,8,0:0:0:0:
256,192,70826,1,0,0:0:0:0:
256,192,70993,1,8,0:0:0:0:
256,192,71076,1,0,0:0:0:0:
256,192,71160,1,8,0:0:0:0:
256,192,71243,1,8,0:0:0:0:
256,192,71326,1,0,0:0:0:0:
256,192,71493,1,8,0:0:0:0:
256,192,71660,1,0,0:0:0:0:
256,192,71826,1,8,0:0:0:0:
256,192,71910,1,8,0:0:0:0:
256,192,71993,1,0,0:0:0:0:
256,192,72160,1,8,0:0:0:0:
256,192,72493,1,8,0:0:0:0:
256,192,72660,1,0,0:0:0:0:
256,192,72826,1,8,0:0:0:0:
256,192,72993,1,0,0:0:0:0:
256,192,73076,1,0,0:0:0:0:
256,192,73160,1,8,0:0:0:0:
256,192,73243,1,8,0:0:0:0:
256,192,73326,1,0,0:0:0:0:
256,192,73493,1,8,0:0:0:0:
256,192,73660,1,0,0:0:0:0:
256,192,73826,1,8,0:0:0:0:
256,192,73910,1,8,0:0:0:0:
256,192,73993,1,0,0:0:0:0:
256,192,74076,1,0,0:0:0:0:
256,192,74160,1,8,0:0:0:0:
256,192,74493,1,8,0:0:0:0:
256,192,74660,1,8,0:0:0:0:
256,96,74826,1,4,0:0:0:0:
256,192,74993,1,8,0:0:0:0:
256,192,75076,1,8,0:0:0:0:
256,192,75160,1,0,0:0:0:0:
256,192,75326,1,8,0:0:0:0:
256,192,75493,1,0,0:0:0:0:
256,192,75660,1,8,0:0:0:0:
256,192,75826,1,0,0:0:0:0:
256,192,75910,1,0,0:0:0:0:
256,192,75993,1,8,0:0:0:0:
256,192,76076,1,8,0:0:0:0:
256,192,76160,1,0,0:0:0:0:
256,192,76326,1,8,0:0:0:0:
256,192,76493,1,0,0:0:0:0:
256,192,76660,1,8,0:0:0:0:
256,192,76743,1,0,0:0:0:0:
256,192,76826,1,8,0:0:0:0:
256,192,76910,1,8,0:0:0:0:
256,192,76993,1,0,0:0:0:0:
256,192,77160,1,8,0:0:0:0:
256,192,77326,1,0,0:0:0:0:
256,192,77410,1,8,0:0:0:0:
256,192,77493,1,0,0:0:0:0:
256,192,77660,1,0,0:0:0:0:
256,192,77826,1,8,0:0:0:0:
256,192,77993,1,8,0:0:0:0:
256,192,78076,1,8,0:0:0:0:
256,192,78160,1,0,0:0:0:0:
256,192,78243,1,0,0:0:0:0:
256,192,78326,1,8,0:0:0:0:
256,192,78493,1,0,0:0:0:0:
256,96,78660,1,12,0:0:0:0:
256,192,78993,1,8,0:0:0:0:
256,192,79076,1,8,0:0:0:0:
256,192,79159,1,8,0:0:0:0:
256,192,79326,1,0,0:0:0:0:
256,192,79493,1,8,0:0:0:0:
256,192,79826,1,8,0:0:0:0:
256,96,80159,1,4,0:0:0:0:
256,192,80325,1,8,0:0:0:0:
256,192,80492,1,0,0:0:0:0:
256,192,80659,1,8,0:0:0:0:
256,192,80742,1,0,0:0:0:0:
256,192,80825,1,8,0:0:0:0:
256,192,80909,1,8,0:0:0:0:
256,192,80992,1,0,0:0:0:0:
256,192,81159,1,0,0:0:0:0:
256,192,81325,1,8,0:0:0:0:
256,192,81409,1,8,0:0:0:0:
256,192,81492,1,0,0:0:0:0:
256,192,81659,1,8,0:0:0:0:
256,192,81825,1,0,0:0:0:0:
256,192,81992,1,8,0:0:0:0:
256,192,82075,1,0,0:0:0:0:
256,192,82159,1,0,0:0:0:0:
256,192,82325,1,8,0:0:0:0:
256,192,82492,1,0,0:0:0:0:
256,192,82575,1,0,0:0:0:0:
256,192,82659,1,8,0:0:0:0:
256,192,82825,1,0,0:0:0:0:
256,192,82992,1,8,0:0:0:0:
256,192,83075,1,8,0:0:0:0:
256,192,83159,1,8,0:0:0:0:
256,192,83325,1,0,0:0:0:0:
256,192,83492,1,8,0:0:0:0:
256,192,83575,1,0,0:0:0:0:
256,192,83659,1,8,0:0:0:0:
256,192,83742,1,8,0:0:0:0:
256,192,83825,1,0,0:0:0:0:
256,192,83992,1,8,0:0:0:0:
256,192,84159,1,0,0:0:0:0:
256,192,84325,1,8,0:0:0:0:
256,192,84492,1,0,0:0:0:0:
256,192,84575,1,0,0:0:0:0:
256,192,84659,1,8,0:0:0:0:
256,192,84825,1,0,0:0:0:0:
256,192,84992,1,0,0:0:0:0:
256,96,85159,1,12,0:0:0:0:
256,96,85492,1,4,0:0:0:0:
256,192,85659,1,8,0:0:0:0:
256,192,85742,1,0,0:0:0:0:
256,192,85825,1,8,0:0:0:0:
256,192,85992,1,0,0:0:0:0:
256,192,86159,1,8,0:0:0:0:
256,192,86242,1,8,0:0:0:0:
256,192,86325,1,0,0:0:0:0:
256,192,86492,1,0,0:0:0:0:
256,192,86659,1,8,0:0:0:0:
256,192,86742,1,8,0:0:0:0:
256,192,86825,1,0,0:0:0:0:
256,192,86909,1,8,0:0:0:0:
256,192,86992,1,0,0:0:0:0:
256,192,87159,1,8,0:0:0:0:
256,192,87325,1,0,0:0:0:0:
256,192,87492,1,0,0:0:0:0:
256,192,87575,1,0,0:0:0:0:
256,192,87659,1,8,0:0:0:0:
256,192,87825,1,8,0:0:0:0:
256,192,87992,1,0,0:0:0:0:
256,192,88159,1,8,0:0:0:0:
256,192,88325,1,0,0:0:0:0:
256,192,88409,1,8,0:0:0:0:
256,192,88492,1,0,0:0:0:0:
256,192,88659,1,0,0:0:0:0:
256,192,88825,1,8,0:0:0:0:
256,192,88909,1,8,0:0:0:0:
256,192,88992,1,0,0:0:0:0:
256,192,89075,1,8,0:0:0:0:
256,192,89159,1,0,0:0:0:0:
256,96,89325,1,12,0:0:0:0:
256,192,89659,1,8,0:0:0:0:
256,192,89825,1,8,0:0:0:0:
256,192,89992,1,0,0:0:0:0:
256,192,90075,1,0,0:0:0:0:
256,192,90159,1,0,0:0:0:0:
256,192,90325,1,8,0:0:0:0:
256,192,90409,1,8,0:0:0:0:
256,192,90492,1,0,0:0:0:0:
256,192,90659,1,0,0:0:0:0:
256,96,90825,1,12,0:0:0:0:
256,192,95493,5,0,0:0:0:0:
256,192,95659,1,8,0:0:0:0:
256,192,95826,1,8,0:0:0:0:
256,96,96159,1,4,0:0:0:0:
256,192,96326,1,8,0:0:0:0:
256,192,96493,1,0,0:0:0:0:
256,192,96576,1,0,0:0:0:0:
256,192,96660,1,8,0:0:0:0:
256,192,96826,1,0,0:0:0:0:
256,192,96993,1,0,0:0:0:0:
256,192,97160,1,8,0:0:0:0:
256,192,97326,1,8,0:0:0:0:
256,192,97493,1,0,0:0:0:0:
256,192,97659,1,8,0:0:0:0:
256,192,97743,1,0,0:0:0:0:
256,192,97826,1,8,0:0:0:0:
256,192,97993,1,0,0:0:0:0:
256,192,98160,1,8,0:0:0:0:
256,192,98326,1,0,0:0:0:0:
256,192,98493,1,8,0:0:0:0:
256,192,98660,1,0,0:0:0:0:
256,192,98743,1,0,0:0:0:0:
256,192,98826,1,8,0:0:0:0:
256,192,99159,1,8,0:0:0:0:
256,192,99325,1,0,0:0:0:0:
256,192,99492,1,8,0:0:0:0:
256,192,99575,1,8,0:0:0:0:
256,192,99659,1,0,0:0:0:0:
256,192,99825,1,8,0:0:0:0:
256,192,99992,1,0,0:0:0:0:
256,192,100075,1,0,0:0:0:0:
256,192,100159,1,0,0:0:0:0:
256,192,100325,1,8,0:0:0:0:
256,192,100492,1,8,0:0:0:0:
256,192,100659,1,0,0:0:0:0:
256,192,100743,1,8,0:0:0:0:
256,192,100826,1,0,0:0:0:0:
256,192,100993,1,8,0:0:0:0:
256,192,101159,1,8,0:0:0:0:
256,192,101326,1,8,0:0:0:0:
256,192,101409,1,8,0:0:0:0:
256,192,101493,1,0,0:0:0:0:
256,192,101993,1,0,0:0:0:0:
256,192,102159,1,8,0:0:0:0:
256,192,102493,1,0,0:0:0:0:
256,192,102659,1,0,0:0:0:0:
256,192,102826,1,8,0:0:0:0:
256,192,103159,1,0,0:0:0:0:
256,192,103493,1,8,0:0:0:0:
256,192,103659,1,0,0:0:0:0:
256,192,103826,1,8,0:0:0:0:
256,192,103993,1,8,0:0:0:0:
256,192,104326,1,0,0:0:0:0:
256,192,104659,1,8,0:0:0:0:
256,192,104826,1,0,0:0:0:0:
256,192,104993,1,0,0:0:0:0:
256,192,105159,1,8,0:0:0:0:
256,192,105326,1,8,0:0:0:0:
256,192,105659,1,8,0:0:0:0:
256,192,105826,1,0,0:0:0:0:
256,192,105993,1,8,0:0:0:0:
256,192,106326,1,8,0:0:0:0:
256,96,106659,1,4,0:0:0:0:
256,192,106993,1,0,0:0:0:0:
256,192,107159,1,8,0:0:0:0:
256,192,107326,1,8,0:0:0:0:
256,192,107409,1,0,0:0:0:0:
256,192,107493,1,8,0:0:0:0:
256,192,107659,1,0,0:0:0:0:
256,192,107826,1,8,0:0:0:0:
256,96,107993,1,4,0:0:0:0:
256,192,108326,1,0,0:0:0:0:
256,192,108493,1,8,0:0:0:0:
256,192,108659,1,8,0:0:0:0:
256,192,108743,1,8,0:0:0:0:
256,192,108826,1,0,0:0:0:0:
256,192,108993,1,0,0:0:0:0:
256,192,109159,1,8,0:0:0:0:
256,192,109326,1,0,0:0:0:0:
256,192,109409,1,8,0:0:0:0:
256,192,109493,1,0,0:0:0:0:
256,192,109659,1,0,0:0:0:0:
256,192,109826,1,8,0:0:0:0:
256,192,109993,1,0,0:0:0:0:
256,192,110076,1,0,0:0:0:0:
256,192,110159,1,8,0:0:0:0:
256,192,110326,1,0,0:0:0:0:
256,192,110493,1,8,0:0:0:0:
256,192,110659,1,4,0:0:0:0:
256,192,110993,1,0,0:0:0:0:
256,192,111076,1,0,0:0:0:0:
256,192,111159,1,8,0:0:0:0:
256,192,111243,1,8,0:0:0:0:
256,192,111326,1,0,0:0:0:0:
256,192,111493,1,12,0:0:0:0:
256,192,111826,1,8,0:0:0:0:
256,192,111909,1,8,0:0:0:0:
256,192,111993,1,8,0:0:0:0:
256,192,112076,1,8,0:0:0:0:
256,96,112159,1,4,0:0:0:0:
256,192,112492,1,8,0:0:0:0:
256,192,112659,1,0,0:0:0:0:
256,192,112826,1,8,0:0:0:0:
256,192,112909,1,8,0:0:0:0:
256,192,112992,1,0,0:0:0:0:
256,192,113159,1,8,0:0:0:0:
256,192,113326,1,0,0:0:0:0:
256,192,113409,1,0,0:0:0:0:
256,192,113492,1,0,0:0:0:0:
256,192,113659,1,8,0:0:0:0:
256,192,113826,1,8,0:0:0:0:
256,192,113909,1,8,0:0:0:0:
256,192,113992,1,0,0:0:0:0:
256,192,114076,1,0,0:0:0:0:
256,192,114159,1,8,0:0:0:0:
256,192,114326,1,0,0:0:0:0:
256,192,114492,1,8,0:0:0:0:
256,192,114659,1,0,0:0:0:0:
256,192,114743,1,0,0:0:0:0:
256,192,114826,1,8,0:0:0:0:
256,192,115159,1,8,0:0:0:0:
256,192,115326,1,0,0:0:0:0:
256,192,115492,1,8,0:0:0:0:
256,192,115576,1,0,0:0:0:0:
256,192,115659,1,8,0:0:0:0:
256,192,115742,1,8,0:0:0:0:
256,192,115826,1,0,0:0:0:0:
256,192,115992,1,8,0:0:0:0:
256,192,116159,1,0,0:0:0:0:
256,192,116326,1,0,0:0:0:0:
256,192,116492,1,8,0:0:0:0:
256,192,116576,1,8,0:0:0:0:
256,192,116659,1,0,0:0:0:0:
256,192,116742,1,0,0:0:0:0:
256,192,116826,1,8,0:0:0:0:
256,192,117159,1,8,0:0:0:0:
256,192,117326,1,8,0:0:0:0:
256,96,117492,1,4,0:0:0:0:
256,192,117659,1,8,0:0:0:0:
256,192,117742,1,8,0:0:0:0:
256,192,117826,1,0,0:0:0:0:
256,192,117992,1,8,0:0:0:0:
256,192,118159,1,0,0:0:0:0:
256,192,118326,1,8,0:0:0:0:
256,192,118492,1,0,0:0:0:0:
256,192,118576,1,0,0:0:0:0:
256,192,118659,1,8,0:0:0:0:
256,192,118742,1,8,0:0:0:0:
256,192,118826,1,0,0:0:0:0:
256,192,118992,1,8,0:0:0:0:
256,192,119159,1,0,0:0:0:0:
256,192,119326,1,8,0:0:0:0:
256,192,119409,1,0,0:0:0:0:
256,192,119492,1,8,0:0:0:0:
256,192,119576,1,8,0:0:0:0:
256,192,119659,1,0,0:0:0:0:
256,192,119826,1,8,0:0:0:0:
256,192,119992,1,0,0:0:0:0:
256,192,120076,1,8,0:0:0:0:
256,192,120159,1,0,0:0:0:0:
256,192,120326,1,0,0:0:0:0:
256,192,120492,1,8,0:0:0:0:
256,192,120659,1,8,0:0:0:0:
256,192,120742,1,8,0:0:0:0:
256,192,120826,1,0,0:0:0:0:
256,192,120909,1,0,0:0:0:0:
256,192,120992,1,8,0:0:0:0:
256,192,121159,1,0,0:0:0:0:
256,96,121326,1,12,0:0:0:0:
256,192,121659,1,0,0:0:0:0:
256,192,121826,1,8,0:0:0:0:
256,96,121992,1,12,0:0:0:0:
256,192,122159,1,0,0:0:0:0:
256,192,122492,1,8,0:0:0:0:
256,192,122576,1,8,0:0:0:0:
256,192,122659,1,8,0:0:0:0:
256,192,122742,1,8,0:0:0:0:
256,96,122826,1,4,0:0:0:0:
256,192,123159,1,8,0:0:0:0:
256,192,123326,1,0,0:0:0:0:
256,192,123493,1,8,0:0:0:0:
256,192,123576,1,8,0:0:0:0:
256,192,123659,1,0,0:0:0:0:
256,192,123742,1,0,0:0:0:0:
256,192,123826,1,8,0:0:0:0:
256,192,123992,1,8,0:0:0:0:
256,192,124159,1,0,0:0:0:0:
256,192,124326,1,8,0:0:0:0:
256,192,124409,1,0,0:0:0:0:
256,192,124493,1,8,0:0:0:0:
256,192,124576,1,8,0:0:0:0:
256,192,124659,1,0,0:0:0:0:
256,192,124826,1,8,0:0:0:0:
256,192,124993,1,0,0:0:0:0:
256,192,125159,1,8,0:0:0:0:
256,192,125243,1,0,0:0:0:0:
256,192,125326,1,8,0:0:0:0:
256,192,125493,1,0,0:0:0:0:
256,192,125826,1,8,0:0:0:0:
256,192,125993,1,0,0:0:0:0:
256,192,126159,1,8,0:0:0:0:
256,192,126326,1,0,0:0:0:0:
256,192,126409,1,0,0:0:0:0:
256,192,126493,1,8,0:0:0:0:
256,192,126576,1,8,0:0:0:0:
256,192,126659,1,0,0:0:0:0:
256,192,126826,1,8,0:0:0:0:
256,192,126993,1,0,0:0:0:0:
256,192,127159,1,8,0:0:0:0:
256,192,127243,1,0,0:0:0:0:
256,192,127326,1,8,0:0:0:0:
256,192,127409,1,8,0:0:0:0:
256,192,127493,1,0,0:0:0:0:
256,192,127826,1,8,0:0:0:0:
256,192,127993,1,8,0:0:0:0:
256,96,128159,1,4,0:0:0:0:
256,192,128326,1,8,0:0:0:0:
256,192,128409,1,8,0:0:0:0:
256,192,128493,1,8,0:0:0:0:
256,192,128659,1,8,0:0:0:0:
256,192,128826,1,0,0:0:0:0:
256,192,128993,1,8,0:0:0:0:
256,192,129159,1,0,0:0:0:0:
256,192,129243,1,0,0:0:0:0:
256,192,129326,1,8,0:0:0:0:
256,192,129409,1,8,0:0:0:0:
256,192,129493,1,0,0:0:0:0:
256,192,129659,1,8,0:0:0:0:
256,192,129826,1,0,0:0:0:0:
256,192,129993,1,8,0:0:0:0:
256,192,130076,1,0,0:0:0:0:
256,192,130159,1,8,0:0:0:0:
256,192,130243,1,8,0:0:0:0:
256,192,130326,1,0,0:0:0:0:
256,192,130493,1,8,0:0:0:0:
256,192,130659,1,0,0:0:0:0:
256,192,130743,1,0,0:0:0:0:
256,192,130826,1,8,0:0:0:0:
256,192,130993,1,0,0:0:0:0:
256,192,131159,1,8,0:0:0:0:
256,192,131326,1,8,0:0:0:0:
256,192,131409,1,8,0:0:0:0:
256,192,131493,1,0,0:0:0:0:
256,192,131576,1,0,0:0:0:0:
256,192,131659,1,8,0:0:0:0:
256,192,131826,1,0,0:0:0:0:
256,96,131993,1,12,0:0:0:0:
256,192,132326,1,8,0:0:0:0:
256,192,132409,1,8,0:0:0:0:
256,192,132492,1,8,0:0:0:0:
256,192,132659,1,0,0:0:0:0:
256,192,132826,1,8,0:0:0:0:
256,192,133159,1,8,0:0:0:0:
256,96,133493,1,4,0:0:0:0:
256,192,133826,1,8,0:0:0:0:
256,192,133993,1,0,0:0:0:0:
256,192,134159,1,8,0:0:0:0:
256,192,134326,1,0,0:0:0:0:
256,192,134409,1,0,0:0:0:0:
256,192,134493,1,8,0:0:0:0:
256,192,134659,1,8,0:0:0:0:
256,192,134743,1,8,0:0:0:0:
256,192,134826,1,0,0:0:0:0:
256,192,134993,1,0,0:0:0:0:
256,192,135159,1,8,0:0:0:0:
256,192,135326,1,8,0:0:0:0:
256,192,135409,1,8,0:0:0:0:
256,192,135493,1,0,0:0:0:0:
256,192,135576,1,0,0:0:0:0:
256,192,135659,1,8,0:0:0:0:
256,192,135826,1,0,0:0:0:0:
256,192,135993,1,8,0:0:0:0:
256,192,136159,1,0,0:0:0:0:
256,192,136326,1,8,0:0:0:0:
256,192,136409,1,0,0:0:0:0:
256,192,136493,1,8,0:0:0:0:
256,192,136659,1,0,0:0:0:0:
256,192,136826,1,8,0:0:0:0:
256,192,136993,1,0,0:0:0:0:
256,192,137159,1,8,0:0:0:0:
256,192,137243,1,8,0:0:0:0:
256,192,137326,1,0,0:0:0:0:
256,192,137493,1,0,0:0:0:0:
256,192,137659,1,8,0:0:0:0:
256,192,137826,1,0,0:0:0:0:
256,192,137993,1,8,0:0:0:0:
256,192,138076,1,8,0:0:0:0:
256,192,138159,1,8,0:0:0:0:
256,192,138326,1,0,0:0:0:0:
256,192,138493,1,8,0:0:0:0:
256,192,138576,1,0,0:0:0:0:
256,192,138659,1,8,0:0:0:0:
256,192,138826,1,4,0:0:0:0:
256,192,139159,1,8,0:0:0:0:
256,192,139326,1,0,0:0:0:0:
256,192,139409,1,0,0:0:0:0:
256,192,139493,1,8,0:0:0:0:
256,192,139576,1,8,0:0:0:0:
256,192,139659,1,0,0:0:0:0:
256,192,139826,1,8,0:0:0:0:
256,192,139993,1,0,0:0:0:0:
256,192,140076,1,8,0:0:0:0:
256,192,140159,1,0,0:0:0:0:
256,192,140243,1,0,0:0:0:0:
256,192,140326,1,8,0:0:0:0:
256,192,140493,1,8,0:0:0:0:
256,192,140576,1,8,0:0:0:0:
256,192,140659,1,0,0:0:0:0:
256,192,140743,1,0,0:0:0:0:
256,192,140826,1,8,0:0:0:0:
256,192,140993,1,0,0:0:0:0:
256,192,141159,1,8,0:0:0:0:
256,192,141326,1,8,0:0:0:0:
256,192,141493,1,0,0:0:0:0:
256,192,141659,1,8,0:0:0:0:
256,192,141743,1,0,0:0:0:0:
256,192,141826,1,8,0:0:0:0:
256,192,141993,1,0,0:0:0:0:
256,192,142159,1,8,0:0:0:0:
256,192,142243,1,8,0:0:0:0:
256,192,142326,1,0,0:0:0:0:
256,192,142493,1,8,0:0:0:0:
256,96,142659,1,4,0:0:0:0:
256,192,142993,1,8,0:0:0:0:
256,192,143076,1,0,0:0:0:0:
256,192,143159,1,8,0:0:0:0:
256,96,143326,1,4,0:0:0:0:
256,192,143659,1,0,0:0:0:0:
256,192,143826,1,8,0:0:0:0:
256,192,143909,1,8,0:0:0:0:
256,192,143993,1,8,0:0:0:0:
256,192,144076,1,8,0:0:0:0:
256,192,144159,1,0,0:0:0:0:
256,192,145493,1,8,0:0:0:0:
256,192,146159,1,8,0:0:0:0:
256,192,146659,1,0,0:0:0:0:
256,192,147159,1,8,0:0:0:0:
256,192,147493,1,8,0:0:0:0:
256,192,148159,1,0,0:0:0:0:
256,192,148826,1,0,0:0:0:0:
256,192,149326,1,8,0:0:0:0:
256,192,149826,1,0,0:0:0:0:
256,192,150159,1,0,0:0:0:0:
256,192,150826,1,8,0:0:0:0:
256,192,151326,1,0,0:0:0:0:
256,192,151992,1,0,0:0:0:0:
256,192,152659,1,8,0:0:0:0:
256,192,152993,1,8,0:0:0:0:
256,192,153492,1,0,0:0:0:0:
256,192,153993,1,8,0:0:0:0:
256,192,154659,1,8,0:0:0:0:
256,192,155159,1,0,0:0:0:0:
256,192,155492,1,8,0:0:0:0:
256,96,156159,1,4,0:0:0:0:
256,192,156493,1,8,0:0:0:0:
256,192,157159,1,8,0:0:0:0:
256,192,157326,1,0,0:0:0:0:
256,192,157826,1,8,0:0:0:0:
256,192,157993,1,0,0:0:0:0:
256,192,158159,1,8,0:0:0:0:
256,192,158493,1,8,0:0:0:0:
256,96,158826,1,4,0:0:0:0:
256,192,159159,1,8,0:0:0:0:
256,96,159493,1,4,0:0:0:0:
256,192,159826,1,8,0:0:0:0:
256,96,160159,1,4,0:0:0:0:
256,192,160493,1,8,0:0:0:0:
256,96,160826,1,4,0:0:0:0:
256,192,161159,1,8,0:0:0:0:
256,96,161493,1,4,0:0:0:0:
256,192,161659,1,8,0:0:0:0:
256,192,161826,1,0,0:0:0:0:
256,192,161993,1,8,0:0:0:0:
256,192,162076,1,8,0:0:0:0:
256,192,162159,1,0,0:0:0:0:
256,192,162326,1,0,0:0:0:0:
256,192,162493,1,0,0:0:0:0:
256,96,162659,1,12,0:0:0:0:
256,192,162993,1,8,0:0:0:0:
256,192,163159,1,0,0:0:0:0:
256,192,163326,1,8,0:0:0:0:
256,96,163493,1,12,0:0:0:0:
256,96,164159,1,4,0:0:0:0:
256,192,164492,1,8,0:0:0:0:
256,192,164659,1,0,0:0:0:0:
256,192,164826,1,8,0:0:0:0:
256,192,164909,1,8,0:0:0:0:
256,192,164992,1,0,0:0:0:0:
256,192,165076,1,0,0:0:0:0:
256,192,165159,1,8,0:0:0:0:
256,192,165326,1,0,0:0:0:0:
256,192,165409,1,0,0:0:0:0:
256,192,165492,1,0,0:0:0:0:
256,192,165659,1,8,0:0:0:0:
256,192,165826,1,0,0:0:0:0:
256,192,165909,1,8,0:0:0:0:
256,192,165992,1,0,0:0:0:0:
256,192,166076,1,0,0:0:0:0:
256,192,166159,1,8,0:0:0:0:
256,192,166326,1,0,0:0:0:0:
256,192,166492,1,8,0:0:0:0:
256,192,166659,1,0,0:0:0:0:
256,192,166743,1,0,0:0:0:0:
256,192,166826,1,8,0:0:0:0:
256,192,167159,1,8,0:0:0:0:
256,192,167326,1,0,0:0:0:0:
256,192,167492,1,8,0:0:0:0:
256,192,167576,1,0,0:0:0:0:
256,192,167659,1,8,0:0:0:0:
256,192,167742,1,8,0:0:0:0:
256,192,167826,1,0,0:0:0:0:
256,192,167992,1,8,0:0:0:0:
256,192,168159,1,0,0:0:0:0:
256,192,168326,1,0,0:0:0:0:
256,192,168492,1,8,0:0:0:0:
256,192,168576,1,8,0:0:0:0:
256,192,168659,1,0,0:0:0:0:
256,192,168742,1,0,0:0:0:0:
256,192,168826,1,8,0:0:0:0:
256,192,169159,1,8,0:0:0:0:
256,192,169243,1,0,0:0:0:0:
256,192,169326,1,8,0:0:0:0:
256,96,169492,1,4,0:0:0:0:
256,192,169659,1,8,0:0:0:0:
256,192,169742,1,8,0:0:0:0:
256,192,169826,1,0,0:0:0:0:
256,192,169992,1,8,0:0:0:0:
256,192,170159,1,0,0:0:0:0:
256,192,170326,1,8,0:0:0:0:
256,192,170492,1,0,0:0:0:0:
256,192,170576,1,0,0:0:0:0:
256,192,170659,1,8,0:0:0:0:
256,192,170742,1,8,0:0:0:0:
256,192,170826,1,0,0:0:0:0:
256,192,170992,1,8,0:0:0:0:
256,192,171159,1,0,0:0:0:0:
256,192,171326,1,8,0:0:0:0:
256,192,171409,1,0,0:0:0:0:
256,192,171492,1,8,0:0:0:0:
256,192,171576,1,8,0:0:0:0:
256,192,171659,1,0,0:0:0:0:
256,192,171826,1,8,0:0:0:0:
256,192,171992,1,0,0:0:0:0:
256,192,172076,1,8,0:0:0:0:
256,192,172159,1,0,0:0:0:0:
256,192,172326,1,0,0:0:0:0:
256,192,172492,1,8,0:0:0:0:
256,192,172659,1,8,0:0:0:0:
256,192,172742,1,8,0:0:0:0:
256,192,172826,1,0,0:0:0:0:
256,192,172909,1,0,0:0:0:0:
256,192,172992,1,8,0:0:0:0:
256,192,173159,1,0,0:0:0:0:
256,96,173326,1,12,0:0:0:0:
256,192,173659,1,0,0:0:0:0:
256,192,173826,1,8,0:0:0:0:
256,96,173992,1,12,0:0:0:0:
256,192,174159,1,0,0:0:0:0:
256,192,174493,1,8,0:0:0:0:
256,192,174576,1,8,0:0:0:0:
256,192,174659,1,8,0:0:0:0:
256,192,174743,1,8,0:0:0:0:
256,96,174826,1,4,0:0:0:0:
256,192,175159,1,8,0:0:0:0:
256,192,175326,1,0,0:0:0:0:
256,192,175493,1,8,0:0:0:0:
256,192,175576,1,0,0:0:0:0:
256,192,175659,1,8,0:0:0:0:
256,192,175743,1,8,0:0:0:0:
256,192,175826,1,0,0:0:0:0:
256,192,175993,1,8,0:0:0:0:
256,192,176076,1,8,0:0:0:0:
256,192,176159,1,8,0:0:0:0:
256,192,176326,1,0,0:0:0:0:
256,192,176493,1,8,0:0:0:0:
256,192,176576,1,8,0:0:0:0:
256,192,176659,1,0,0:0:0:0:
256,192,176743,1,0,0:0:0:0:
256,192,176826,1,8,0:0:0:0:
256,192,176993,1,0,0:0:0:0:
256,192,177159,1,8,0:0:0:0:
256,192,177326,1,0,0:0:0:0:
256,192,177410,1,0,0:0:0:0:
256,192,177493,1,8,0:0:0:0:
256,192,177826,1,8,0:0:0:0:
256,192,177993,1,0,0:0:0:0:
256,192,178159,1,8,0:0:0:0:
256,192,178243,1,8,0:0:0:0:
256,192,178326,1,0,0:0:0:0:
256,192,178409,1,0,0:0:0:0:
256,192,178493,1,8,0:0:0:0:
256,192,178659,1,0,0:0:0:0:
256,192,178743,1,8,0:0:0:0:
256,192,178826,1,0,0:0:0:0:
256,192,178993,1,8,0:0:0:0:
256,192,179159,1,0,0:0:0:0:
256,192,179243,1,0,0:0:0:0:
256,192,179326,1,8,0:0:0:0:
256,192,179409,1,8,0:0:0:0:
256,192,179493,1,0,0:0:0:0:
256,192,179826,1,8,0:0:0:0:
256,192,179910,1,8,0:0:0:0:
256,192,179993,1,8,0:0:0:0:
256,96,180159,1,4,0:0:0:0:
256,192,180326,1,8,0:0:0:0:
256,192,180409,1,8,0:0:0:0:
256,192,180493,1,0,0:0:0:0:
256,192,180659,1,8,0:0:0:0:
256,192,180826,1,0,0:0:0:0:
256,192,180993,1,8,0:0:0:0:
256,192,181159,1,0,0:0:0:0:
256,192,181243,1,0,0:0:0:0:
256,192,181326,1,8,0:0:0:0:
256,192,181409,1,8,0:0:0:0:
256,192,181493,1,0,0:0:0:0:
256,192,181659,1,8,0:0:0:0:
256,192,181826,1,0,0:0:0:0:
256,192,181993,1,8,0:0:0:0:
256,192,182076,1,0,0:0:0:0:
256,192,182159,1,8,0:0:0:0:
256,192,182243,1,8,0:0:0:0:
256,192,182326,1,0,0:0:0:0:
256,192,182493,1,8,0:0:0:0:
256,192,182659,1,0,0:0:0:0:
256,192,182743,1,8,0:0:0:0:
256,192,182826,1,0,0:0:0:0:
256,192,182993,1,0,0:0:0:0:
256,192,183159,1,8,0:0:0:0:
256,192,183326,1,8,0:0:0:0:
256,192,183409,1,8,0:0:0:0:
256,192,183493,1,0,0:0:0:0:
256,192,183576,1,0,0:0:0:0:
256,192,183659,1,8,0:0:0:0:
256,192,183826,1,0,0:0:0:0:
256,96,183993,1,12,0:0:0:0:
256,192,184326,1,8,0:0:0:0:
256,192,184409,1,8,0:0:0:0:
256,192,184493,1,8,0:0:0:0:
256,192,184659,1,0,0:0:0:0:
256,96,184826,1,12,0:0:0:0:
256,192,185493,1,8,0:0:0:0:
256,192,185576,1,8,0:0:0:0:
256,192,185659,1,8,0:0:0:0:
256,192,185743,1,8,0:0:0:0:
256,192,185826,1,8,0:0:0:0:
256,192,185909,1,8,0:0:0:0:
256,192,185993,1,8,0:0:0:0:
256,96,186159,1,4,0:0:0:0:
256,192,186492,1,8,0:0:0:0:
256,192,186659,1,0,0:0:0:0:
256,192,186825,1,8,0:0:0:0:
256,192,186909,1,0,0:0:0:0:
256,192,186992,1,8,0:0:0:0:
256,192,187159,1,0,0:0:0:0:
256,192,187325,1,8,0:0:0:0:
256,192,187409,1,8,0:0:0:0:
256,192,187492,1,8,0:0:0:0:
256,192,187659,1,0,0:0:0:0:
256,192,187825,1,8,0:0:0:0:
256,192,187992,1,0,0:0:0:0:
256,192,188159,1,8,0:0:0:0:
256,192,188242,1,8,0:0:0:0:
256,192,188325,1,0,0:0:0:0:
256,192,188409,1,0,0:0:0:0:
256,192,188492,1,8,0:0:0:0:
256,192,188659,1,8,0:0:0:0:
256,192,188825,1,0,0:0:0:0:
256,192,189159,1,8,0:0:0:0:
256,192,189325,1,0,0:0:0:0:
256,192,189492,1,8,0:0:0:0:
256,192,189575,1,0,0:0:0:0:
256,192,189659,1,8,0:0:0:0:
256,192,189742,1,8,0:0:0:0:
256,192,189825,1,0,0:0:0:0:
256,192,189992,1,8,0:0:0:0:
256,192,190159,1,0,0:0:0:0:
256,192,190325,1,8,0:0:0:0:
256,192,190409,1,8,0:0:0:0:
256,192,190492,1,8,0:0:0:0:
256,192,190659,1,0,0:0:0:0:
256,192,190825,1,8,0:0:0:0:
256,192,190909,1,8,0:0:0:0:
256,192,190992,1,0,0:0:0:0:
256,96,191159,1,12,0:0:0:0:
256,96,191492,1,4,0:0:0:0:
256,192,191659,1,8,0:0:0:0:
256,192,191825,1,0,0:0:0:0:
256,192,191909,1,0,0:0:0:0:
256,192,191992,1,8,0:0:0:0:
256,192,192075,1,8,0:0:0:0:
256,192,192159,1,0,0:0:0:0:
256,192,192325,1,8,0:0:0:0:
256,192,192492,1,0,0:0:0:0:
256,192,192575,1,8,0:0:0:0:
256,192,192659,1,0,0:0:0:0:
256,192,192742,1,0,0:0:0:0:
256,192,192825,1,8,0:0:0:0:
256,192,192992,1,0,0:0:0:0:
256,192,193159,1,8,0:0:0:0:
256,192,193242,1,8,0:0:0:0:
256,192,193325,1,0,0:0:0:0:
256,192,193409,1,0,0:0:0:0:
256,192,193492,1,8,0:0:0:0:
256,192,193659,1,0,0:0:0:0:
256,192,193742,1,0,0:0:0:0:
256,192,193825,1,8,0:0:0:0:
256,192,193909,1,8,0:0:0:0:
256,192,193992,1,0,0:0:0:0:
256,96,194159,1,12,0:0:0:0:
256,96,194825,1,4,0:0:0:0:
256,96,195325,1,4,0:0:0:0:
256,192,196492,1,8,0:0:0:0:
256,96,196825,1,4,0:0:0:0:
256,192,196991,1,8,0:0:0:0:
256,192,197158,1,0,0:0:0:0:
256,192,197325,1,8,0:0:0:0:
256,192,197408,1,0,0:0:0:0:
256,192,197491,1,8,0:0:0:0:
256,192,197575,1,8,0:0:0:0:
256,192,197658,1,0,0:0:0:0:
256,192,197825,1,0,0:0:0:0:
256,192,197991,1,8,0:0:0:0:
256,192,198075,1,8,0:0:0:0:
256,192,198158,1,0,0:0:0:0:
256,192,198325,1,8,0:0:0:0:
256,192,198491,1,0,0:0:0:0:
256,192,198658,1,8,0:0:0:0:
256,192,198741,1,0,0:0:0:0:
256,192,198825,1,0,0:0:0:0:
256,192,198991,1,8,0:0:0:0:
256,192,199158,1,0,0:0:0:0:
256,192,199241,1,0,0:0:0:0:
256,192,199325,1,8,0:0:0:0:
256,192,199491,1,0,0:0:0:0:
256,192,199658,1,8,0:0:0:0:
256,192,199741,1,8,0:0:0:0:
256,192,199825,1,8,0:0:0:0:
256,192,199991,1,0,0:0:0:0:
256,192,200158,1,8,0:0:0:0:
256,192,200241,1,0,0:0:0:0:
256,192,200325,1,8,0:0:0:0:
256,192,200408,1,8,0:0:0:0:
256,192,200491,1,0,0:0:0:0:
256,192,200658,1,8,0:0:0:0:
256,192,200825,1,0,0:0:0:0:
256,192,200991,1,8,0:0:0:0:
256,192,201158,1,0,0:0:0:0:
256,192,201241,1,0,0:0:0:0:
256,192,201325,1,8,0:0:0:0:
256,192,201491,1,0,0:0:0:0:
256,192,201658,1,0,0:0:0:0:
256,96,201825,1,12,0:0:0:0:
256,96,202158,1,4,0:0:0:0:
256,192,202325,1,8,0:0:0:0:
256,192,202408,1,0,0:0:0:0:
256,192,202491,1,8,0:0:0:0:
256,192,202658,1,0,0:0:0:0:
256,192,202825,1,8,0:0:0:0:
256,192,202908,1,8,0:0:0:0:
256,192,202991,1,0,0:0:0:0:
256,192,203158,1,0,0:0:0:0:
256,192,203325,1,8,0:0:0:0:
256,192,203408,1,8,0:0:0:0:
256,192,203491,1,0,0:0:0:0:
256,192,203575,1,8,0:0:0:0:
256,192,203658,1,0,0:0:0:0:
256,192,203825,1,8,0:0:0:0:
256,192,203991,1,0,0:0:0:0:
256,192,204158,1,0,0:0:0:0:
256,192,204241,1,0,0:0:0:0:
256,192,204325,1,8,0:0:0:0:
256,192,204408,1,8,0:0:0:0:
256,192,204492,1,0,0:0:0:0:
256,192,204658,1,8,0:0:0:0:
256,192,204825,1,0,0:0:0:0:
256,192,204992,1,0,0:0:0:0:
256,192,205158,1,8,0:0:0:0:
256,192,205325,1,0,0:0:0:0:
256,192,205492,1,0,0:0:0:0:
256,192,205658,1,0,0:0:0:0:
256,192,205825,1,8,0:0:0:0:
256,192,205992,1,0,0:0:0:0:
256,192,206075,1,0,0:0:0:0:
256,192,206158,1,0,0:0:0:0:
256,192,206325,1,0,0:0:0:0:
256,192,206492,1,8,0:0:0:0:
256,192,206658,1,0,0:0:0:0:
256,192,206825,1,8,0:0:0:0:
