osu file format v14

[General]
AudioFilename: audio.mp3
AudioLeadIn: 0
PreviewTime: 58076
Countdown: 0
SampleSet: Soft
StackLeniency: 0.7
Mode: 0
LetterboxInBreaks: 0
WidescreenStoryboard: 1

[Editor]
Bookmarks: 5159,26826,37493,53326,58826,80159,112159,133493,145493,156159,164159,186159,191492,196825
DistanceSpacing: 1
BeatDivisor: 4
GridSize: 4
TimelineZoom: 2.1

[Metadata]
Title:Genjitsu Escape
TitleUnicode:現実エスケープ
Artist:tephe
ArtistUnicode:tephe
Creator:AirinCat
Version:Normal
Source:
Tags:featured artist fa kagamine len 鏡音レン ren kyouren kittyadventure gokugohan12468 reality vocaloid japanese rock jrock Itovero saw mappers' guild mpg
BeatmapID:4158995
BeatmapSetID:1997470

[Difficulty]
HPDrainRate:3
CircleSize:3.2
OverallDifficulty:4
ApproachRate:5.6
SliderMultiplier:1
SliderTickRate:1

[Events]
//Background and Video events
0,0,"genjitsu.png",0,0
//Break Periods
2,27026,36383
2,48159,51716
2,91026,94383
2,145493,155049
//Storyboard Layer 0 (Background)
//Storyboard Layer 1 (Fail)
//Storyboard Layer 2 (Pass)
//Storyboard Layer 3 (Foreground)
//Storyboard Layer 4 (Overlay)
//Storyboard Sound Samples

[TimingPoints]
160,333.333333333333,4,2,1,60,1,0
5493,-100,4,2,1,60,0,0
16159,-111.111111111111,4,2,1,50,0,0
37493,-100,4,2,1,60,0,0
58826,-90.9090909090909,4,2,1,70,0,0
59993,-90.9090909090909,4,2,1,70,0,0
69493,-90.9090909090909,4,2,1,70,0,0
70159,-90.9090909090909,4,2,1,70,0,0
80159,-100,4,2,1,60,0,0
95493,-100,4,2,1,60,0,0
101493,-117.647058823529,4,2,1,50,0,0
103159,-105.263157894737,4,2,1,50,0,0
103993,-105.263157894737,4,2,1,50,0,0
105993,-100,4,2,1,60,0,0
106659,-100,4,2,1,70,0,0
106991,-100,4,2,1,70,0,0
112159,-90.9090909090909,4,2,1,70,0,0
113159,-90.9090909090909,4,2,1,70,0,0
122826,-90.9090909090909,4,2,1,70,0,0
123493,-90.9090909090909,4,2,1,70,0,0
132826,-90.9090909090909,4,2,1,70,0,0
133493,-90.9090909090909,4,2,1,70,0,0
144159,-100,4,2,1,50,0,0
156159,-100,4,2,1,50,0,0
158826,-100,4,2,1,60,0,0
162659,-100,4,2,1,70,0,0
164159,-90.9090909090909,4,2,1,70,0,0
165326,-90.9090909090909,4,2,1,70,0,0
174826,-90.9090909090909,4,2,1,70,0,0
175493,-90.9090909090909,4,2,1,70,0,0
185493,-90.9090909090909,4,2,1,30,0,0
185659,-142.857142857143,4,2,1,40,0,0
185826,-142.857142857143,4,2,1,50,0,0
185993,-142.857142857143,4,2,1,60,0,0
186159,333.333333333333,4,2,1,60,1,0
186159,-90.9090909090909,4,2,1,60,0,0
194159,-90.9090909090909,4,2,1,50,0,0
195325,-90.9090909090909,4,2,1,70,0,0
196825,-100,4,2,1,70,0,0
204825,-125,4,2,1,70,0,0
204992,-125,4,2,1,40,0,0

[Colours]
Combo1 : 240,228,183
Combo2 : 217,179,255
Combo3 : 245,158,243
Combo4 : 255,176,157
Combo5 : 196,234,157

[HitObjects]
23,303,5159,5,8,0:2:0:0:
104,244,5493,2,0,P|152:250|218:268,1,100,6|8,1:2|0:2,0:0:0:0:
291,317,6159,1,2,1:2:0:0:
291,317,6326,2,0,P|344:309|394:295,1,100,2|2,0:2|0:2,0:2:0:0:
427,265,6826,1,2,1:2:0:0:
449,167,7159,1,10,0:2:0:0:
389,86,7493,1,2,1:2:0:0:
294,106,7826,5,10,0:2:0:0:
294,106,7993,2,0,P|281:149|276:223,1,100,2|2,0:2|0:2,0:2:0:0:
296,248,8493,1,10,0:2:0:0:
215,305,8826,1,2,1:2:0:0:
215,305,8993,2,0,P|190:299|144:296,1,50,2|8,0:2|0:2,0:2:0:0:
121,320,9326,2,0,P|70:303|11:292,1,100,2|0,0:2|0:2,0:0:0:0:
3,248,9826,1,10,0:2:0:0:
22,149,10159,1,2,1:2:0:0:
120,131,10493,2,0,L|183:145,1,50,14|8,0:2|0:2,0:0:0:0:
206,175,10826,6,0,P|264:159|313:152,1,100,4|8,1:1|0:2,0:0:0:0:
380,88,11493,1,2,1:2:0:0:
380,88,11659,2,0,P|397:134|405:192,1,100,2|2,0:2|0:2,0:2:0:0:
398,233,12159,1,2,1:2:0:0:
438,324,12493,1,10,0:2:0:0:
357,382,12826,1,2,1:2:0:0:
277,331,13159,5,10,0:2:0:0:
277,331,13326,2,0,P|228:340|174:360,1,100,2|2,0:2|0:2,0:2:0:0:
131,349,13826,1,10,0:2:0:0:
133,253,14159,1,2,1:2:0:0:
133,253,14326,2,0,L|197:235,1,50,2|8,0:2|0:2,0:2:0:0:
216,204,14659,6,0,B|223:150|223:150|184:100,1,100,6|8,1:2|0:2,0:2:0:0:
149,94,15159,2,0,L|92:117,2,50,8|8|4,0:2|0:3|0:3,0:0:0:0:
218,21,15826,2,0,L|269:33,1,50,8|4,0:2|0:3,0:2:0:0:
307,61,16159,6,0,P|359:49|407:38,1,89.9999972534181,4|8,1:2|0:2,0:0:0:0:
467,94,16826,2,0,P|457:138|450:193,1,89.9999972534181,2|10,1:2|0:2,0:0:0:0:
410,201,17326,2,0,P|365:187|311:181,1,89.9999972534181,2|0,0:2|0:2,0:2:0:0:
279,194,17826,1,10,0:2:0:0:
218,260,18159,1,2,1:2:0:0:
259,340,18493,2,0,P|285:346|311:352,1,44.999998626709,10|0,0:2|0:2,0:2:0:0:
343,368,18826,6,0,P|391:356|440:346,1,89.9999972534181,2|8,1:2|0:2,0:0:0:0:
501,291,19493,2,0,P|492:241|487:191,1,89.9999972534181,2|10,1:2|0:2,0:2:0:0:
449,178,19993,2,0,P|405:188|341:192,1,89.9999972534181,2|0,0:2|0:2,0:2:0:0:
318,174,20493,1,8,0:2:0:0:
250,114,20826,2,0,P|253:87|257:59,1,44.999998626709,0|10,1:2|0:2,0:0:0:0:
227,33,21159,2,0,L|170:25,1,44.999998626709,10|2,0:2|0:2,0:0:0:0:
137,28,21493,5,0,1:2:0:0:
59,74,21826,2,0,P|67:116|73:165,1,89.9999972534181,10|2,0:2|1:2,0:2:0:0:
57,255,22493,1,10,0:2:0:0:
57,255,22659,2,0,P|104:243|151:236,1,89.9999972534181,2|2,0:2|0:2,0:0:0:0:
189,242,23159,1,10,0:2:0:0:
245,312,23493,1,2,1:2:0:0:
332,290,23826,2,0,P|342:264|345:236,1,44.999998626709,10|0,0:2|0:2,0:2:0:0:
321,208,24159,5,2,1:2:0:0:
341,120,24493,2,0,P|380:99|424:105,1,89.9999972534181,10|2,0:2|1:2,0:2:0:0:
496,168,25159,1,10,0:2:0:0:
496,168,25326,2,0,P|482:211|476:269,1,89.9999972534181,2|0,0:2|0:2,0:2:0:0:
485,299,25826,1,10,0:2:0:0:
416,357,26159,2,0,L|369:367,1,44.999998626709,0|8,1:2|0:2,0:0:0:0:
331,346,26493,2,0,L|284:339,1,44.999998626709,10|8,0:2|0:2,0:2:0:0:
250,366,26826,5,6,1:2:0:0:
243,28,37493,6,0,P|194:38|146:52,1,100,4|10,1:1|0:2,0:0:0:0:
77,124,38159,2,0,P|86:165|96:222,1,100,2|8,1:2|0:2,0:2:0:0:
145,226,38659,2,0,P|138:273|130:334,1,100,2|0,0:2|0:2,0:2:0:0:
166,360,39159,1,10,0:2:0:0:
265,350,39493,1,2,1:2:0:0:
313,262,39826,2,0,L|301:210,1,50,8|0,0:2|0:2,0:2:0:0:
318,165,40159,5,2,1:2:0:0:
399,107,40493,1,10,0:2:0:0:
475,170,40826,2,0,P|470:214|469:274,1,100,2|8,1:2|0:2,0:0:0:0:
496,311,41326,2,0,P|443:305|394:304,1,100,2|0,0:2|0:2,0:2:0:0:
360,339,41826,1,10,0:2:0:0:
265,306,42159,2,0,P|236:305|205:312,1,50,0|10,1:2|0:2,0:0:0:0:
176,340,42493,2,0,P|147:342|117:345,1,50,10|0,0:2|0:2,0:2:0:0:
86,313,42826,5,4,1:2:0:0:
106,215,43159,2,0,P|102:157|90:108,1,100,10|2,0:2|1:2,0:2:0:0:
41,36,43826,1,10,0:2:0:0:
41,36,43993,2,0,P|86:23|147:17,1,100,2|2,0:2|0:2,0:0:0:0:
180,44,44493,1,10,0:2:0:0:
273,10,44826,1,2,1:2:0:0:
349,74,45159,1,10,0:2:0:0:
280,146,45493,5,2,1:2:0:0:
327,233,45826,2,0,P|376:250|436:252,1,100,10|2,0:2|1:2,0:2:0:0:
470,270,46326,2,0,P|482:243|486:215,1,50,2|10,0:2|0:2,0:0:0:0:
509,178,46659,2,0,P|488:123|481:69,1,100,2|0,0:2|0:2,0:2:0:0:
447,45,47159,1,10,0:2:0:0:
360,95,47493,2,0,P|338:100|310:110,2,50,8|8|8,0:2|0:2|0:2,0:0:0:0:
47,296,52826,6,0,L|-2:313,2,50,8|4|2,0:3|0:3|0:3,0:0:0:0:
78,256,53326,2,0,P|150:246|210:289,1,150,4|8,1:1|0:2,0:2:0:0:
233,339,53993,1,2,0:2:0:0:
233,339,54159,1,2,1:2:0:0:
334,317,54493,1,8,0:2:0:0:
334,317,54659,2,0,P|344:263|356:209,1,100,4|0,1:2|1:2,0:2:0:0:
397,192,55159,1,10,0:2:0:0:
397,192,55326,1,2,0:2:0:0:
349,104,55659,1,2,1:2:0:0:
253,135,55993,6,0,P|198:128|141:108,1,100,4|0,1:2|1:2,0:2:0:0:
126,74,56493,1,8,0:2:0:0:
43,129,56826,2,0,P|39:156|30:193,1,50,2|2,1:2|0:2,0:0:0:0:
51,230,57159,1,10,0:2:0:0:
51,230,57326,6,0,B|125:228|122:261|209:265,1,150,6|8,1:2|0:2,0:2:0:0:
281,212,58159,2,0,B|289:157|289:157|254:113,1,100,14|8,0:2|0:2,0:2:0:0:
175,53,58826,5,6,1:1:0:0:
80,109,59159,1,10,0:1:0:0:
76,219,59493,1,2,1:1:0:0:
143,312,59826,1,10,0:1:0:0:
143,312,59993,2,0,P|200:295|257:287,1,110.000003356934,2|0,0:2|0:2,0:2:0:0:
300,309,60493,1,10,0:2:0:0:
404,274,60826,2,0,P|430:227|423:173,1,110.000003356934,2|8,1:2|0:2,0:0:0:0:
394,133,61326,1,2,0:2:0:0:
394,133,61493,5,2,1:2:0:0:
290,168,61826,1,10,0:2:0:0:
189,123,62159,2,0,P|179:95|174:64,1,55.0000016784668,2|2,1:2|0:2,0:0:0:0:
202,23,62493,1,10,0:2:0:0:
202,23,62659,2,0,P|251:5|315:-2,1,110.000003356934,2|0,0:2|0:2,0:2:0:0:
358,20,63159,1,10,0:2:0:0:
467,3,63493,1,2,1:2:0:0:
482,116,63826,1,10,0:2:0:0:
482,116,63993,2,0,P|472:145|467:177,1,55.0000016784668,10|4,0:2|1:2,0:2:0:0:
372,221,64493,5,10,0:0:0:0:
372,221,64659,2,0,P|307:203|254:202,1,110.000003356934,2|2,0:2|0:2,0:2:0:0:
213,206,65159,1,10,0:0:0:0:
213,206,65326,2,0,P|146:202|98:192,1,110.000003356934,2|2,0:2|0:2,0:2:0:0:
54,217,65826,1,8,0:2:0:0:
40,329,66159,1,2,1:2:0:0:
40,329,66326,2,0,P|71:334|97:343,1,55.0000016784668,2|8,0:2|0:2,0:2:0:0:
130,382,66659,6,0,P|163:339|162:285,1,110.000003356934,2|0,0:2|0:2,0:2:0:0:
138,242,67159,1,8,0:2:0:0:
138,242,67326,1,2,0:2:0:0:
205,155,67659,1,2,0:2:0:0:
294,220,67993,2,0,B|384:224|360:253|477:266,1,165.000005035401,6|8,0:1|0:1,0:2:0:0:
502,236,68659,1,4,1:1:0:0:
502,236,68826,1,2,1:1:0:0:
465,132,69159,2,0,P|467:98|472:75,1,55.0000016784668,8|8,0:2|0:2,0:0:0:0:
442,30,69493,5,6,1:1:0:0:
333,47,69826,1,10,0:1:0:0:
224,61,70159,2,0,L|208:-1,2,55.0000016784668,2|0|10,1:1|0:2|0:2,0:2:0:0:
194,107,70659,2,0,P|126:124|81:147,1,110.000003356934,2|0,0:2|0:2,0:2:0:0:
64,190,71159,1,10,0:2:0:0:
132,275,71493,2,0,P|199:257|245:235,1,110.000003356934,2|10,1:2|0:2,0:0:0:0:
269,197,71993,1,2,0:2:0:0:
269,197,72159,5,2,1:2:0:0:
365,249,72493,1,10,0:2:0:0:
331,353,72826,2,0,P|303:361|272:370,1,55.0000016784668,2|2,1:2|0:2,0:0:0:0:
238,338,73159,1,10,0:2:0:0:
238,338,73326,2,0,P|188:351|129:375,1,110.000003356934,2|0,0:2|0:2,0:2:0:0:
79,364,73826,1,10,0:2:0:0:
13,276,74159,1,2,1:2:0:0:
69,183,74493,1,10,0:2:0:0:
69,183,74659,2,0,L|51:125,1,55.0000016784668,10|4,0:2|1:2,0:2:0:0:
117,41,75159,6,0,P|143:36|172:26,1,55.0000016784668,10|2,0:2|0:2,0:0:0:0:
214,60,75493,2,0,P|269:63|328:84,1,110.000003356934,2|10,1:2|0:2,0:0:0:0:
364,113,75993,2,0,P|416:105|481:82,1,110.000003356934,2|2,0:2|0:2,0:2:0:0:
511,123,76493,1,8,0:2:0:0:
476,230,76826,1,2,1:2:0:0:
476,230,76993,2,0,P|486:266|493:304,1,55.0000016784668,2|8,0:2|0:2,0:2:0:0:
463,331,77326,6,0,P|415:338|348:360,1,110.000003356934,2|0,0:2|0:2,0:2:0:0:
310,336,77826,1,8,0:2:0:0:
310,336,77993,1,2,0:2:0:0:
204,367,78326,1,2,0:2:0:0:
123,292,78659,2,0,B|116:242|116:242|139:208|148:168,1,110.000003356934,6|8,0:1|0:2,0:0:0:0:
131,135,79159,2,0,P|104:132|69:115,1,55.0000016784668,8|8,0:2|0:3,0:0:0:0:
31,151,79493,1,10,0:2:0:0:
194,4,80159,6,0,P|254:17|308:26,1,100,4|10,1:2|0:2,0:0:0:0:
378,83,80825,1,2,1:2:0:0:
378,83,80992,2,0,P|431:75|481:61,1,100,2|2,0:2|0:2,0:2:0:0:
504,103,81492,1,2,1:2:0:0:
482,200,81825,1,10,0:2:0:0:
459,297,82159,1,2,1:2:0:0:
377,352,82492,5,10,0:2:0:0:
377,352,82659,2,0,P|327:334|268:320,1,100,2|2,0:2|0:2,0:0:0:0:
246,286,83159,1,10,0:2:0:0:
162,338,83492,1,2,1:2:0:0:
162,338,83659,2,0,P|137:332|91:329,1,50,2|8,0:2|0:2,0:2:0:0:
63,321,83992,2,0,P|34:280|35:231,1,100,2|0,0:2|0:2,0:0:0:0:
61,188,84492,1,10,0:2:0:0:
157,212,84825,1,2,1:2:0:0:
249,173,85159,2,0,L|262:110,1,50,12|8,0:2|0:2,0:0:0:0:
289,84,85492,6,0,P|239:75|192:62,1,100,4|10,1:2|0:2,0:2:0:0:
111,12,86159,1,2,1:2:0:0:
111,12,86325,2,0,P|94:58|86:116,1,100,2|2,0:2|0:2,0:2:0:0:
57,149,86825,1,2,1:2:0:0:
63,251,87159,1,10,0:2:0:0:
152,296,87492,1,2,1:2:0:0:
246,256,87825,5,10,0:2:0:0:
246,256,87992,2,0,P|295:265|349:285,1,100,2|2,0:2|0:2,0:0:0:0:
366,325,88492,1,10,0:2:0:0:
452,273,88825,1,2,1:2:0:0:
452,273,88992,2,0,L|516:255,1,50,2|8,0:2|0:2,0:0:0:0:
512,215,89325,6,0,B|519:161|519:161|480:111,1,100,4|0,1:2|1:2,0:2:0:0:
451,94,89825,2,0,L|465:41,2,50,8|8|4,0:2|0:3|0:3,0:0:0:0:
351,105,90493,2,0,L|285:90,1,50,8|8,0:2|0:3,0:0:0:0:
278,49,90826,5,6,0:2:0:0:
240,345,95493,6,0,L|192:330,1,50,0|8,1:2|0:2,0:0:0:0:
146,351,95826,2,0,L|95:364,1,50,8|2,0:2|0:2,0:0:0:0:
51,343,96159,6,0,P|40:291|29:242,1,100,4|10,1:2|0:2,0:0:0:0:
69,153,96826,2,0,P|119:142|174:129,1,100,0|8,1:2|0:2,0:2:0:0:
208,158,97326,1,2,0:2:0:0:
279,87,97659,1,2,0:2:0:0:
279,87,97826,1,10,0:2:0:0:
362,141,98159,1,2,1:2:0:0:
323,233,98493,1,10,0:2:0:0:
398,298,98826,5,2,1:2:0:0:
490,260,99159,2,0,P|499:202|515:153,1,100,10|2,0:2|1:2,0:0:0:0:
476,74,99826,1,10,0:2:0:0:
476,74,99993,2,0,P|426:69|369:53,1,100,2|2,0:2|0:2,0:2:0:0:
332,76,100493,2,0,L|317:137,2,50,10|8|2,0:2|0:2|1:2,0:0:0:0:
255,11,101159,2,0,L|199:23,1,50,8|8,0:2|0:2,0:0:0:0:
179,54,101493,6,0,P|67:55|20:8,1,170.000003242493,2|2,0:2|0:2,0:2:0:0:
50,150,102659,1,0,0:2:0:0:
50,150,102826,2,0,L|24:234,1,85.0000016212464,4|4,0:3|0:3,0:2:0:0:
48,323,103493,2,0,L|153:354,1,94.9999974632264,4|4,0:3|0:3,0:0:0:0:
176,320,103993,5,4,0:3:0:0:
258,367,104326,1,2,0:2:0:0:
336,312,104659,1,2,0:2:0:0:
336,312,104826,2,0,L|320:200,1,94.9999974632264,4|4,0:3|0:3,0:0:0:0:
283,190,105326,2,0,P|233:194|181:210,1,94.9999974632264,2|6,0:2|0:3,0:0:0:0:
99,163,105993,5,12,1:2:0:0:
71,66,106326,1,12,1:2:0:0:
161,24,106659,2,0,B|224:22|240:53|330:59,1,150,6|8,1:1|0:2,0:2:0:0:
355,38,107326,1,2,0:2:0:0:
355,38,107493,1,2,1:2:0:0:
444,93,107826,1,8,0:2:0:0:
444,93,107993,2,0,P|431:140|421:203,1,100,4|0,1:2|1:2,0:2:0:0:
449,238,108493,1,8,0:2:0:0:
449,238,108659,1,2,0:2:0:0:
364,291,108993,6,0,L|307:282,1,50,2|8,1:2|0:2,0:0:0:0:
271,257,109326,2,0,B|193:261|203:286|119:310,1,150,4|8,1:2|0:2,0:2:0:0:
33,285,110159,2,0,L|9:221,1,50,2|2,1:2|1:2,0:0:0:0:
16,191,110493,1,10,0:2:0:0:
16,191,110659,6,0,P|76:145|152:158,1,150,6|8,1:2|0:2,0:2:0:0:
219,223,111493,2,0,B|252:186|252:186|251:136,1,100,12|8,0:2|0:2,0:2:0:0:
218,31,112159,5,6,1:1:0:0:
326,12,112493,1,10,0:1:0:0:
417,73,112826,1,2,1:1:0:0:
428,186,113159,1,10,1:1:0:0:
428,186,113326,2,0,P|412:237|399:300,1,110.000003356934,2|2,0:2|0:2,0:2:0:0:
431,338,113826,1,10,0:2:0:0:
327,374,114159,2,0,P|272:359|208:353,1,110.000003356934,2|10,1:2|0:2,0:0:0:0:
171,375,114659,1,2,0:2:0:0:
171,375,114826,5,2,1:2:0:0:
75,319,115159,1,10,0:2:0:0:
128,223,115492,2,0,P|118:195|113:164,1,55.0000016784668,2|2,1:2|0:2,0:0:0:0:
141,123,115826,1,10,0:2:0:0:
141,123,115992,2,0,P|190:105|254:98,1,110.000003356934,2|0,0:2|0:2,0:2:0:0:
285,137,116492,1,10,0:2:0:0:
348,226,116826,1,2,1:2:0:0:
458,204,117159,1,10,0:2:0:0:
458,204,117326,2,0,P|468:175|473:143,1,55.0000016784668,10|4,0:2|1:2,0:2:0:0:
415,56,117826,6,0,P|385:45|350:41,1,55.0000016784668,10|2,0:2|0:2,0:0:0:0:
316,11,118159,2,0,P|257:13|205:32,1,110.000003356934,2|10,1:2|0:2,0:0:0:0:
172,70,118659,2,0,P|109:96|63:96,1,110.000003356934,2|2,0:2|0:2,0:2:0:0:
19,70,119159,1,8,0:2:0:0:
0,173,119492,1,2,1:2:0:0:
0,173,119659,2,0,P|8:202|14:230,1,55.0000016784668,2|8,0:2|0:2,0:0:0:0:
62,250,119992,6,0,P|108:227|170:223,1,110.000003356934,2|0,0:2|0:2,0:2:0:0:
216,256,120492,1,8,0:2:0:0:
216,256,120659,1,2,0:2:0:0:
298,183,120992,1,2,0:2:0:0:
400,223,121326,2,0,B|426:172|426:172|428:113|378:61,1,165.000005035401,6|8,0:1|0:1,0:2:0:0:
347,46,121992,1,4,0:1:0:0:
347,46,122159,1,2,1:1:0:0:
240,71,122492,2,0,P|234:97|233:125,1,55.0000016784668,8|8,0:2|0:2,0:0:0:0:
273,164,122826,5,6,1:1:0:0:
310,267,123159,1,10,0:1:0:0:
244,355,123492,2,0,P|215:347|182:345,2,55.0000016784668,2|2|10,1:1|0:2|0:2,0:0:0:0:
291,384,123992,2,0,P|341:361|394:349,1,110.000003356934,2|0,0:2|0:2,0:2:0:0:
449,357,124492,1,10,0:2:0:0:
510,265,124826,2,0,P|492:198|470:152,1,110.000003356934,2|10,1:2|0:2,0:0:0:0:
429,140,125326,1,2,0:2:0:0:
429,140,125492,5,2,1:2:0:0:
344,211,125826,1,10,0:2:0:0:
241,171,126159,2,0,P|233:143|224:112,1,55.0000016784668,2|2,1:2|0:2,0:0:0:0:
189,84,126492,1,10,0:2:0:0:
189,84,126659,2,0,P|139:97|74:113,1,110.000003356934,2|0,0:2|0:2,0:2:0:0:
31,132,127159,1,10,0:2:0:0:
0,237,127492,1,2,1:2:0:0:
97,299,127826,1,10,0:2:0:0:
97,299,127992,2,0,L|111:358,1,55.0000016784668,10|4,0:2|1:2,0:2:0:0:
222,374,128493,5,10,0:0:0:0:
222,374,128659,2,0,P|272:351|334:343,1,110.000003356934,2|2,0:2|0:2,0:0:0:0:
385,347,129159,1,10,0:0:0:0:
385,347,129326,2,0,P|409:296|393:242,1,110.000003356934,2|2,0:2|0:2,0:2:0:0:
415,194,129826,1,8,0:2:0:0:
313,167,130159,1,0,1:2:0:0:
313,167,130326,2,0,P|277:177|239:184,1,55.0000016784668,2|8,0:2|0:2,0:2:0:0:
240,233,130659,6,0,P|192:240|125:262,1,110.000003356934,2|0,0:2|0:2,0:2:0:0:
101,304,131159,1,8,0:2:0:0:
101,304,131326,1,2,0:2:0:0:
11,240,131659,1,2,0:2:0:0:
59,141,131992,2,0,B|52:91|52:91|75:57|84:17,1,110.000003356934,6|8,0:1|0:2,0:0:0:0:
133,39,132492,2,0,P|158:49|185:52,1,55.0000016784668,8|8,0:2|0:3,0:0:0:0:
236,31,132826,1,10,0:2:0:0:
312,109,133159,1,2,0:1:0:0:
273,212,133493,6,0,B|271:257|245:277|251:329,2,110.000003356934,4|10|2,1:1|0:1|1:1,0:1:0:0:
382,182,134493,1,10,0:1:0:0:
382,182,134659,2,0,P|435:173|485:200,1,110.000003356934,2|0,0:1|0:1,0:1:0:0:
493,253,135159,1,2,1:1:0:0:
447,353,135493,2,0,P|393:361|343:334,1,110.000003356934,2|10,1:1|0:1,0:1:0:0:
298,308,135993,2,0,B|256:308|256:308|225:333|172:339,1,110.000003356934,2|2,0:1|0:1,0:1:0:0:
146,362,136493,1,10,0:1:0:0:
43,323,136826,2,0,B|21:282|21:282|37:259|27:208,1,110.000003356934,2|10,1:1|0:1,0:0:0:0:
6,169,137326,6,0,P|60:161|118:141,1,110.000003356934,2|2,0:1|0:1,0:1:0:0:
166,170,137826,1,10,0:1:0:0:
166,170,137993,2,0,P|216:175|282:201,1,110.000003356934,2|2,0:1|0:1,0:1:0:0:
321,171,138493,2,0,P|332:140|333:115,1,55.0000016784668,10|10,0:1|0:1,0:0:0:0:
313,66,138826,1,6,1:1:0:0:
417,32,139159,6,0,B|429:47|460:54|460:54|503:115|468:171|458:244,1,220.000006713867,10|10,0:2|0:2,0:0:0:0:
498,322,140159,2,0,P|450:326|387:354,1,110.000003356934,2|8,1:3|0:2,0:3:0:0:
283,354,140826,2,0,B|253:321|253:321|238:279|262:243,1,110.000003356934,2|10,1:3|0:2,0:2:0:0:
293,217,141326,1,2,0:2:0:0:
293,217,141493,2,0,B|318:186|318:158|318:158|301:94,1,110.000003356934,2|10,1:2|0:2,0:2:0:0:
267,85,141993,1,2,0:2:0:0:
267,85,142159,1,2,1:1:0:0:
171,137,142493,5,10,0:2:0:0:
171,137,142659,2,0,B|132:124|132:124|94:157|94:157|46:159|2:178,1,165.000005035401,6|8,1:1|0:2,0:2:0:0:
4,222,143326,1,4,0:2:0:0:
45,323,143659,2,0,B|105:321|105:321|149:280,1,110.000003356934,8|8,0:3|0:3,0:0:0:0:
372,345,156159,5,4,1:2:0:0:
108,298,157326,1,2,0:2:0:0:
381,146,158826,5,4,1:2:0:0:
196,68,159493,1,4,1:2:0:0:
115,250,160159,1,4,1:2:0:0:
302,320,160826,1,4,1:2:0:0:
414,154,161493,6,0,L|399:96,2,50,4|8|8,1:2|0:2|0:2,0:0:0:0:
318,182,162159,2,0,L|299:120,2,50,8|8|4,0:2|0:3|0:3,0:0:0:0:
290,223,162659,2,0,B|240:219|240:219|191:262,1,100,6|8,1:2|0:2,0:2:0:0:
191,354,163326,1,8,0:2:0:0:
191,354,163493,1,8,0:2:0:0:
410,350,164159,5,6,1:1:0:0:
460,252,164493,1,10,0:1:0:0:
429,146,164826,1,2,1:1:0:0:
333,104,165159,1,10,0:1:0:0:
333,104,165326,2,0,P|274:119|215:132,1,110.000003356934,2|0,0:2|0:2,0:2:0:0:
201,179,165826,1,10,0:2:0:0:
95,146,166159,2,0,P|69:193|76:247,1,110.000003356934,2|10,1:2|0:2,0:0:0:0:
113,294,166659,1,2,0:2:0:0:
113,294,166826,5,2,1:2:0:0:
221,274,167159,1,10,0:2:0:0:
292,357,167492,2,0,P|324:364|351:373,1,55.0000016784668,2|2,1:2|0:2,0:0:0:0:
399,351,167826,1,10,0:2:0:0:
399,351,167992,2,0,P|405:299|428:238,1,110.000003356934,2|0,0:2|0:2,0:2:0:0:
472,218,168492,1,10,0:2:0:0:
455,109,168826,1,2,1:2:0:0:
349,120,169159,1,10,0:2:0:0:
349,120,169326,2,0,P|320:110|288:105,1,55.0000016784668,10|4,0:2|1:2,0:0:0:0:
206,41,169826,6,0,P|176:52|141:56,1,55.0000016784668,10|2,0:2|0:2,0:0:0:0:
99,43,170159,2,0,P|118:96|124:159,1,110.000003356934,2|10,1:2|0:2,0:0:0:0:
159,191,170659,2,0,P|108:210|53:211,1,110.000003356934,2|2,0:2|0:2,0:2:0:0:
5,239,171159,1,8,0:2:0:0:
70,333,171492,1,2,1:2:0:0:
70,333,171659,2,0,P|101:324|135:324,1,55.0000016784668,2|8,0:2|0:2,0:2:0:0:
169,353,171992,6,0,P|231:333|293:341,1,110.000003356934,2|0,0:2|0:2,0:2:0:0:
327,366,172492,1,8,0:2:0:0:
327,366,172659,1,2,0:2:0:0:
417,303,172992,1,2,0:2:0:0:
353,213,173326,2,0,B|353:151|394:98|394:98|397:46,1,165.000005035401,6|8,0:1|0:2,0:2:0:0:
368,16,173992,1,4,0:2:0:0:
368,16,174159,1,2,1:2:0:0:
258,3,174492,2,0,L|198:16,1,55.0000016784668,8|8,0:2|0:2,0:0:0:0:
168,57,174826,5,6,1:1:0:0:
240,140,175159,1,10,0:1:0:0:
178,230,175492,2,0,L|120:249,2,55.0000016784668,2|0|10,1:1|0:2|0:2,0:2:0:0:
229,250,175992,2,0,P|261:293|260:347,1,110.000003356934,2|0,0:2|0:2,0:2:0:0:
221,384,176492,1,10,0:2:0:0:
122,335,176826,2,0,P|65:346|12:359,1,110.000003356934,2|10,1:2|0:2,0:0:0:0:
4,309,177326,1,2,0:2:0:0:
4,309,177492,5,2,1:2:0:0:
69,220,177826,1,10,0:2:0:0:
3,132,178159,2,0,P|29:124|55:116,1,55.0000016784668,2|0,1:2|0:2,0:2:0:0:
82,70,178492,1,10,0:2:0:0:
82,70,178659,2,0,P|132:57|191:33,1,110.000003356934,2|0,0:2|0:2,0:2:0:0:
233,63,179159,1,10,0:2:0:0:
272,165,179492,1,2,1:2:0:0:
213,260,179826,1,10,0:2:0:0:
213,260,179992,2,0,L|231:318,1,55.0000016784668,10|4,0:2|1:2,0:0:0:0:
325,366,180492,6,0,P|351:361|380:351,1,55.0000016784668,10|2,0:2|0:2,0:0:0:0:
432,345,180826,2,0,P|443:292|421:243,1,110.000003356934,2|10,1:2|0:2,0:0:0:0:
436,190,181326,2,0,P|396:152|342:149,1,110.000003356934,2|2,0:2|0:2,0:2:0:0:
298,181,181826,1,8,0:2:0:0:
212,120,182159,1,2,1:2:0:0:
212,120,182326,2,0,P|222:84|229:46,1,55.0000016784668,2|8,0:2|0:2,0:2:0:0:
191,23,182659,6,0,P|143:30|76:52,1,110.000003356934,2|0,0:2|0:2,0:2:0:0:
50,92,183159,1,8,0:2:0:0:
50,92,183326,1,2,0:2:0:0:
102,188,183659,1,2,0:2:0:0:
42,280,183992,2,0,B|66:291|89:317|89:317|139:310,1,110.000003356934,6|8,0:1|0:2,0:0:0:0:
189,290,184492,2,0,B|216:287|216:287|241:308,1,55.0000016784668,8|8,0:2|0:3,0:0:0:0:
257,357,184826,1,10,0:2:0:0:
459,269,185493,2,8,L|434:95,1,165.000005035401,8|8,0:2|0:2,0:2:0:0:
397,66,186159,5,6,1:2:0:0:
287,66,186492,1,10,0:2:0:0:
226,158,186825,1,2,1:2:0:0:
226,158,186992,1,2,0:2:0:0:
252,264,187325,2,0,P|202:280|137:296,1,110.000003356934,2|2,0:2|0:2,0:2:0:0:
93,278,187825,1,10,0:2:0:0:
20,194,188159,2,0,P|12:163|10:135,1,55.0000016784668,2|2,1:2|0:2,0:0:0:0:
39,93,188492,1,10,0:2:0:0:
136,41,188825,5,2,1:2:0:0:
232,94,189159,1,10,0:2:0:0:
325,34,189492,1,2,1:2:0:0:
325,34,189659,1,2,0:2:0:0:
427,74,189992,2,0,P|441:136|451:198,1,110.000003356934,2|0,0:2|0:2,0:2:0:0:
424,231,190492,1,10,0:2:0:0:
362,322,190825,2,0,P|336:328|304:336,1,55.0000016784668,2|0,1:2|0:2,0:0:0:0:
260,306,191159,2,0,P|233:308|203:317,1,55.0000016784668,12|8,0:2|0:2,0:0:0:0:
173,360,191492,5,4,1:1:0:0:
77,317,191825,1,8,0:2:0:0:
77,317,191992,2,0,P|69:259|54:191,1,110.000003356934,0|0,1:2|1:2,0:0:0:0:
85,162,192492,1,8,0:2:0:0:
85,162,192659,2,0,P|144:150|193:134,1,110.000003356934,0|0,1:2|1:2,0:2:0:0:
248,151,193159,1,8,0:2:0:0:
248,151,193325,1,0,1:2:0:0:
354,180,193659,2,0,L|422:165,1,55.0000016784668,0|8,1:2|0:2,0:0:0:0:
460,198,193992,1,8,0:3:0:0:
460,198,194159,5,4,1:2:0:0:
308,356,194825,1,4,1:2:0:0:
149,308,195325,2,0,P|114:228|121:137,1,165.000005035401,2|0,1:2|3:2,0:2:0:0:
187,67,196159,1,0,3:2:0:0:
320,215,196825,6,0,P|368:221|434:239,1,100,4|10,1:2|0:2,0:2:0:0:
450,141,197491,1,2,1:2:0:0:
450,141,197658,2,0,P|397:133|347:119,1,100,2|2,0:2|0:2,0:2:0:0:
324,79,198158,1,2,1:2:0:0:
234,35,198491,1,10,0:2:0:0:
143,77,198825,1,2,1:2:0:0:
57,37,199158,5,10,0:2:0:0:
57,37,199325,2,0,P|44:80|39:154,1,100,2|2,0:2|0:2,0:2:0:0:
66,175,199825,1,10,0:2:0:0:
128,259,200158,1,2,1:2:0:0:
128,259,200325,2,0,P|153:265|199:268,1,50,2|8,0:2|0:2,0:2:0:0:
217,238,200658,2,0,P|274:246|329:263,1,100,2|0,0:2|0:2,0:0:0:0:
335,303,201158,1,10,0:2:0:0:
433,287,201491,1,2,1:2:0:0:
476,196,201825,2,0,P|482:159|486:130,1,50,12|8,0:2|0:2,0:0:0:0:
472,98,202158,6,0,P|422:89|374:75,1,100,4|8,1:1|0:2,0:0:0:0:
282,107,202825,1,2,1:2:0:0:
282,107,202991,2,0,P|265:153|257:211,1,100,2|2,0:2|0:2,0:2:0:0:
288,242,203491,1,2,1:2:0:0:
263,339,203825,1,10,0:2:0:0:
170,375,204158,1,2,1:2:0:0:
83,336,204492,1,10,0:2:0:0:
83,336,204658,2,0,L|71:287,1,50,2|0,0:2|1:2,0:0:0:0:
44,257,204992,6,0,L|76:128,1,120,2|2,0:2|3:2,0:0:0:0:
174,76,205992,2,0,L|222:88,1,40,2|2,0:2|3:2,0:2:0:0:
256,153,206492,1,2,3:2:0:0:
335,160,206825,1,2,3:2:0:0:
