osu file format v14

[General]
AudioFilename: audio.mp3
AudioLeadIn: 0
PreviewTime: 58076
Countdown: 0
SampleSet: Soft
StackLeniency: 0.7
Mode: 0
LetterboxInBreaks: 0
WidescreenStoryboard: 1

[Editor]
Bookmarks: 5159,26826,37493,53326,58826,80159,112159,133493,145493,156159,164159,186159,191492,196825
DistanceSpacing: 1
BeatDivisor: 4
GridSize: 4
TimelineZoom: 2.1

[Metadata]
Title:Genjitsu Escape
TitleUnicode:現実エスケープ
Artist:tephe
ArtistUnicode:tephe
Creator:AirinCat
Version:Insane
Source:
Tags:featured artist fa kagamine len 鏡音レン ren kyouren kittyadventure gokugohan12468 reality vocaloid japanese rock jrock Itovero saw mappers' guild mpg
BeatmapID:4151710
BeatmapSetID:1997470

[Difficulty]
HPDrainRate:5
CircleSize:4
OverallDifficulty:8
ApproachRate:9
SliderMultiplier:1.6
SliderTickRate:1

[Events]
//Background and Video events
0,0,"genjitsu.png",0,0
//Break Periods
2,27692,36393
2,48359,52059
2,91026,94893
2,145692,155559
//Storyboard Layer 0 (Background)
//Storyboard Layer 1 (Fail)
//Storyboard Layer 2 (Pass)
//Storyboard Layer 3 (Foreground)
//Storyboard Layer 4 (Overlay)
//Storyboard Sound Samples

[TimingPoints]
160,333.333333333333,4,2,1,60,1,0
5493,-90.9090909090909,4,2,1,60,0,0
16159,-100,4,2,1,50,0,0
37493,-100,4,2,1,60,0,0
58826,-58.8235294117647,4,2,1,70,0,0
59993,-83.3333333333333,4,2,1,70,0,0
69493,-58.8235294117647,4,2,1,70,0,0
70159,-83.3333333333333,4,2,1,70,0,0
80159,-90.9090909090909,4,2,1,60,0,0
95493,-90.9090909090909,4,2,1,60,0,0
101493,-181.818181818181,4,2,1,50,0,0
103159,-133.333333333333,4,2,1,50,0,0
103993,-105.263157894737,4,2,1,50,0,0
105993,-66.6666666666667,4,2,1,60,0,0
106659,-100,4,2,1,70,0,0
106991,-100,4,2,1,70,0,0
112159,-66.6666666666667,4,2,1,70,0,0
113159,-83.3333333333333,4,2,1,70,0,0
122826,-66.6666666666667,4,2,1,70,0,0
123493,-83.3333333333333,4,2,1,70,0,0
132826,-111.111111111111,4,2,1,70,0,0
133493,-83.3333333333333,4,2,1,70,0,0
144159,-142.857142857143,4,2,1,50,0,0
156159,-142.857142857143,4,2,1,50,0,0
158826,-142.857142857143,4,2,1,60,0,0
162659,-142.857142857143,4,2,1,70,0,0
164159,-52.6315789473684,4,2,1,70,0,0
165326,-83.3333333333333,4,2,1,70,0,0
174826,-55.5555555555556,4,2,1,70,0,0
175493,-83.3333333333333,4,2,1,70,0,0
185493,-142.857142857143,4,2,1,30,0,0
185659,-142.857142857143,4,2,1,40,0,0
185826,-142.857142857143,4,2,1,50,0,0
185993,-142.857142857143,4,2,1,60,0,0
186159,333.333333333333,4,2,1,60,1,0
186159,-83.3333333333333,4,2,1,60,0,0
194159,-83.3333333333333,4,2,1,50,0,0
195325,-83.3333333333333,4,2,1,70,0,0
204825,-166.666666666667,4,2,1,70,0,0
204992,-166.666666666667,4,2,1,40,0,0

[Colours]
Combo1 : 240,228,183
Combo2 : 217,179,255
Combo3 : 245,158,243
Combo4 : 255,176,157
Combo5 : 196,234,157

[HitObjects]
100,268,5159,5,8,0:2:0:0:
100,268,5493,1,6,1:2:0:0:
195,335,5659,5,2,0:2:0:0:
195,335,5743,1,2,0:2:0:0:
195,335,5826,2,0,P|205:288|215:245,1,88.000002685547,8|0,0:2|0:2,0:2:0:0:
18,192,6159,2,0,P|8:241|-2:282,2,88.000002685547,2|2|8,1:2|0:2|0:2,0:0:0:0:
160,87,6659,5,2,0:2:0:0:
160,87,6743,1,2,0:2:0:0:
160,87,6826,2,0,P|206:98|262:111,1,88.000002685547,2|2,1:2|0:2,0:0:0:0:
428,3,7159,2,0,P|389:15|339:30,1,88.000002685547,10|2,0:2|0:2,0:0:0:0:
363,208,7493,1,2,1:2:0:0:
451,135,7659,1,2,0:2:0:0:
343,28,7826,1,10,0:2:0:0:
252,192,7993,6,0,P|271:268|284:377,1,176.000005371094,2|2,0:2|0:2,0:2:0:0:
88,369,8493,1,10,0:2:0:0:
180,266,8659,1,2,0:2:0:0:
199,384,8826,1,2,1:2:0:0:
83,276,8993,2,0,P|92:229|104:186,1,88.000002685547,2|8,0:2|0:2,0:2:0:0:
308,295,9326,5,2,0:2:0:0:
308,295,9409,1,2,0:2:0:0:
308,295,9493,2,0,L|397:318,1,88.000002685547,2|0,1:2|0:2,0:2:0:0:
277,101,9826,2,0,P|266:137|256:191,1,88.000002685547,10|0,0:2|0:2,0:2:0:0:
481,236,10159,1,2,1:2:0:0:
399,152,10326,1,2,0:2:0:0:
375,234,10493,5,14,0:2:0:0:
508,135,10659,1,8,0:2:0:0:
344,55,10826,5,4,1:1:0:0:
419,0,10993,1,2,0:2:0:0:
419,0,11076,1,2,0:2:0:0:
419,0,11159,2,0,P|426:41|444:88,1,88.000002685547,8|0,0:2|0:2,0:2:0:0:
251,194,11493,2,0,P|243:149|230:109,2,88.000002685547,2|2|8,1:2|0:2|0:2,0:0:0:0:
368,333,11993,5,2,0:2:0:0:
368,333,12076,1,2,0:2:0:0:
368,333,12159,2,0,P|408:320|460:304,1,88.000002685547,2|2,1:2|0:2,0:0:0:0:
152,227,12493,2,0,P|113:242|60:256,1,88.000002685547,10|2,0:2|0:2,0:0:0:0:
265,373,12826,1,2,1:2:0:0:
278,286,12993,1,2,0:2:0:0:
151,368,13159,1,10,0:2:0:0:
278,286,13326,6,0,B|268:189|244:212|232:114,1,176.000005371094,2|2,0:2|0:2,0:2:0:0:
102,61,13826,1,10,0:2:0:0:
111,203,13993,1,2,0:2:0:0:
234,118,14159,1,2,1:2:0:0:
111,203,14326,2,0,P|64:194|23:179,1,88.000002685547,2|8,0:2|0:2,0:2:0:0:
343,0,14659,6,0,P|417:46|431:130,1,176.000005371094,6|8,1:2|0:2,0:2:0:0:
302,314,15159,1,8,0:2:0:0:
232,247,15326,2,0,L|218:194,3,44.0000013427735,8|8|4|4,0:3|0:3|0:3|0:3,0:0:0:0:
305,185,15659,1,8,0:2:0:0:
305,185,15743,1,8,0:2:0:0:
305,185,15826,2,0,L|320:244,3,44.0000013427735,8|8|4|4,0:2|0:2|0:3|0:3,0:2:0:0:
405,240,16159,5,4,1:2:0:0:
228,90,16409,1,2,0:2:0:0:
228,90,16493,2,0,L|133:119,1,80,8|0,0:2|0:2,0:2:0:0:
82,232,16826,2,0,L|0:261,1,80,2|2,1:2|0:2,0:0:0:0:
0,155,17159,1,10,0:2:0:0:
201,188,17326,6,0,P|280:239|286:319,1,160,2|0,0:2|0:2,0:2:0:0:
209,384,17826,2,0,P|197:341|187:300,1,80,10|0,0:2|0:2,0:2:0:0:
387,229,18159,1,2,1:2:0:0:
387,229,18493,2,0,P|398:271|410:308,1,80,10|0,0:2|0:2,0:2:0:0:
497,225,18826,5,2,1:2:0:0:
336,136,18993,1,2,0:2:0:0:
336,136,19076,1,2,0:2:0:0:
336,136,19159,2,0,P|379:124|423:113,1,80,8|2,0:2|0:2,0:0:0:0:
379,1,19493,2,0,P|336:13|292:24,1,80,2|0,1:2|0:2,0:2:0:0:
105,123,19826,5,10,0:2:0:0:
114,39,19993,2,0,P|192:71|224:147,1,160,2|0,0:2|0:2,0:2:0:0:
103,301,20493,1,8,0:2:0:0:
13,220,20659,1,8,0:3:0:0:
13,220,20743,1,8,0:3:0:0:
13,220,20826,1,0,1:2:0:0:
109,209,20993,5,10,0:2:0:0:
13,333,21159,1,10,0:2:0:0:
109,209,21326,2,0,L|298:263,1,160,2|2,0:2|0:2,0:2:0:0:
274,262,21743,1,2,0:2:0:0:
284,271,21826,2,0,L|306:187,1,80,10|0,0:2|0:2,0:2:0:0:
252,21,22159,1,2,1:2:0:0:
204,86,22326,1,2,0:2:0:0:
274,122,22493,1,10,0:2:0:0:
330,60,22659,5,2,0:2:0:0:
125,0,22993,1,2,0:2:0:0:
125,0,23076,1,2,0:2:0:0:
125,0,23159,2,0,P|115:41|104:101,1,80,10|2,0:2|0:2,0:0:0:0:
19,230,23493,2,0,P|8:180|-9:132,1,80,2|0,1:2|0:2,0:2:0:0:
208,202,23826,1,10,0:2:0:0:
195,301,23993,1,0,0:2:0:0:
121,249,24159,5,2,1:2:0:0:
121,249,24493,2,0,L|296:302,1,160,10|2,0:2|1:2,0:2:0:0:
354,233,24993,1,0,0:2:0:0:
354,233,25159,1,10,0:2:0:0:
469,337,25326,2,0,P|518:257|503:175,1,160,2|0,0:2|0:2,0:2:0:0:
356,64,25826,1,10,0:2:0:0:
341,154,25993,1,2,0:2:0:0:
341,154,26076,1,8,0:2:0:0:
341,154,26159,1,0,1:2:0:0:
448,93,26326,5,8,0:2:0:0:
248,154,26493,2,0,L|154:133,1,80,10|8,0:2|0:2,0:2:0:0:
87,125,26743,1,8,0:2:0:0:
84,139,26826,2,0,P|150:127|195:31,2,160,6|8|0,1:2|0:2|1:2,0:2:0:0:
0,63,36993,6,8,L|13:113,1,40,8|8,0:2|0:2,0:2:0:0:
81,128,37159,2,8,L|66:185,1,40,8|8,0:2|0:2,0:2:0:0:
9,216,37326,2,8,L|19:273,1,40,8|8,0:2|0:2,0:2:0:0:
95,308,37493,6,0,P|153:308|197:269,1,120,4|2,1:1|0:2,0:0:0:0:
203,261,37826,2,0,P|235:264|291:288,1,80,10|2,0:2|0:2,0:0:0:0:
412,380,38159,2,0,P|392:335|388:290,1,80,2|0,1:2|0:2,0:2:0:0:
425,119,38493,1,8,0:2:0:0:
487,187,38659,6,0,P|410:206|339:173,1,160,2|0,0:2|0:2,0:2:0:0:
177,90,39159,2,0,P|216:80|262:69,1,80,10|0,0:2|0:2,0:2:0:0:
298,288,39493,1,2,1:2:0:0:
298,288,39826,2,0,P|258:297|213:309,1,80,8|0,0:2|0:2,0:2:0:0:
103,208,40159,5,2,1:2:0:0:
182,194,40326,1,2,0:2:0:0:
182,194,40409,1,2,0:2:0:0:
182,194,40493,1,10,0:2:0:0:
126,283,40659,1,2,0:2:0:0:
19,210,40826,2,0,P|9:166|-2:122,1,80,2|2,1:2|0:2,0:0:0:0:
127,0,41159,1,8,0:2:0:0:
54,37,41326,6,0,P|118:82|196:76,1,160,2|0,0:2|0:2,0:2:0:0:
388,98,41826,2,0,P|347:105|298:128,1,80,10|8,0:2|0:3,0:2:0:0:
313,130,42076,1,8,0:3:0:0:
314,139,42159,1,0,1:2:0:0:
401,210,42326,1,10,0:2:0:0:
486,106,42493,2,0,P|478:67|471:27,1,80,10|0,0:2|0:2,0:2:0:0:
304,222,42826,6,0,P|262:229|221:240,1,80,4|2,1:2|0:2,0:0:0:0:
154,201,43076,1,2,0:2:0:0:
148,199,43159,2,0,P|140:157|133:113,1,80,10|0,0:2|0:2,0:2:0:0:
326,6,43493,1,2,1:2:0:0:
369,89,43659,1,2,0:2:0:0:
288,125,43826,1,10,0:2:0:0:
238,37,43993,5,2,0:2:0:0:
400,220,44326,1,2,0:2:0:0:
481,175,44493,2,0,P|492:129|503:84,1,80,10|0,0:2|0:2,0:2:0:0:
291,207,44826,2,0,P|252:199|213:184,1,80,2|0,1:2|0:2,0:2:0:0:
374,384,45159,2,0,P|383:345|395:307,1,80,10|0,0:2|0:2,0:2:0:0:
273,112,45493,5,2,1:2:0:0:
67,184,45743,1,2,0:2:0:0:
56,189,45826,2,0,P|27:133|57:60,1,120,10|0,0:2|0:2,0:2:0:0:
39,80,46159,2,0,P|80:95|118:106,1,80,2|2,1:2|0:2,0:2:0:0:
259,275,46493,1,10,0:2:0:0:
261,191,46659,6,0,P|185:207|150:276,1,160,2|0,0:2|0:2,0:2:0:0:
334,384,47159,2,0,P|343:345|356:301,1,80,10|8,0:2|0:2,0:2:0:0:
356,291,47409,1,8,0:2:0:0:
340,295,47493,1,8,0:2:0:0:
263,341,47659,1,8,0:2:0:0:
434,368,47826,1,8,0:2:0:0:
434,368,48159,5,2,0:2:0:0:
1,360,52659,5,2,0:3:0:0:
67,291,52826,1,8,0:3:0:0:
0,181,52993,1,4,0:3:0:0:
0,181,53159,1,2,0:3:0:0:
0,181,53326,6,0,P|80:203|172:229,1,160,4|0,1:1|1:2,0:2:0:0:
265,341,53826,2,0,P|274:303|287:264,1,80,8|2,0:2|0:2,0:0:0:0:
286,69,54159,1,2,1:2:0:0:
160,119,54326,2,0,P|199:135|245:157,1,80,0|8,1:2|0:2,0:0:0:0:
497,128,54659,6,0,P|405:125|350:191,1,160,4|0,1:2|1:2,0:2:0:0:
382,321,55159,1,10,0:2:0:0:
475,297,55326,2,0,P|481:265|496:207,1,80,2|0,0:2|1:2,0:2:0:0:
290,74,55659,2,0,L|266:169,1,80,2|8,1:2|0:2,0:0:0:0:
104,319,55993,6,0,P|30:293|0:222,1,160,4|0,1:2|1:2,0:2:0:0:
32,62,56493,2,0,P|67:75|113:94,1,80,8|0,0:2|0:2,0:2:0:0:
188,217,56826,1,2,1:2:0:0:
86,196,56993,1,2,0:2:0:0:
209,75,57159,1,10,0:2:0:0:
330,161,57326,6,0,P|419:155|472:89,1,160,6|8,1:2|0:3,0:2:0:0:
461,96,57743,1,8,0:3:0:0:
456,88,57826,1,8,0:2:0:0:
331,254,57993,6,8,L|348:308,1,40,8|8,0:3|0:3,0:3:0:0:
430,365,58159,2,0,P|478:322|477:262,1,120,14|0,0:2|0:0,0:2:0:0:
474,261,58493,2,0,L|410:245,3,40,8|8|8|8,0:2|0:2|0:2|0:2,0:0:0:0:
343,292,58826,6,0,L|201:340,1,136.000002593994,6|0,1:1|0:0,0:1:0:0:
157,210,59159,2,0,L|27:253,1,136.000002593994,10|0,0:1|0:0,0:0:0:0:
248,18,59493,2,0,L|106:66,1,136.000002593994,2|0,1:1|0:0,0:0:0:0:
56,18,59826,1,10,0:1:0:0:
214,121,59993,6,0,B|306:129|296:185|392:189,1,191.999994140625,2|0,0:2|0:2,0:2:0:0:
473,115,60493,2,0,P|459:73|446:14,1,95.9999970703126,10|0,0:2|0:2,0:2:0:0:
215,215,60826,1,2,1:2:0:0:
215,215,61159,2,0,P|228:256|242:316,1,95.9999970703126,8|2,0:2|0:2,0:0:0:0:
512,348,61493,6,0,P|473:280|396:269,1,143.999995605469,2|0,1:2|0:0,0:2:0:0:
413,265,61826,2,0,P|435:216|445:164,1,95.9999970703126,10|0,0:2|0:2,0:2:0:0:
389,39,62159,1,2,1:2:0:0:
265,122,62326,1,2,0:2:0:0:
365,182,62493,1,10,0:2:0:0:
277,42,62659,6,0,P|175:72|131:152,1,191.999994140625,2|0,0:2|0:2,0:2:0:0:
0,0,63159,2,0,P|45:18|99:37,1,95.9999970703126,10|0,0:2|0:2,0:2:0:0:
190,238,63493,1,2,1:2:0:0:
190,238,63826,1,10,0:2:0:0:
0,244,63993,2,0,P|47:226|103:210,1,95.9999970703126,10|4,0:2|1:2,0:2:0:0:
274,331,64326,5,2,0:2:0:0:
274,331,64409,1,2,0:2:0:0:
274,331,64493,2,0,P|226:348|171:365,1,95.9999970703126,10|2,0:2|0:2,0:0:0:0:
255,111,64826,1,2,1:2:0:0:
365,215,64993,1,2,0:2:0:0:
244,236,65159,1,10,0:2:0:0:
354,94,65326,6,0,P|414:103|476:223,1,191.999994140625,2|2,0:2|0:2,0:2:0:0:
391,300,65826,1,8,0:2:0:0:
477,208,65993,1,2,0:2:0:0:
391,300,66159,1,2,1:2:0:0:
483,384,66326,2,0,P|511:346|508:297,1,95.9999970703126,2|8,0:2|0:2,0:2:0:0:
322,191,66659,6,0,P|227:206|126:246,1,191.999994140625,2|0,0:2|0:2,0:2:0:0:
12,144,67159,1,8,0:2:0:0:
83,58,67326,2,0,P|116:90|120:137,1,95.9999970703126,2|0,0:2|1:2,0:2:0:0:
65,348,67659,2,0,P|31:315|27:268,1,95.9999970703126,2|8,0:2|0:2,0:2:0:0:
292,104,67993,6,0,B|361:125|361:125|381:167|381:167|474:203,1,191.999994140625,6|0,0:1|0:2,0:2:0:0:
475,106,68493,1,8,0:1:0:0:
346,251,68659,1,4,1:1:0:0:
475,106,68826,1,2,1:1:0:0:
97,75,69159,6,0,L|115:133,1,47.9999985351563,8|8,0:2|0:2,0:0:0:0:
157,222,69326,2,0,L|175:164,1,47.9999985351563,8|8,0:2|0:2,0:0:0:0:
242,117,69493,6,0,B|134:122|159:166|52:186,1,204.000003890991,6|0,1:1|0:2,0:2:0:0:
44,176,69826,2,0,B|151:156|126:112|234:107,1,204.000003890991,10|0,0:1|0:2,0:2:0:0:
317,32,70159,2,0,L|338:126,1,95.9999970703126,2|0,1:1|0:2,0:2:0:0:
303,323,70493,5,10,0:2:0:0:
224,302,70659,2,0,P|288:234|381:242,1,191.999994140625,2|0,0:2|0:2,0:2:0:0:
512,336,71159,2,0,P|465:347|411:369,1,95.9999970703126,10|2,0:2|0:2,0:0:0:0:
368,146,71493,1,2,1:2:0:0:
368,146,71826,2,0,P|414:134|469:113,1,95.9999970703126,10|2,0:2|0:2,0:0:0:0:
162,21,72159,6,0,P|98:66|85:134,1,143.999995605469,2|0,1:2|0:2,0:2:0:0:
85,127,72493,2,0,P|130:142|182:161,1,95.9999970703126,10|0,0:2|0:2,0:2:0:0:
367,68,72826,1,2,1:2:0:0:
263,23,72993,1,2,0:2:0:0:
267,157,73159,1,10,0:2:0:0:
385,189,73326,6,0,P|474:146|487:49,1,191.999994140625,2|0,0:2|0:2,0:2:0:0:
298,263,73826,2,0,P|305:293|319:373,1,95.9999970703126,10|0,0:2|0:2,0:2:0:0:
130,210,74159,1,2,1:2:0:0:
130,210,74493,1,10,0:2:0:0:
295,80,74659,2,0,L|189:106,1,95.9999970703126,10|4,0:2|1:2,0:2:0:0:
18,0,74993,5,2,0:2:0:0:
18,0,75076,1,2,0:2:0:0:
18,0,75159,2,0,L|40:104,1,95.9999970703126,10|2,0:2|0:2,0:0:0:0:
88,331,75493,1,2,1:2:0:0:
0,239,75659,1,2,0:2:0:0:
181,161,75826,1,10,0:2:0:0:
195,280,75993,6,0,P|108:247|85:157,1,191.999994140625,2|2,0:2|0:2,0:2:0:0:
203,19,76493,1,8,0:2:0:0:
271,107,76659,1,2,0:2:0:0:
334,23,76826,1,2,1:2:0:0:
146,89,76993,2,0,P|101:77|46:56,1,95.9999970703126,2|8,0:2|0:2,0:2:0:0:
206,330,77326,6,0,P|285:280|308:189,1,191.999994140625,2|0,0:2|0:2,0:2:0:0:
224,203,77826,1,8,0:2:0:0:
360,307,77993,2,0,P|404:294|473:278,1,95.9999970703126,2|0,0:2|1:2,0:2:0:0:
198,110,78326,2,0,P|149:125|83:134,1,95.9999970703126,2|8,0:2|0:2,0:2:0:0:
108,384,78659,5,6,0:1:0:0:
303,106,78993,1,8,0:2:0:0:
303,106,79076,1,8,0:2:0:0:
303,106,79159,1,8,0:2:0:0:
360,195,79326,1,8,0:3:0:0:
456,39,79493,1,10,0:2:0:0:
456,39,79826,6,0,L|432:33,1,23.9999992675781,2|2,0:2|0:2,0:2:0:0:
161,333,80159,6,0,P|122:344|63:370,1,88.000002685547,4|2,1:2|0:2,0:0:0:0:
66,359,80409,1,2,0:2:0:0:
57,355,80493,2,0,P|40:309|31:263,1,88.000002685547,10|0,0:2|0:2,0:2:0:0:
218,203,80826,2,0,P|234:248|242:294,2,88.000002685547,2|2|8,1:2|0:2|0:2,0:0:0:0:
30,139,81326,5,2,0:2:0:0:
30,139,81409,1,2,0:2:0:0:
30,139,81493,2,0,P|75:127|128:104,1,88.000002685547,2|0,1:2|0:2,0:2:0:0:
319,0,81826,2,0,P|270:11|230:27,1,88.000002685547,10|2,0:2|0:2,0:0:0:0:
218,203,82159,1,2,1:2:0:0:
325,119,82326,1,2,0:2:0:0:
234,24,82493,1,10,0:2:0:0:
310,233,82659,6,0,P|386:257|488:293,1,176.000005371094,2|2,0:2|0:2,0:0:0:0:
512,151,83159,1,10,0:2:0:0:
416,171,83326,1,0,0:2:0:0:
476,288,83493,1,2,1:2:0:0:
416,171,83659,2,0,L|446:70,1,88.000002685547,2|8,0:2|0:2,0:2:0:0:
216,230,83993,5,2,0:2:0:0:
216,230,84076,1,2,0:2:0:0:
216,230,84159,2,0,P|172:213|130:202,1,88.000002685547,2|0,1:2|0:2,0:2:0:0:
92,21,84493,2,0,P|134:32|187:44,1,88.000002685547,10|2,0:2|0:2,0:0:0:0:
20,232,84826,2,0,P|9:182|-1:138,1,88.000002685547,2|2,1:2|0:2,0:0:0:0:
267,147,85159,5,12,0:2:0:0:
155,307,85326,1,8,0:2:0:0:
132,202,85493,5,4,1:2:0:0:
299,278,85659,1,2,0:2:0:0:
299,278,85743,1,2,0:2:0:0:
299,278,85826,2,0,P|343:263|394:253,1,88.000002685547,10|0,0:2|0:2,0:2:0:0:
334,52,86159,2,0,P|298:62|245:72,2,88.000002685547,2|2|8,1:2|0:2|0:2,0:0:0:0:
482,156,86659,5,2,0:2:0:0:
482,156,86743,1,2,0:2:0:0:
482,156,86826,2,0,P|495:194|512:241,1,88.000002685547,2|0,1:2|0:2,0:2:0:0:
323,379,87159,2,0,P|310:338|298:294,1,88.000002685547,10|2,0:2|0:2,0:0:0:0:
342,155,87493,1,2,1:2:0:0:
420,236,87659,1,2,0:2:0:0:
298,294,87826,1,10,0:2:0:0:
177,167,87993,6,0,B|194:73|237:88|243:6,1,176.000005371094,2|2,0:2|0:2,0:0:0:0:
164,3,88493,1,10,0:2:0:0:
284,130,88659,1,0,0:2:0:0:
342,43,88826,1,2,1:2:0:0:
176,97,88993,2,0,P|134:82|92:69,1,88.000002685547,2|8,0:2|0:2,0:0:0:0:
68,373,89326,6,0,P|159:338|180:255,1,176.000005371094,4|0,1:2|1:2,0:2:0:0:
20,138,89826,1,8,0:2:0:0:
16,234,89993,2,0,L|36:290,3,44.0000013427735,8|8|4|4,0:3|0:3|0:3|0:3,0:0:0:0:
106,241,90326,1,8,0:2:0:0:
106,241,90409,1,8,0:0:0:0:
106,241,90493,2,0,L|86:185,3,44.0000013427735,8|8|8|8,0:2|0:3|0:3|0:3,0:0:0:0:
131,132,90826,5,6,0:2:0:0:
147,363,95493,5,0,1:2:0:0:
233,276,95659,1,8,0:2:0:0:
91,217,95826,1,8,0:2:0:0:
240,115,95993,1,2,0:2:0:0:
153,115,96159,6,0,L|173:206,1,88.000002685547,4|2,1:2|0:2,0:0:0:0:
357,342,96493,1,10,0:2:0:0:
357,342,96659,1,2,0:2:0:0:
440,278,96826,2,0,P|405:270|353:249,1,88.000002685547,0|0,1:2|0:2,0:2:0:0:
221,347,97159,1,8,0:2:0:0:
118,328,97326,6,0,P|63:261|66:175,1,176.000005371094,2|2,0:2|0:2,0:0:0:0:
76,168,97743,1,2,0:2:0:0:
85,167,97826,2,0,P|121:179|182:197,1,88.000002685547,10|0,0:2|0:2,0:2:0:0:
326,124,98159,2,0,P|339:78|343:31,1,88.000002685547,2|2,1:2|0:2,0:0:0:0:
126,92,98493,2,0,P|130:48|142:6,1,88.000002685547,10|2,0:2|0:2,0:0:0:0:
234,70,98826,5,2,1:2:0:0:
234,70,99159,2,0,P|211:150|201:261,1,176.000005371094,10|2,0:2|1:2,0:0:0:0:
287,360,99659,1,2,0:2:0:0:
338,255,99826,1,10,0:2:0:0:
168,334,99993,6,0,P|85:321|24:242,1,176.000005371094,2|2,0:2|0:2,0:2:0:0:
0,156,100493,1,10,0:2:0:0:
141,122,100659,1,8,0:2:0:0:
141,122,100743,1,8,0:2:0:0:
141,122,100826,1,2,1:2:0:0:
105,201,100993,1,8,0:2:0:0:
33,86,101159,2,0,P|43:37|50:-12,1,88.000002685547,8|8,0:2|0:2,0:0:0:0:
61,1,101409,1,8,0:2:0:0:
61,1,101493,6,0,L|210:32,1,132.00000402832,2|2,0:2|0:2,0:2:0:0:
283,91,102159,2,0,L|424:56,1,132.00000402832,2|0,0:2|0:2,0:2:0:0:
500,128,102826,2,0,L|485:184,1,44.0000013427735,4|0,0:3|0:2,0:2:0:0:
419,318,103159,2,0,L|378:195,1,120.000004577637,4|4,0:3|0:3,0:2:0:0:
299,165,103659,1,4,0:3:0:0:
299,165,103826,1,4,0:3:0:0:
223,262,103993,2,0,L|144:292,1,75.9999979705811,4|4,0:3|0:3,0:0:0:0:
21,189,104326,2,0,L|33:132,2,37.9999989852906,2|2|4,0:2|0:2|0:3,0:2:0:0:
115,197,104659,5,2,0:2:0:0:
53,348,104826,2,0,L|33:274,1,75.9999979705811,4|2,0:3|0:2,0:0:0:0:
197,130,105159,1,4,0:3:0:0:
197,130,105326,2,0,L|225:215,1,75.9999979705811,2|4,0:2|0:3,0:0:0:0:
396,297,105659,2,0,L|425:202,1,75.9999979705811,6|4,0:3|0:3,0:2:0:0:
436,15,105993,5,12,1:2:0:0:
191,353,106326,5,12,1:2:0:0:
191,353,106659,6,0,P|265:303|332:318,1,160,6|0,1:1|1:2,0:2:0:0:
427,380,107159,1,8,0:2:0:0:
329,316,107326,1,2,0:2:0:0:
455,263,107493,2,0,L|472:184,1,80,2|0,1:2|1:2,0:0:0:0:
435,98,107826,1,8,0:2:0:0:
268,156,107993,6,0,P|197:133|116:104,1,160,6|0,1:2|1:2,0:2:0:0:
0,195,108493,1,10,0:2:0:0:
45,263,108659,2,0,L|132:230,1,80,2|0,0:2|1:2,0:0:0:0:
41,8,108993,2,0,L|16:100,1,80,2|8,1:2|0:2,0:0:0:0:
286,256,109326,6,0,P|353:215|364:130,1,160,6|0,1:2|1:2,0:2:0:0:
274,50,109826,2,0,L|189:78,1,80,10|0,0:2|0:2,0:2:0:0:
140,287,110159,1,2,1:2:0:0:
232,191,110326,1,2,1:2:0:0:
109,164,110493,1,10,0:2:0:0:
300,303,110659,6,0,L|466:352,1,160,6|8,1:2|0:3,0:2:0:0:
464,340,111076,1,8,0:3:0:0:
471,329,111159,1,8,0:2:0:0:
341,204,111326,6,4,L|349:164,1,40,4|4,0:3|0:3,0:3:0:0:
423,117,111493,2,0,P|488:136|500:198,1,120,12|0,0:2|0:0,0:2:0:0:
512,200,111826,2,0,L|462:216,3,40,8|8|8|8,0:2|0:2|0:2|0:2,0:0:0:0:
408,117,112159,6,0,L|434:-1,1,120.000004577637,6|0,1:1|0:0,0:2:0:0:
287,211,112493,2,0,L|260:93,1,120.000004577637,10|0,0:1|0:0,0:2:0:0:
99,335,112826,2,0,L|125:217,1,120.000004577637,2|0,1:1|0:0,0:2:0:0:
64,169,113159,1,10,1:1:0:0:
247,297,113326,6,0,P|339:298|394:220,1,191.999994140625,2|2,0:2|0:2,0:2:0:0:
506,76,113826,2,0,L|414:107,1,95.9999970703126,10|2,0:2|0:2,0:0:0:0:
189,14,114159,1,2,1:2:0:0:
189,14,114493,2,0,L|213:112,1,95.9999970703126,10|2,0:2|0:2,0:0:0:0:
378,280,114826,6,0,P|431:241|515:260,1,143.999995605469,2|0,1:2|0:2,0:2:0:0:
504,252,115159,2,0,P|490:291|477:357,1,95.9999970703126,10|0,0:2|0:2,0:2:0:0:
293,232,115493,1,2,1:2:0:0:
334,107,115659,1,2,0:2:0:0:
436,156,115826,1,10,0:2:0:0:
223,161,115993,6,0,P|165:102|182:-6,1,191.999994140625,2|0,0:2|0:2,0:2:0:0:
356,13,116493,2,0,P|343:60|330:121,1,95.9999970703126,10|0,0:2|0:2,0:2:0:0:
52,62,116826,1,2,1:2:0:0:
52,62,117159,1,10,0:2:0:0:
198,189,117326,2,0,P|181:140|170:86,1,95.9999970703126,10|4,0:2|1:2,0:2:0:0:
0,153,117659,5,2,0:2:0:0:
0,153,117743,1,2,0:2:0:0:
0,153,117826,2,0,P|18:206|29:255,1,95.9999970703126,10|2,0:2|0:2,0:0:0:0:
196,378,118159,1,2,1:2:0:0:
289,281,118326,1,2,0:2:0:0:
164,260,118493,1,10,0:2:0:0:
322,384,118659,6,0,P|396:317|399:224,1,191.999994140625,2|2,0:2|0:2,0:2:0:0:
300,160,119159,1,8,0:2:0:0:
400,229,119326,1,2,0:2:0:0:
300,160,119493,1,2,1:2:0:0:
357,57,119659,2,0,P|397:91|403:137,1,95.9999970703126,2|8,0:2|0:2,0:0:0:0:
188,303,119993,6,0,P|109:245|100:146,1,191.999994140625,2|0,0:2|0:2,0:2:0:0:
165,5,120493,1,8,0:2:0:0:
237,44,120659,2,0,P|221:86|209:148,1,95.9999970703126,2|0,0:2|1:2,0:2:0:0:
22,271,120993,2,0,P|14:220|-7:160,1,95.9999970703126,2|8,0:2|0:2,0:2:0:0:
336,193,121326,6,0,B|382:189|428:210|428:210|479:197|512:133,1,191.999994140625,6|0,0:1|0:2,0:2:0:0:
461,92,121826,1,8,0:1:0:0:
382,284,121993,1,4,0:1:0:0:
461,92,122159,1,2,1:1:0:0:
51,181,122493,5,8,0:2:0:0:
51,181,122576,1,8,0:2:0:0:
51,181,122659,1,8,0:2:0:0:
51,181,122743,1,8,0:2:0:0:
51,181,122826,2,0,P|135:158|169:78,1,180.000006866455,6|0,1:1|0:2,0:2:0:0:
159,75,123159,2,0,P|115:149|155:225,1,180.000006866455,10|0,0:1|0:2,0:2:0:0:
183,303,123493,2,0,P|234:283|283:270,1,95.9999970703126,2|2,1:1|0:2,0:0:0:0:
502,295,123826,5,10,0:2:0:0:
413,379,123993,2,0,P|377:294|423:214,1,191.999994140625,2|0,0:2|0:2,0:2:0:0:
467,11,124493,2,0,P|485:66|497:111,1,95.9999970703126,10|2,0:2|0:2,0:0:0:0:
241,175,124826,1,2,1:2:0:0:
241,175,125159,2,0,P|222:119|211:75,1,95.9999970703126,10|2,0:2|0:2,0:0:0:0:
467,241,125493,6,0,P|397:234|343:279,1,143.999995605469,2|0,1:2|0:0,0:2:0:0:
344,280,125826,2,0,P|356:320|373:386,1,95.9999970703126,10|0,0:2|0:0,0:0:0:0:
505,159,126159,1,2,1:2:0:0:
379,77,126326,1,2,0:2:0:0:
337,174,126493,1,10,0:2:0:0:
466,79,126659,6,0,P|358:62|272:34,1,191.999994140625,2|0,0:2|0:2,0:2:0:0:
153,198,127159,2,0,L|47:233,1,95.9999970703126,10|0,0:2|0:2,0:2:0:0:
125,63,127493,1,2,1:2:0:0:
125,63,127826,1,10,0:2:0:0:
248,264,127993,2,0,L|263:169,1,95.9999970703126,10|4,0:2|1:2,0:2:0:0:
18,39,128326,5,2,0:2:0:0:
18,39,128409,1,2,0:0:0:0:
18,39,128493,2,0,L|0:139,1,95.9999970703126,10|2,0:2|0:2,0:0:0:0:
280,50,128826,2,0,P|221:34|177:20,1,95.9999970703126,2|2,1:2|0:2,0:0:0:0:
148,202,129159,1,8,0:2:0:0:
256,159,129326,6,0,P|346:181|385:265,1,191.999994140625,2|2,0:2|0:2,0:2:0:0:
272,378,129826,1,8,0:2:0:0:
385,265,129993,1,2,0:2:0:0:
399,384,130159,1,0,1:2:0:0:
204,298,130326,2,0,P|250:285|298:265,1,95.9999970703126,2|8,0:2|0:2,0:2:0:0:
462,136,130659,6,0,P|351:123|311:45,1,191.999994140625,2|0,0:2|0:2,0:2:0:0:
386,29,131159,1,8,0:2:0:0:
496,219,131326,2,0,P|480:263|465:325,1,95.9999970703126,2|0,0:2|1:2,0:2:0:0:
207,93,131659,2,0,P|222:42|236:-4,1,95.9999970703126,2|8,0:2|0:2,0:2:0:0:
497,57,131993,5,6,0:1:0:0:
163,305,132326,1,8,0:2:0:0:
163,305,132409,1,8,0:2:0:0:
163,305,132493,1,8,0:2:0:0:
249,231,132659,1,8,0:3:0:0:
120,136,132826,2,0,L|98:53,1,71.9999978027344,10|2,0:2|0:2,0:2:0:0:
208,36,133159,2,0,L|230:126,1,71.9999978027344,2|2,0:1|0:2,0:0:0:0:
10,314,133493,6,0,P|60:238|177:237,2,191.999994140625,4|10|2,1:1|0:1|1:1,0:1:0:0:
112,344,134326,1,2,0:1:0:0:
2,187,134493,1,10,0:1:0:0:
133,131,134659,6,0,P|201:152|329:190,1,191.999994140625,2|0,0:1|0:1,0:1:0:0:
512,55,135159,2,0,P|469:45|403:23,1,95.9999970703126,2|2,1:1|0:1,0:0:0:0:
406,24,135409,1,2,0:1:0:0:
391,21,135493,2,0,P|351:52|355:103,1,95.9999970703126,2|0,1:1|0:1,0:1:0:0:
443,281,135826,5,10,0:1:0:0:
512,220,135993,2,0,P|416:185|341:239,1,191.999994140625,2|2,0:1|0:1,0:1:0:0:
187,218,136493,2,0,L|212:320,1,95.9999970703126,10|2,0:1|0:1,0:0:0:0:
313,384,136826,2,0,B|354:331|354:331|334:282|349:225,1,143.999995605469,2|0,1:1|0:0,0:0:0:0:
343,255,137159,1,10,0:1:0:0:
201,310,137326,6,0,B|123:304|123:304|94:336|94:336|1:371,1,191.999994140625,2|2,0:1|0:1,0:1:0:0:
0,168,137826,1,10,0:1:0:0:
71,130,137993,2,0,B|113:154|113:154|108:201,1,95.9999970703126,2|0,0:1|1:1,0:1:0:0:
19,268,138326,1,2,0:1:0:0:
108,201,138493,1,10,0:1:0:0:
179,363,138659,1,10,0:1:0:0:
101,304,138826,1,6,1:1:0:0:
101,304,139159,5,10,0:2:0:0:
133,278,139243,1,2,0:2:0:0:
177,264,139326,1,2,0:2:0:0:
229,277,139409,1,2,0:2:0:0:
264,309,139493,1,2,1:2:0:0:
286,317,139576,1,2,0:2:0:0:
311,313,139659,1,2,0:2:0:0:
322,303,139743,1,2,0:2:0:0:
329,291,139826,2,0,L|318:233,3,47.9999985351563,10|2|2|2,0:2|0:2|0:2|0:2,0:0:0:0:
377,180,140159,6,0,L|388:122,3,47.9999985351563,2|2|2|2,1:3|0:3|0:3|0:3,0:3:0:0:
319,77,140493,2,0,L|302:20,3,47.9999985351563,8|2|2|2,0:2|0:3|0:3|0:3,0:3:0:0:
384,0,140826,2,0,L|474:30,1,95.9999970703126,2|0,1:3|0:2,0:2:0:0:
480,40,141076,1,2,0:2:0:0:
484,47,141159,2,0,L|468:110,1,47.9999985351563,10|2,0:2|0:2,0:2:0:0:
377,180,141326,6,0,B|321:193|271:169|271:169|244:129|182:129,1,191.999994140625,2|0,0:2|0:2,0:2:0:0:
88,263,141826,2,0,P|135:240|187:229,1,95.9999970703126,10|2,0:2|0:2,0:0:0:0:
99,4,142159,2,0,B|54:37|54:37|30:82|52:150,1,143.999995605469,2|0,1:1|0:2,0:2:0:0:
50,125,142493,1,10,0:2:0:0:
265,87,142659,6,0,B|336:106|336:106|365:152|365:152|440:175,1,191.999994140625,6|0,1:1|0:2,0:2:0:0:
505,5,143159,2,0,B|453:3|453:3|405:59,2,95.9999970703126,8|4|0,0:2|0:2|1:2,0:2:0:0:
442,215,143659,6,0,L|417:145,3,47.9999985351563,8|8|8|8,0:3|0:3|0:2|0:2,0:0:0:0:
487,110,143993,1,8,0:3:0:0:
487,110,144076,1,8,0:3:0:0:
487,110,144159,2,0,P|424:151|266:161,2,223.999993164063,2|2|4,0:2|0:2|0:2,0:2:0:0:
323,361,156159,5,4,1:2:0:0:
141,284,157326,1,2,0:2:0:0:
363,176,158826,5,4,1:2:0:0:
141,147,159493,1,4,1:2:0:0:
424,47,160159,1,4,1:2:0:0:
67,293,160826,1,4,1:2:0:0:
225,15,161493,5,4,1:2:0:0:
286,183,161659,1,8,0:2:0:0:
351,76,161826,1,8,0:2:0:0:
199,118,161993,1,8,0:2:0:0:
199,118,162076,1,8,0:2:0:0:
199,118,162159,2,0,L|278:93,2,55.9999982910157,8|8|4,0:2|0:3|0:3,0:0:0:0:
35,306,162659,6,0,L|8:178,1,111.999996582031,6|8,1:2|0:2,0:2:0:0:
51,123,163159,1,0,1:2:0:0:
226,236,163326,5,8,0:2:0:0:
226,236,163493,1,8,0:2:0:0:
140,358,163826,6,0,L|71:383,1,55.9999982910157,2|2,0:2|0:2,0:0:0:0:
187,97,164159,6,0,P|261:101|310:156,1,151.999995941162,6|0,1:1|0:0,0:1:0:0:
483,75,164493,2,0,P|517:141|494:212,1,151.999995941162,10|0,0:1|0:0,0:0:0:0:
251,384,164826,2,0,P|292:322|365:307,1,151.999995941162,2|0,1:1|0:0,0:0:0:0:
408,367,165159,1,10,0:1:0:0:
256,234,165326,6,0,L|298:36,1,191.999994140625,2|0,0:2|0:2,0:2:0:0:
128,0,165826,2,0,L|153:103,1,95.9999970703126,10|0,0:2|0:2,0:2:0:0:
369,216,166159,1,2,1:2:0:0:
369,216,166493,2,0,L|482:188,1,95.9999970703126,10|2,0:2|0:2,0:0:0:0:
281,48,166826,6,0,P|199:70|140:98,1,143.999995605469,2|0,1:2|0:0,0:2:0:0:
146,103,167159,2,0,P|160:158|164:207,1,95.9999970703126,10|0,0:2|0:2,0:2:0:0:
72,384,167493,1,2,1:2:0:0:
0,295,167659,1,2,0:2:0:0:
164,197,167826,1,10,0:2:0:0:
97,303,167993,6,0,P|73:224|56:106,1,191.999994140625,2|0,0:2|0:2,0:2:0:0:
218,0,168493,1,10,0:2:0:0:
314,70,168659,1,2,0:2:0:0:
225,156,168826,1,2,1:2:0:0:
225,156,169159,1,10,0:2:0:0:
325,304,169326,2,0,L|349:198,1,95.9999970703126,10|4,0:2|1:2,0:0:0:0:
102,148,169659,5,2,0:2:0:0:
102,148,169743,1,2,0:2:0:0:
102,148,169826,2,0,L|78:254,1,95.9999970703126,10|2,0:2|0:2,0:0:0:0:
228,380,170159,1,2,1:2:0:0:
223,237,170326,1,2,0:2:0:0:
104,338,170493,1,10,0:2:0:0:
317,328,170659,6,0,P|432:327|501:271,1,191.999994140625,2|2,0:2|0:2,0:2:0:0:
394,196,171159,1,8,0:2:0:0:
491,283,171326,1,2,0:2:0:0:
394,196,171493,1,2,1:2:0:0:
449,99,171659,2,0,P|485:129|490:182,1,95.9999970703126,2|8,0:2|0:2,0:2:0:0:
267,312,171993,6,0,P|179:282|71:257,1,191.999994140625,2|0,0:2|0:2,0:2:0:0:
72,47,172493,1,8,0:2:0:0:
185,62,172659,2,0,P|203:107|213:154,1,95.9999970703126,2|0,0:2|1:2,0:2:0:0:
82,259,172993,2,0,P|64:214|54:167,1,95.9999970703126,2|8,0:2|0:2,0:2:0:0:
371,7,173326,6,0,B|399:47|399:47|398:136|418:188,1,191.999994140625,6|0,0:1|0:2,0:2:0:0:
498,127,173826,1,8,0:2:0:0:
329,218,173993,1,4,0:2:0:0:
498,127,174159,1,2,1:2:0:0:
132,371,174493,6,0,L|112:308,1,47.9999985351563,8|8,0:2|0:2,0:0:0:0:
219,197,174659,2,0,L|243:254,1,47.9999985351563,8|8,0:2|0:2,0:0:0:0:
244,323,174826,6,0,P|144:304|117:205,1,215.999993408203,6|0,1:1|0:2,0:2:0:0:
124,198,175159,2,0,P|150:296|251:315,1,215.999993408203,10|0,0:1|0:2,0:2:0:0:
327,266,175493,2,0,P|338:214|349:166,1,95.9999970703126,2|0,1:1|0:2,0:2:0:0:
249,0,175826,5,10,0:2:0:0:
187,80,175993,2,0,P|279:84|339:13,1,191.999994140625,2|0,0:2|0:2,0:2:0:0:
156,185,176493,2,0,P|112:195|55:215,1,95.9999970703126,10|2,0:2|0:2,0:0:0:0:
0,33,176826,1,2,1:2:0:0:
0,33,177159,2,0,P|43:22|101:3,1,95.9999970703126,10|2,0:2|0:2,0:0:0:0:
321,110,177493,6,0,P|368:118|463:156,1,143.999995605469,2|0,1:2|0:0,0:2:0:0:
464,149,177826,2,0,P|480:94|485:45,1,95.9999970703126,10|0,0:2|0:2,0:2:0:0:
245,266,178159,2,0,P|257:308|269:374,1,95.9999970703126,2|0,1:2|0:2,0:2:0:0:
387,271,178493,1,10,0:2:0:0:
276,186,178659,6,0,P|182:184|112:248,1,191.999994140625,2|0,0:2|0:2,0:2:0:0:
0,332,179159,2,0,P|48:347|106:376,1,95.9999970703126,10|0,0:2|0:2,0:2:0:0:
107,96,179493,1,2,1:2:0:0:
107,96,179826,1,10,0:2:0:0:
25,239,179993,2,0,L|-2:140,1,95.9999970703126,10|4,0:2|1:2,0:0:0:0:
212,64,180326,5,2,0:2:0:0:
212,64,180409,1,2,0:2:0:0:
212,64,180493,2,0,L|239:163,1,95.9999970703126,10|2,0:2|0:2,0:0:0:0:
222,329,180826,1,2,1:2:0:0:
133,253,180993,1,2,0:2:0:0:
237,157,181159,1,10,0:2:0:0:
330,234,181326,6,0,P|407:229|481:124,1,191.999994140625,2|2,0:2|0:2,0:2:0:0:
454,23,181826,1,8,0:2:0:0:
353,147,181993,1,2,0:2:0:0:
477,145,182159,1,2,1:2:0:0:
365,59,182326,2,0,P|317:49|261:31,1,95.9999970703126,2|8,0:2|0:2,0:2:0:0:
65,202,182659,6,0,P|106:134|210:125,1,191.999994140625,2|0,0:2|0:2,0:2:0:0:
354,266,183159,1,8,0:2:0:0:
277,343,183326,2,0,P|248:305|251:258,1,95.9999970703126,2|0,0:2|1:2,0:2:0:0:
460,188,183659,2,0,P|488:225|485:272,1,95.9999970703126,2|8,0:2|0:2,0:2:0:0:
126,177,183993,5,6,0:1:0:0:
411,346,184326,1,8,0:2:0:0:
411,346,184409,1,8,0:2:0:0:
411,346,184493,1,8,0:2:0:0:
341,219,184659,1,8,0:3:0:0:
229,363,184826,1,10,0:2:0:0:
229,363,185493,6,8,L|216:314,3,27.9999991455078,8|8|8|8,0:2|0:2|0:2|0:2,0:2:0:0:
162,278,185826,2,0,L|167:228,3,27.9999991455078,8|8|8|8,0:2|0:2|0:2|0:2,0:0:0:0:
238,190,186159,6,0,P|285:193|330:209,1,95.9999970703126,6|0,1:2|0:2,0:2:0:0:
92,360,186492,2,0,P|44:356|0:340,1,95.9999970703126,10|0,0:2|0:2,0:2:0:0:
69,106,186825,1,2,1:2:0:0:
69,106,186992,2,0,P|88:151|98:211,1,95.9999970703126,2|8,0:2|0:2,0:2:0:0:
304,296,187325,6,0,P|394:271|440:189,1,191.999994140625,2|2,0:2|0:2,0:2:0:0:
436,176,187742,1,2,0:2:0:0:
429,169,187825,2,0,P|390:156|333:143,1,95.9999970703126,10|2,0:2|0:2,0:0:0:0:
219,221,188159,1,2,1:2:0:0:
336,143,188325,1,2,0:2:0:0:
227,15,188492,1,10,0:2:0:0:
227,15,188825,6,0,P|220:54|207:115,1,95.9999970703126,2|0,1:2|0:2,0:2:0:0:
345,329,189159,2,0,P|352:285|365:229,1,95.9999970703126,10|0,0:2|0:2,0:2:0:0:
167,255,189492,1,2,1:2:0:0:
167,255,189659,2,0,P|120:242|73:234,1,95.9999970703126,2|8,0:2|0:2,0:2:0:0:
321,60,189992,6,0,P|427:84|456:167,1,191.999994140625,2|0,0:2|0:2,0:2:0:0:
324,384,190492,2,0,P|315:332|294:276,1,95.9999970703126,10|2,0:2|0:2,0:0:0:0:
343,182,190825,1,2,1:2:0:0:
440,260,190992,1,0,0:2:0:0:
300,291,191159,1,12,0:2:0:0:
456,153,191325,1,8,0:2:0:0:
250,112,191492,1,4,1:1:0:0:
250,112,191825,5,8,0:2:0:0:
331,0,191992,2,0,L|358:101,1,95.9999970703126,0|8,1:2|0:2,0:0:0:0:
250,315,192325,5,0,1:2:0:0:
178,184,192492,1,8,0:2:0:0:
283,227,192659,2,0,L|373:196,1,95.9999970703126,0|8,1:2|0:2,0:2:0:0:
211,107,192993,5,0,1:2:0:0:
118,275,193159,1,8,0:2:0:0:
9,92,193325,2,0,L|106:119,1,95.9999970703126,0|8,1:2|0:2,0:0:0:0:
42,190,193659,1,0,1:2:0:0:
249,2,193825,2,0,L|268:54,1,47.9999985351563,8|8,0:2|0:3,0:0:0:0:
218,251,193992,2,0,L|201:202,1,47.9999985351563,8|8,0:3|0:3,0:0:0:0:
329,125,194159,5,4,1:2:0:0:
74,287,194825,5,4,1:2:0:0:
411,365,195325,5,2,1:2:0:0:
411,365,196492,6,2,L|419:332,1,23.9999992675781,2|2,0:2|0:2,0:2:0:0:
119,133,196825,6,0,P|74:149|27:163,1,95.9999970703126,4|2,1:2|0:2,0:2:0:0:
19,173,197075,1,2,0:2:0:0:
12,183,197159,2,0,P|24:225|40:282,1,95.9999970703126,10|0,0:2|0:2,0:2:0:0:
237,233,197492,2,0,P|225:191|209:134,2,95.9999970703126,2|2|8,1:2|0:2|0:0,0:0:0:0:
104,382,197992,5,2,0:2:0:0:
104,382,198075,1,2,0:2:0:0:
104,382,198159,2,0,P|152:364|205:350,1,95.9999970703126,2|2,1:2|0:2,0:0:0:0:
354,203,198492,2,0,P|397:215|449:230,1,95.9999970703126,10|0,0:2|0:2,0:0:0:0:
394,381,198825,1,2,1:2:0:0:
326,293,198992,1,2,0:2:0:0:
446,229,199159,1,10,0:2:0:0:
289,380,199325,6,0,P|237:300|246:207,1,191.999994140625,2|2,0:2|0:2,0:2:0:0:
267,11,199825,2,0,P|285:63|295:114,1,95.9999970703126,10|2,0:2|0:2,0:0:0:0:
446,229,200159,1,2,1:2:0:0:
512,159,200325,2,0,P|475:128|428:129,1,95.9999970703126,2|8,0:2|0:2,0:2:0:0:
223,322,200658,5,2,0:2:0:0:
223,322,200742,1,2,0:2:0:0:
223,322,200825,2,0,P|275:309|322:295,1,95.9999970703126,2|0,1:2|0:2,0:2:0:0:
244,105,201158,2,0,P|198:118|152:131,1,95.9999970703126,10|2,0:2|0:2,0:0:0:0:
58,311,201492,1,2,1:2:0:0:
159,242,201658,1,0,0:2:0:0:
62,211,201825,5,12,0:2:0:0:
143,346,201992,1,8,0:2:0:0:
281,210,202158,5,4,1:1:0:0:
388,317,202325,1,2,0:2:0:0:
388,317,202408,1,2,0:2:0:0:
388,317,202492,2,0,L|295:341,1,95.9999970703126,8|2,0:2|0:2,0:0:0:0:
230,122,202825,2,0,L|323:98,2,95.9999970703126,2|2|8,1:2|0:2|0:2,0:0:0:0:
486,234,203325,5,2,0:2:0:0:
486,234,203408,1,2,0:2:0:0:
486,234,203492,2,0,P|496:180|511:128,1,95.9999970703126,2|2,1:2|0:2,0:0:0:0:
344,4,203825,2,0,P|333:57|319:110,1,95.9999970703126,10|2,0:2|0:2,0:0:0:0:
352,216,204158,1,2,1:2:0:0:
427,131,204325,1,2,0:2:0:0:
236,56,204492,1,10,0:2:0:0:
427,131,204658,1,2,0:2:0:0:
233,172,204825,6,0,L|173:187,2,47.9999985351563,0|2|0,1:2|0:2|3:3,0:0:0:0:
233,172,205325,1,0,0:2:0:0:
267,248,205492,2,0,L|205:266,2,47.9999985351563,2|2|0,3:2|0:2|0:0,0:0:0:0:
343,204,205992,1,2,0:2:0:0:
343,204,206075,1,2,0:2:0:0:
343,204,206158,2,0,L|327:137,1,47.9999985351563,2|2,3:2|0:2,0:0:0:0:
431,185,206492,2,0,L|417:124,2,47.9999985351563,2|2|2,3:2|0:2|3:2,0:0:0:0:
