osu file format v14

[General]
AudioFilename: audio.mp3
AudioLeadIn: 0
PreviewTime: 58076
Countdown: 0
SampleSet: Soft
StackLeniency: 0.7
Mode: 0
LetterboxInBreaks: 0
WidescreenStoryboard: 1

[Editor]
Bookmarks: 5159,26826,37493,53326,58826,80159,112159,133493,145493,156159,164159,186159,191492,196825
DistanceSpacing: 1
BeatDivisor: 4
GridSize: 4
TimelineZoom: 2.1

[Metadata]
Title:Genjitsu Escape
TitleUnicode:現実エスケープ
Artist:tephe
ArtistUnicode:tephe
Creator:AirinCat
Version:Hard
Source:
Tags:featured artist fa kagamine len 鏡音レン ren kyouren kittyadventure gokugohan12468 reality vocaloid japanese rock jrock Itovero saw mappers' guild mpg
BeatmapID:4158892
BeatmapSetID:1997470

[Difficulty]
HPDrainRate:4
CircleSize:3.8
OverallDifficulty:6
ApproachRate:8
SliderMultiplier:1.3
SliderTickRate:1

[Events]
//Background and Video events
0,0,"genjitsu.png",0,0
//Break Periods
2,27692,36243
2,48359,51909
2,91026,94743
2,145692,155409
//Storyboard Layer 0 (Background)
//Storyboard Layer 1 (Fail)
//Storyboard Layer 2 (Pass)
//Storyboard Layer 3 (Foreground)
//Storyboard Layer 4 (Overlay)
//Storyboard Sound Samples

[TimingPoints]
160,333.333333333333,4,2,1,60,1,0
5493,-90.9090909090909,4,2,1,60,0,0
16159,-100,4,2,1,50,0,0
37493,-100,4,2,1,60,0,0
58826,-76.9230769230769,4,2,1,70,0,0
59993,-83.3333333333333,4,2,1,70,0,0
69493,-76.9230769230769,4,2,1,70,0,0
70159,-83.3333333333333,4,2,1,70,0,0
80159,-90.9090909090909,4,2,1,60,0,0
95493,-90.9090909090909,4,2,1,60,0,0
101493,-181.818181818181,4,2,1,50,0,0
103159,-133.333333333333,4,2,1,50,0,0
103993,-105.263157894737,4,2,1,50,0,0
105993,-66.6666666666667,4,2,1,60,0,0
106659,-100,4,2,1,70,0,0
106991,-100,4,2,1,70,0,0
112159,-71.4285714285714,4,2,1,70,0,0
113159,-83.3333333333333,4,2,1,70,0,0
122826,-71.4285714285714,4,2,1,70,0,0
123493,-83.3333333333333,4,2,1,70,0,0
132826,-111.111111111111,4,2,1,70,0,0
133493,-83.3333333333333,4,2,1,70,0,0
144159,-142.857142857143,4,2,1,50,0,0
156159,-142.857142857143,4,2,1,50,0,0
158826,-142.857142857143,4,2,1,60,0,0
162659,-142.857142857143,4,2,1,70,0,0
164159,-71.4285714285714,4,2,1,70,0,0
165326,-83.3333333333333,4,2,1,70,0,0
174826,-71.4285714285714,4,2,1,70,0,0
175493,-83.3333333333333,4,2,1,70,0,0
185493,-142.857142857143,4,2,1,30,0,0
185659,-142.857142857143,4,2,1,40,0,0
185826,-142.857142857143,4,2,1,50,0,0
185993,-142.857142857143,4,2,1,60,0,0
186159,333.333333333333,4,2,1,60,1,0
186159,-83.3333333333333,4,2,1,60,0,0
194159,-83.3333333333333,4,2,1,50,0,0
195325,-90.9090909090909,4,2,1,70,0,0
204825,-166.666666666667,4,2,1,70,0,0
204992,-166.666666666667,4,2,1,40,0,0

[Colours]
Combo1 : 240,228,183
Combo2 : 217,179,255
Combo3 : 245,158,243
Combo4 : 255,176,157
Combo5 : 196,234,157

[HitObjects]
10,322,5159,5,8,0:2:0:0:
10,322,5493,6,0,L|89:297,1,71.5000021820069,6|2,1:2|0:2,0:0:0:0:
149,237,5826,2,0,L|231:259,1,71.5000021820069,8|0,0:2|0:2,0:2:0:0:
284,321,6159,1,2,1:2:0:0:
362,287,6326,2,0,L|381:212,1,71.5000021820069,2|8,0:2|0:2,0:2:0:0:
331,139,6659,5,2,0:2:0:0:
331,139,6743,1,2,0:2:0:0:
331,139,6826,2,0,L|250:120,1,71.5000021820069,2|2,1:2|0:2,0:0:0:0:
189,182,7159,2,0,L|109:206,1,71.5000021820069,10|2,0:2|0:2,0:0:0:0:
34,175,7493,2,0,L|15:100,1,71.5000021820069,2|2,1:2|0:2,0:0:0:0:
56,28,7826,1,10,0:2:0:0:
140,49,7993,6,0,P|204:38|300:12,1,143.000004364014,2|2,0:2|0:2,0:2:0:0:
373,40,8493,2,0,P|384:71|394:120,1,71.5000021820069,10|2,0:2|0:2,0:0:0:0:
346,190,8826,2,0,P|307:198|264:215,2,71.5000021820069,2|2|8,1:2|0:2|0:2,0:0:0:0:
431,234,9326,5,2,0:2:0:0:
431,234,9409,1,2,0:2:0:0:
431,234,9493,2,0,P|441:273|450:325,1,71.5000021820069,2|0,1:2|0:2,0:2:0:0:
385,369,9826,2,0,P|342:374|302:386,1,71.5000021820069,10|0,0:2|0:2,0:2:0:0:
227,362,10159,2,0,P|214:313|207:266,1,71.5000021820069,2|2,1:2|0:2,0:0:0:0:
273,220,10493,1,14,0:2:0:0:
273,220,10659,1,8,0:2:0:0:
206,157,10826,6,0,P|134:131|62:154,1,143.000004364014,4|8,1:1|0:2,0:0:0:0:
21,212,11326,1,0,0:2:0:0:
72,148,11493,2,0,P|64:110|46:65,2,71.5000021820069,2|2|8,1:2|0:2|0:2,0:0:0:0:
137,221,11993,5,2,0:2:0:0:
137,221,12076,1,2,0:2:0:0:
137,221,12159,2,0,P|126:255|117:306,1,71.5000021820069,2|2,1:2|0:2,0:0:0:0:
185,355,12493,2,0,P|227:362|265:373,1,71.5000021820069,10|2,0:2|0:2,0:0:0:0:
344,344,12826,2,0,P|350:304|359:262,1,71.5000021820069,2|2,1:2|0:2,0:0:0:0:
287,216,13159,1,10,0:2:0:0:
334,142,13326,6,0,P|409:129|478:175,1,143.000004364014,2|2,0:2|0:2,0:2:0:0:
507,244,13826,2,0,P|498:279|491:326,1,71.5000021820069,10|2,0:2|0:2,0:0:0:0:
412,357,14159,1,2,1:2:0:0:
333,321,14326,2,0,P|296:326|249:346,1,71.5000021820069,2|8,0:2|0:2,0:2:0:0:
157,293,14659,6,0,P|135:220|169:150,1,143.000004364014,6|8,1:2|0:2,0:2:0:0:
247,107,15159,2,0,P|283:115|341:134,1,71.5000021820069,8|8,0:2|0:3,0:0:0:0:
396,177,15493,2,0,L|445:163,3,35.7500010910034,4|4|8|8,0:3|0:3|0:2|0:2,0:0:0:0:
463,135,15826,2,0,L|512:150,3,35.7500010910034,8|8|4|4,0:2|0:2|0:3|0:3,0:2:0:0:
512,193,16159,6,0,P|493:246|482:311,1,97.5,4|2,1:2|0:2,0:0:0:0:
483,311,16493,2,0,P|446:320|406:332,1,65,8|0,0:2|0:2,0:2:0:0:
342,294,16826,2,0,P|332:259|321:219,2,65,2|2|10,1:2|0:2|0:2,0:0:0:0:
283,352,17326,2,0,P|215:360|158:324,1,130,2|0,0:2|0:2,0:2:0:0:
93,283,17826,2,0,L|27:306,1,65,10|0,0:2|0:2,0:2:0:0:
0,217,18159,1,2,1:2:0:0:
0,217,18493,2,0,L|66:194,1,65,10|0,0:2|0:2,0:2:0:0:
119,128,18826,6,0,L|182:142,1,65,2|2,1:2|0:2,0:0:0:0:
192,149,19076,1,2,0:2:0:0:
201,156,19159,2,0,L|282:133,1,65,8|2,0:2|0:2,0:0:0:0:
344,165,19493,2,0,L|364:234,2,65,2|0|10,1:2|0:2|0:2,0:2:0:0:
375,85,19993,2,0,P|434:61|492:87,1,130,2|0,0:2|0:2,0:2:0:0:
512,167,20493,2,0,L|494:238,1,65,8|8,0:2|0:3,0:0:0:0:
483,242,20743,1,8,0:3:0:0:
474,253,20826,2,0,L|492:322,1,65,0|10,1:2|0:2,0:0:0:0:
417,365,21159,1,10,0:2:0:0:
327,356,21326,6,0,P|304:278|293:210,1,130,2|2,0:2|0:2,0:2:0:0:
302,219,21743,1,2,0:2:0:0:
311,212,21826,2,0,P|353:201|392:193,1,65,10|0,0:2|0:2,0:2:0:0:
421,129,22159,2,0,P|409:93|398:55,1,65,2|2,1:2|0:2,0:0:0:0:
335,24,22493,1,10,0:2:0:0:
335,24,22659,1,2,0:2:0:0:
230,151,22993,5,2,0:2:0:0:
230,151,23076,1,2,0:2:0:0:
230,151,23159,2,0,L|153:176,1,65,10|2,0:2|0:2,0:0:0:0:
87,150,23493,2,0,P|74:115|61:70,1,65,2|0,1:2|0:2,0:2:0:0:
123,18,23826,2,0,P|155:9|193:-3,1,65,10|0,0:2|0:2,0:2:0:0:
263,50,24159,1,2,1:2:0:0:
263,50,24493,6,0,P|330:67|394:66,1,130,10|2,0:2|1:2,0:2:0:0:
460,24,24993,1,0,0:2:0:0:
460,24,25159,1,10,0:2:0:0:
499,97,25326,2,0,P|485:154|476:231,1,130,2|0,0:2|0:2,0:2:0:0:
420,289,25826,6,0,P|355:288|321:247,1,97.5,10|8,0:2|0:2,0:0:0:0:
323,261,26159,2,0,P|291:269|254:282,1,65,0|8,1:2|0:2,0:0:0:0:
175,337,26493,2,0,P|166:305|160:273,1,65,10|8,0:2|0:2,0:2:0:0:
150,265,26743,1,8,0:2:0:0:
140,260,26826,2,0,P|73:252|21:300,2,130,6|8|0,1:2|0:2|1:2,0:2:0:0:
188,373,36993,5,8,0:2:0:0:
188,373,37076,1,8,0:2:0:0:
188,373,37159,2,8,L|204:315,3,32.5,8|8|8|8,0:2|0:2|0:2|0:2,0:2:0:0:
185,304,37493,6,0,P|139:259|76:258,1,130,4|10,1:1|0:2,0:0:0:0:
0,210,37993,1,2,0:2:0:0:
0,210,38159,2,0,P|8:171|17:138,1,65,2|0,1:2|0:2,0:2:0:0:
70,91,38493,1,8,0:2:0:0:
135,157,38659,6,0,P|196:172|271:196,1,130,2|0,0:2|0:2,0:2:0:0:
330,252,39159,2,0,P|363:245|402:234,1,65,10|0,0:2|0:2,0:2:0:0:
453,168,39493,1,2,1:2:0:0:
453,168,39826,2,0,P|445:135|437:104,1,65,8|0,0:2|0:2,0:2:0:0:
449,16,40159,6,0,P|480:7|512:0,2,65,2|2|10,1:2|0:2|0:2,0:0:0:0:
360,0,40659,1,2,0:2:0:0:
360,0,40826,2,0,P|331:9|292:18,1,65,2|2,1:2|0:2,0:0:0:0:
242,81,41159,1,8,0:2:0:0:
170,45,41326,6,0,P|115:60|26:78,1,130,2|0,0:2|0:2,0:2:0:0:
0,154,41826,2,0,P|-6:205|18:254,1,97.5,10|8,0:2|0:3,0:2:0:0:
20,251,42159,2,0,P|51:255|96:270,1,65,0|10,1:2|0:2,0:0:0:0:
148,327,42493,1,10,0:2:0:0:
148,327,42659,1,0,0:2:0:0:
216,274,42826,6,0,P|223:242|231:210,1,65,4|2,1:2|0:2,0:0:0:0:
230,202,43076,1,2,0:2:0:0:
228,194,43159,2,0,P|199:186|156:177,1,65,10|0,0:2|0:2,0:2:0:0:
129,90,43493,2,0,L|144:18,2,65,2|2|10,1:2|0:2|0:2,0:0:0:0:
220,88,43993,6,0,P|295:92|342:53,1,130,2|2,0:2|0:2,0:0:0:0:
403,6,44493,2,0,P|432:15|484:30,1,65,10|0,0:2|0:2,0:2:0:0:
512,96,44826,2,0,P|493:158|480:234,2,130,2|10|2,1:2|0:2|1:2,0:2:0:0:
288,220,45826,6,0,P|252:211|217:202,1,65,10|0,0:2|0:0,0:2:0:0:
162,137,46159,2,0,P|132:144|90:154,1,65,2|2,1:2|0:2,0:2:0:0:
36,224,46493,1,10,0:2:0:0:
36,224,46659,2,0,P|21:160|4:97,1,130,2|0,0:2|0:2,0:2:0:0:
52,25,47159,2,0,P|82:29|131:35,1,65,10|8,0:2|0:2,0:2:0:0:
128,37,47409,1,8,0:2:0:0:
138,42,47493,2,0,L|201:26,1,65,8|8,0:2|0:2,0:0:0:0:
287,63,47826,1,8,0:2:0:0:
287,63,48159,5,2,0:2:0:0:
75,356,52659,5,2,0:3:0:0:
16,282,52826,2,0,L|29:218,2,65,8|4|2,0:3|0:3|0:3,0:0:0:0:
75,356,53326,6,0,P|125:316|188:318,1,130,4|0,1:1|1:2,0:2:0:0:
271,362,53826,1,8,0:2:0:0:
271,362,53993,1,2,0:2:0:0:
346,319,54159,2,0,L|365:236,1,65,2|0,1:2|1:2,0:2:0:0:
299,196,54493,1,8,0:2:0:0:
348,128,54659,6,0,P|418:126|464:166,1,130,4|0,1:2|1:2,0:2:0:0:
512,237,55159,1,10,0:2:0:0:
512,237,55326,2,0,L|493:314,1,65,2|0,0:2|1:2,0:2:0:0:
433,354,55659,2,0,P|400:346|369:341,1,65,2|8,1:2|0:2,0:0:0:0:
290,291,55993,6,0,P|222:305|162:318,1,130,4|0,1:2|1:2,0:2:0:0:
77,288,56493,2,0,P|68:253|59:221,1,65,8|0,0:2|0:2,0:2:0:0:
104,145,56826,2,0,P|95:112|80:71,2,65,2|2|10,1:2|0:2|0:2,0:0:0:0:
183,176,57326,6,0,P|247:177|299:134,1,130,6|8,1:2|0:3,0:2:0:0:
303,125,57743,1,8,0:3:0:0:
310,115,57826,2,0,L|373:129,1,65,8|8,0:2|0:3,0:0:0:0:
471,100,58159,2,0,B|507:140|507:140|494:192,1,97.5,14|0,0:2|0:0,0:2:0:0:
488,201,58493,2,0,L|504:260,3,32.5,8|8|8|8,0:2|0:2|0:2|0:2,0:0:0:0:
466,265,58826,6,0,P|349:272|302:325,3,168.999992263794,6|10|2|10,1:1|0:1|1:1|0:1,0:1:0:0:
221,289,59993,2,0,P|167:235|165:158,1,155.999995239258,2|0,0:2|0:2,0:2:0:0:
237,97,60493,2,0,P|276:102|326:118,1,77.999997619629,10|0,0:2|0:2,0:2:0:0:
351,18,60826,1,2,1:2:0:0:
351,18,61159,2,0,P|307:10|262:-7,1,77.999997619629,8|2,0:2|0:2,0:0:0:0:
170,25,61493,6,0,P|113:17|64:47,1,116.999996429443,2|0,1:2|0:0,0:2:0:0:
55,55,61826,2,0,P|66:99|73:143,1,77.999997619629,10|0,0:2|0:2,0:2:0:0:
53,234,62159,2,0,P|97:219|134:211,1,77.999997619629,2|2,1:2|0:2,0:0:0:0:
186,138,62493,1,10,0:2:0:0:
247,207,62659,6,0,P|316:238|390:218,1,155.999995239258,2|0,0:2|0:2,0:2:0:0:
468,158,63159,2,0,P|460:113|457:76,1,77.999997619629,10|0,0:2|0:2,0:2:0:0:
378,28,63493,1,2,1:2:0:0:
378,28,63826,5,10,0:2:0:0:
298,75,63993,2,0,P|305:109|310:160,1,77.999997619629,10|4,0:2|1:2,0:2:0:0:
242,232,64326,1,2,0:2:0:0:
242,232,64409,1,2,0:2:0:0:
242,232,64493,2,0,P|202:236|157:244,1,77.999997619629,10|2,0:2|0:2,0:0:0:0:
96,178,64826,2,0,P|97:144|104:90,2,77.999997619629,2|2|10,1:2|0:2|0:2,0:2:0:0:
15,234,65326,6,0,P|-2:305|47:377,1,155.999995239258,2|2,0:2|0:2,0:2:0:0:
130,372,65826,2,0,P|166:358|209:350,1,77.999997619629,8|2,0:2|0:2,0:0:0:0:
268,291,66159,1,2,1:2:0:0:
338,347,66326,2,0,P|354:309|359:266,1,77.999997619629,2|8,0:2|0:2,0:2:0:0:
300,178,66659,6,0,P|223:164|146:173,1,155.999995239258,2|0,0:2|0:2,0:2:0:0:
52,182,67159,1,8,0:2:0:0:
52,182,67326,2,0,P|35:145|23:94,1,77.999997619629,2|0,0:2|1:2,0:2:0:0:
70,22,67659,2,0,P|108:5|149:-1,1,77.999997619629,2|8,0:2|0:2,0:2:0:0:
242,73,67993,6,0,B|298:87|298:87|324:122|324:122|394:148,1,155.999995239258,6|0,0:1|0:2,0:2:0:0:
460,108,68493,1,8,0:1:0:0:
460,108,68659,1,4,1:1:0:0:
411,34,68826,1,2,1:1:0:0:
228,171,69159,2,0,L|216:236,3,38.9999988098145,8|8|8|8,0:2|0:2|0:2|0:2,0:0:0:0:
256,245,69493,6,0,P|337:253|402:202,2,168.999992263794,6|10|2,1:1|0:1|1:1,0:2:0:0:
196,322,70326,1,0,0:2:0:0:
196,322,70493,1,10,0:2:0:0:
98,305,70659,2,0,P|75:230|65:153,1,155.999995239258,2|0,0:2|0:2,0:2:0:0:
0,78,71159,2,0,P|38:64|81:57,1,77.999997619629,10|2,0:2|0:2,0:0:0:0:
169,109,71493,1,2,1:2:0:0:
169,109,71826,2,0,P|207:101|244:88,1,77.999997619629,10|2,0:2|0:2,0:0:0:0:
319,23,72159,6,0,P|393:39|431:104,1,155.999995239258,2|10,1:2|0:2,0:2:0:0:
346,300,72826,2,0,P|309:290|262:279,1,77.999997619629,2|2,1:2|0:2,0:0:0:0:
228,210,73159,1,10,0:2:0:0:
297,156,73326,2,0,P|371:172|452:194,1,155.999995239258,2|0,0:2|0:2,0:2:0:0:
485,280,73826,2,0,P|475:318|467:362,1,77.999997619629,10|0,0:2|0:2,0:2:0:0:
367,375,74159,1,2,1:2:0:0:
367,375,74493,5,10,0:2:0:0:
297,316,74659,2,0,P|259:307|215:294,1,77.999997619629,10|4,0:2|1:2,0:2:0:0:
140,346,74993,1,2,0:2:0:0:
140,346,75076,1,2,0:2:0:0:
140,346,75159,2,0,P|100:356|51:377,1,77.999997619629,10|2,0:2|0:2,0:0:0:0:
68,277,75493,2,0,P|57:237|44:195,1,77.999997619629,2|2,1:2|0:2,0:0:0:0:
95,128,75826,1,10,0:2:0:0:
167,184,75993,6,0,P|245:194|343:215,1,155.999995239258,2|2,0:2|0:2,0:2:0:0:
407,168,76493,2,0,P|414:128|420:88,1,77.999997619629,8|2,0:2|0:2,0:0:0:0:
371,22,76826,1,2,1:2:0:0:
292,67,76993,2,0,P|251:62|210:55,1,77.999997619629,2|8,0:2|0:2,0:2:0:0:
129,10,77326,6,0,P|57:33|30:103,1,155.999995239258,2|0,0:2|0:2,0:2:0:0:
12,203,77826,1,8,0:2:0:0:
12,203,77993,2,0,L|94:226,1,77.999997619629,2|0,0:2|1:2,0:2:0:0:
173,165,78326,2,0,P|209:172|257:189,1,77.999997619629,2|8,0:2|0:2,0:2:0:0:
313,259,78659,5,6,0:1:0:0:
66,384,78993,1,8,0:2:0:0:
66,384,79076,1,8,0:2:0:0:
66,384,79159,2,0,L|37:288,1,77.999997619629,8|8,0:2|0:3,0:0:0:0:
87,224,79493,1,10,0:2:0:0:
325,340,79826,6,0,L|348:345,1,19.4999994049072,2|2,0:2|0:2,0:2:0:0:
482,273,80159,6,0,P|489:234|500:196,1,71.5000021820069,4|2,1:2|0:2,0:0:0:0:
444,136,80493,2,0,L|371:121,1,71.5000021820069,10|0,0:2|0:2,0:2:0:0:
307,170,80826,1,2,1:2:0:0:
256,104,80993,2,0,L|275:29,1,71.5000021820069,2|8,0:2|0:2,0:2:0:0:
184,35,81326,5,2,0:2:0:0:
184,35,81410,1,2,0:2:0:0:
184,35,81493,2,0,L|103:16,1,71.5000021820069,2|0,1:2|0:2,0:2:0:0:
42,64,81826,2,0,L|18:151,1,71.5000021820069,10|2,0:2|0:2,0:0:0:0:
102,174,82160,2,0,L|119:243,1,71.5000021820069,2|2,1:2|0:2,0:0:0:0:
85,320,82493,1,10,0:2:0:0:
161,367,82660,6,0,P|230:345|301:337,1,143.000004364014,2|2,0:2|0:2,0:0:0:0:
362,270,83160,2,0,P|352:232|349:198,1,71.5000021820069,10|0,0:2|0:2,0:2:0:0:
270,162,83493,2,0,P|231:170|186:176,2,71.5000021820069,2|2|8,1:2|0:2|0:2,0:0:0:0:
337,92,83993,5,2,0:2:0:0:
337,92,84076,1,2,0:2:0:0:
337,92,84160,2,0,P|327:53|318:1,1,71.5000021820069,2|0,1:2|0:2,0:2:0:0:
415,9,84493,2,0,P|419:42|430:85,1,71.5000021820069,10|2,0:2|0:2,0:0:0:0:
496,147,84826,2,0,P|502:182|512:216,1,71.5000021820069,2|2,1:2|0:2,0:0:0:0:
465,295,85160,1,12,0:2:0:0:
465,295,85326,1,8,0:2:0:0:
379,261,85493,6,0,P|299:275|232:299,1,143.000004364014,4|10,1:2|0:2,0:2:0:0:
176,238,85993,1,0,0:2:0:0:
111,302,86160,2,0,P|123:335|130:370,2,71.5000021820069,2|2|8,1:2|0:2|0:2,0:0:0:0:
32,254,86660,5,2,0:2:0:0:
32,254,86743,1,2,0:2:0:0:
32,254,86826,2,0,P|21:220|12:169,1,71.5000021820069,2|0,1:2|0:2,0:2:0:0:
64,109,87160,2,0,P|106:116|144:127,1,71.5000021820069,10|2,0:2|0:2,0:0:0:0:
214,85,87493,2,0,P|220:45|229:3,1,71.5000021820069,2|2,1:2|0:2,0:0:0:0:
311,0,87826,1,10,0:2:0:0:
370,66,87993,6,0,P|349:136|336:217,1,143.000004364014,2|2,0:2|0:2,0:0:0:0:
251,237,88493,2,0,P|242:272|235:319,1,71.5000021820069,10|0,0:2|0:2,0:2:0:0:
302,369,88826,1,2,1:2:0:0:
374,328,88993,2,0,P|411:333|458:353,1,71.5000021820069,2|8,0:2|0:2,0:0:0:0:
511,267,89326,6,0,P|489:194|523:124,1,143.000004364014,4|0,1:2|1:2,0:2:0:0:
452,60,89826,2,0,P|417:67|382:77,1,71.5000021820069,8|8,0:2|0:3,0:0:0:0:
303,113,90159,2,4,L|260:102,3,35.7500010910034,4|4|8|8,0:3|0:3|0:2|0:0,0:3:0:0:
230,68,90493,2,0,L|191:76,3,35.7500010910034,8|8|8|8,0:2|0:3|0:3|0:3,0:0:0:0:
162,115,90826,5,6,0:2:0:0:
28,237,95493,6,0,L|97:253,1,71.5000021820069,0|8,1:2|0:2,0:0:0:0:
145,330,95826,1,8,0:2:0:0:
145,330,95993,1,2,0:2:0:0:
223,286,96159,6,0,L|238:216,1,71.5000021820069,4|2,1:2|0:2,0:0:0:0:
176,160,96493,2,0,L|153:69,1,71.5000021820069,10|2,0:2|0:2,0:0:0:0:
227,26,96826,2,0,B|297:18|295:52|383:65,1,143.000004364014,0|8,1:2|0:2,0:2:0:0:
445,27,97326,1,2,0:2:0:0:
328,196,97659,5,2,0:2:0:0:
328,196,97743,1,2,0:2:0:0:
328,196,97826,2,0,L|347:288,1,71.5000021820069,10|0,0:2|0:2,0:2:0:0:
402,322,98159,2,0,P|436:314|487:306,1,71.5000021820069,2|2,1:2|0:2,0:0:0:0:
511,227,98493,2,0,P|500:188|491:139,1,71.5000021820069,10|2,0:2|0:2,0:0:0:0:
427,90,98826,1,2,1:2:0:0:
427,90,99159,6,0,P|359:111|292:91,1,143.000004364014,10|2,0:2|1:2,0:0:0:0:
236,24,99659,1,2,0:2:0:0:
236,24,99826,1,10,0:2:0:0:
164,74,99993,2,0,P|150:141|142:228,1,143.000004364014,2|2,0:2|0:2,0:2:0:0:
90,279,100493,2,0,P|25:277|-1:231,1,107.25000327301,10|8,0:2|0:2,0:0:0:0:
0,237,100826,2,0,P|13:197|20:155,1,71.5000021820069,2|8,1:2|0:2,0:2:0:0:
0,67,101159,2,0,P|35:74|77:79,1,71.5000021820069,8|8,0:2|0:2,0:0:0:0:
80,74,101409,1,8,0:2:0:0:
89,69,101493,6,0,L|193:44,1,107.25000327301,2|2,0:2|0:2,0:2:0:0:
256,96,102159,2,0,L|366:128,1,107.25000327301,2|0,0:2|0:2,0:2:0:0:
442,99,102826,2,0,L|463:31,2,71.5000021820069,4|4|4,0:3|0:3|0:3,0:2:0:0:
501,164,103659,2,0,L|514:216,1,48.750001859665,4|4,0:3|0:3,0:0:0:0:
471,280,103993,6,0,L|351:310,1,123.499996702194,4|2,0:3|0:2,0:0:0:0:
275,285,104493,2,0,L|257:222,1,61.7499983510972,4|2,0:3|0:2,0:0:0:0:
312,161,104826,2,0,L|325:93,1,61.7499983510972,4|2,0:3|0:2,0:0:0:0:
270,36,105159,1,4,0:3:0:0:
200,78,105326,2,0,L|130:59,1,61.7499983510972,2|4,0:2|0:3,0:0:0:0:
82,122,105659,2,0,L|13:143,1,61.7499983510972,6|4,0:3|0:3,0:2:0:0:
6,55,105993,5,12,1:2:0:0:
212,203,106326,1,12,1:2:0:0:
212,203,106659,6,0,P|226:262|237:340,1,130,6|0,1:1|1:2,0:2:0:0:
172,381,107159,1,8,0:2:0:0:
172,381,107326,1,2,0:2:0:0:
97,342,107493,2,0,P|90:308|88:278,2,65,2|0|8,1:2|1:2|0:2,0:0:0:0:
19,384,107993,6,0,P|3:310|-1:249,1,130,6|0,1:2|1:2,0:2:0:0:
39,179,108493,1,8,0:2:0:0:
120,192,108659,2,0,P|148:199|199:210,1,65,2|0,0:2|1:2,0:0:0:0:
251,263,108993,2,0,P|282:256|314:247,1,65,2|8,1:2|0:2,0:0:0:0:
390,174,109326,6,0,P|376:101|357:28,1,130,4|0,1:2|1:2,0:2:0:0:
285,11,109826,2,0,P|244:16|204:27,1,65,10|0,0:2|0:2,0:2:0:0:
149,72,110159,2,0,P|118:63|87:56,1,65,2|2,1:2|1:2,0:0:0:0:
11,88,110493,1,10,0:2:0:0:
33,178,110659,6,0,P|98:187|160:207,1,130,6|8,1:2|0:3,0:2:0:0:
169,216,111076,1,8,0:3:0:0:
175,225,111159,2,0,L|160:288,1,65,8|4,0:2|0:3,0:0:0:0:
236,360,111493,2,0,B|274:331|274:331|322:343,1,97.5,12|0,0:2|0:0,0:2:0:0:
341,341,111826,2,0,L|333:372,3,32.5,8|8|8|8,0:2|0:2|0:2|0:2,0:0:0:0:
382,324,112159,6,0,B|395:230|434:244|440:126,3,181.999994445801,6|10|2|10,1:1|0:1|1:1|1:1,0:2:0:0:
383,84,113326,2,0,P|313:52|243:81,1,155.999995239258,2|2,0:2|0:2,0:2:0:0:
177,148,113826,2,0,P|136:160|97:175,1,77.999997619629,10|2,0:2|0:2,0:0:0:0:
58,92,114159,1,2,1:2:0:0:
58,92,114493,2,0,P|98:79|138:65,1,77.999997619629,10|2,0:2|0:2,0:0:0:0:
217,4,114826,6,0,P|274:2|323:33,1,116.999996429443,2|0,1:2|0:2,0:2:0:0:
321,44,115159,2,0,P|361:35|406:20,1,77.999997619629,10|0,0:2|0:2,0:2:0:0:
466,78,115493,2,0,P|455:116|449:157,1,77.999997619629,2|2,1:2|0:2,0:0:0:0:
512,215,115826,1,10,0:2:0:0:
447,276,115993,6,0,B|367:265|374:242|297:235,1,155.999995239258,2|0,0:2|0:2,0:2:0:0:
221,161,116493,2,0,P|180:169|140:178,1,77.999997619629,10|0,0:2|0:2,0:2:0:0:
72,239,116826,1,2,1:2:0:0:
72,239,117159,5,10,0:2:0:0:
144,288,117326,2,0,P|152:322|162:371,1,77.999997619629,10|4,0:2|1:2,0:2:0:0:
245,301,117659,1,2,0:2:0:0:
245,301,117743,1,2,0:2:0:0:
245,301,117826,2,0,P|278:290|328:281,1,77.999997619629,10|2,0:2|0:2,0:0:0:0:
389,349,118159,2,0,P|427:356|464:367,1,77.999997619629,2|2,1:2|0:2,0:0:0:0:
498,289,118493,1,10,0:2:0:0:
433,233,118659,6,0,P|423:156|467:92,1,155.999995239258,2|2,0:2|0:2,0:2:0:0:
428,19,119159,2,0,P|392:11|342:-3,1,77.999997619629,8|2,0:2|0:2,0:2:0:0:
284,52,119493,1,2,1:2:0:0:
207,0,119659,2,0,P|193:35|186:82,1,77.999997619629,2|8,0:2|0:2,0:0:0:0:
245,167,119993,6,0,P|326:181|406:212,1,155.999995239258,2|0,0:2|0:2,0:2:0:0:
500,210,120493,1,8,0:2:0:0:
500,210,120659,2,0,P|488:250|480:293,1,77.999997619629,2|0,0:2|1:2,0:2:0:0:
405,351,120993,2,0,P|365:339|322:331,1,77.999997619629,2|8,0:2|0:2,0:2:0:0:
232,278,121326,6,0,B|165:274|165:274|131:309|131:309|92:320,1,155.999995239258,6|0,0:1|0:2,0:2:0:0:
17,285,121826,1,8,0:1:0:0:
17,285,121993,1,4,0:1:0:0:
85,233,122159,1,2,1:1:0:0:
271,346,122493,2,0,L|322:359,3,38.9999988098145,8|8|8|8,0:2|0:2|0:2|0:2,0:0:0:0:
359,340,122826,6,0,B|376:320|383:292|383:292|361:223|376:153,2,181.999994445801,6|10|2,1:1|0:1|1:1,0:2:0:0:
286,272,123659,1,2,0:2:0:0:
286,272,123826,1,10,0:2:0:0:
201,311,123993,2,0,P|128:324|40:356,1,155.999995239258,2|0,0:2|0:2,0:2:0:0:
0,249,124493,2,0,P|41:238|80:227,1,77.999997619629,10|2,0:2|0:2,0:0:0:0:
139,144,124826,1,2,1:2:0:0:
139,144,125159,2,0,P|128:102|117:64,1,77.999997619629,10|2,0:2|0:2,0:0:0:0:
201,18,125493,6,0,P|276:6|339:48,1,155.999995239258,2|10,1:2|0:2,0:2:0:0:
336,274,126159,2,0,P|292:281|249:297,1,77.999997619629,2|2,1:2|0:2,0:0:0:0:
178,256,126493,1,10,0:2:0:0:
234,187,126659,2,0,B|314:174|290:155|382:140,1,155.999995239258,2|0,0:2|0:2,0:2:0:0:
465,202,127159,2,0,P|457:234|450:278,1,77.999997619629,10|0,0:2|0:2,0:2:0:0:
380,350,127493,1,2,1:2:0:0:
380,350,127826,5,10,0:2:0:0:
303,300,127993,2,0,B|263:295|263:295|231:315,1,77.999997619629,10|4,0:2|1:2,0:2:0:0:
170,376,128326,1,2,0:2:0:0:
170,376,128409,1,0,0:0:0:0:
170,376,128493,2,0,P|132:367|84:363,1,77.999997619629,10|2,0:2|0:2,0:0:0:0:
31,297,128826,1,2,1:2:0:0:
31,297,128993,2,0,P|38:249|46:205,1,77.999997619629,2|8,0:2|0:2,0:2:0:0:
122,170,129326,6,0,P|198:161|263:201,1,155.999995239258,2|2,0:2|0:2,0:2:0:0:
340,264,129826,2,0,P|378:261|417:250,1,77.999997619629,8|2,0:2|0:2,0:0:0:0:
471,181,130159,1,0,1:2:0:0:
407,116,130326,2,0,P|369:119|330:130,1,77.999997619629,2|8,0:2|0:2,0:2:0:0:
263,201,130659,6,0,P|197:157|192:71,1,155.999995239258,2|0,0:2|0:2,0:2:0:0:
221,9,131159,1,8,0:2:0:0:
299,40,131326,2,0,P|333:31|389:16,1,77.999997619629,2|0,0:2|1:2,0:2:0:0:
453,50,131659,2,0,P|467:88|479:140,1,77.999997619629,2|8,0:2|0:2,0:2:0:0:
412,210,131993,5,6,0:1:0:0:
210,376,132326,1,8,0:2:0:0:
210,376,132409,1,8,0:2:0:0:
210,376,132493,2,0,P|201:340|192:298,1,77.999997619629,8|8,0:2|0:3,0:0:0:0:
133,229,132826,2,0,P|157:220|200:215,1,58.4999982147217,10|2,0:2|0:2,0:2:0:0:
224,120,133159,2,0,P|251:128|280:133,1,58.4999982147217,2|2,0:1|0:2,0:0:0:0:
390,161,133493,6,0,B|393:92|435:93|448:18,2,155.999995239258,4|10|2,1:1|0:1|1:1,0:1:0:0:
478,194,134326,1,2,0:1:0:0:
478,194,134493,1,10,0:1:0:0:
390,161,134659,6,0,P|313:155|253:211,1,155.999995239258,2|0,0:1|0:1,0:1:0:0:
165,214,135159,2,0,P|176:253|186:296,1,77.999997619629,2|2,1:1|0:1,0:0:0:0:
175,300,135409,1,2,0:1:0:0:
167,313,135493,2,0,P|128:323|91:337,1,77.999997619629,2|0,1:1|0:1,0:1:0:0:
17,276,135826,1,10,0:1:0:0:
17,276,135993,6,0,B|18:199|58:200|55:119,1,155.999995239258,2|2,0:1|0:1,0:1:0:0:
12,53,136493,2,0,B|48:33|48:33|88:44,1,77.999997619629,10|2,0:1|0:1,0:0:0:0:
165,85,136826,2,0,B|231:94|231:94|277:57|333:42,1,155.999995239258,2|10,1:1|0:1,0:0:0:0:
401,64,137326,6,0,B|451:97|451:97|446:148|468:204,1,155.999995239258,2|2,0:1|0:1,0:1:0:0:
510,263,137826,1,10,0:1:0:0:
430,306,137993,2,0,P|384:297|338:298,1,77.999997619629,2|0,0:1|1:1,0:1:0:0:
294,228,138326,1,2,0:1:0:0:
212,234,138493,2,0,P|201:268|197:316,1,77.999997619629,10|10,0:1|0:1,0:0:0:0:
264,378,138826,1,6,1:1:0:0:
264,378,139159,6,0,L|316:367,3,38.9999988098145,10|2|2|2,0:2|0:2|0:2|0:2,0:0:0:0:
339,334,139493,2,0,L|383:343,3,38.9999988098145,2|2|2|2,1:2|0:2|0:2|0:2,0:0:0:0:
422,365,139826,2,0,L|465:352,3,38.9999988098145,10|2|2|2,0:2|0:2|0:2|0:2,0:0:0:0:
484,308,140159,2,0,L|471:258,8,38.9999988098145,2|2|2|2|8|2|2|2|2,1:3|0:3|0:3|0:3|0:2|0:3|0:3|0:3|1:3,0:3:0:0:
396,249,140993,5,0,0:2:0:0:
396,249,141076,1,2,0:2:0:0:
396,249,141159,1,10,0:2:0:0:
452,184,141326,2,0,B|465:129|453:92|453:92|416:73|392:35,1,155.999995239258,2|0,0:2|0:2,0:2:0:0:
318,15,141826,2,0,P|283:24|238:38,1,77.999997619629,10|2,0:2|0:2,0:0:0:0:
167,85,142159,2,0,B|117:77|117:77|90:69|66:19,1,116.999996429443,2|0,1:1|0:2,0:2:0:0:
76,22,142493,1,10,0:2:0:0:
14,95,142659,6,0,B|31:123|31:123|24:210|24:210|44:271,1,155.999995239258,6|0,1:1|0:2,0:2:0:0:
115,305,143159,2,0,B|139:275|139:275|131:222,2,77.999997619629,8|4|0,0:2|0:2|1:2,0:2:0:0:
43,363,143659,2,0,L|-6:346,5,38.9999988098145,8|8|8|8|8|8,0:3|0:3|0:2|0:2|0:3|0:3,0:0:0:0:
8,340,144159,6,0,P|93:318|166:368,2,181.999994445801,2|2|4,0:2|0:2|0:2,0:2:0:0:
50,356,156159,5,4,1:2:0:0:
398,358,157326,1,2,0:2:0:0:
54,302,158826,5,4,1:2:0:0:
314,271,159493,1,4,1:2:0:0:
7,164,160159,1,4,1:2:0:0:
353,59,160826,1,4,1:2:0:0:
73,58,161493,6,0,L|88:116,2,45.4999986114502,4|8|8,1:2|0:2|0:2,0:0:0:0:
165,31,161993,1,8,0:2:0:0:
165,31,162076,1,8,0:2:0:0:
165,31,162159,2,0,L|176:85,1,45.4999986114502,8|8,0:2|0:3,0:0:0:0:
256,126,162493,1,4,0:3:0:0:
204,201,162659,6,0,L|115:232,1,90.9999972229005,6|8,1:2|0:2,0:2:0:0:
41,196,163159,1,0,1:2:0:0:
0,273,163326,5,8,0:2:0:0:
0,273,163493,1,8,0:2:0:0:
161,379,163826,2,0,L|214:362,1,45.4999986114502,2|2,0:2|0:2,0:0:0:0:
281,302,164159,6,0,B|339:295|390:330|390:330|425:344|471:335,3,181.999994445801,6|10|2|10,1:1|0:1|1:1|0:1,0:1:0:0:
512,266,165326,2,0,P|484:191|475:103,1,155.999995239258,2|0,0:2|0:2,0:2:0:0:
399,60,165826,2,0,P|356:71|315:81,1,77.999997619629,10|0,0:2|0:2,0:2:0:0:
257,143,166159,1,2,1:2:0:0:
257,143,166493,2,0,P|218:134|181:123,1,77.999997619629,10|2,0:2|0:2,0:0:0:0:
110,62,166826,6,0,P|54:74|26:124,1,116.999996429443,2|0,1:2|0:0,0:2:0:0:
17,131,167159,2,0,P|27:164|37:212,1,77.999997619629,10|0,0:2|0:2,0:2:0:0:
93,277,167493,2,0,P|84:311|78:355,2,77.999997619629,2|2|10,1:2|0:2|0:2,0:0:0:0:
182,241,167993,6,0,P|258:238|314:289,1,155.999995239258,2|0,0:2|0:2,0:2:0:0:
382,350,168493,2,0,P|420:340|472:331,1,77.999997619629,10|2,0:2|0:2,0:0:0:0:
498,248,168826,1,2,1:2:0:0:
498,248,169159,5,10,0:2:0:0:
432,182,169326,2,0,P|393:191|342:201,1,77.999997619629,10|4,0:2|1:2,0:0:0:0:
267,183,169659,1,2,0:2:0:0:
267,183,169743,1,2,0:2:0:0:
267,183,169826,2,0,P|255:145|246:99,1,77.999997619629,10|2,0:2|0:2,0:0:0:0:
277,30,170159,2,0,P|315:20|356:9,1,77.999997619629,2|2,1:2|0:2,0:0:0:0:
420,53,170493,1,10,0:2:0:0:
512,40,170659,6,0,P|489:114|472:190,1,155.999995239258,2|2,0:2|0:2,0:2:0:0:
406,250,171159,2,0,P|415:288|426:337,1,77.999997619629,8|2,0:2|0:2,0:0:0:0:
351,375,171493,1,2,1:2:0:0:
278,331,171659,2,0,P|240:338|201:351,1,77.999997619629,2|8,0:2|0:2,0:2:0:0:
118,317,171993,6,0,P|94:244|130:177,1,155.999995239258,2|0,0:2|0:2,0:2:0:0:
220,137,172493,1,8,0:2:0:0:
220,137,172659,2,0,P|258:146|299:161,1,77.999997619629,2|0,0:2|1:2,0:2:0:0:
387,108,172993,2,0,P|396:70|411:21,1,77.999997619629,2|8,0:2|0:2,0:2:0:0:
312,0,173326,6,0,B|264:11|228:-1|228:-1|165:32,1,155.999995239258,6|0,0:1|0:2,0:2:0:0:
97,85,173826,1,8,0:2:0:0:
97,85,173993,1,4,0:2:0:0:
25,31,174159,1,2,1:2:0:0:
233,130,174493,2,0,L|244:186,3,38.9999988098145,8|8|8|8,0:2|0:2|0:2|0:2,0:0:0:0:
208,209,174826,6,0,B|107:224|135:263|34:284,2,181.999994445801,6|10|2,1:1|0:1|1:1,0:2:0:0:
280,269,175659,1,0,0:2:0:0:
280,269,175826,1,10,0:2:0:0:
363,225,175993,2,0,P|386:149|390:62,1,155.999995239258,2|0,0:2|0:2,0:2:0:0:
327,14,176493,2,0,P|285:8|242:-3,1,77.999997619629,10|2,0:2|0:2,0:0:0:0:
175,50,176826,1,2,1:2:0:0:
175,50,177159,2,0,P|169:91|158:135,1,77.999997619629,10|2,0:2|0:2,0:0:0:0:
197,225,177493,6,0,P|121:231|63:182,1,155.999995239258,2|10,1:2|0:2,0:2:0:0:
267,48,178159,2,0,P|297:55|349:69,1,77.999997619629,2|0,1:2|0:2,0:2:0:0:
409,116,178493,1,10,0:2:0:0:
342,67,178659,2,0,P|283:115|286:190,1,155.999995239258,2|0,0:2|0:2,0:2:0:0:
352,250,179159,2,0,P|391:238|433:229,1,77.999997619629,10|0,0:2|0:2,0:2:0:0:
512,278,179493,1,2,1:2:0:0:
512,278,179826,5,10,0:2:0:0:
468,359,179993,2,0,P|428:370|387:380,1,77.999997619629,10|4,0:2|1:2,0:0:0:0:
325,336,180326,1,2,0:2:0:0:
325,336,180409,1,2,0:2:0:0:
325,336,180493,2,0,P|285:343|235:361,1,77.999997619629,10|2,0:2|0:2,0:0:0:0:
165,313,180826,2,0,P|156:268|144:231,1,77.999997619629,2|2,1:2|0:2,0:0:0:0:
178,161,181159,1,10,0:2:0:0:
268,178,181326,6,0,P|343:168|393:110,1,155.999995239258,2|2,0:2|0:2,0:2:0:0:
363,27,181826,2,0,P|324:19|283:6,1,77.999997619629,8|2,0:2|0:2,0:0:0:0:
198,43,182159,1,2,1:2:0:0:
127,0,182326,2,0,P|92:8|45:21,1,77.999997619629,2|8,0:2|0:2,0:2:0:0:
19,99,182659,6,0,P|39:177|58:274,1,155.999995239258,2|0,0:2|0:2,0:2:0:0:
130,324,183159,1,8,0:2:0:0:
130,324,183326,2,0,P|141:282|153:237,1,77.999997619629,2|0,0:2|1:2,0:2:0:0:
228,180,183659,2,0,P|239:221|251:267,1,77.999997619629,2|8,0:2|0:2,0:2:0:0:
332,318,183993,5,6,0:1:0:0:
498,157,184326,1,8,0:2:0:0:
498,157,184409,1,8,0:2:0:0:
498,157,184493,2,0,L|407:127,1,77.999997619629,8|8,0:2|0:3,0:0:0:0:
354,176,184826,1,10,0:2:0:0:
112,367,185493,6,8,L|71:375,7,22.7499993057251,8|8|8|8|8|8|8|8,0:2|0:2|0:2|0:2|0:2|0:2|0:2|0:2,0:2:0:0:
46,368,186159,6,0,P|2:305|16:230,1,155.999995239258,6|10,1:2|0:2,0:2:0:0:
152,105,186825,1,2,1:2:0:0:
152,105,186992,2,0,P|188:114|238:127,1,77.999997619629,2|8,0:2|0:2,0:2:0:0:
297,192,187325,2,0,P|367:170|460:137,1,155.999995239258,2|2,0:2|0:2,0:2:0:0:
453,133,187742,1,2,0:2:0:0:
460,124,187825,2,0,L|435:49,1,77.999997619629,10|2,0:2|0:2,0:0:0:0:
362,10,188159,1,2,1:2:0:0:
362,10,188325,1,2,0:2:0:0:
295,61,188492,1,10,0:2:0:0:
295,60,188825,6,0,P|219:72|157:28,1,155.999995239258,2|10,1:2|0:2,0:2:0:0:
60,190,189492,1,2,1:2:0:0:
60,190,189659,2,0,P|100:175|140:161,1,77.999997619629,2|8,0:2|0:2,0:2:0:0:
224,191,189992,2,0,P|249:264|265:344,1,155.999995239258,2|0,0:2|0:2,0:2:0:0:
180,378,190492,2,0,P|172:329|160:294,1,77.999997619629,10|2,0:2|0:2,0:0:0:0:
77,277,190825,2,0,P|38:283|2:298,1,77.999997619629,2|0,1:2|0:2,0:0:0:0:
1,197,191159,1,12,0:2:0:0:
1,197,191325,1,8,0:2:0:0:
74,141,191492,5,4,1:1:0:0:
74,141,191825,1,8,0:2:0:0:
141,192,191992,2,0,P|182:182|221:170,1,77.999997619629,0|8,1:2|0:2,0:0:0:0:
307,207,192325,2,0,P|315:241|325:294,1,77.999997619629,0|8,1:2|0:2,0:0:0:0:
425,329,192659,2,0,P|489:288|507:214,1,155.999995239258,0|0,1:2|1:2,0:2:0:0:
486,127,193159,1,8,0:2:0:0:
398,147,193325,2,0,P|360:139|315:124,1,77.999997619629,0|8,1:2|0:2,0:0:0:0:
261,47,193659,1,0,1:2:0:0:
181,87,193825,2,0,L|170:125,3,38.9999988098145,8|8|8|8,0:2|0:3|0:3|0:3,0:0:0:0:
194,166,194159,5,4,1:2:0:0:
19,338,194825,5,4,1:2:0:0:
19,338,195325,1,2,1:2:0:0:
434,354,196492,6,2,L|439:328,1,17.8750005455017,2|2,0:2|0:2,0:2:0:0:
372,191,196825,6,0,P|337:200|296:211,1,71.5000021820069,4|2,1:2|0:2,0:2:0:0:
225,271,197159,2,0,L|155:252,1,71.5000021820069,10|0,0:2|0:2,0:2:0:0:
102,178,197492,1,2,1:2:0:0:
22,219,197659,2,0,L|4:288,1,71.5000021820069,2|8,0:2|0:0,0:2:0:0:
76,364,197992,5,2,0:2:0:0:
76,364,198076,1,2,0:2:0:0:
76,364,198159,2,0,L|157:383,1,71.5000021820069,2|2,1:2|0:2,0:0:0:0:
207,313,198492,2,0,L|277:293,1,71.5000021820069,10|0,0:2|0:2,0:0:0:0:
345,349,198826,2,0,L|423:378,1,71.5000021820069,2|2,1:2|0:2,0:0:0:0:
497,335,199159,1,10,0:2:0:0:
446,258,199325,6,0,P|461:195|480:105,1,143.000004364014,2|2,0:2|0:2,0:2:0:0:
422,50,199826,2,0,P|385:41|344:30,1,71.5000021820069,10|2,0:2|0:2,0:0:0:0:
288,84,200159,1,2,1:2:0:0:
224,27,200325,2,0,P|188:34|155:46,1,71.5000021820069,2|8,0:2|0:2,0:2:0:0:
111,135,200659,5,2,0:2:0:0:
111,135,200742,1,2,0:2:0:0:
111,135,200826,2,0,P|121:174|130:226,1,71.5000021820069,2|0,1:2|0:2,0:2:0:0:
79,276,201159,2,0,P|43:286|7:293,1,71.5000021820069,10|2,0:2|0:2,0:0:0:0:
30,379,201492,2,0,P|65:368|108:362,1,71.5000021820069,2|0,1:2|0:2,0:2:0:0:
170,306,201826,1,12,0:2:0:0:
170,306,201992,1,8,0:2:0:0:
246,357,202159,6,0,P|314:373|380:342,1,143.000004364014,4|8,1:1|0:2,0:0:0:0:
409,260,202659,1,2,0:2:0:0:
335,213,202826,2,0,P|327:175|309:130,2,71.5000021820069,2|2|8,1:2|0:2|0:2,0:0:0:0:
459,180,203326,5,2,0:2:0:0:
459,180,203409,1,2,0:2:0:0:
459,180,203492,2,0,P|448:146|439:95,1,71.5000021820069,2|2,1:2|0:2,0:0:0:0:
368,45,203826,2,0,P|333:54|298:59,1,71.5000021820069,10|2,0:2|0:2,0:0:0:0:
231,118,204159,2,0,P|191:112|149:103,1,71.5000021820069,2|2,1:2|0:2,0:0:0:0:
110,37,204492,1,10,0:2:0:0:
36,74,204658,2,0,P|26:103|18:152,1,71.5000021820069,2|0,0:2|1:2,0:0:0:0:
81,212,204992,6,0,L|135:225,2,38.9999988098145,2|0|0,0:2|3:3|0:2,0:0:0:0:
92,301,205492,2,0,L|55:292,2,38.9999988098145,2|2|0,3:2|0:2|0:0,0:0:0:0:
186,293,205992,5,2,0:2:0:0:
186,293,206075,1,2,0:2:0:0:
186,293,206158,2,0,L|176:334,1,38.9999988098145,2|2,3:2|0:2,0:0:0:0:
261,353,206492,2,0,L|271:312,2,38.9999988098145,2|2|2,3:2|0:2|3:2,0:0:0:0:
