osu file format v14

[General]
AudioFilename: audio.ogg
AudioLeadIn: 0
PreviewTime: 92290
Countdown: 0
SampleSet: Normal
StackLeniency: 0.7
Mode: 1
LetterboxInBreaks: 0
WidescreenStoryboard: 1

[Editor]
Bookmarks: 9638,14811,17569,21018,25845,33087,36880,39638,43776,46535,51018,53087,55500,61707,65845,68259,71363,72742,78259,86190,88949,94811,96535,99983,101707,104811,109638,112742,118259,121363,127914,129294,130673,132052,133431,135156,136190,138949,140328,142397,146535,148949,151707,152742,154466,161018,163776,166535,167914,171018,172742,174121,179294,181363,184466,186535,189638,192742,195500,197914,201018,202397,205156,212052,214121,215845,217569,218949,220328,221707,223087,224466,227225,229983,235500,238604,241363,243776,247914,249638,255156,260673
DistanceSpacing: 3
BeatDivisor: 3
GridSize: 32
TimelineZoom: 1.470401

[Metadata]
Title:Glitched KKD
TitleUnicode:Glitched KKD
Artist:tellur
ArtistUnicode:テルル
Creator:paz08
Version:Muzukashii
Source:
Tags:electronic instrumental dnb drum and bass breakcore breakbeats tsundere violence TUNEDERE VOL. 6 himeko katagiri tellursmplng sampling teruru
BeatmapID:3583123
BeatmapSetID:1446763

[Difficulty]
HPDrainRate:6.6
CircleSize:2.8
OverallDifficulty:5
ApproachRate:9.8
SliderMultiplier:1.4
SliderTickRate:1

[Events]
//Background and Video events
0,0,"89175946_p0.jpg",0,-25
//Break Periods
//Storyboard Layer 0 (Background)
//Storyboard Layer 1 (Fail)
//Storyboard Layer 2 (Pass)
//Storyboard Layer 3 (Foreground)
//Storyboard Layer 4 (Overlay)
//Storyboard Sound Samples

[TimingPoints]
1363,344.827586206897,4,1,0,60,1,0
1363,-125,4,1,0,60,0,0
6866,-124.999115,4,1,0,60,0,0
7038,-124.99299,4,1,0,40,0,0
7211,-124.976265,4,1,0,41,0,0
7555,-124.8907,4,1,0,44,0,0
7728,-124.81093,4,1,0,46,0,0
7900,-124.700386,4,1,0,48,0,0
8245,-124.36474,4,1,0,51,0,0
8417,-124.13088,4,1,0,52,0,0
8590,-123.84479,4,1,0,54,0,0
8935,-123.10433,4,1,0,57,0,0
9107,-122.64259,4,1,0,59,0,0
9280,-122.11113,4,1,0,60,0,0
9366,-121.82092,4,1,0,61,0,0
9452,-121.51293,4,1,0,62,0,0
9624,-120.84234,4,1,0,64,0,0
9969,-119.27011,4,1,0,67,0,0
10314,-117.38481,4,1,0,70,0,0
10659,-115.18194,4,1,0,73,0,0
10745,-114.58367,4,1,0,74,0,0
10831,-113.96607,4,1,0,75,0,0
11004,-112.66583,4,1,0,77,0,0
11234,-110.82059,4,1,0,79,0,0
11349,-109.84971,4,1,0,80,0,0
11578,-107.82501,4,1,0,82,0,0
11693,-106.764404,4,1,0,83,0,0
11866,-105.11693,4,1,0,85,0,0
12038,-103.420845,4,1,0,86,0,0
12384,-100,4,1,0,90,0,0
34452,-100.71041,4,1,0,89,0,0
34538,-101.06749,4,1,0,89,0,0
34624,-101.42585,4,1,0,88,0,0
34797,-102.15058,4,1,0,88,0,0
35142,-103.61137,4,1,0,86,0,0
35228,-103.978745,4,1,0,86,0,0
35314,-104.34743,4,1,0,86,0,0
35486,-105.088715,4,1,0,85,0,0
35831,-106.591515,4,1,0,84,0,0
35917,-106.969444,4,1,0,83,0,0
36004,-107.35316,4,1,0,83,0,0
36176,-108.1158,4,1,0,82,0,0
36349,-108.888336,4,1,0,82,0,0
36435,-109.27442,4,1,0,81,0,0
36521,-109.66188,4,1,0,81,0,0
36693,-110.440926,4,1,0,80,0,0
36867,-111.111115,4,1,0,80,0,0
37225,-117.647058823529,4,1,0,80,0,0
41005,-117.18069,4,1,0,80,0,0
41350,-116.25614,4,1,0,80,0,0
41694,-115.341545,4,1,0,80,0,0
41867,-114.8843,4,1,0,80,0,0
41953,-114.657684,4,1,0,80,0,0
42039,-114.43151,4,1,0,80,0,0
42212,-113.97788,4,1,0,80,0,0
42384,-113.52866,4,1,0,80,0,0
42729,-112.63294,4,1,0,80,0,0
42901,-112.18902,4,1,0,80,0,0
43074,-111.74428,4,1,0,80,0,0
43246,-111.30386,4,1,0,80,0,0
43332,-111.0843,4,1,0,80,0,0
43418,-110.86517,4,1,0,80,0,0
43591,-110.42568,4,1,0,80,0,0
43763,-109.99047,4,1,0,80,0,0
44108,-109.12265,4,1,0,80,0,0
44453,-108.261696,4,1,0,80,0,0
44798,-107.407524,4,1,0,80,0,0
44970,-106.9842,4,1,0,80,0,0
45143,-106.56009,4,1,0,80,0,0
45487,-105.72178,4,1,0,80,0,0
45832,-104.88764,4,1,0,80,0,0
46005,-104.47185,4,1,0,80,0,0
46091,-104.26578,4,1,0,80,0,0
46177,-104.06009,4,1,0,80,0,0
46350,-103.64758,4,1,0,80,0,0
46509,-103.23907,4,1,0,80,0,0
46854,-102.42453,4,1,0,83,0,0
47199,-101.61642,4,1,0,85,0,0
47543,-100.81699,4,1,0,88,0,0
47702,-100.44962,4,1,0,89,0,0
47900,-95.41336,4,1,0,90,0,0
47986,-96.58087,4,1,0,90,0,0
48073,-97.776505,4,1,0,90,0,0
48246,-100,4,1,0,90,0,0
58603,-98.78765,4,1,0,93,0,0
58775,-97.89065,4,1,0,94,0,0
58948,-96.99664,4,1,0,96,0,0
59034,-96.55527,4,1,0,97,0,0
59120,-96.1159,4,1,0,98,0,0
59294,-95.2381,4,1,0,100,0,1
70328,-95.2380952380952,4,1,0,90,0,0
71363,-95.2381,4,1,0,100,0,1
71693,-95.16273,4,1,0,100,0,1
72038,-94.63594,4,1,0,100,0,1
72211,-94.06604,4,1,0,100,0,1
72297,-93.68536,4,1,0,100,0,1
72383,-93.233025,4,1,0,100,0,1
72555,-92.09557,4,1,0,100,0,1
72728,-90.615425,4,1,0,100,0,1
73061,-86.9565217391304,4,1,0,100,0,1
73246,-95.2380952380952,4,1,0,100,0,1
79969,-95.21398,4,1,0,100,0,1
80142,-95.120636,4,1,0,100,0,1
80228,-95.02253,4,1,0,100,0,1
80314,-94.87837,4,1,0,100,0,1
80486,-94.41826,4,1,0,100,0,1
80659,-93.67148,4,1,0,100,0,1
80831,-92.591415,4,1,0,100,0,1
81004,-91.12226,4,1,0,100,0,1
81090,-90.239914,4,1,0,100,0,1
81176,-89.25401,4,1,0,100,0,1
81363,-86.95652,4,1,0,100,0,0
81522,-125,4,1,0,50,0,0
83418,-124.890236,4,1,0,50,0,0
84108,-124.38043,4,1,0,50,0,0
85143,-122.52547,4,1,0,50,0,0
85487,-121.574295,4,1,0,50,0,0
86177,-119.133545,4,1,0,50,0,0
86522,-117.64706,4,1,0,50,0,0
86867,-111.111111111111,4,1,0,90,0,0
89854,-111.10387,4,1,0,90,0,0
89969,-111.08665,4,1,0,90,0,0
90199,-110.99788,4,1,0,90,0,0
90314,-110.91559,4,1,0,90,0,0
90544,-110.64877,4,1,0,90,0,0
90659,-110.45398,4,1,0,90,0,0
90774,-110.21167,4,1,0,90,0,0
91004,-109.56597,4,1,0,90,0,0
91349,-108.13273,4,1,0,90,0,0
91521,-107.184746,4,1,0,90,0,0
91693,-106.06997,4,1,0,90,0,0
91780,-105.44076,4,1,0,90,0,0
91866,-104.77503,4,1,0,90,0,0
92038,-103.31245,4,1,0,90,0,0
92384,-100,4,1,0,90,0,0
104810,-99.71399,4,1,0,91,0,0
105155,-98.57486,4,1,0,93,0,0
105499,-97.45198,4,1,0,95,0,0
105844,-96.338684,4,1,0,98,0,0
106017,-95.78521,4,1,0,99,0,0
106190,-95.2381,4,1,0,100,0,1
110328,-95.2380952380952,4,1,0,100,0,0
110673,-95.2380952380952,4,1,0,100,0,1
115499,-93.73805,4,1,0,100,0,1
115586,-92.98832,4,1,0,100,0,1
115672,-92.25311,4,1,0,100,0,1
115832,-90.9090909090909,4,1,0,100,0,1
120499,-91.623634,4,1,0,100,0,1
120586,-91.98719,4,1,0,100,0,1
120844,-93.07384,4,1,0,100,0,1
121017,-93.80966,4,1,0,100,0,1
121189,-94.547005,4,1,0,100,0,1
121275,-94.91784,4,1,0,100,0,1
121350,-95.2380952380952,4,1,0,100,0,1
125844,-95.224976,4,1,0,100,0,1
125930,-95.19383,4,1,0,100,0,1
126017,-95.13231,4,1,0,100,0,1
126275,-94.67595,4,1,0,100,0,1
126362,-94.3983,4,1,0,100,0,1
126534,-93.614334,4,1,0,100,0,1
126620,-93.09032,4,1,0,100,0,1
126706,-92.46975,4,1,0,100,0,1
126880,-90.90909,4,1,0,100,0,0
127026,-105.263157894737,4,1,0,80,0,0
136879,-103.908295,4,1,0,83,0,0
137051,-103.23936,4,1,0,84,0,0
137137,-102.9065,4,1,0,84,0,0
137224,-102.57087,4,1,0,85,0,0
137396,-101.91053,4,1,0,86,0,0
137482,-101.58197,4,1,0,87,0,0
137568,-101.25446,4,1,0,88,0,0
137741,-100.59883,4,1,0,89,0,0
137914,-100,4,1,0,90,0,0
138259,-95.2380952380952,4,1,0,100,0,1
146189,-95.239006,4,1,0,100,0,1
146275,-95.241196,4,1,0,100,0,1
146362,-95.2455,4,1,0,100,0,1
146534,-95.263,4,1,0,100,0,1
146879,-95.3536,4,1,0,100,0,1
147224,-95.555855,4,1,0,100,0,1
147396,-95.71277,4,1,0,100,0,1
147482,-95.8078,4,1,0,100,0,1
147568,-95.91488,4,1,0,100,0,1
147741,-96.17003,4,1,0,100,0,1
147913,-96.481735,4,1,0,100,0,1
148258,-97.30926,4,1,0,100,0,1
148430,-97.83773,4,1,0,100,0,1
148603,-98.45821,4,1,0,100,0,1
148689,-98.8027,4,1,0,100,0,1
148775,-99.17277,4,1,0,100,0,1
148949,-100,4,1,0,100,0,0
149108,-105.263157894737,4,1,0,80,0,0
157224,-105.261635,4,1,0,81,0,0
157310,-105.25805,4,1,0,81,0,0
157396,-105.25107,4,1,0,81,0,0
157568,-105.222496,4,1,0,82,0,0
157913,-105.07496,4,1,0,83,0,0
158086,-104.937805,4,1,0,84,0,0
158172,-104.85011,4,1,0,84,0,0
158258,-104.748085,4,1,0,85,0,0
158430,-104.496864,4,1,0,85,0,0
158603,-104.17413,4,1,0,86,0,0
158862,-103.54336,4,1,0,87,0,0
159120,-102.71906,4,1,0,88,0,0
159293,-102.04721,4,1,0,88,0,0
159465,-101.27904,4,1,0,89,0,0
159637,-100.40745,4,1,0,90,0,0
159712,-100,4,1,0,90,0,0
159983,-95.2380952380952,4,1,0,100,0,1
193430,-95.24014,4,1,0,100,0,1
193517,-95.254776,4,1,0,100,0,1
193603,-95.29407,4,1,0,100,0,1
193775,-95.49655,4,1,0,100,0,1
193948,-95.952805,4,1,0,100,0,1
194120,-96.766624,4,1,0,100,0,1
194206,-97.345764,4,1,0,100,0,1
194293,-98.07148,4,1,0,100,0,1
194466,-100,4,1,0,100,0,0
194625,-105.263157894737,4,1,0,80,0,0
197741,-105.26288,4,1,0,80,0,0
197913,-105.25548,4,1,0,81,0,0
198237,-105.17509,4,1,0,83,0,0
198603,-104.88359,4,1,0,84,0,0
198775,-104.6387,4,1,0,85,0,0
198862,-104.48275,4,1,0,85,0,0
198948,-104.30539,4,1,0,86,0,0
199120,-103.87582,4,1,0,86,0,0
199293,-103.33412,4,1,0,87,0,0
199637,-101.89329,4,1,0,89,0,0
199724,-101.44656,4,1,0,89,0,0
199810,-100.970825,4,1,0,89,0,0
199970,-100,4,1,0,90,0,0
204982,-101.288704,4,1,0,90,0,0
205155,-102.60166,4,1,0,90,0,0
205499,-105.26316,4,1,0,90,0,0
205832,-111.111111111111,4,1,0,90,0,0
213775,-109.81213,4,1,0,90,0,0
213862,-109.48697,4,1,0,90,0,0
213948,-109.16649,4,1,0,90,0,0
214120,-108.528336,4,1,0,90,0,0
214465,-107.259544,4,1,0,90,0,0
214637,-106.63253,4,1,0,90,0,0
214810,-106.00558,4,1,0,90,0,0
215155,-104.76628,4,1,0,90,0,0
215241,-104.459625,4,1,0,90,0,0
215327,-104.153854,4,1,0,90,0,0
215499,-103.545,4,1,0,90,0,0
215672,-102.93621,4,1,0,90,0,0
215844,-102.33448,4,1,0,90,0,0
216189,-101.13809,4,1,0,90,0,0
216522,-100,4,1,0,90,0,0
227914,-95.2380952380952,4,1,0,95,0,1
236879,-95.23459,4,1,0,95,0,1
237224,-95.14393,4,1,0,96,0,1
237396,-95.01582,4,1,0,97,0,1
237568,-94.80569,4,1,0,97,0,1
237655,-94.66197,4,1,0,98,0,1
237741,-94.492065,4,1,0,98,0,1
237913,-94.06031,4,1,0,98,0,1
238086,-93.48851,4,1,0,99,0,1
238258,-92.76857,4,1,0,99,0,1
238344,-92.34803,4,1,0,99,0,1
238430,-91.88538,4,1,0,100,0,1
238591,-90.90909,4,1,0,100,0,1
241017,-92.33254,4,1,0,97,0,1
241103,-93.048416,4,1,0,95,0,1
241189,-93.76985,4,1,0,93,0,1
241363,-95.2381,4,1,0,90,0,0
243430,-94.35815,4,1,0,92,0,0
243517,-93.91615,4,1,0,93,0,0
243603,-93.48129,4,1,0,94,0,0
243775,-92.61756,4,1,0,96,0,0
244121,-90.90909,4,1,0,100,0,1
246534,-92.327,4,1,0,97,0,1
246620,-93.044235,4,1,0,95,0,1
246706,-93.76704,4,1,0,93,0,1
246880,-95.2381,4,1,0,90,0,0
249983,-90.90909091,4,1,0,100,0,1
252051,-91.991516,4,1,0,97,0,1
252396,-94.20169,4,1,0,92,0,0
252556,-95.23809872,4,1,0,90,0,0
255500,-90.90909,4,1,0,100,0,1
257568,-91.989914,4,1,0,97,0,1
257655,-92.5415,4,1,0,96,0,1
257741,-93.08999,4,1,0,95,0,1
257913,-94.19674,4,1,0,92,0,0
258074,-95.23809872,4,1,0,90,0,0
259465,-95.22905,4,1,0,91,0,0
259551,-95.20754,4,1,0,92,0,0
259637,-95.16572,4,1,0,93,0,0
259810,-94.99287,4,1,0,94,0,0
259982,-94.65967,4,1,0,95,0,0
260155,-94.111946,4,1,0,96,0,0
260241,-93.745964,4,1,0,97,0,0
260327,-93.31091,4,1,0,98,0,0
260499,-92.21621,4,1,0,99,0,0
260660,-90.90909091,4,1,0,5,0,0

[HitObjects]
256,192,6880,5,0,0:0:0:0:
256,192,7052,1,0,0:0:0:0:
256,192,7225,1,8,0:0:0:0:
256,192,7569,1,8,0:0:0:0:
256,192,7742,1,0,0:0:0:0:
256,192,7914,1,8,0:0:0:0:
256,192,8259,1,0,0:0:0:0:
256,192,8431,1,0,0:0:0:0:
256,192,8604,1,8,0:0:0:0:
256,192,8949,1,8,0:0:0:0:
256,192,9121,1,0,0:0:0:0:
256,192,9294,1,8,0:0:0:0:
256,192,9380,1,8,0:0:0:0:
256,192,9466,1,8,0:0:0:0:
256,192,9638,1,0,0:0:0:0:
256,192,9983,1,0,0:0:0:0:
256,192,10328,1,8,0:0:0:0:
256,192,10673,1,8,0:0:0:0:
256,192,10759,1,8,0:0:0:0:
256,192,10845,1,8,0:0:0:0:
256,192,11018,1,0,0:0:0:0:
256,192,11248,1,8,0:0:0:0:
256,192,11363,1,0,0:0:0:0:
256,192,11592,1,8,0:0:0:0:
256,192,11707,1,0,0:0:0:0:
256,192,11880,1,0,0:0:0:0:
256,192,12052,1,8,0:0:0:0:
256,192,12397,1,4,0:0:0:0:
256,192,12742,1,8,0:0:0:0:
256,192,13087,1,0,0:0:0:0:
256,192,13259,1,8,0:0:0:0:
256,192,13431,1,0,0:0:0:0:
256,192,13776,1,8,0:0:0:0:
256,192,13863,1,8,0:0:0:0:
256,192,13949,1,8,0:0:0:0:
256,192,14121,1,0,0:0:0:0:
256,192,14294,1,8,0:0:0:0:
256,192,14380,1,8,0:0:0:0:
256,192,14466,1,8,0:0:0:0:
256,192,14638,1,0,0:0:0:0:
256,192,14811,1,8,0:0:0:0:
256,192,15156,1,0,0:0:0:0:
256,192,15500,1,8,0:0:0:0:
256,192,15845,1,8,0:0:0:0:
256,192,16018,1,0,0:0:0:0:
256,192,16104,1,0,0:0:0:0:
256,192,16190,1,0,0:0:0:0:
256,192,16363,1,8,0:0:0:0:
256,192,16535,1,0,0:0:0:0:
256,192,16880,1,8,0:0:0:0:
256,192,17052,1,0,0:0:0:0:
256,192,17225,1,0,0:0:0:0:
256,192,17311,1,0,0:0:0:0:
256,192,17397,1,0,0:0:0:0:
256,192,17569,1,8,0:0:0:0:
256,192,17914,1,0,0:0:0:0:
256,192,18259,1,8,0:0:0:0:
256,192,18604,1,0,0:0:0:0:
256,192,18776,1,8,0:0:0:0:
256,192,18949,1,0,0:0:0:0:
256,192,19035,1,0,0:0:0:0:
256,192,19121,1,0,0:0:0:0:
256,192,19294,1,8,0:0:0:0:
256,192,19638,1,0,0:0:0:0:
256,192,19811,1,8,0:0:0:0:
256,192,20156,1,0,0:0:0:0:
256,192,20328,1,8,0:0:0:0:
256,192,20500,1,0,0:0:0:0:
256,192,20673,1,8,0:0:0:0:
256,192,20759,1,8,0:0:0:0:
256,192,20845,1,8,0:0:0:0:
256,192,21018,1,0,0:0:0:0:
256,192,21363,1,8,0:0:0:0:
256,192,21707,1,8,0:0:0:0:
256,192,22052,1,0,0:0:0:0:
256,192,22225,1,0,0:0:0:0:
256,192,22311,1,0,0:0:0:0:
256,192,22397,1,0,0:0:0:0:
256,192,22569,1,8,0:0:0:0:
256,192,22742,1,0,0:0:0:0:
256,192,22914,1,0,0:0:0:0:
256,192,23087,1,8,0:0:0:0:
256,192,23173,1,8,0:0:0:0:
256,192,23259,1,8,0:0:0:0:
256,192,23431,1,0,0:0:0:0:
256,192,23776,1,8,0:0:0:0:
256,192,23949,1,0,0:0:0:0:
256,192,24121,1,8,0:0:0:0:
256,192,24466,1,8,0:0:0:0:
256,192,24552,1,8,0:0:0:0:
256,192,24638,1,8,0:0:0:0:
256,192,24811,1,0,0:0:0:0:
256,192,24983,1,0,0:0:0:0:
256,192,25156,1,8,0:0:0:0:
256,192,25328,1,0,0:0:0:0:
256,192,25414,1,0,0:0:0:0:
256,192,25500,1,0,0:0:0:0:
256,192,25673,1,0,0:0:0:0:
256,192,25845,1,8,0:0:0:0:
256,192,26190,1,0,0:0:0:0:
256,192,26535,1,8,0:0:0:0:
256,192,26880,1,8,0:0:0:0:
256,192,26966,1,8,0:0:0:0:
256,192,27052,1,8,0:0:0:0:
256,192,27225,1,0,0:0:0:0:
256,192,27397,1,8,0:0:0:0:
256,192,27569,1,0,0:0:0:0:
256,192,27914,1,8,0:0:0:0:
256,192,28087,1,8,0:0:0:0:
256,192,28259,1,0,0:0:0:0:
256,192,28345,1,0,0:0:0:0:
256,192,28431,1,0,0:0:0:0:
256,192,28604,1,8,0:0:0:0:
256,192,28949,1,0,0:0:0:0:
256,192,29121,1,0,0:0:0:0:
256,192,29294,1,8,0:0:0:0:
256,192,29380,1,8,0:0:0:0:
256,192,29638,1,0,0:0:0:0:
256,192,29725,1,0,0:0:0:0:
256,192,29983,1,8,0:0:0:0:
256,192,30328,1,0,0:0:0:0:
256,192,30673,1,0,0:0:0:0:
256,192,30759,1,0,0:0:0:0:
256,192,30845,1,0,0:0:0:0:
256,192,31018,1,8,0:0:0:0:
256,192,31190,1,0,0:0:0:0:
256,192,31363,1,8,0:0:0:0:
256,192,31707,1,0,0:0:0:0:
256,192,31794,1,0,0:0:0:0:
256,192,31880,1,0,0:0:0:0:
256,192,32052,1,8,0:0:0:0:
256,192,32225,1,0,0:0:0:0:
256,192,32397,1,8,0:0:0:0:
256,192,32742,1,0,0:0:0:0:
256,192,32914,1,8,0:0:0:0:
256,192,33087,1,0,0:0:0:0:
256,192,33431,1,8,0:0:0:0:
256,192,33776,1,0,0:0:0:0:
256,192,34121,1,8,0:0:0:0:
256,192,34294,1,8,0:0:0:0:
256,192,34466,1,0,0:0:0:0:
256,192,34552,1,0,0:0:0:0:
256,192,34638,1,0,0:0:0:0:
256,192,34811,1,8,0:0:0:0:
256,192,35156,1,0,0:0:0:0:
256,192,35242,1,0,0:0:0:0:
256,192,35328,1,0,0:0:0:0:
256,192,35500,1,8,0:0:0:0:
256,192,35845,1,0,0:0:0:0:
256,192,35931,1,0,0:0:0:0:
256,192,36018,1,0,0:0:0:0:
256,192,36190,1,8,0:0:0:0:
256,192,36363,1,8,0:0:0:0:
256,192,36449,1,8,0:0:0:0:
256,192,36535,1,8,0:0:0:0:
256,192,36707,1,0,0:0:0:0:
256,192,36880,1,8,0:0:0:0:
256,192,37225,1,0,0:0:0:0:
256,192,37569,1,8,0:0:0:0:
256,192,37914,1,8,0:0:0:0:
256,192,38087,1,0,0:0:0:0:
256,192,38259,1,8,0:0:0:0:
256,192,38604,1,0,0:0:0:0:
256,192,38949,1,8,0:0:0:0:
256,192,39121,1,0,0:0:0:0:
256,192,39207,1,0,0:0:0:0:
256,192,39294,1,0,0:0:0:0:
256,192,39466,1,0,0:0:0:0:
256,192,39638,1,8,0:0:0:0:
256,192,39983,1,0,0:0:0:0:
256,192,40328,1,8,0:0:0:0:
256,192,40673,1,8,0:0:0:0:
256,192,40845,1,0,0:0:0:0:
256,192,41018,1,8,0:0:0:0:
256,192,41363,1,0,0:0:0:0:
256,192,41707,1,8,0:0:0:0:
256,192,41880,1,0,0:0:0:0:
256,192,41966,1,0,0:0:0:0:
256,192,42052,1,0,0:0:0:0:
256,192,42225,1,0,0:0:0:0:
256,192,42397,1,8,0:0:0:0:
256,192,42742,1,8,0:0:0:0:
256,192,42914,1,0,0:0:0:0:
256,192,43087,1,8,0:0:0:0:
256,192,43259,1,0,0:0:0:0:
256,192,43345,1,0,0:0:0:0:
256,192,43431,1,0,0:0:0:0:
256,192,43604,1,0,0:0:0:0:
256,192,43776,1,8,0:0:0:0:
256,192,44121,1,0,0:0:0:0:
256,192,44466,1,8,0:0:0:0:
256,192,44811,1,8,0:0:0:0:
256,192,44983,1,0,0:0:0:0:
256,192,45156,1,8,0:0:0:0:
256,192,45500,1,0,0:0:0:0:
256,192,45845,1,8,0:0:0:0:
256,192,46018,1,0,0:0:0:0:
256,192,46104,1,0,0:0:0:0:
256,192,46190,1,0,0:0:0:0:
256,192,46363,1,0,0:0:0:0:
256,192,46535,1,8,0:0:0:0:
256,192,46880,1,0,0:0:0:0:
256,192,47225,1,8,0:0:0:0:
256,192,47569,1,8,0:0:0:0:
256,192,47742,1,0,0:0:0:0:
256,192,47914,1,8,0:0:0:0:
256,192,48000,1,8,0:0:0:0:
256,192,48087,1,8,0:0:0:0:
256,192,48259,1,4,0:0:0:0:
256,192,48604,1,8,0:0:0:0:
256,192,48776,1,0,0:0:0:0:
256,192,48863,1,0,0:0:0:0:
256,192,48949,1,0,0:0:0:0:
256,192,49121,1,0,0:0:0:0:
256,192,49294,1,8,0:0:0:0:
256,192,49466,1,8,0:0:0:0:
256,192,49811,1,0,0:0:0:0:
256,192,50069,1,8,0:0:0:0:
256,192,50328,1,0,0:0:0:0:
256,192,50587,1,8,0:0:0:0:
256,192,50845,1,0,0:0:0:0:
256,192,51018,1,12,0:0:0:0:
256,192,51363,1,8,0:0:0:0:
256,192,51707,1,0,0:0:0:0:
256,192,52052,1,8,0:0:0:0:
256,192,52225,1,0,0:0:0:0:
256,192,52311,1,0,0:0:0:0:
256,192,52397,1,0,0:0:0:0:
256,192,52569,1,8,0:0:0:0:
256,192,52742,1,8,0:0:0:0:
256,192,52828,1,8,0:0:0:0:
256,192,53087,1,0,0:0:0:0:
256,192,53431,1,8,0:0:0:0:
256,192,53776,1,8,0:0:0:0:
256,192,53949,1,0,0:0:0:0:
256,192,54121,1,8,0:0:0:0:
256,192,54207,1,8,0:0:0:0:
256,192,54466,1,0,0:0:0:0:
256,192,54552,1,0,0:0:0:0:
256,192,54811,1,8,0:0:0:0:
256,192,54983,1,0,0:0:0:0:
256,192,55156,1,0,0:0:0:0:
256,192,55242,1,0,0:0:0:0:
256,192,55328,1,0,0:0:0:0:
256,192,55500,1,8,0:0:0:0:
256,192,55845,1,0,0:0:0:0:
256,192,56190,1,8,0:0:0:0:
256,192,56535,1,0,0:0:0:0:
256,192,56707,1,8,0:0:0:0:
256,192,56880,1,0,0:0:0:0:
256,192,57052,1,8,0:0:0:0:
256,192,57225,1,0,0:0:0:0:
256,192,57340,1,0,0:0:0:0:
256,192,57454,1,0,0:0:0:0:
256,192,57684,1,0,0:0:0:0:
256,192,57914,1,8,0:0:0:0:
256,192,58144,1,8,0:0:0:0:
256,192,58259,1,8,0:0:0:0:
256,192,58374,1,8,0:0:0:0:
256,192,58604,1,0,0:0:0:0:
256,192,58776,1,8,0:0:0:0:
256,192,58949,1,0,0:0:0:0:
256,192,59035,1,0,0:0:0:0:
256,192,59121,1,0,0:0:0:0:
256,192,59294,1,8,0:0:0:0:
256,192,59638,1,8,0:0:0:0:
256,192,59811,1,0,0:0:0:0:
256,192,59897,1,0,0:0:0:0:
256,192,59983,1,0,0:0:0:0:
256,192,60156,1,0,0:0:0:0:
256,192,60328,1,8,0:0:0:0:
256,192,60673,1,0,0:0:0:0:
256,192,60845,1,8,0:0:0:0:
256,192,60931,1,8,0:0:0:0:
256,192,61018,1,8,0:0:0:0:
256,192,61190,1,0,0:0:0:0:
256,192,61363,1,0,0:0:0:0:
256,192,61449,1,0,0:0:0:0:
256,192,61535,1,0,0:0:0:0:
256,192,61707,1,8,0:0:0:0:
256,192,62052,1,0,0:0:0:0:
256,192,62397,1,8,0:0:0:0:
256,192,62569,1,8,0:0:0:0:
256,192,62656,1,8,0:0:0:0:
256,192,62742,1,8,0:0:0:0:
256,192,62914,1,0,0:0:0:0:
256,192,63087,1,8,0:0:0:0:
256,192,63431,1,0,0:0:0:0:
256,192,63604,1,8,0:0:0:0:
256,192,63776,1,8,0:0:0:0:
256,192,64035,1,0,0:0:0:0:
256,192,64207,1,0,0:0:0:0:
256,192,64380,1,8,0:0:0:0:
256,192,64466,1,8,0:0:0:0:
256,192,64638,1,8,0:0:0:0:
256,192,64811,1,0,0:0:0:0:
256,192,65156,1,8,0:0:0:0:
256,192,65328,1,8,0:0:0:0:
256,192,65500,1,0,0:0:0:0:
256,192,65587,1,0,0:0:0:0:
256,192,65673,1,0,0:0:0:0:
256,192,65845,1,8,0:0:0:0:
256,192,66190,1,0,0:0:0:0:
256,192,66535,1,8,0:0:0:0:
256,192,66707,1,0,0:0:0:0:
256,192,66794,1,0,0:0:0:0:
256,192,67052,1,8,0:0:0:0:
256,192,67225,1,0,0:0:0:0:
256,192,67569,1,0,0:0:0:0:
256,192,67742,1,8,0:0:0:0:
256,192,67828,1,8,0:0:0:0:
256,192,67914,1,8,0:0:0:0:
256,192,68087,1,8,0:0:0:0:
256,192,68259,1,0,0:0:0:0:
256,192,68604,1,8,0:0:0:0:
256,192,68949,1,0,0:0:0:0:
256,192,69121,1,0,0:0:0:0:
256,192,69294,1,8,0:0:0:0:
256,192,69466,1,8,0:0:0:0:
256,192,69638,1,0,0:0:0:0:
256,192,69725,1,0,0:0:0:0:
256,192,69811,1,0,0:0:0:0:
256,192,69983,1,8,0:0:0:0:
256,192,70328,1,8,0:0:0:0:
256,192,70414,1,8,0:0:0:0:
256,192,70500,1,8,0:0:0:0:
256,192,70673,1,0,0:0:0:0:
256,192,71018,1,0,0:0:0:0:
256,192,71104,1,0,0:0:0:0:
256,192,71190,1,0,0:0:0:0:
256,192,71363,1,8,0:0:0:0:
256,192,71707,1,0,0:0:0:0:
256,192,72052,1,8,0:0:0:0:
256,192,72225,1,8,0:0:0:0:
256,192,72311,1,8,0:0:0:0:
256,192,72397,1,8,0:0:0:0:
256,192,72569,1,0,0:0:0:0:
256,192,72742,1,8,0:0:0:0:
256,192,73087,1,4,0:0:0:0:
256,192,73431,1,8,0:0:0:0:
256,192,73604,1,0,0:0:0:0:
256,192,73949,1,8,0:0:0:0:
256,192,74121,1,0,0:0:0:0:
256,192,74466,1,8,0:0:0:0:
256,192,74638,1,0,0:0:0:0:
256,192,74725,1,0,0:0:0:0:
256,192,74811,1,0,0:0:0:0:
256,192,74983,1,8,0:0:0:0:
256,192,75156,1,0,0:0:0:0:
256,192,75328,1,0,0:0:0:0:
256,192,75500,1,8,0:0:0:0:
256,192,75845,1,0,0:0:0:0:
256,192,75931,1,0,0:0:0:0:
256,192,76018,1,0,0:0:0:0:
256,192,76190,1,8,0:0:0:0:
256,192,76535,1,0,0:0:0:0:
256,192,76707,1,0,0:0:0:0:
256,192,76880,1,8,0:0:0:0:
256,192,76966,1,8,0:0:0:0:
256,192,77052,1,8,0:0:0:0:
256,192,77225,1,0,0:0:0:0:
256,192,77569,1,8,0:0:0:0:
256,192,77742,1,0,0:0:0:0:
256,192,77828,1,0,0:0:0:0:
256,192,77914,1,0,0:0:0:0:
256,192,78087,1,0,0:0:0:0:
256,192,78259,1,8,0:0:0:0:
256,192,78604,1,0,0:0:0:0:
256,192,78949,1,8,0:0:0:0:
256,192,79121,1,0,0:0:0:0:
256,192,79207,1,0,0:0:0:0:
256,192,79380,1,0,0:0:0:0:
256,192,79552,1,8,0:0:0:0:
256,192,79638,1,8,0:0:0:0:
256,192,79983,1,8,0:0:0:0:
256,192,80156,1,0,0:0:0:0:
256,192,80242,1,0,0:0:0:0:
256,192,80328,1,0,0:0:0:0:
256,192,80500,1,8,0:0:0:0:
256,192,80673,1,0,0:0:0:0:
256,192,80845,1,0,0:0:0:0:
256,192,81018,1,8,0:0:0:0:
256,192,81104,1,8,0:0:0:0:
256,192,81190,1,8,0:0:0:0:
256,192,81363,1,4,0:0:0:0:
256,192,82742,1,0,0:0:0:0:
256,192,83431,1,0,0:0:0:0:
256,192,84121,1,8,0:0:0:0:
256,192,85156,1,8,0:0:0:0:
256,192,85500,1,0,0:0:0:0:
256,192,86190,1,8,0:0:0:0:
256,192,86535,1,8,0:0:0:0:
256,192,86880,1,0,0:0:0:0:
256,192,87052,1,0,0:0:0:0:
256,192,87225,1,8,0:0:0:0:
256,192,87569,1,0,0:0:0:0:
256,192,87656,1,0,0:0:0:0:
256,192,87742,1,0,0:0:0:0:
256,192,87914,1,8,0:0:0:0:
256,192,88259,1,8,0:0:0:0:
256,192,88374,1,8,0:0:0:0:
256,192,88604,1,8,0:0:0:0:
256,192,88719,1,8,0:0:0:0:
256,192,88949,1,0,0:0:0:0:
256,192,89294,1,8,0:0:0:0:
256,192,89638,1,0,0:0:0:0:
256,192,89868,1,8,0:0:0:0:
256,192,89983,1,8,0:0:0:0:
256,192,90213,1,0,0:0:0:0:
256,192,90328,1,0,0:0:0:0:
256,192,90558,1,8,0:0:0:0:
256,192,90673,1,8,0:0:0:0:
256,192,90788,1,8,0:0:0:0:
256,192,91018,1,0,0:0:0:0:
256,192,91363,1,8,0:0:0:0:
256,192,91535,1,8,0:0:0:0:
256,192,91707,1,0,0:0:0:0:
256,192,91794,1,0,0:0:0:0:
256,192,91880,1,0,0:0:0:0:
256,192,92052,1,8,0:0:0:0:
256,192,92397,1,8,0:0:0:0:
256,192,92569,1,0,0:0:0:0:
256,192,92742,1,8,0:0:0:0:
256,192,93087,1,0,0:0:0:0:
256,192,93173,1,0,0:0:0:0:
256,192,93259,1,0,0:0:0:0:
256,192,93431,1,8,0:0:0:0:
256,192,93604,1,0,0:0:0:0:
256,192,93776,1,8,0:0:0:0:
256,192,94035,1,8,0:0:0:0:
256,192,94294,1,0,0:0:0:0:
256,192,94552,1,0,0:0:0:0:
256,192,94811,1,8,0:0:0:0:
256,192,95156,1,0,0:0:0:0:
256,192,95500,1,8,0:0:0:0:
256,192,95845,1,0,0:0:0:0:
256,192,96018,1,0,0:0:0:0:
256,192,96190,1,8,0:0:0:0:
256,192,96276,1,8,0:0:0:0:
256,192,96363,1,8,0:0:0:0:
256,192,96535,1,0,0:0:0:0:
256,192,96880,1,8,0:0:0:0:
256,192,97225,1,0,0:0:0:0:
256,192,97311,1,0,0:0:0:0:
256,192,97397,1,0,0:0:0:0:
256,192,97569,1,8,0:0:0:0:
256,192,97742,1,8,0:0:0:0:
256,192,97914,1,0,0:0:0:0:
256,192,98259,1,8,0:0:0:0:
256,192,98431,1,8,0:0:0:0:
256,192,98604,1,0,0:0:0:0:
256,192,98690,1,0,0:0:0:0:
256,192,98776,1,0,0:0:0:0:
256,192,98949,1,8,0:0:0:0:
256,192,99294,1,0,0:0:0:0:
256,192,99466,1,0,0:0:0:0:
256,192,99638,1,8,0:0:0:0:
256,192,99725,1,8,0:0:0:0:
256,192,99811,1,8,0:0:0:0:
256,192,99983,1,0,0:0:0:0:
256,192,100328,1,8,0:0:0:0:
256,192,100673,1,0,0:0:0:0:
256,192,100845,1,0,0:0:0:0:
256,192,101018,1,8,0:0:0:0:
256,192,101276,1,8,0:0:0:0:
256,192,101363,1,8,0:0:0:0:
256,192,101535,1,0,0:0:0:0:
256,192,101707,1,8,0:0:0:0:
256,192,102052,1,0,0:0:0:0:
256,192,102397,1,8,0:0:0:0:
256,192,102569,1,8,0:0:0:0:
256,192,102656,1,8,0:0:0:0:
256,192,102828,1,0,0:0:0:0:
256,192,103087,1,8,0:0:0:0:
256,192,103259,1,8,0:0:0:0:
256,192,103431,1,0,0:0:0:0:
256,192,103776,1,0,0:0:0:0:
256,192,103949,1,0,0:0:0:0:
256,192,104121,1,8,0:0:0:0:
256,192,104207,1,8,0:0:0:0:
256,192,104294,1,8,0:0:0:0:
256,192,104466,1,8,0:0:0:0:
256,192,104638,1,0,0:0:0:0:
256,192,104725,1,0,0:0:0:0:
256,192,104811,1,0,0:0:0:0:
256,192,105156,1,0,0:0:0:0:
256,192,105500,1,8,0:0:0:0:
256,192,105845,1,0,0:0:0:0:
256,192,106018,1,8,0:0:0:0:
256,192,106190,1,4,0:0:0:0:
256,192,106535,1,8,0:0:0:0:
256,192,106707,1,0,0:0:0:0:
256,192,106794,1,0,0:0:0:0:
256,192,106880,1,0,0:0:0:0:
256,192,107052,1,8,0:0:0:0:
256,192,107225,1,8,0:0:0:0:
256,192,107397,1,0,0:0:0:0:
256,192,107569,1,8,0:0:0:0:
256,192,107656,1,8,0:0:0:0:
256,192,107742,1,8,0:0:0:0:
256,192,107914,1,8,0:0:0:0:
256,192,108259,1,0,0:0:0:0:
256,192,108431,1,8,0:0:0:0:
256,192,108518,1,8,0:0:0:0:
256,192,108604,1,8,0:0:0:0:
256,192,108776,1,8,0:0:0:0:
256,192,108949,1,0,0:0:0:0:
256,192,109121,1,0,0:0:0:0:
256,192,109294,1,8,0:0:0:0:
256,192,109466,1,0,0:0:0:0:
256,192,109552,1,0,0:0:0:0:
256,192,109638,1,0,0:0:0:0:
256,192,109983,1,8,0:0:0:0:
256,192,110328,1,0,0:0:0:0:
256,192,110673,1,8,0:0:0:0:
256,192,110759,1,8,0:0:0:0:
256,192,110845,1,8,0:0:0:0:
256,192,111018,1,8,0:0:0:0:
256,192,111104,1,8,0:0:0:0:
256,192,111190,1,8,0:0:0:0:
256,192,111363,1,0,0:0:0:0:
256,192,111535,1,8,0:0:0:0:
256,192,111707,1,0,0:0:0:0:
256,192,112052,1,8,0:0:0:0:
256,192,112225,1,0,0:0:0:0:
256,192,112397,1,8,0:0:0:0:
256,192,112483,1,8,0:0:0:0:
256,192,112569,1,8,0:0:0:0:
256,192,112742,1,8,0:0:0:0:
256,192,113087,1,0,0:0:0:0:
256,192,113431,1,8,0:0:0:0:
256,192,113604,1,8,0:0:0:0:
256,192,113776,1,0,0:0:0:0:
256,192,113863,1,0,0:0:0:0:
256,192,113949,1,0,0:0:0:0:
256,192,114121,1,8,0:0:0:0:
256,192,114466,1,8,0:0:0:0:
256,192,114581,1,8,0:0:0:0:
256,192,114811,1,8,0:0:0:0:
256,192,114926,1,8,0:0:0:0:
256,192,115156,1,0,0:0:0:0:
256,192,115328,1,0,0:0:0:0:
256,192,115500,1,8,0:0:0:0:
256,192,115587,1,8,0:0:0:0:
256,192,115673,1,8,0:0:0:0:
256,192,115845,1,4,0:0:0:0:
256,192,116190,1,8,0:0:0:0:
256,192,116276,1,8,0:0:0:0:
256,192,116363,1,8,0:0:0:0:
256,192,116535,1,8,0:0:0:0:
256,192,116707,1,0,0:0:0:0:
256,192,116880,1,8,0:0:0:0:
256,192,117052,1,0,0:0:0:0:
256,192,117138,1,0,0:0:0:0:
256,192,117225,1,0,0:0:0:0:
256,192,117569,1,8,0:0:0:0:
256,192,117742,1,8,0:0:0:0:
256,192,117828,1,8,0:0:0:0:
256,192,117914,1,8,0:0:0:0:
256,192,118087,1,0,0:0:0:0:
256,192,118259,1,8,0:0:0:0:
256,192,118604,1,0,0:0:0:0:
256,192,118949,1,8,0:0:0:0:
256,192,119121,1,8,0:0:0:0:
256,192,119207,1,8,0:0:0:0:
256,192,119294,1,8,0:0:0:0:
256,192,119466,1,0,0:0:0:0:
256,192,119638,1,8,0:0:0:0:
256,192,119811,1,0,0:0:0:0:
256,192,119897,1,0,0:0:0:0:
256,192,119983,1,0,0:0:0:0:
256,192,120328,1,8,0:0:0:0:
256,192,120500,1,8,0:0:0:0:
256,192,120587,1,8,0:0:0:0:
256,192,120845,1,0,0:0:0:0:
256,192,121018,1,8,0:0:0:0:
256,192,121190,1,0,0:0:0:0:
256,192,121276,1,0,0:0:0:0:
256,192,121363,1,0,0:0:0:0:
256,192,121707,1,0,0:0:0:0:
256,192,122052,1,8,0:0:0:0:
256,192,122225,1,0,0:0:0:0:
256,192,122311,1,0,0:0:0:0:
256,192,122397,1,0,0:0:0:0:
256,192,122569,1,0,0:0:0:0:
256,192,122742,1,8,0:0:0:0:
256,192,123087,1,8,0:0:0:0:
256,192,123259,1,8,0:0:0:0:
256,192,123431,1,0,0:0:0:0:
256,192,123518,1,0,0:0:0:0:
256,192,123604,1,0,0:0:0:0:
256,192,123776,1,8,0:0:0:0:
256,192,123949,1,8,0:0:0:0:
256,192,124035,1,8,0:0:0:0:
256,192,124121,1,8,0:0:0:0:
256,192,124294,1,0,0:0:0:0:
256,192,124466,1,0,0:0:0:0:
256,192,124638,1,8,0:0:0:0:
256,192,124983,1,0,0:0:0:0:
256,192,125156,1,8,0:0:0:0:
256,192,125500,1,0,0:0:0:0:
256,192,125673,1,0,0:0:0:0:
256,192,125845,1,8,0:0:0:0:
256,192,125931,1,8,0:0:0:0:
256,192,126018,1,8,0:0:0:0:
256,192,126276,1,0,0:0:0:0:
256,192,126363,1,0,0:0:0:0:
256,192,126535,1,8,0:0:0:0:
256,192,126621,1,8,0:0:0:0:
256,192,126707,1,8,0:0:0:0:
256,192,126880,1,4,0:0:0:0:
256,192,127225,1,8,0:0:0:0:
256,192,127569,1,0,0:0:0:0:
256,192,127742,1,0,0:0:0:0:
256,192,127914,1,8,0:0:0:0:
256,192,128259,1,0,0:0:0:0:
256,192,128604,1,8,0:0:0:0:
256,192,128776,1,0,0:0:0:0:
256,192,128863,1,0,0:0:0:0:
256,192,128949,1,0,0:0:0:0:
256,192,129121,1,0,0:0:0:0:
256,192,129294,1,8,0:0:0:0:
256,192,129638,1,0,0:0:0:0:
256,192,129983,1,8,0:0:0:0:
256,192,130242,1,8,0:0:0:0:
256,192,130414,1,0,0:0:0:0:
256,192,130500,1,0,0:0:0:0:
256,192,130673,1,8,0:0:0:0:
256,192,131018,1,0,0:0:0:0:
256,192,131363,1,8,0:0:0:0:
256,192,131535,1,0,0:0:0:0:
256,192,131621,1,0,0:0:0:0:
256,192,131707,1,0,0:0:0:0:
256,192,131880,1,0,0:0:0:0:
256,192,132052,1,8,0:0:0:0:
256,192,132397,1,0,0:0:0:0:
256,192,132742,1,8,0:0:0:0:
256,192,133000,1,8,0:0:0:0:
256,192,133087,1,8,0:0:0:0:
256,192,133259,1,0,0:0:0:0:
256,192,133431,1,8,0:0:0:0:
256,192,133776,1,0,0:0:0:0:
256,192,134121,1,8,0:0:0:0:
256,192,134380,1,8,0:0:0:0:
256,192,134552,1,0,0:0:0:0:
256,192,134638,1,0,0:0:0:0:
256,192,134811,1,8,0:0:0:0:
256,192,134983,1,0,0:0:0:0:
256,192,135156,1,8,0:0:0:0:
256,192,135500,1,8,0:0:0:0:
256,192,135759,1,8,0:0:0:0:
256,192,135845,1,8,0:0:0:0:
256,192,136018,1,0,0:0:0:0:
256,192,136190,1,8,0:0:0:0:
256,192,136535,1,0,0:0:0:0:
256,192,136880,1,8,0:0:0:0:
256,192,137052,1,0,0:0:0:0:
256,192,137138,1,0,0:0:0:0:
256,192,137225,1,0,0:0:0:0:
256,192,137397,1,8,0:0:0:0:
256,192,137483,1,8,0:0:0:0:
256,192,137569,1,8,0:0:0:0:
256,192,137742,1,8,0:0:0:0:
256,192,137914,1,0,0:0:0:0:
256,192,138259,1,8,0:0:0:0:
256,192,138431,1,8,0:0:0:0:
256,192,138604,1,0,0:0:0:0:
256,192,138690,1,0,0:0:0:0:
256,192,138776,1,0,0:0:0:0:
256,192,138949,1,8,0:0:0:0:
256,192,139294,1,0,0:0:0:0:
256,192,139638,1,8,0:0:0:0:
256,192,139811,1,0,0:0:0:0:
256,192,139897,1,0,0:0:0:0:
256,192,139983,1,0,0:0:0:0:
256,192,140156,1,0,0:0:0:0:
256,192,140328,1,8,0:0:0:0:
256,192,140673,1,0,0:0:0:0:
256,192,141018,1,8,0:0:0:0:
256,192,141190,1,0,0:0:0:0:
256,192,141276,1,0,0:0:0:0:
256,192,141449,1,0,0:0:0:0:
256,192,141621,1,8,0:0:0:0:
256,192,141707,1,8,0:0:0:0:
256,192,142052,1,0,0:0:0:0:
256,192,142225,1,8,0:0:0:0:
256,192,142311,1,8,0:0:0:0:
256,192,142397,1,8,0:0:0:0:
256,192,142742,1,0,0:0:0:0:
256,192,143087,1,8,0:0:0:0:
256,192,143259,1,0,0:0:0:0:
256,192,143431,1,8,0:0:0:0:
256,192,143518,1,8,0:0:0:0:
256,192,143604,1,8,0:0:0:0:
256,192,143776,1,0,0:0:0:0:
256,192,144121,1,0,0:0:0:0:
256,192,144294,1,0,0:0:0:0:
256,192,144466,1,8,0:0:0:0:
256,192,144811,1,0,0:0:0:0:
256,192,144897,1,0,0:0:0:0:
256,192,144983,1,0,0:0:0:0:
256,192,145156,1,8,0:0:0:0:
256,192,145328,1,8,0:0:0:0:
256,192,145500,1,0,0:0:0:0:
256,192,145845,1,8,0:0:0:0:
256,192,146018,1,0,0:0:0:0:
256,192,146190,1,0,0:0:0:0:
256,192,146276,1,0,0:0:0:0:
256,192,146363,1,0,0:0:0:0:
256,192,146535,1,8,0:0:0:0:
256,192,146880,1,0,0:0:0:0:
256,192,147225,1,8,0:0:0:0:
256,192,147397,1,0,0:0:0:0:
256,192,147483,1,0,0:0:0:0:
256,192,147569,1,0,0:0:0:0:
256,192,147742,1,8,0:0:0:0:
256,192,147914,1,0,0:0:0:0:
256,192,148259,1,8,0:0:0:0:
256,192,148431,1,0,0:0:0:0:
256,192,148604,1,8,0:0:0:0:
256,192,148690,1,8,0:0:0:0:
256,192,148776,1,8,0:0:0:0:
256,192,148949,1,4,0:0:0:0:
256,192,149294,1,8,0:0:0:0:
256,192,149638,1,0,0:0:0:0:
256,192,149811,1,0,0:0:0:0:
256,192,149983,1,8,0:0:0:0:
256,192,150328,1,0,0:0:0:0:
256,192,150673,1,8,0:0:0:0:
256,192,150845,1,0,0:0:0:0:
256,192,150931,1,0,0:0:0:0:
256,192,151018,1,0,0:0:0:0:
256,192,151190,1,0,0:0:0:0:
256,192,151363,1,8,0:0:0:0:
256,192,151707,1,0,0:0:0:0:
256,192,152052,1,8,0:0:0:0:
256,192,152397,1,0,0:0:0:0:
256,192,152569,1,8,0:0:0:0:
256,192,152742,1,8,0:0:0:0:
256,192,153087,1,0,0:0:0:0:
256,192,153431,1,8,0:0:0:0:
256,192,153776,1,0,0:0:0:0:
256,192,153949,1,0,0:0:0:0:
256,192,154121,1,8,0:0:0:0:
256,192,154207,1,8,0:0:0:0:
256,192,154294,1,8,0:0:0:0:
256,192,154466,1,0,0:0:0:0:
256,192,154811,1,8,0:0:0:0:
256,192,155156,1,0,0:0:0:0:
256,192,155500,1,8,0:0:0:0:
256,192,155673,1,8,0:0:0:0:
256,192,155845,1,0,0:0:0:0:
256,192,156190,1,8,0:0:0:0:
256,192,156363,1,0,0:0:0:0:
256,192,156707,1,0,0:0:0:0:
256,192,156880,1,8,0:0:0:0:
256,192,157052,1,0,0:0:0:0:
256,192,157225,1,8,0:0:0:0:
256,192,157311,1,8,0:0:0:0:
256,192,157397,1,8,0:0:0:0:
256,192,157569,1,0,0:0:0:0:
256,192,157914,1,0,0:0:0:0:
256,192,158087,1,8,0:0:0:0:
256,192,158173,1,8,0:0:0:0:
256,192,158259,1,8,0:0:0:0:
256,192,158431,1,0,0:0:0:0:
256,192,158604,1,8,0:0:0:0:
256,192,158863,1,8,0:0:0:0:
256,192,159121,1,8,0:0:0:0:
256,192,159294,1,0,0:0:0:0:
256,192,159466,1,0,0:0:0:0:
256,192,159638,1,8,0:0:0:0:
256,192,159725,1,8,0:0:0:0:
256,192,159983,1,4,0:0:0:0:
256,192,160328,1,8,0:0:0:0:
256,192,160500,1,0,0:0:0:0:
256,192,160587,1,0,0:0:0:0:
256,192,160673,1,0,0:0:0:0:
256,192,160845,1,0,0:0:0:0:
256,192,161018,1,8,0:0:0:0:
256,192,161363,1,0,0:0:0:0:
256,192,161707,1,8,0:0:0:0:
256,192,161880,1,8,0:0:0:0:
256,192,161966,1,8,0:0:0:0:
256,192,162052,1,8,0:0:0:0:
256,192,162225,1,0,0:0:0:0:
256,192,162397,1,8,0:0:0:0:
256,192,162742,1,0,0:0:0:0:
256,192,163087,1,8,0:0:0:0:
256,192,163259,1,8,0:0:0:0:
256,192,163345,1,8,0:0:0:0:
256,192,163431,1,8,0:0:0:0:
256,192,163604,1,0,0:0:0:0:
256,192,163776,1,8,0:0:0:0:
256,192,164121,1,0,0:0:0:0:
256,192,164466,1,8,0:0:0:0:
256,192,164638,1,0,0:0:0:0:
256,192,164983,1,0,0:0:0:0:
256,192,165156,1,8,0:0:0:0:
256,192,165242,1,8,0:0:0:0:
256,192,165328,1,8,0:0:0:0:
256,192,165500,1,0,0:0:0:0:
256,192,165845,1,8,0:0:0:0:
256,192,166018,1,0,0:0:0:0:
256,192,166104,1,0,0:0:0:0:
256,192,166190,1,0,0:0:0:0:
256,192,166363,1,0,0:0:0:0:
256,192,166535,1,8,0:0:0:0:
256,192,166880,1,0,0:0:0:0:
256,192,167225,1,8,0:0:0:0:
256,192,167397,1,8,0:0:0:0:
256,192,167483,1,8,0:0:0:0:
256,192,167569,1,8,0:0:0:0:
256,192,167742,1,0,0:0:0:0:
256,192,167914,1,8,0:0:0:0:
256,192,168259,1,0,0:0:0:0:
256,192,168604,1,8,0:0:0:0:
256,192,168776,1,0,0:0:0:0:
256,192,168863,1,0,0:0:0:0:
256,192,168949,1,0,0:0:0:0:
256,192,169121,1,0,0:0:0:0:
256,192,169294,1,8,0:0:0:0:
256,192,169466,1,8,0:0:0:0:
256,192,169552,1,8,0:0:0:0:
256,192,169638,1,8,0:0:0:0:
256,192,169811,1,0,0:0:0:0:
256,192,169983,1,8,0:0:0:0:
256,192,170156,1,0,0:0:0:0:
256,192,170500,1,0,0:0:0:0:
256,192,170673,1,8,0:0:0:0:
256,192,170759,1,8,0:0:0:0:
256,192,170845,1,8,0:0:0:0:
256,192,171018,1,0,0:0:0:0:
256,192,171363,1,0,0:0:0:0:
256,192,171707,1,8,0:0:0:0:
256,192,171880,1,8,0:0:0:0:
256,192,171966,1,8,0:0:0:0:
256,192,172052,1,8,0:0:0:0:
256,192,172225,1,8,0:0:0:0:
256,192,172397,1,0,0:0:0:0:
256,192,172483,1,0,0:0:0:0:
256,192,172569,1,0,0:0:0:0:
256,192,172742,1,8,0:0:0:0:
256,192,173087,1,0,0:0:0:0:
256,192,173431,1,8,0:0:0:0:
256,192,173604,1,8,0:0:0:0:
256,192,173776,1,0,0:0:0:0:
256,192,173863,1,0,0:0:0:0:
256,192,173949,1,0,0:0:0:0:
256,192,174121,1,8,0:0:0:0:
256,192,174466,1,0,0:0:0:0:
256,192,174811,1,8,0:0:0:0:
256,192,174983,1,0,0:0:0:0:
256,192,175069,1,0,0:0:0:0:
256,192,175156,1,0,0:0:0:0:
256,192,175328,1,0,0:0:0:0:
256,192,175500,1,8,0:0:0:0:
256,192,175673,1,8,0:0:0:0:
256,192,175845,1,0,0:0:0:0:
256,192,175931,1,0,0:0:0:0:
256,192,176018,1,0,0:0:0:0:
256,192,176190,1,8,0:0:0:0:
256,192,176535,1,0,0:0:0:0:
256,192,176707,1,8,0:0:0:0:
256,192,176794,1,8,0:0:0:0:
256,192,176880,1,8,0:0:0:0:
256,192,177052,1,8,0:0:0:0:
256,192,177138,1,8,0:0:0:0:
256,192,177397,1,0,0:0:0:0:
256,192,177569,1,8,0:0:0:0:
256,192,177742,1,0,0:0:0:0:
256,192,177828,1,0,0:0:0:0:
256,192,177914,1,0,0:0:0:0:
256,192,178087,1,8,0:0:0:0:
256,192,178259,1,8,0:0:0:0:
256,192,178604,1,0,0:0:0:0:
256,192,178776,1,0,0:0:0:0:
256,192,178863,1,0,0:0:0:0:
256,192,178949,1,0,0:0:0:0:
256,192,179121,1,8,0:0:0:0:
256,192,179294,1,0,0:0:0:0:
256,192,179638,1,8,0:0:0:0:
256,192,179983,1,8,0:0:0:0:
256,192,180156,1,8,0:0:0:0:
256,192,180328,1,0,0:0:0:0:
256,192,180414,1,0,0:0:0:0:
256,192,180500,1,0,0:0:0:0:
256,192,180673,1,0,0:0:0:0:
256,192,180845,1,8,0:0:0:0:
256,192,181018,1,8,0:0:0:0:
256,192,181104,1,8,0:0:0:0:
256,192,181190,1,8,0:0:0:0:
256,192,181363,1,0,0:0:0:0:
256,192,181707,1,8,0:0:0:0:
256,192,182052,1,8,0:0:0:0:
256,192,182225,1,0,0:0:0:0:
256,192,182311,1,0,0:0:0:0:
256,192,182397,1,0,0:0:0:0:
256,192,182569,1,0,0:0:0:0:
256,192,182742,1,8,0:0:0:0:
256,192,183000,1,8,0:0:0:0:
256,192,183087,1,8,0:0:0:0:
256,192,183259,1,8,0:0:0:0:
256,192,183431,1,0,0:0:0:0:
256,192,183776,1,8,0:0:0:0:
256,192,183949,1,0,0:0:0:0:
256,192,184035,1,0,0:0:0:0:
256,192,184207,1,0,0:0:0:0:
256,192,184294,1,0,0:0:0:0:
256,192,184466,1,8,0:0:0:0:
256,192,184811,1,0,0:0:0:0:
256,192,185156,1,8,0:0:0:0:
256,192,185328,1,8,0:0:0:0:
256,192,185414,1,8,0:0:0:0:
256,192,185500,1,8,0:0:0:0:
256,192,185673,1,0,0:0:0:0:
256,192,185845,1,8,0:0:0:0:
256,192,186018,1,8,0:0:0:0:
256,192,186190,1,0,0:0:0:0:
256,192,186276,1,0,0:0:0:0:
256,192,186363,1,0,0:0:0:0:
256,192,186535,1,8,0:0:0:0:
256,192,186880,1,8,0:0:0:0:
256,192,187225,1,0,0:0:0:0:
256,192,187397,1,8,0:0:0:0:
256,192,187569,1,0,0:0:0:0:
256,192,187656,1,0,0:0:0:0:
256,192,187742,1,0,0:0:0:0:
256,192,187914,1,8,0:0:0:0:
256,192,188259,1,0,0:0:0:0:
256,192,188345,1,0,0:0:0:0:
256,192,188431,1,0,0:0:0:0:
256,192,188604,1,8,0:0:0:0:
256,192,188776,1,8,0:0:0:0:
256,192,188949,1,0,0:0:0:0:
256,192,189121,1,8,0:0:0:0:
256,192,189207,1,8,0:0:0:0:
256,192,189294,1,8,0:0:0:0:
256,192,189466,1,0,0:0:0:0:
256,192,189638,1,0,0:0:0:0:
256,192,189983,1,8,0:0:0:0:
256,192,190328,1,8,0:0:0:0:
256,192,190558,1,8,0:0:0:0:
256,192,190788,1,0,0:0:0:0:
256,192,191018,1,0,0:0:0:0:
256,192,191363,1,8,0:0:0:0:
256,192,191535,1,0,0:0:0:0:
256,192,191621,1,0,0:0:0:0:
256,192,191707,1,0,0:0:0:0:
256,192,191880,1,0,0:0:0:0:
256,192,192052,1,8,0:0:0:0:
256,192,192225,1,0,0:0:0:0:
256,192,192311,1,0,0:0:0:0:
256,192,192397,1,0,0:0:0:0:
256,192,192569,1,0,0:0:0:0:
256,192,192742,1,8,0:0:0:0:
256,192,193087,1,0,0:0:0:0:
256,192,193431,1,8,0:0:0:0:
256,192,193518,1,8,0:0:0:0:
256,192,193604,1,8,0:0:0:0:
256,192,193776,1,0,0:0:0:0:
256,192,193949,1,0,0:0:0:0:
256,192,194121,1,8,0:0:0:0:
256,192,194207,1,8,0:0:0:0:
256,192,194294,1,8,0:0:0:0:
256,192,194466,1,4,0:0:0:0:
256,192,194811,1,8,0:0:0:0:
256,192,194983,1,0,0:0:0:0:
256,192,195069,1,0,0:0:0:0:
256,192,195156,1,0,0:0:0:0:
256,192,195328,1,0,0:0:0:0:
256,192,195500,1,8,0:0:0:0:
256,192,195845,1,0,0:0:0:0:
256,192,196190,1,8,0:0:0:0:
256,192,196363,1,0,0:0:0:0:
256,192,196449,1,0,0:0:0:0:
256,192,196535,1,0,0:0:0:0:
256,192,196707,1,0,0:0:0:0:
256,192,196880,1,8,0:0:0:0:
256,192,197225,1,0,0:0:0:0:
256,192,197397,1,0,0:0:0:0:
256,192,197569,1,8,0:0:0:0:
256,192,197656,1,8,0:0:0:0:
256,192,197742,1,8,0:0:0:0:
256,192,197914,1,8,0:0:0:0:
256,192,198238,1,8,0:0:0:0:
256,192,198604,1,0,0:0:0:0:
256,192,198776,1,0,0:0:0:0:
256,192,198863,1,0,0:0:0:0:
256,192,198949,1,0,0:0:0:0:
256,192,199121,1,0,0:0:0:0:
256,192,199294,1,8,0:0:0:0:
256,192,199638,1,8,0:0:0:0:
256,192,199725,1,8,0:0:0:0:
256,192,199811,1,8,0:0:0:0:
256,192,199983,1,0,0:0:0:0:
256,192,200328,1,8,0:0:0:0:
256,192,200500,1,0,0:0:0:0:
256,192,200587,1,0,0:0:0:0:
256,192,200673,1,0,0:0:0:0:
256,192,200845,1,0,0:0:0:0:
256,192,201018,1,8,0:0:0:0:
256,192,201363,1,0,0:0:0:0:
256,192,201707,1,8,0:0:0:0:
256,192,201880,1,0,0:0:0:0:
256,192,201966,1,0,0:0:0:0:
256,192,202052,1,0,0:0:0:0:
256,192,202225,1,0,0:0:0:0:
256,192,202397,1,8,0:0:0:0:
256,192,202742,1,0,0:0:0:0:
256,192,203087,1,8,0:0:0:0:
256,192,203259,1,8,0:0:0:0:
256,192,203345,1,8,0:0:0:0:
256,192,203431,1,8,0:0:0:0:
256,192,203604,1,0,0:0:0:0:
256,192,203776,1,8,0:0:0:0:
256,192,204121,1,0,0:0:0:0:
256,192,204466,1,8,0:0:0:0:
256,192,204638,1,0,0:0:0:0:
256,192,204725,1,0,0:0:0:0:
256,192,204811,1,0,0:0:0:0:
256,192,204983,1,0,0:0:0:0:
256,192,205156,1,8,0:0:0:0:
256,192,205500,1,0,0:0:0:0:
256,192,205845,1,8,0:0:0:0:
256,192,206190,1,0,0:0:0:0:
256,192,206363,1,0,0:0:0:0:
256,192,206535,1,8,0:0:0:0:
256,192,206880,1,0,0:0:0:0:
256,192,207225,1,8,0:0:0:0:
256,192,207397,1,0,0:0:0:0:
256,192,207742,1,0,0:0:0:0:
256,192,207914,1,8,0:0:0:0:
256,192,208259,1,0,0:0:0:0:
256,192,208604,1,8,0:0:0:0:
256,192,208949,1,0,0:0:0:0:
256,192,209121,1,0,0:0:0:0:
256,192,209294,1,8,0:0:0:0:
256,192,209638,1,0,0:0:0:0:
256,192,209983,1,8,0:0:0:0:
256,192,210156,1,0,0:0:0:0:
256,192,210500,1,0,0:0:0:0:
256,192,210673,1,8,0:0:0:0:
256,192,211018,1,0,0:0:0:0:
256,192,211190,1,8,0:0:0:0:
256,192,211363,1,8,0:0:0:0:
256,192,211707,1,0,0:0:0:0:
256,192,211880,1,0,0:0:0:0:
256,192,212052,1,8,0:0:0:0:
256,192,212397,1,0,0:0:0:0:
256,192,212742,1,8,0:0:0:0:
256,192,212914,1,0,0:0:0:0:
256,192,213259,1,0,0:0:0:0:
256,192,213431,1,8,0:0:0:0:
256,192,213776,1,0,0:0:0:0:
256,192,213863,1,0,0:0:0:0:
256,192,213949,1,0,0:0:0:0:
256,192,214121,1,8,0:0:0:0:
256,192,214466,1,0,0:0:0:0:
256,192,214638,1,0,0:0:0:0:
256,192,214811,1,8,0:0:0:0:
256,192,215156,1,0,0:0:0:0:
256,192,215242,1,0,0:0:0:0:
256,192,215328,1,0,0:0:0:0:
256,192,215500,1,8,0:0:0:0:
256,192,215673,1,0,0:0:0:0:
256,192,215845,1,8,0:0:0:0:
256,192,216190,1,8,0:0:0:0:
256,192,216535,1,4,0:0:0:0:
256,192,216880,1,8,0:0:0:0:
256,192,217052,1,0,0:0:0:0:
256,192,217138,1,0,0:0:0:0:
256,192,217225,1,0,0:0:0:0:
256,192,217397,1,0,0:0:0:0:
256,192,217569,1,8,0:0:0:0:
256,192,217914,1,0,0:0:0:0:
256,192,218259,1,8,0:0:0:0:
256,192,218431,1,8,0:0:0:0:
256,192,218518,1,8,0:0:0:0:
256,192,218604,1,8,0:0:0:0:
256,192,218776,1,0,0:0:0:0:
256,192,218949,1,8,0:0:0:0:
256,192,219294,1,0,0:0:0:0:
256,192,219638,1,8,0:0:0:0:
256,192,219811,1,0,0:0:0:0:
256,192,219897,1,0,0:0:0:0:
256,192,219983,1,0,0:0:0:0:
256,192,220156,1,0,0:0:0:0:
256,192,220328,1,8,0:0:0:0:
256,192,220673,1,0,0:0:0:0:
256,192,221018,1,8,0:0:0:0:
256,192,221190,1,0,0:0:0:0:
256,192,221276,1,0,0:0:0:0:
256,192,221363,1,0,0:0:0:0:
256,192,221535,1,0,0:0:0:0:
256,192,221707,1,8,0:0:0:0:
256,192,222052,1,0,0:0:0:0:
256,192,222397,1,8,0:0:0:0:
256,192,222569,1,8,0:0:0:0:
256,192,222656,1,8,0:0:0:0:
256,192,222742,1,8,0:0:0:0:
256,192,222914,1,0,0:0:0:0:
256,192,223087,1,8,0:0:0:0:
256,192,223431,1,0,0:0:0:0:
256,192,223776,1,8,0:0:0:0:
256,192,223949,1,0,0:0:0:0:
256,192,224035,1,0,0:0:0:0:
256,192,224121,1,0,0:0:0:0:
256,192,224294,1,0,0:0:0:0:
256,192,224466,1,8,0:0:0:0:
256,192,224811,1,0,0:0:0:0:
256,192,225156,1,8,0:0:0:0:
256,192,225328,1,8,0:0:0:0:
256,192,225414,1,8,0:0:0:0:
256,192,225500,1,8,0:0:0:0:
256,192,225673,1,0,0:0:0:0:
256,192,225845,1,8,0:0:0:0:
256,192,226190,1,0,0:0:0:0:
256,192,226363,1,0,0:0:0:0:
256,192,226535,1,8,0:0:0:0:
256,192,226707,1,0,0:0:0:0:
256,192,226794,1,0,0:0:0:0:
256,192,226880,1,0,0:0:0:0:
256,192,227052,1,0,0:0:0:0:
256,192,227225,1,8,0:0:0:0:
256,192,227569,1,0,0:0:0:0:
256,192,227914,1,12,0:0:0:0:
256,192,228259,1,0,0:0:0:0:
256,192,228431,1,0,0:0:0:0:
256,192,228604,1,8,0:0:0:0:
256,192,228776,1,0,0:0:0:0:
256,192,228863,1,0,0:0:0:0:
256,192,228949,1,0,0:0:0:0:
256,192,229121,1,0,0:0:0:0:
256,192,229294,1,8,0:0:0:0:
256,192,229380,1,8,0:0:0:0:
256,192,229466,1,8,0:0:0:0:
256,192,229638,1,8,0:0:0:0:
256,192,229811,1,0,0:0:0:0:
256,192,229983,1,8,0:0:0:0:
256,192,230328,1,0,0:0:0:0:
256,192,230673,1,8,0:0:0:0:
256,192,230845,1,0,0:0:0:0:
256,192,230931,1,0,0:0:0:0:
256,192,231018,1,0,0:0:0:0:
256,192,231190,1,8,0:0:0:0:
256,192,231363,1,8,0:0:0:0:
256,192,231707,1,0,0:0:0:0:
256,192,231880,1,8,0:0:0:0:
256,192,231966,1,8,0:0:0:0:
256,192,232052,1,8,0:0:0:0:
256,192,232225,1,0,0:0:0:0:
256,192,232569,1,8,0:0:0:0:
256,192,232742,1,8,0:0:0:0:
256,192,232828,1,8,0:0:0:0:
256,192,232914,1,8,0:0:0:0:
256,192,233087,1,0,0:0:0:0:
256,192,233431,1,8,0:0:0:0:
256,192,233604,1,8,0:0:0:0:
256,192,233776,1,0,0:0:0:0:
256,192,233863,1,0,0:0:0:0:
256,192,233949,1,0,0:0:0:0:
256,192,234121,1,8,0:0:0:0:
256,192,234466,1,0,0:0:0:0:
256,192,234638,1,0,0:0:0:0:
256,192,234811,1,8,0:0:0:0:
256,192,234983,1,8,0:0:0:0:
256,192,235156,1,0,0:0:0:0:
256,192,235242,1,0,0:0:0:0:
256,192,235328,1,0,0:0:0:0:
256,192,235500,1,8,0:0:0:0:
256,192,235845,1,0,0:0:0:0:
256,192,236190,1,8,0:0:0:0:
256,192,236363,1,0,0:0:0:0:
256,192,236535,1,0,0:0:0:0:
256,192,236621,1,0,0:0:0:0:
256,192,236707,1,0,0:0:0:0:
256,192,236880,1,8,0:0:0:0:
256,192,237225,1,8,0:0:0:0:
256,192,237397,1,0,0:0:0:0:
256,192,237569,1,8,0:0:0:0:
256,192,237656,1,8,0:0:0:0:
256,192,237742,1,8,0:0:0:0:
256,192,237914,1,8,0:0:0:0:
256,192,238087,1,0,0:0:0:0:
256,192,238259,1,8,0:0:0:0:
256,192,238345,1,8,0:0:0:0:
256,192,238431,1,8,0:0:0:0:
256,192,238604,1,4,0:0:0:0:
256,192,238949,1,8,0:0:0:0:
256,192,239294,1,0,0:0:0:0:
256,192,239380,1,0,0:0:0:0:
256,192,239466,1,0,0:0:0:0:
256,192,239638,1,8,0:0:0:0:
256,192,239811,1,8,0:0:0:0:
256,192,239983,1,0,0:0:0:0:
256,192,240328,1,8,0:0:0:0:
256,192,240500,1,0,0:0:0:0:
256,192,240587,1,0,0:0:0:0:
256,192,240673,1,0,0:0:0:0:
256,192,240845,1,0,0:0:0:0:
256,192,241018,1,8,0:0:0:0:
256,192,241104,1,8,0:0:0:0:
256,192,241190,1,8,0:0:0:0:
256,192,241363,1,0,0:0:0:0:
256,192,241707,1,8,0:0:0:0:
256,192,242052,1,0,0:0:0:0:
256,192,242138,1,0,0:0:0:0:
256,192,242225,1,0,0:0:0:0:
256,192,242397,1,8,0:0:0:0:
256,192,242742,1,0,0:0:0:0:
256,192,242828,1,0,0:0:0:0:
256,192,242914,1,0,0:0:0:0:
256,192,243087,1,0,0:0:0:0:
256,192,243259,1,8,0:0:0:0:
256,192,243431,1,8,0:0:0:0:
256,192,243518,1,8,0:0:0:0:
256,192,243604,1,8,0:0:0:0:
256,192,243776,1,0,0:0:0:0:
256,192,244121,1,12,0:0:0:0:
256,192,244466,1,8,0:0:0:0:
256,192,244811,1,0,0:0:0:0:
256,192,244983,1,8,0:0:0:0:
256,192,245069,1,8,0:0:0:0:
256,192,245156,1,8,0:0:0:0:
256,192,245328,1,8,0:0:0:0:
256,192,245500,1,0,0:0:0:0:
256,192,245845,1,8,0:0:0:0:
256,192,246018,1,0,0:0:0:0:
256,192,246104,1,0,0:0:0:0:
256,192,246190,1,0,0:0:0:0:
256,192,246363,1,0,0:0:0:0:
256,192,246535,1,8,0:0:0:0:
256,192,246621,1,8,0:0:0:0:
256,192,246707,1,8,0:0:0:0:
256,192,246880,1,0,0:0:0:0:
256,192,247225,1,8,0:0:0:0:
256,192,247397,1,8,0:0:0:0:
256,192,247483,1,8,0:0:0:0:
256,192,247569,1,8,0:0:0:0:
256,192,247742,1,0,0:0:0:0:
256,192,247914,1,8,0:0:0:0:
256,192,248259,1,0,0:0:0:0:
256,192,248604,1,8,0:0:0:0:
256,192,248776,1,8,0:0:0:0:
256,192,248949,1,0,0:0:0:0:
256,192,249035,1,0,0:0:0:0:
256,192,249121,1,0,0:0:0:0:
256,192,249294,1,8,0:0:0:0:
256,192,249466,1,8,0:0:0:0:
256,192,249638,1,0,0:0:0:0:
256,192,249983,1,12,0:0:0:0:
256,192,250328,1,0,0:0:0:0:
256,192,250414,1,0,0:0:0:0:
256,192,250500,1,0,0:0:0:0:
256,192,250673,1,8,0:0:0:0:
256,192,251018,1,0,0:0:0:0:
256,192,251190,1,0,0:0:0:0:
256,192,251363,1,8,0:0:0:0:
256,192,251535,1,0,0:0:0:0:
256,192,251707,1,8,0:0:0:0:
256,192,251794,1,8,0:0:0:0:
256,192,251880,1,8,0:0:0:0:
256,192,252052,1,8,0:0:0:0:
256,192,252397,1,0,0:0:0:0:
256,192,252569,1,8,0:0:0:0:
256,192,252656,1,8,0:0:0:0:
256,192,252742,1,8,0:0:0:0:
256,192,252914,1,0,0:0:0:0:
256,192,253087,1,8,0:0:0:0:
256,192,253259,1,0,0:0:0:0:
256,192,253345,1,0,0:0:0:0:
256,192,253431,1,0,0:0:0:0:
256,192,253776,1,0,0:0:0:0:
256,192,253949,1,8,0:0:0:0:
256,192,254035,1,8,0:0:0:0:
256,192,254121,1,8,0:0:0:0:
256,192,254294,1,0,0:0:0:0:
256,192,254466,1,0,0:0:0:0:
256,192,254811,1,8,0:0:0:0:
256,192,254983,1,8,0:0:0:0:
256,192,255156,1,0,0:0:0:0:
256,192,255500,1,12,0:0:0:0:
256,192,255845,1,8,0:0:0:0:
256,192,256018,1,0,0:0:0:0:
256,192,256190,1,8,0:0:0:0:
256,192,256276,1,8,0:0:0:0:
256,192,256363,1,8,0:0:0:0:
256,192,256535,1,0,0:0:0:0:
256,192,256880,1,8,0:0:0:0:
256,192,257052,1,0,0:0:0:0:
256,192,257138,1,0,0:0:0:0:
256,192,257225,1,0,0:0:0:0:
256,192,257397,1,8,0:0:0:0:
256,192,257569,1,8,0:0:0:0:
256,192,257656,1,8,0:0:0:0:
256,192,257742,1,8,0:0:0:0:
256,192,257914,1,0,0:0:0:0:
256,192,258259,1,8,0:0:0:0:
256,192,258431,1,0,0:0:0:0:
256,192,258518,1,0,0:0:0:0:
256,192,258604,1,0,0:0:0:0:
256,192,258776,1,8,0:0:0:0:
256,192,258949,1,8,0:0:0:0:
256,192,259294,1,0,0:0:0:0:
256,192,259466,1,8,0:0:0:0:
256,192,259552,1,8,0:0:0:0:
256,192,259638,1,8,0:0:0:0:
256,192,259811,1,0,0:0:0:0:
256,192,259983,1,0,0:0:0:0:
256,192,260156,1,8,0:0:0:0:
256,192,260242,1,8,0:0:0:0:
256,192,260328,1,8,0:0:0:0:
256,192,260500,1,8,0:0:0:0:
256,192,260673,1,0,0:0:0:0:
