osu file format v14

[General]
AudioFilename: audio.ogg
AudioLeadIn: 0
PreviewTime: 92290
Countdown: 0
SampleSet: Normal
StackLeniency: 0.7
Mode: 1
LetterboxInBreaks: 0
WidescreenStoryboard: 1

[Editor]
Bookmarks: 9638,12397,17914,20673,25156,30328,36190,39983,42742,46880,52052,57914,62052,67569,72052,77225,81363,84121,88604,93776,96880,102397,104811,107569,110673,114466,117225,119983,123087,125500,129638,132397,135156,138259,142397,146190,151707,156190,161707,164466,167225,169983,172742,176880,180673,186535,190328,194811,197569,199983,202742,205845,208604,212397,215156,216880,221018,223776,229294,232052,234811,238949,242742,246880,251018,254121,260673
DistanceSpacing: 6
BeatDivisor: 1
GridSize: 32
TimelineZoom: 1.310843

[Metadata]
Title:Glitched KKD
TitleUnicode:Glitched KKD
Artist:tellur
ArtistUnicode:テルル
Creator:paz08
Version:Kantan
Source:
Tags:electronic instrumental dnb drum and bass breakcore breakbeats tsundere violence TUNEDERE VOL. 6 himeko katagiri tellursmplng sampling teruru
BeatmapID:3583778
BeatmapSetID:1446763

[Difficulty]
HPDrainRate:7.8
CircleSize:2.8
OverallDifficulty:3.8
ApproachRate:9.8
SliderMultiplier:1.4
SliderTickRate:1

[Events]
//Background and Video events
0,0,"89175946_p0.jpg",0,-25
//Break Periods
//Storyboard Layer 0 (Background)
//Storyboard Layer 1 (Fail)
//Storyboard Layer 2 (Pass)
//Storyboard Layer 3 (Foreground)
//Storyboard Layer 4 (Overlay)
//Storyboard Sound Samples

[TimingPoints]
1363,344.827586206897,4,1,0,60,1,0
1363,-125,4,1,0,60,0,0
6867,-124.99359,4,1,0,40,0,0
7212,-124.94869,4,1,0,43,0,0
7901,-124.59159,4,1,0,49,0,0
8246,-124.20445,4,1,0,52,0,0
8591,-123.63124,4,1,0,55,0,0
9281,-121.80236,4,1,0,61,0,0
9625,-120.499626,4,1,0,65,0,0
10660,-114.82948,4,1,0,74,0,0
11005,-112.347206,4,1,0,77,0,0
11694,-106.56989,4,1,0,83,0,0
12039,-103.31373,4,1,0,86,0,0
12383,-100,4,1,0,90,0,0
34453,-101.33891,4,1,0,89,0,0
35143,-104.070724,4,1,0,86,0,0
35832,-106.87207,4,1,0,84,0,0
36177,-108.30298,4,1,0,82,0,0
36854,-111.111115,4,1,0,80,0,0
37225,-117.647058823529,4,1,0,80,0,0
41005,-116.780716,4,1,0,80,0,0
41350,-115.92076,4,1,0,80,0,0
42039,-114.22224,4,1,0,80,0,0
42384,-113.38112,4,1,0,80,0,0
42729,-112.5462,4,1,0,80,0,0
43763,-110.0805,4,1,0,80,0,0
44108,-109.26987,4,1,0,80,0,0
44798,-107.666504,4,1,0,80,0,0
45143,-106.873665,4,1,0,80,0,0
45487,-106.08892,4,1,0,80,0,0
46177,-104.532234,4,1,0,80,0,0
46522,-103.762474,4,1,0,80,0,0
46867,-102.99837,4,1,0,82,0,0
47901,-100.74185,4,1,0,87,0,0
48246,-100,4,1,0,90,0,0
58936,-96.40688,4,1,0,98,0,0
59294,-95.2381,4,1,0,100,0,1
70328,-95.2380952380952,4,1,0,90,0,0
71363,-95.2381,4,1,0,100,0,1
71694,-94.344734,4,1,0,100,0,1
72039,-93.45719,4,1,0,100,0,1
73061,-90.9090909090909,4,1,0,100,0,1
73246,-95.2380952380952,4,1,0,100,0,1
79970,-94.35611,4,1,0,100,0,1
80315,-93.48229,4,1,0,100,0,1
81005,-91.75885,4,1,0,100,0,1
81363,-90.90909,4,1,0,100,0,0
81522,-125,4,1,0,50,0,0
83418,-124.890236,4,1,0,50,0,0
84108,-124.38043,4,1,0,50,0,0
85143,-122.52547,4,1,0,50,0,0
85487,-121.574295,4,1,0,50,0,0
86177,-119.133545,4,1,0,50,0,0
86522,-117.64706,4,1,0,50,0,0
86867,-111.111111111111,4,1,0,90,0,0
89970,-111.08665,4,1,0,90,0,0
90660,-110.45398,4,1,0,90,0,0
91005,-109.56597,4,1,0,90,0,0
91350,-108.13273,4,1,0,90,0,0
92039,-103.31245,4,1,0,90,0,0
92384,-100,4,1,0,90,0,0
104798,-99.02838,4,1,0,92,0,0
105832,-96.17252,4,1,0,98,0,0
106190,-95.2381,4,1,0,100,0,1
110328,-95.2380952380952,4,1,0,100,0,0
110673,-95.2381,4,1,0,100,0,1
126880,-95.2380952380952,4,1,0,100,0,0
127026,-105.263157894737,4,1,0,80,0,0
136867,-103.90829,4,1,0,83,0,0
137556,-101.25444,4,1,0,88,0,0
137901,-99.999985,4,1,0,90,0,0
138259,-95.2380952380952,4,1,0,100,0,1
146177,-95.24433,4,1,0,100,0,1
147212,-95.638306,4,1,0,100,0,1
147556,-96.02152,4,1,0,100,0,1
147901,-96.60041,4,1,0,100,0,1
148246,-97.420204,4,1,0,100,0,1
148949,-100,4,1,0,100,0,0
149108,-105.263157894737,4,1,0,80,0,0
157212,-104.64291,4,1,0,81,0,0
157901,-103.41512,4,1,0,84,0,0
158246,-102.80576,4,1,0,85,0,0
158591,-102.19998,4,1,0,86,0,0
159281,-100.999146,4,1,0,89,0,0
159625,-100.40572,4,1,0,90,0,0
159637,-100.40745,4,1,0,90,0,0
159983,-95.2380952380952,4,1,0,100,0,1
193418,-96.40431,4,1,0,100,0,1
194108,-98.78678,4,1,0,100,0,1
194466,-100,4,1,0,100,0,0
194625,-105.263157894737,4,1,0,80,0,0
198591,-104.82124,4,1,0,84,0,0
198936,-104.22164,4,1,0,86,0,0
199625,-101.83357,4,1,0,89,0,0
199970,-100,4,1,0,90,0,0
205143,-103.62431,4,1,0,90,0,0
205487,-107.36888,4,1,0,90,0,0
205832,-111.111111111111,4,1,0,90,0,0
213763,-111.09395,4,1,0,90,0,0
214108,-110.97395,4,1,0,90,0,0
214453,-110.64955,4,1,0,90,0,0
215143,-109.006,4,1,0,90,0,0
216177,-102.974464,4,1,0,90,0,0
216522,-100,4,1,0,90,0,0
227914,-95.2380952380952,4,1,0,95,0,1
237212,-95.2381,4,1,0,96,0,1
237384,-95.2381,4,1,0,97,0,1
237901,-95.2381,4,1,0,98,0,1
238246,-95.2381,4,1,0,99,0,1
238418,-95.2381,4,1,0,100,0,1
241018,-97.59001,4,1,0,95,0,1
241190,-98.784164,4,1,0,93,0,1
241363,-100,4,1,0,90,0,0
243418,-99.03119,4,1,0,92,0,0
243591,-98.06621,4,1,0,94,0,0
243763,-97.11612,4,1,0,96,0,0
244121,-95.2381,4,1,0,100,0,1
246522,-97.59001,4,1,0,95,0,1
246694,-98.784164,4,1,0,93,0,1
246880,-100,4,1,0,90,0,0
249983,-95.2380952380952,4,1,0,100,0,1
252039,-97.118866,4,1,0,96,0,1
252396,-99.03679,4,1,0,92,0,0
252569,-100.00707,4,1,0,90,0,0
255500,-95.2380952380952,4,1,0,100,0,1
257556,-97.139595,4,1,0,96,0,1
257729,-98.11016,4,1,0,94,0,1
257913,-99.084724,4,1,0,92,0,0
258074,-100,4,1,0,90,0,0
259453,-99.99002,4,1,0,91,0,0
259798,-99.72966,4,1,0,94,0,0
260143,-98.75916,4,1,0,96,0,0
260315,-97.87743,4,1,0,98,0,0
260487,-96.673645,4,1,0,99,0,0
260660,-95.2380952380952,4,1,0,5,0,0

[HitObjects]
256,192,6880,5,0,0:0:0:0:
256,192,7225,1,8,0:0:0:0:
256,192,7914,1,8,0:0:0:0:
256,192,8259,1,0,0:0:0:0:
256,192,8604,1,8,0:0:0:0:
256,192,9294,1,8,0:0:0:0:
256,192,9638,1,0,0:0:0:0:
256,192,10673,1,8,0:0:0:0:
256,192,11018,1,0,0:0:0:0:
256,192,11707,1,0,0:0:0:0:
256,192,12052,1,8,0:0:0:0:
256,192,12397,1,4,0:0:0:0:
256,192,13431,1,0,0:0:0:0:
256,192,13776,1,8,0:0:0:0:
256,192,14466,1,8,0:0:0:0:
256,192,15156,1,0,0:0:0:0:
256,192,15845,1,0,0:0:0:0:
256,192,16190,1,8,0:0:0:0:
256,192,16535,1,0,0:0:0:0:
256,192,17225,1,8,0:0:0:0:
256,192,17569,1,8,0:0:0:0:
256,192,17914,1,0,0:0:0:0:
256,192,18949,1,0,0:0:0:0:
256,192,19294,1,8,0:0:0:0:
256,192,19811,1,0,0:0:0:0:
256,192,20328,1,8,0:0:0:0:
256,192,20673,1,0,0:0:0:0:
256,192,21707,1,8,0:0:0:0:
256,192,22052,1,0,0:0:0:0:
256,192,22397,1,8,0:0:0:0:
256,192,23087,1,8,0:0:0:0:
256,192,23431,1,0,0:0:0:0:
256,192,23776,1,8,0:0:0:0:
256,192,24121,1,8,0:0:0:0:
256,192,24811,1,0,0:0:0:0:
256,192,25156,1,8,0:0:0:0:
256,192,26190,1,0,0:0:0:0:
256,192,26880,1,8,0:0:0:0:
256,192,27225,1,8,0:0:0:0:
256,192,27569,1,0,0:0:0:0:
256,192,28259,1,0,0:0:0:0:
256,192,28604,1,8,0:0:0:0:
256,192,28949,1,0,0:0:0:0:
256,192,29638,1,0,0:0:0:0:
256,192,29983,1,8,0:0:0:0:
256,192,30328,1,0,0:0:0:0:
256,192,31363,1,8,0:0:0:0:
256,192,31707,1,0,0:0:0:0:
256,192,32052,1,8,0:0:0:0:
256,192,32397,1,8,0:0:0:0:
256,192,33087,1,0,0:0:0:0:
256,192,33431,1,8,0:0:0:0:
256,192,34121,1,8,0:0:0:0:
256,192,34466,1,0,0:0:0:0:
256,192,35156,1,0,0:0:0:0:
256,192,35845,1,0,0:0:0:0:
256,192,36190,1,8,0:0:0:0:
256,192,37225,1,0,0:0:0:0:
256,192,37569,1,8,0:0:0:0:
256,192,38259,1,8,0:0:0:0:
256,192,38604,1,0,0:0:0:0:
256,192,39294,1,0,0:0:0:0:
256,192,39983,1,8,0:0:0:0:
256,192,41018,1,8,0:0:0:0:
256,192,41363,1,0,0:0:0:0:
256,192,42052,1,8,0:0:0:0:
256,192,42397,1,8,0:0:0:0:
256,192,42742,1,0,0:0:0:0:
256,192,43776,1,8,0:0:0:0:
256,192,44121,1,0,0:0:0:0:
256,192,44811,1,8,0:0:0:0:
256,192,45156,1,0,0:0:0:0:
256,192,45500,1,8,0:0:0:0:
256,192,46190,1,8,0:0:0:0:
256,192,46535,1,8,0:0:0:0:
256,192,46880,1,0,0:0:0:0:
256,192,47914,1,8,0:0:0:0:
256,192,48259,1,4,0:0:0:0:
256,192,48949,1,0,0:0:0:0:
256,192,49294,1,8,0:0:0:0:
256,192,49811,1,0,0:0:0:0:
256,192,50328,1,0,0:0:0:0:
256,192,51018,1,12,0:0:0:0:
256,192,51707,1,0,0:0:0:0:
256,192,52052,1,8,0:0:0:0:
256,192,53087,1,0,0:0:0:0:
256,192,53776,1,8,0:0:0:0:
256,192,54121,1,0,0:0:0:0:
256,192,54466,1,8,0:0:0:0:
256,192,55156,1,0,0:0:0:0:
256,192,55500,1,8,0:0:0:0:
256,192,55845,1,0,0:0:0:0:
256,192,56535,1,8,0:0:0:0:
256,192,56880,1,8,0:0:0:0:
256,192,57225,1,0,0:0:0:0:
256,192,57914,1,8,0:0:0:0:
256,192,58949,1,8,0:0:0:0:
256,192,59294,1,4,0:0:0:0:
256,192,59638,1,8,0:0:0:0:
256,192,60328,1,8,0:0:0:0:
256,192,60673,1,0,0:0:0:0:
256,192,61363,1,0,0:0:0:0:
256,192,61707,1,8,0:0:0:0:
256,192,62052,1,0,0:0:0:0:
256,192,63087,1,8,0:0:0:0:
256,192,63431,1,8,0:0:0:0:
256,192,63776,1,0,0:0:0:0:
256,192,64466,1,0,0:0:0:0:
256,192,64811,1,0,0:0:0:0:
256,192,65156,1,8,0:0:0:0:
256,192,65845,1,8,0:0:0:0:
256,192,66190,1,0,0:0:0:0:
256,192,66535,1,8,0:0:0:0:
256,192,67225,1,8,0:0:0:0:
256,192,67569,1,0,0:0:0:0:
256,192,68604,1,8,0:0:0:0:
256,192,68949,1,0,0:0:0:0:
256,192,69294,1,8,0:0:0:0:
256,192,69983,1,8,0:0:0:0:
256,192,70328,1,8,0:0:0:0:
256,192,70673,1,0,0:0:0:0:
256,192,71363,1,8,0:0:0:0:
256,192,71707,1,0,0:0:0:0:
256,192,72052,1,8,0:0:0:0:
256,192,73087,1,4,0:0:0:0:
256,192,73431,1,8,0:0:0:0:
256,192,74121,1,0,0:0:0:0:
256,192,74466,1,8,0:0:0:0:
256,192,75156,1,8,0:0:0:0:
256,192,75845,1,0,0:0:0:0:
256,192,76535,1,0,0:0:0:0:
256,192,76880,1,8,0:0:0:0:
256,192,77225,1,0,0:0:0:0:
256,192,78259,1,0,0:0:0:0:
256,192,78604,1,0,0:0:0:0:
256,192,78949,1,8,0:0:0:0:
256,192,79638,1,8,0:0:0:0:
256,192,79983,1,0,0:0:0:0:
256,192,80328,1,8,0:0:0:0:
256,192,81018,1,8,0:0:0:0:
256,192,81363,1,4,0:0:0:0:
256,192,82742,1,0,0:0:0:0:
256,192,83431,1,0,0:0:0:0:
256,192,84121,1,8,0:0:0:0:
256,192,85156,1,8,0:0:0:0:
256,192,85500,1,0,0:0:0:0:
256,192,86190,1,8,0:0:0:0:
256,192,86535,1,8,0:0:0:0:
256,192,86880,1,0,0:0:0:0:
256,192,87569,1,0,0:0:0:0:
256,192,88259,1,8,0:0:0:0:
256,192,88604,1,8,0:0:0:0:
256,192,89638,1,0,0:0:0:0:
256,192,89983,1,8,0:0:0:0:
256,192,90673,1,8,0:0:0:0:
256,192,91018,1,0,0:0:0:0:
256,192,91363,1,8,0:0:0:0:
256,192,92052,1,8,0:0:0:0:
256,192,92397,1,0,0:0:0:0:
256,192,93087,1,0,0:0:0:0:
256,192,93431,1,8,0:0:0:0:
256,192,93776,1,8,0:0:0:0:
256,192,94811,1,8,0:0:0:0:
256,192,95156,1,0,0:0:0:0:
256,192,95845,1,0,0:0:0:0:
256,192,96190,1,8,0:0:0:0:
256,192,96535,1,0,0:0:0:0:
256,192,96880,1,8,0:0:0:0:
256,192,97914,1,0,0:0:0:0:
256,192,98259,1,8,0:0:0:0:
256,192,98604,1,0,0:0:0:0:
256,192,99294,1,0,0:0:0:0:
256,192,99983,1,8,0:0:0:0:
256,192,100328,1,8,0:0:0:0:
256,192,100673,1,0,0:0:0:0:
256,192,101363,1,8,0:0:0:0:
256,192,102052,1,0,0:0:0:0:
256,192,102397,1,8,0:0:0:0:
256,192,103431,1,0,0:0:0:0:
256,192,104121,1,8,0:0:0:0:
256,192,104466,1,8,0:0:0:0:
256,192,104811,1,0,0:0:0:0:
256,192,105845,1,8,0:0:0:0:
256,192,106190,1,4,0:0:0:0:
256,192,106535,1,8,0:0:0:0:
256,192,107225,1,8,0:0:0:0:
256,192,107569,1,0,0:0:0:0:
256,192,108604,1,8,0:0:0:0:
256,192,108949,1,0,0:0:0:0:
256,192,109638,1,8,0:0:0:0:
256,192,110328,1,0,0:0:0:0:
256,192,110673,1,8,0:0:0:0:
256,192,111707,1,0,0:0:0:0:
256,192,112052,1,8,0:0:0:0:
256,192,112742,1,0,0:0:0:0:
256,192,113087,1,0,0:0:0:0:
256,192,113431,1,8,0:0:0:0:
256,192,114121,1,8,0:0:0:0:
256,192,114466,1,0,0:0:0:0:
256,192,115500,1,8,0:0:0:0:
256,192,115845,1,4,0:0:0:0:
256,192,116535,1,8,0:0:0:0:
256,192,116880,1,8,0:0:0:0:
256,192,117225,1,0,0:0:0:0:
256,192,118259,1,0,0:0:0:0:
256,192,118604,1,8,0:0:0:0:
256,192,119294,1,8,0:0:0:0:
256,192,119638,1,8,0:0:0:0:
256,192,119983,1,0,0:0:0:0:
256,192,121018,1,8,0:0:0:0:
256,192,121363,1,0,0:0:0:0:
256,192,121707,1,0,0:0:0:0:
256,192,122225,1,0,0:0:0:0:
256,192,122742,1,0,0:0:0:0:
256,192,123087,1,8,0:0:0:0:
256,192,124121,1,8,0:0:0:0:
256,192,124638,1,8,0:0:0:0:
256,192,125156,1,8,0:0:0:0:
256,192,125500,1,0,0:0:0:0:
256,192,126535,1,8,0:0:0:0:
256,192,126880,1,4,0:0:0:0:
256,192,127225,1,8,0:0:0:0:
256,192,127914,1,8,0:0:0:0:
256,192,128259,1,0,0:0:0:0:
256,192,128949,1,0,0:0:0:0:
256,192,129638,1,8,0:0:0:0:
256,192,130673,1,8,0:0:0:0:
256,192,131018,1,0,0:0:0:0:
256,192,131707,1,0,0:0:0:0:
256,192,132052,1,8,0:0:0:0:
256,192,132397,1,0,0:0:0:0:
256,192,133431,1,8,0:0:0:0:
256,192,133776,1,0,0:0:0:0:
256,192,134121,1,8,0:0:0:0:
256,192,134811,1,0,0:0:0:0:
256,192,135156,1,8,0:0:0:0:
256,192,136190,1,0,0:0:0:0:
256,192,136535,1,0,0:0:0:0:
256,192,136880,1,8,0:0:0:0:
256,192,137569,1,8,0:0:0:0:
256,192,137914,1,0,0:0:0:0:
256,192,138259,1,8,0:0:0:0:
256,192,138949,1,8,0:0:0:0:
256,192,139294,1,0,0:0:0:0:
256,192,139983,1,8,0:0:0:0:
256,192,140673,1,0,0:0:0:0:
256,192,141018,1,8,0:0:0:0:
256,192,141707,1,8,0:0:0:0:
256,192,142052,1,0,0:0:0:0:
256,192,142397,1,8,0:0:0:0:
256,192,143431,1,0,0:0:0:0:
256,192,143776,1,8,0:0:0:0:
256,192,144466,1,0,0:0:0:0:
256,192,144811,1,0,0:0:0:0:
256,192,145156,1,8,0:0:0:0:
256,192,145845,1,8,0:0:0:0:
256,192,146190,1,0,0:0:0:0:
256,192,147225,1,8,0:0:0:0:
256,192,147569,1,0,0:0:0:0:
256,192,147914,1,8,0:0:0:0:
256,192,148259,1,8,0:0:0:0:
256,192,148949,1,4,0:0:0:0:
256,192,149294,1,8,0:0:0:0:
256,192,149983,1,8,0:0:0:0:
256,192,150328,1,0,0:0:0:0:
256,192,150673,1,8,0:0:0:0:
256,192,151363,1,8,0:0:0:0:
256,192,151707,1,0,0:0:0:0:
256,192,152742,1,0,0:0:0:0:
256,192,153087,1,0,0:0:0:0:
256,192,153431,1,8,0:0:0:0:
256,192,154121,1,8,0:0:0:0:
256,192,154466,1,0,0:0:0:0:
256,192,154811,1,8,0:0:0:0:
256,192,155500,1,0,0:0:0:0:
256,192,155845,1,0,0:0:0:0:
256,192,156190,1,8,0:0:0:0:
256,192,157225,1,0,0:0:0:0:
256,192,157914,1,8,0:0:0:0:
256,192,158259,1,0,0:0:0:0:
256,192,158604,1,8,0:0:0:0:
256,192,159294,1,0,0:0:0:0:
256,192,159638,1,8,0:0:0:0:
256,192,159983,1,4,0:0:0:0:
256,192,160328,1,8,0:0:0:0:
256,192,161018,1,8,0:0:0:0:
256,192,161363,1,0,0:0:0:0:
256,192,161707,1,8,0:0:0:0:
256,192,162742,1,0,0:0:0:0:
256,192,163087,1,8,0:0:0:0:
256,192,163776,1,0,0:0:0:0:
256,192,164121,1,0,0:0:0:0:
256,192,164466,1,8,0:0:0:0:
256,192,165500,1,0,0:0:0:0:
256,192,165845,1,8,0:0:0:0:
256,192,166535,1,8,0:0:0:0:
256,192,166880,1,0,0:0:0:0:
256,192,167225,1,8,0:0:0:0:
256,192,168259,1,0,0:0:0:0:
256,192,168604,1,8,0:0:0:0:
256,192,169294,1,0,0:0:0:0:
256,192,169638,1,0,0:0:0:0:
256,192,169983,1,8,0:0:0:0:
256,192,171018,1,0,0:0:0:0:
256,192,171363,1,0,0:0:0:0:
256,192,171707,1,8,0:0:0:0:
256,192,172397,1,0,0:0:0:0:
256,192,172742,1,8,0:0:0:0:
256,192,173776,1,0,0:0:0:0:
256,192,174121,1,8,0:0:0:0:
256,192,174466,1,0,0:0:0:0:
256,192,175156,1,8,0:0:0:0:
256,192,175500,1,8,0:0:0:0:
256,192,175845,1,0,0:0:0:0:
256,192,176535,1,0,0:0:0:0:
256,192,176880,1,8,0:0:0:0:
256,192,177914,1,0,0:0:0:0:
256,192,178604,1,0,0:0:0:0:
256,192,178949,1,8,0:0:0:0:
256,192,179294,1,0,0:0:0:0:
256,192,179983,1,8,0:0:0:0:
256,192,180673,1,0,0:0:0:0:
256,192,181707,1,8,0:0:0:0:
256,192,182052,1,0,0:0:0:0:
256,192,182742,1,8,0:0:0:0:
256,192,183431,1,0,0:0:0:0:
256,192,183776,1,8,0:0:0:0:
256,192,184466,1,0,0:0:0:0:
256,192,184811,1,0,0:0:0:0:
256,192,185156,1,8,0:0:0:0:
256,192,185845,1,8,0:0:0:0:
256,192,186190,1,0,0:0:0:0:
256,192,186535,1,8,0:0:0:0:
256,192,187569,1,0,0:0:0:0:
256,192,187914,1,8,0:0:0:0:
256,192,188604,1,0,0:0:0:0:
256,192,188949,1,0,0:0:0:0:
256,192,189294,1,8,0:0:0:0:
256,192,189983,1,0,0:0:0:0:
256,192,190328,1,8,0:0:0:0:
256,192,191363,1,8,0:0:0:0:
256,192,191707,1,0,0:0:0:0:
256,192,192225,1,0,0:0:0:0:
256,192,192742,1,8,0:0:0:0:
256,192,193087,1,0,0:0:0:0:
256,192,193431,1,8,0:0:0:0:
256,192,194121,1,8,0:0:0:0:
256,192,194466,1,4,0:0:0:0:
256,192,194811,1,8,0:0:0:0:
256,192,195845,1,0,0:0:0:0:
256,192,196190,1,8,0:0:0:0:
256,192,196880,1,0,0:0:0:0:
256,192,197225,1,0,0:0:0:0:
256,192,197569,1,8,0:0:0:0:
256,192,198604,1,0,0:0:0:0:
256,192,198949,1,8,0:0:0:0:
256,192,199638,1,8,0:0:0:0:
256,192,199983,1,0,0:0:0:0:
256,192,201018,1,8,0:0:0:0:
256,192,201363,1,0,0:0:0:0:
256,192,202052,1,0,0:0:0:0:
256,192,202397,1,8,0:0:0:0:
256,192,202742,1,0,0:0:0:0:
256,192,203776,1,8,0:0:0:0:
256,192,204121,1,0,0:0:0:0:
256,192,204811,1,0,0:0:0:0:
256,192,205156,1,8,0:0:0:0:
256,192,205500,1,0,0:0:0:0:
256,192,205845,1,8,0:0:0:0:
256,192,206880,1,0,0:0:0:0:
256,192,207225,1,8,0:0:0:0:
256,192,207914,1,8,0:0:0:0:
256,192,208259,1,0,0:0:0:0:
256,192,208604,1,8,0:0:0:0:
256,192,209638,1,0,0:0:0:0:
256,192,209983,1,8,0:0:0:0:
256,192,210673,1,0,0:0:0:0:
256,192,211018,1,0,0:0:0:0:
256,192,211363,1,8,0:0:0:0:
256,192,212052,1,8,0:0:0:0:
256,192,212397,1,0,0:0:0:0:
256,192,213431,1,8,0:0:0:0:
256,192,213776,1,0,0:0:0:0:
256,192,214121,1,8,0:0:0:0:
256,192,214466,1,0,0:0:0:0:
256,192,215156,1,0,0:0:0:0:
256,192,216190,1,8,0:0:0:0:
256,192,216535,1,4,0:0:0:0:
256,192,216880,1,8,0:0:0:0:
256,192,217914,1,0,0:0:0:0:
256,192,218259,1,8,0:0:0:0:
256,192,218949,1,8,0:0:0:0:
256,192,219294,1,0,0:0:0:0:
256,192,219638,1,8,0:0:0:0:
256,192,220328,1,0,0:0:0:0:
256,192,220673,1,0,0:0:0:0:
256,192,221018,1,8,0:0:0:0:
256,192,222052,1,0,0:0:0:0:
256,192,222397,1,8,0:0:0:0:
256,192,223087,1,8,0:0:0:0:
256,192,223431,1,0,0:0:0:0:
256,192,223776,1,8,0:0:0:0:
256,192,224811,1,0,0:0:0:0:
256,192,225156,1,8,0:0:0:0:
256,192,225845,1,0,0:0:0:0:
256,192,226190,1,0,0:0:0:0:
256,192,226535,1,8,0:0:0:0:
256,192,227225,1,8,0:0:0:0:
256,192,227569,1,0,0:0:0:0:
256,192,227914,1,12,0:0:0:0:
256,192,228604,1,0,0:0:0:0:
256,192,228949,1,0,0:0:0:0:
256,192,229294,1,8,0:0:0:0:
256,192,230328,1,0,0:0:0:0:
256,192,230673,1,8,0:0:0:0:
256,192,231363,1,0,0:0:0:0:
256,192,231707,1,8,0:0:0:0:
256,192,232052,1,0,0:0:0:0:
256,192,233087,1,0,0:0:0:0:
256,192,233431,1,8,0:0:0:0:
256,192,234121,1,8,0:0:0:0:
256,192,234466,1,0,0:0:0:0:
256,192,234811,1,8,0:0:0:0:
256,192,235845,1,0,0:0:0:0:
256,192,236190,1,8,0:0:0:0:
256,192,236880,1,8,0:0:0:0:
256,192,237225,1,0,0:0:0:0:
256,192,237914,1,8,0:0:0:0:
256,192,238604,1,4,0:0:0:0:
256,192,238949,1,8,0:0:0:0:
256,192,239983,1,0,0:0:0:0:
256,192,240328,1,8,0:0:0:0:
256,192,240673,1,8,0:0:0:0:
256,192,241363,1,0,0:0:0:0:
256,192,241707,1,0,0:0:0:0:
256,192,242052,1,8,0:0:0:0:
256,192,242742,1,0,0:0:0:0:
256,192,243776,1,0,0:0:0:0:
256,192,244121,1,12,0:0:0:0:
256,192,244811,1,0,0:0:0:0:
256,192,245156,1,8,0:0:0:0:
256,192,245500,1,0,0:0:0:0:
256,192,246190,1,8,0:0:0:0:
256,192,246535,1,8,0:0:0:0:
256,192,246880,1,0,0:0:0:0:
256,192,247914,1,8,0:0:0:0:
256,192,248259,1,0,0:0:0:0:
256,192,248949,1,0,0:0:0:0:
256,192,249294,1,8,0:0:0:0:
256,192,249638,1,0,0:0:0:0:
256,192,249983,1,12,0:0:0:0:
256,192,250673,1,8,0:0:0:0:
256,192,251018,1,0,0:0:0:0:
256,192,252052,1,8,0:0:0:0:
256,192,252397,1,0,0:0:0:0:
256,192,252742,1,8,0:0:0:0:
256,192,253087,1,8,0:0:0:0:
256,192,253776,1,0,0:0:0:0:
256,192,254121,1,8,0:0:0:0:
256,192,255156,1,0,0:0:0:0:
256,192,255500,1,12,0:0:0:0:
256,192,256190,1,8,0:0:0:0:
256,192,256535,1,0,0:0:0:0:
256,192,256880,1,8,0:0:0:0:
256,192,257569,1,8,0:0:0:0:
256,192,257914,1,0,0:0:0:0:
256,192,258259,1,8,0:0:0:0:
256,192,258949,1,0,0:0:0:0:
256,192,259294,1,0,0:0:0:0:
256,192,259638,1,8,0:0:0:0:
256,192,260328,1,8,0:0:0:0:
256,192,260673,1,0,0:0:0:0:
