osu file format v14

[General]
AudioFilename: audio.ogg
AudioLeadIn: 0
PreviewTime: 92290
Countdown: 0
SampleSet: Normal
StackLeniency: 0.7
Mode: 1
LetterboxInBreaks: 0
WidescreenStoryboard: 1

[Editor]
DistanceSpacing: 3
BeatDivisor: 4
GridSize: 32
TimelineZoom: 2.540002

[Metadata]
Title:Glitched KKD
TitleUnicode:Glitched KKD
Artist:tellur
ArtistUnicode:テルル
Creator:paz08
Version:Inner Oni
Source:
Tags:electronic instrumental dnb drum and bass breakcore breakbeats tsundere violence TUNEDERE VOL. 6 himeko katagiri tellursmplng sampling teruru
BeatmapID:3580301
BeatmapSetID:1446763

[Difficulty]
HPDrainRate:5.4
CircleSize:2.8
OverallDifficulty:6.2
ApproachRate:9.8
SliderMultiplier:1.4
SliderTickRate:1

[Events]
//Background and Video events
0,0,"89175946_p0.jpg",0,-25
//Break Periods
//Storyboard Layer 0 (Background)
//Storyboard Layer 1 (Fail)
//Storyboard Layer 2 (Pass)
//Storyboard Layer 3 (Foreground)
//Storyboard Layer 4 (Overlay)
//Storyboard Sound Samples

[TimingPoints]
1363,344.827586206897,4,1,0,60,1,0
1363,-125,4,1,0,60,0,0
6867,-124.98865,4,1,0,40,0,0
7039,-124.89781,4,1,0,41,0,0
7125,-124.81845,4,1,0,42,0,0
7212,-124.715256,4,1,0,43,0,0
7384,-124.44384,4,1,0,44,0,0
7470,-124.274864,4,1,0,45,0,0
7556,-124.083954,4,1,0,46,0,0
7643,-123.868706,4,1,0,47,0,0
7729,-123.63431,4,1,0,47,0,0
7901,-123.10198,4,1,0,49,0,0
7987,-122.80462,4,1,0,50,0,0
8074,-122.48305,4,1,0,50,0,0
8160,-122.14501,4,1,0,51,0,0
8246,-121.78725,4,1,0,52,0,0
8418,-121.01404,4,1,0,54,0,0
8591,-120.16136,4,1,0,55,0,0
8763,-119.24243,4,1,0,57,0,0
8850,-118.75171,4,1,0,57,0,0
8936,-118.250114,4,1,0,58,0,0
9022,-117.73256,4,1,0,59,0,0
9108,-117.199554,4,1,0,60,0,0
9281,-116.08242,4,1,0,61,0,0
9367,-115.50574,4,1,0,62,0,0
9453,-114.91555,4,1,0,63,0,0
9539,-114.312355,4,1,0,64,0,0
9625,-113.69665,4,1,0,64,0,0
9798,-112.42224,4,1,0,66,0,0
9884,-111.77192,4,1,0,67,0,0
9970,-111.111115,4,1,0,68,0,0
10143,-111.08617,4,1,0,69,0,0
10315,-110.97112,4,1,0,71,0,0
10401,-110.86714,4,1,0,72,0,0
10487,-110.72711,4,1,0,72,0,0
10574,-110.54555,4,1,0,73,0,0
10660,-110.32381,4,1,0,74,0,0
10746,-110.057625,4,1,0,75,0,0
10832,-109.74494,4,1,0,75,0,0
11005,-108.96819,4,1,0,77,0,0
11120,-108.33854,4,1,0,78,0,0
11235,-107.61601,4,1,0,79,0,0
11350,-106.79965,4,1,0,80,0,0
11464,-105.897736,4,1,0,81,0,0
11579,-104.89524,4,1,0,82,0,0
11694,-103.80136,4,1,0,83,0,0
11867,-101.98934,4,1,0,85,0,0
12039,-100,4,1,0,86,0,0
12384,-90.9090909090909,4,1,0,90,0,0
34453,-91.5388,4,1,0,90,0,0
34539,-92.17289,4,1,0,89,0,0
34625,-92.81138,4,1,0,89,0,0
34712,-93.461784,4,1,0,89,0,0
34798,-94.10918,4,1,0,88,0,0
34970,-95.41747,4,1,0,88,0,0
35143,-96.75173,4,1,0,87,0,0
35229,-97.42192,4,1,0,87,0,0
35315,-98.096756,4,1,0,86,0,0
35401,-98.77627,4,1,0,86,0,0
35487,-99.46049,4,1,0,86,0,0
35660,-100.85127,4,1,0,85,0,0
35832,-102.253296,4,1,0,84,0,0
35918,-102.9616,4,1,0,84,0,0
36005,-103.683136,4,1,0,83,0,0
36091,-104.401344,4,1,0,83,0,0
36177,-105.12453,4,1,0,83,0,0
36263,-105.85272,4,1,0,82,0,0
36350,-106.594505,4,1,0,82,0,0
36436,-107.33289,4,1,0,82,0,0
36522,-108.07638,4,1,0,81,0,0
36694,-109.57884,4,1,0,81,0,0
36867,-111.111115,4,1,0,80,0,0
37212,-117.64706,4,1,0,80,0,0
41005,-116.92614,4,1,0,80,0,0
41177,-116.21378,4,1,0,80,0,0
41263,-115.85922,4,1,0,80,0,0
41350,-115.50166,4,1,0,80,0,0
41522,-114.797966,4,1,0,80,0,0
41694,-114.098564,4,1,0,80,0,0
41867,-113.3994,4,1,0,80,0,0
41953,-113.05344,4,1,0,80,0,0
42039,-112.708534,4,1,0,80,0,0
42125,-112.36466,4,1,0,80,0,0
42212,-112.01787,4,1,0,80,0,0
42384,-111.3354,4,1,0,80,0,0
42556,-110.65711,4,1,0,80,0,0
42643,-110.31559,4,1,0,80,0,0
42729,-109.979034,4,1,0,80,0,0
42901,-109.30898,4,1,0,80,0,0
43074,-108.639175,4,1,0,80,0,0
43246,-107.977295,4,1,0,80,0,0
43332,-107.64788,4,1,0,80,0,0
43418,-107.31946,4,1,0,80,0,0
43505,-106.988235,4,1,0,80,0,0
43591,-106.66183,4,1,0,80,0,0
43763,-106.012,4,1,0,80,0,0
43936,-105.36238,4,1,0,80,0,0
44108,-104.720474,4,1,0,80,0,0
44281,-104.07877,4,1,0,80,0,0
44367,-103.76124,4,1,0,80,0,0
44453,-103.44468,4,1,0,80,0,0
44625,-102.81445,4,1,0,80,0,0
44712,-102.49713,4,1,0,80,0,0
44798,-102.18443,4,1,0,80,0,0
44884,-101.87269,4,1,0,80,0,0
44970,-101.56188,4,1,0,80,0,0
45143,-100.93953,4,1,0,80,0,0
45315,-100.32457,4,1,0,80,0,0
45487,-99.71335,4,1,0,80,0,0
45660,-99.10233,4,1,0,80,0,0
45746,-98.79999,4,1,0,80,0,0
45832,-98.49856,4,1,0,80,0,0
46005,-97.89499,4,1,0,80,0,0
46091,-97.59632,4,1,0,80,0,0
46177,-97.29857,4,1,0,80,0,0
46263,-97.001724,4,1,0,80,0,0
46350,-96.70234,4,1,0,80,0,0
46522,-96.1132,4,1,0,80,0,0
46694,-95.52763,4,1,0,80,0,0
46867,-94.94226,4,1,0,80,0,0
46953,-94.652596,4,1,0,81,0,0
47039,-94.36384,4,1,0,82,0,0
47125,-94.07594,4,1,0,83,0,0
47212,-93.7856,4,1,0,84,0,0
47298,-93.49947,4,1,0,85,0,0
47384,-93.214226,4,1,0,86,0,0
47470,-92.92983,4,1,0,87,0,0
47556,-92.64632,4,1,0,88,0,0
47716,-92.12115,4,1,0,90,0,0
47901,-83.3333333333333,4,1,0,90,0,0
47987,-85.15784,4,1,0,90,0,0
48074,-87.04419,4,1,0,90,0,0
48160,-88.949936,4,1,0,90,0,0
48246,-90.89741,4,1,0,90,0,0
58604,-90.8918,4,1,0,91,0,0
58776,-90.74626,4,1,0,93,0,0
58863,-90.536835,4,1,0,94,0,0
58949,-90.19703,4,1,0,96,0,0
59006,-89.884315,4,1,0,96,0,0
59064,-89.48476,4,1,0,97,0,0
59121,-89.004745,4,1,0,98,0,0
59207,-88.10259,4,1,0,99,0,0
59294,-86.95652,4,1,0,100,0,1
70328,-86.9565217391304,4,1,0,90,0,0
71363,-86.94775,4,1,0,100,0,1
71522,-86.88692,4,1,0,100,0,1
71608,-86.82093,4,1,0,100,0,1
71694,-86.72276,4,1,0,100,0,1
71781,-86.58439,4,1,0,100,0,1
71867,-86.402885,4,1,0,100,0,1
71953,-86.171104,4,1,0,100,0,1
72039,-85.88356,4,1,0,100,0,1
72097,-85.65554,4,1,0,100,0,1
72154,-85.40304,4,1,0,100,0,1
72212,-85.11582,4,1,0,100,0,1
72298,-84.63112,4,1,0,100,0,1
72384,-84.07297,4,1,0,100,0,1
72556,-82.72515,4,1,0,100,0,1
72614,-82.19893,4,1,0,100,0,1
72671,-81.645996,4,1,0,100,0,1
72729,-81.04686,4,1,0,100,0,1
72815,-80.090965,4,1,0,100,0,1
72901,-79.05531,4,1,0,100,0,1
73074,-76.9230769230769,4,1,0,100,0,1
73246,-86.9565217391304,4,1,0,100,0,1
79798,-86.9489,4,1,0,100,0,1
79970,-86.896065,4,1,0,100,0,1
80056,-86.83874,4,1,0,100,0,1
80143,-86.75225,4,1,0,100,0,1
80229,-86.63313,4,1,0,100,0,1
80315,-86.475266,4,1,0,100,0,1
80401,-86.27355,4,1,0,100,0,1
80487,-86.02311,4,1,0,100,0,1
80574,-85.71546,4,1,0,100,0,1
80660,-85.35336,4,1,0,100,0,1
80832,-84.4411,4,1,0,100,0,1
81005,-83.250084,4,1,0,100,0,1
81091,-82.55041,4,1,0,100,0,1
81190,-81.77754,4,1,0,100,0,1
81363,-80,4,1,0,100,0,0
81522,-125,4,1,0,50,0,0
83418,-124.890236,4,1,0,50,0,0
84108,-124.38043,4,1,0,50,0,0
85143,-122.52547,4,1,0,50,0,0
85487,-121.574295,4,1,0,50,0,0
86177,-119.133545,4,1,0,50,0,0
86522,-117.64706,4,1,0,50,0,0
86867,-111.111111111111,4,1,0,90,0,0
89740,-111.10992,4,1,0,90,0,0
89855,-111.1015,4,1,0,90,0,0
89970,-111.07868,4,1,0,90,0,0
90085,-111.03426,4,1,0,90,0,0
90200,-110.96111,4,1,0,90,0,0
90315,-110.85216,4,1,0,90,0,0
90430,-110.70047,4,1,0,90,0,0
90545,-110.49925,4,1,0,90,0,0
90660,-110.24195,4,1,0,90,0,0
90775,-109.92229,4,1,0,90,0,0
90890,-109.534386,4,1,0,90,0,0
91005,-109.07271,4,1,0,90,0,0
91177,-108.23388,4,1,0,90,0,0
91350,-107.198265,4,1,0,90,0,0
91436,-106.6083,4,1,0,90,0,0
91522,-105.967,4,1,0,90,0,0
91608,-105.273636,4,1,0,90,0,0
91694,-104.52772,4,1,0,90,0,0
91781,-103.71942,4,1,0,90,0,0
91867,-102.86741,4,1,0,90,0,0
91953,-101.96305,4,1,0,90,0,0
92039,-101.00694,4,1,0,90,0,0
92125,-100,4,1,0,90,0,0
92384,-90.9090909090909,4,1,0,90,0,0
105143,-90.87588,4,1,0,90,0,0
105487,-90.49189,4,1,0,90,0,0
105832,-89.30916,4,1,0,90,0,0
106005,-88.29374,4,1,0,90,0,0
106190,-86.95652,4,1,0,100,0,1
110328,-86.9565217391304,4,1,0,100,0,0
110673,-86.9565217391304,4,1,0,100,0,1
115487,-85.73396,4,1,0,100,0,1
115574,-85.122154,4,1,0,100,0,1
115660,-84.52166,4,1,0,100,0,1
115832,-83.333336,4,1,0,100,0,1
120500,-83.92481,4,1,0,100,0,1
120587,-84.22559,4,1,0,100,0,1
120759,-84.82341,4,1,0,100,0,1
120845,-85.12391,4,1,0,100,0,1
121018,-85.73161,4,1,0,100,0,1
121104,-86.03533,4,1,0,100,0,1
121190,-86.34012,4,1,0,100,0,1
121276,-86.64599,4,1,0,100,0,1
121350,-86.95652,4,1,0,100,0,1
125832,-86.94558,4,1,0,100,0,1
125918,-86.91962,4,1,0,100,0,1
126005,-86.868324,4,1,0,100,0,1
126091,-86.78471,4,1,0,100,0,1
126263,-86.48765,4,1,0,100,0,1
126350,-86.25589,4,1,0,100,0,1
126522,-85.60086,4,1,0,100,0,1
126608,-85.16252,4,1,0,100,0,1
126694,-84.642845,4,1,0,100,0,1
126880,-83.333336,4,1,0,100,0,0
127039,-100,4,1,0,80,0,0
136694,-99.9806,4,1,0,81,0,0
136867,-99.843666,4,1,0,83,0,0
137039,-99.4758,4,1,0,84,0,0
137125,-99.17084,4,1,0,84,0,0
137212,-98.76278,4,1,0,85,0,0
137384,-97.61577,4,1,0,86,0,0
137470,-96.85336,4,1,0,87,0,0
137556,-95.95484,4,1,0,87,0,0
137643,-94.902,4,1,0,88,0,0
137729,-93.71591,4,1,0,89,0,0
137815,-92.384445,4,1,0,89,0,0
137901,-90.90909,4,1,0,90,0,0
138259,-86.9565217391304,4,1,0,100,0,1
146177,-86.95672,4,1,0,100,0,1
146263,-86.95819,4,1,0,100,0,1
146350,-86.96222,4,1,0,100,0,1
146436,-86.97,4,1,0,100,0,1
146522,-86.98282,4,1,0,100,0,1
146694,-87.02858,4,1,0,100,0,1
146781,-87.06453,4,1,0,100,0,1
146867,-87.11023,4,1,0,100,0,1
146953,-87.16734,4,1,0,100,0,1
147039,-87.23718,4,1,0,100,0,1
147125,-87.32105,4,1,0,100,0,1
147212,-87.421555,4,1,0,100,0,1
147384,-87.53778,4,1,0,100,0,1
147470,-87.67219,4,1,0,100,0,1
147556,-88.00137,4,1,0,100,0,1
147729,-88.42398,4,1,0,100,0,1
147901,-88.94824,4,1,0,100,0,1
147987,-89.25371,4,1,0,100,0,1
148160,-89.965454,4,1,0,100,0,1
148246,-90.37183,4,1,0,100,0,1
148418,-91.30082,4,1,0,100,0,1
148591,-92.40895,4,1,0,100,0,1
148677,-93.03188,4,1,0,100,0,1
148763,-93.70704,4,1,0,100,0,1
148949,-95.2381,4,1,0,100,0,0
149108,-100,4,1,0,80,0,0
157212,-99.99729,4,1,0,81,0,0
157298,-99.990906,4,1,0,81,0,0
157384,-99.9785,4,1,0,81,0,0
157470,-99.95811,4,1,0,82,0,0
157556,-99.92769,4,1,0,82,0,0
157729,-99.828285,4,1,0,83,0,0
157815,-99.75592,4,1,0,83,0,0
157901,-99.66575,4,1,0,83,0,0
158074,-99.42283,4,1,0,84,0,0
158160,-99.26781,4,1,0,84,0,0
158246,-99.087685,4,1,0,85,0,0
158332,-98.88079,4,1,0,85,0,0
158418,-98.64552,4,1,0,85,0,0
158591,-98.080185,4,1,0,86,0,0
158850,-96.98381,4,1,0,87,0,0
158936,-96.548935,4,1,0,87,0,0
159108,-95.56803,4,1,0,88,0,0
159281,-94.428,4,1,0,88,0,0
159453,-93.1396,4,1,0,89,0,0
159625,-91.69684,4,1,0,90,0,0
159712,-90.90909,4,1,0,90,0,0
159983,-86.9565217391304,4,1,0,100,0,1
193418,-86.97841,4,1,0,100,0,1
193505,-87.031296,4,1,0,100,0,1
193591,-87.13345,4,1,0,100,0,1
193677,-87.30217,4,1,0,100,0,1
193763,-87.55484,4,1,0,100,0,1
193850,-87.91449,4,1,0,100,0,1
193936,-88.39248,4,1,0,100,0,1
194022,-89.01346,4,1,0,100,0,1
194108,-89.800865,4,1,0,100,0,1
194194,-90.78125,4,1,0,100,0,1
194281,-92.000725,4,1,0,100,0,1
194466,-95.2381,4,1,0,100,0,0
194625,-100,4,1,0,80,0,0
197728,-99.99949,4,1,0,80,0,0
197814,-99.9959,4,1,0,81,0,0
197900,-99.98614,4,1,0,81,0,0
198008,-99.96045,4,1,0,82,0,0
198116,-99.91412,4,1,0,82,0,0
198224,-99.84114,4,1,0,83,0,0
198590,-99.31709,4,1,0,84,0,0
198762,-98.878845,4,1,0,85,0,0
198849,-98.60069,4,1,0,85,0,0
198935,-98.28528,4,1,0,86,0,0
199107,-97.52521,4,1,0,86,0,0
199193,-97.07679,4,1,0,87,0,0
199280,-96.57458,4,1,0,87,0,0
199366,-96.028786,4,1,0,87,0,0
199452,-95.43286,4,1,0,88,0,0
199624,-94.08773,4,1,0,89,0,0
199711,-93.32874,4,1,0,89,0,0
199797,-92.526596,4,1,0,89,0,0
199854,-91.96667,4,1,0,90,0,0
199912,-91.373985,4,1,0,90,0,0
199957,-90.90909,4,1,0,90,0,0
204970,-90.94714,4,1,0,90,0,0
205143,-93.881325,4,1,0,90,0,0
205229,-95.37497,4,1,0,90,0,0
205315,-96.89237,4,1,0,90,0,0
205487,-100,4,1,0,90,0,0
205832,-111.111111111111,4,1,0,90,0,0
213763,-111.09416,4,1,0,90,0,0
213850,-111.07785,4,1,0,90,0,0
213936,-111.05377,4,1,0,90,0,0
214022,-111.020226,4,1,0,90,0,0
214108,-110.97567,4,1,0,90,0,0
214281,-110.84643,4,1,0,90,0,0
214453,-110.65531,4,1,0,90,0,0
214625,-110.38994,4,1,0,90,0,0
214798,-110.03671,4,1,0,90,0,0
215143,-109.031845,4,1,0,90,0,0
215229,-108.712135,4,1,0,90,0,0
215315,-108.362755,4,1,0,90,0,0
215401,-107.982765,4,1,0,90,0,0
215487,-107.57138,4,1,0,90,0,0
215660,-106.64588,4,1,0,90,0,0
215746,-106.135994,4,1,0,90,0,0
215832,-105.592415,4,1,0,90,0,0
215947,-104.81241,4,1,0,90,0,0
216062,-103.97125,4,1,0,90,0,0
216177,-103.06891,4,1,0,90,0,0
216292,-102.10572,4,1,0,90,0,0
216407,-101.08239,4,1,0,90,0,0
216522,-100,4,1,0,90,0,0
227914,-90.9090909090909,4,1,0,95,0,1
236867,-90.90588,4,1,0,95,0,1
236953,-90.89835,4,1,0,96,0,1
237039,-90.88372,4,1,0,96,0,1
237125,-90.85964,4,1,0,96,0,1
237212,-90.82328,4,1,0,96,0,1
237384,-90.70654,4,1,0,97,0,1
237556,-90.51501,4,1,0,97,0,1
237643,-90.38401,4,1,0,98,0,1
237729,-90.229095,4,1,0,98,0,1
237815,-90.04686,4,1,0,98,0,1
237901,-89.835335,4,1,0,98,0,1
237987,-89.59265,4,1,0,98,0,1
238074,-89.313614,4,1,0,99,0,1
238160,-89.003006,4,1,0,99,0,1
238246,-88.6563,4,1,0,99,0,1
238332,-88.272156,4,1,0,99,0,1
238418,-87.84934,4,1,0,100,0,1
238591,-86.95652,4,1,0,100,0,1
241005,-87.73732797,4,1,0,98,0,1
241091,-88.51660859,4,1,0,96,0,1
241177,-89.30337851,4,1,0,94,0,1
241263,-90.09773315,4,1,0,92,0,1
241363,-90.90909408,4,1,0,90,0,0
243418,-90.89220588,4,1,0,91,0,0
243505,-90.81222282,4,1,0,92,0,0
243591,-90.64392959,4,1,0,93,0,0
243677,-90.3677372,4,1,0,94,0,0
243763,-89.96892335,4,1,0,96,0,0
243850,-89.42921225,4,1,0,97,0,0
243936,-88.75285745,4,1,0,98,0,0
244121,-86.95652174,4,1,0,100,0,1
246522,-88.25046929,4,1,0,97,0,1
246608,-88.90523602,4,1,0,95,0,1
246694,-89.56526074,4,1,0,93,0,1
246781,-90.23835249,4,1,0,92,0,1
246880,-90.90909408,4,1,0,90,0,0
249983,-86.95652174,4,1,0,100,0,1
252039,-87.50869246,4,1,0,99,0,1
252125,-88.0646683,4,1,0,97,0,1
252212,-88.63097818,4,1,0,96,0,1
252298,-89.19465693,4,1,0,94,0,1
252397,-89.76222118,4,1,0,93,0,0
252556,-90.90909408,4,1,0,90,0,0
255500,-86.95652174,4,1,0,100,0,1
257556,-87.92410015,4,1,0,98,0,1
257643,-88.41793577,4,1,0,96,0,1
257729,-88.90905403,4,1,0,95,0,1
257815,-89.40311984,4,1,0,94,0,1
257914,-89.90015725,4,1,0,93,0,0
258074,-90.90909408,4,1,0,90,0,0
259453,-90.90626169,4,1,0,91,0,0
259539,-90.89738856,4,1,0,92,0,0
259625,-90.87707466,4,1,0,92,0,0
259798,-90.77596864,4,1,0,94,0,0
259884,-90.68119803,4,1,0,94,0,0
259970,-90.54623247,4,1,0,95,0,0
260143,-90.11807745,4,1,0,96,0,0
260229,-89.80944623,4,1,0,97,0,0
260315,-89.4252541,4,1,0,97,0,0
260401,-88.95680045,4,1,0,98,0,0
260487,-88.39577135,4,1,0,99,0,0
260574,-87.72617077,4,1,0,99,0,0
260660,-86.95652174,4,1,0,5,0,0

[HitObjects]
256,192,6880,5,0,0:0:0:0:
256,192,7052,1,0,0:0:0:0:
256,192,7138,1,0,0:0:0:0:
256,192,7225,1,8,0:0:0:0:
256,192,7397,1,0,0:0:0:0:
256,192,7483,1,0,0:0:0:0:
256,192,7569,1,8,0:0:0:0:
256,192,7656,1,8,0:0:0:0:
256,192,7742,1,0,0:0:0:0:
256,192,7914,1,8,0:0:0:0:
256,192,8000,1,0,0:0:0:0:
256,192,8087,1,8,0:0:0:0:
256,192,8173,1,8,0:0:0:0:
256,192,8259,1,0,0:0:0:0:
256,192,8431,1,0,0:0:0:0:
256,192,8604,1,8,0:0:0:0:
256,192,8776,1,0,0:0:0:0:
256,192,8863,1,8,0:0:0:0:
256,192,8949,1,8,0:0:0:0:
256,192,9035,1,0,0:0:0:0:
256,192,9121,1,8,0:0:0:0:
256,192,9294,1,0,0:0:0:0:
256,192,9380,1,8,0:0:0:0:
256,192,9466,1,8,0:0:0:0:
256,192,9552,1,8,0:0:0:0:
256,192,9638,1,0,0:0:0:0:
256,192,9811,1,8,0:0:0:0:
256,192,9897,1,8,0:0:0:0:
256,192,9983,1,0,0:0:0:0:
256,192,10156,1,0,0:0:0:0:
256,192,10328,1,8,0:0:0:0:
256,192,10414,1,0,0:0:0:0:
256,192,10500,1,8,0:0:0:0:
256,192,10587,1,0,0:0:0:0:
256,192,10673,1,8,0:0:0:0:
256,192,10759,1,0,0:0:0:0:
256,192,10845,1,8,0:0:0:0:
256,192,11018,1,0,0:0:0:0:
256,192,11133,1,8,0:0:0:0:
256,192,11248,1,8,0:0:0:0:
256,192,11363,1,0,0:0:0:0:
256,192,11477,1,8,0:0:0:0:
256,192,11592,1,8,0:0:0:0:
256,192,11707,1,0,0:0:0:0:
256,192,11880,1,0,0:0:0:0:
256,192,12052,1,8,0:0:0:0:
256,192,12397,1,4,0:0:0:0:
256,192,12569,1,0,0:0:0:0:
256,192,12742,1,8,0:0:0:0:
256,192,12914,1,0,0:0:0:0:
256,192,13000,1,8,0:0:0:0:
256,192,13087,1,0,0:0:0:0:
256,192,13259,1,8,0:0:0:0:
256,192,13431,1,8,0:0:0:0:
256,192,13518,1,0,0:0:0:0:
256,192,13604,1,0,0:0:0:0:
256,192,13776,1,8,0:0:0:0:
256,192,13863,1,0,0:0:0:0:
256,192,13949,1,0,0:0:0:0:
256,192,14035,1,0,0:0:0:0:
256,192,14121,1,8,0:0:0:0:
256,192,14294,1,8,0:0:0:0:
256,192,14380,1,8,0:0:0:0:
256,192,14466,1,0,0:0:0:0:
256,192,14552,1,8,0:0:0:0:
256,192,14638,1,0,0:0:0:0:
256,192,14811,1,8,0:0:0:0:
256,192,14897,1,8,0:0:0:0:
256,192,14983,1,0,0:0:0:0:
256,192,15069,1,0,0:0:0:0:
256,192,15156,1,0,0:0:0:0:
256,192,15500,1,8,0:0:0:0:
256,192,15673,1,0,0:0:0:0:
256,192,15845,1,8,0:0:0:0:
256,192,15931,1,8,0:0:0:0:
256,192,16018,1,0,0:0:0:0:
256,192,16104,1,8,0:0:0:0:
256,192,16190,1,0,0:0:0:0:
256,192,16276,1,0,0:0:0:0:
256,192,16363,1,8,0:0:0:0:
256,192,16449,1,8,0:0:0:0:
256,192,16535,1,0,0:0:0:0:
256,192,16707,1,0,0:0:0:0:
256,192,16880,1,8,0:0:0:0:
256,192,17052,1,0,0:0:0:0:
256,192,17225,1,8,0:0:0:0:
256,192,17311,1,0,0:0:0:0:
256,192,17397,1,0,0:0:0:0:
256,192,17483,1,0,0:0:0:0:
256,192,17569,1,8,0:0:0:0:
256,192,17914,1,0,0:0:0:0:
256,192,18087,1,0,0:0:0:0:
256,192,18259,1,8,0:0:0:0:
256,192,18345,1,8,0:0:0:0:
256,192,18431,1,0,0:0:0:0:
256,192,18518,1,0,0:0:0:0:
256,192,18604,1,8,0:0:0:0:
256,192,18776,1,0,0:0:0:0:
256,192,18949,1,8,0:0:0:0:
256,192,19035,1,8,0:0:0:0:
256,192,19121,1,0,0:0:0:0:
256,192,19207,1,0,0:0:0:0:
256,192,19294,1,8,0:0:0:0:
256,192,19380,1,0,0:0:0:0:
256,192,19466,1,8,0:0:0:0:
256,192,19638,1,0,0:0:0:0:
256,192,19725,1,0,0:0:0:0:
256,192,19811,1,0,0:0:0:0:
256,192,19897,1,8,0:0:0:0:
256,192,20156,1,0,0:0:0:0:
256,192,20242,1,0,0:0:0:0:
256,192,20328,1,8,0:0:0:0:
256,192,20414,1,0,0:0:0:0:
256,192,20500,1,8,0:0:0:0:
256,192,20673,1,8,0:0:0:0:
256,192,20759,1,8,0:0:0:0:
256,192,20845,1,0,0:0:0:0:
256,192,20931,1,0,0:0:0:0:
256,192,21018,1,8,0:0:0:0:
256,192,21104,1,8,0:0:0:0:
256,192,21190,1,0,0:0:0:0:
256,192,21363,1,8,0:0:0:0:
256,192,21535,1,0,0:0:0:0:
256,192,21707,1,8,0:0:0:0:
256,192,21880,1,8,0:0:0:0:
256,192,21966,1,8,0:0:0:0:
256,192,22052,1,0,0:0:0:0:
256,192,22225,1,0,0:0:0:0:
256,192,22311,1,0,0:0:0:0:
256,192,22397,1,8,0:0:0:0:
256,192,22483,1,0,0:0:0:0:
256,192,22569,1,8,0:0:0:0:
256,192,22742,1,0,0:0:0:0:
256,192,22914,1,0,0:0:0:0:
256,192,23087,1,8,0:0:0:0:
256,192,23173,1,8,0:0:0:0:
256,192,23259,1,8,0:0:0:0:
256,192,23345,1,8,0:0:0:0:
256,192,23431,1,0,0:0:0:0:
256,192,23776,1,8,0:0:0:0:
256,192,23863,1,8,0:0:0:0:
256,192,23949,1,0,0:0:0:0:
256,192,24035,1,0,0:0:0:0:
256,192,24121,1,8,0:0:0:0:
256,192,24294,1,0,0:0:0:0:
256,192,24466,1,8,0:0:0:0:
256,192,24552,1,0,0:0:0:0:
256,192,24638,1,8,0:0:0:0:
256,192,24725,1,8,0:0:0:0:
256,192,24811,1,0,0:0:0:0:
256,192,24897,1,0,0:0:0:0:
256,192,24983,1,8,0:0:0:0:
256,192,25069,1,8,0:0:0:0:
256,192,25156,1,8,0:0:0:0:
256,192,25328,1,0,0:0:0:0:
256,192,25414,1,0,0:0:0:0:
256,192,25500,1,8,0:0:0:0:
256,192,25587,1,8,0:0:0:0:
256,192,25673,1,0,0:0:0:0:
256,192,25845,1,8,0:0:0:0:
256,192,25931,1,0,0:0:0:0:
256,192,26018,1,8,0:0:0:0:
256,192,26104,1,0,0:0:0:0:
256,192,26190,1,0,0:0:0:0:
256,192,26535,1,8,0:0:0:0:
256,192,26707,1,0,0:0:0:0:
256,192,26880,1,8,0:0:0:0:
256,192,26966,1,0,0:0:0:0:
256,192,27052,1,0,0:0:0:0:
256,192,27138,1,0,0:0:0:0:
256,192,27225,1,8,0:0:0:0:
256,192,27311,1,8,0:0:0:0:
256,192,27397,1,8,0:0:0:0:
256,192,27483,1,8,0:0:0:0:
256,192,27569,1,0,0:0:0:0:
256,192,27742,1,0,0:0:0:0:
256,192,27914,1,8,0:0:0:0:
256,192,28000,1,0,0:0:0:0:
256,192,28087,1,8,0:0:0:0:
256,192,28259,1,8,0:0:0:0:
256,192,28345,1,0,0:0:0:0:
256,192,28431,1,0,0:0:0:0:
256,192,28518,1,0,0:0:0:0:
256,192,28604,1,8,0:0:0:0:
256,192,28949,1,0,0:0:0:0:
256,192,29121,1,0,0:0:0:0:
256,192,29294,1,8,0:0:0:0:
256,192,29380,1,0,0:0:0:0:
256,192,29466,1,0,0:0:0:0:
256,192,29638,1,0,0:0:0:0:
256,192,29725,1,8,0:0:0:0:
256,192,29811,1,0,0:0:0:0:
256,192,29983,1,8,0:0:0:0:
256,192,30069,1,0,0:0:0:0:
256,192,30156,1,8,0:0:0:0:
256,192,30242,1,8,0:0:0:0:
256,192,30328,1,0,0:0:0:0:
256,192,30414,1,0,0:0:0:0:
256,192,30500,1,8,0:0:0:0:
256,192,30673,1,0,0:0:0:0:
256,192,30759,1,0,0:0:0:0:
256,192,30845,1,8,0:0:0:0:
256,192,30931,1,8,0:0:0:0:
256,192,31018,1,8,0:0:0:0:
256,192,31104,1,8,0:0:0:0:
256,192,31190,1,0,0:0:0:0:
256,192,31276,1,0,0:0:0:0:
256,192,31363,1,8,0:0:0:0:
256,192,31449,1,0,0:0:0:0:
256,192,31535,1,8,0:0:0:0:
256,192,31707,1,0,0:0:0:0:
256,192,31794,1,8,0:0:0:0:
256,192,31880,1,0,0:0:0:0:
256,192,31966,1,0,0:0:0:0:
256,192,32052,1,8,0:0:0:0:
256,192,32138,1,8,0:0:0:0:
256,192,32225,1,0,0:0:0:0:
256,192,32397,1,8,0:0:0:0:
256,192,32569,1,0,0:0:0:0:
256,192,32656,1,0,0:0:0:0:
256,192,32742,1,8,0:0:0:0:
256,192,32914,1,0,0:0:0:0:
256,192,33087,1,8,0:0:0:0:
256,192,33259,1,8,0:0:0:0:
256,192,33317,1,8,0:0:0:0:
256,192,33374,1,8,0:0:0:0:
256,192,33431,1,0,0:0:0:0:
256,192,33604,1,8,0:0:0:0:
256,192,33776,1,0,0:0:0:0:
256,192,33834,1,0,0:0:0:0:
256,192,33891,1,0,0:0:0:0:
256,192,33949,1,8,0:0:0:0:
256,192,34035,1,8,0:0:0:0:
256,192,34121,1,0,0:0:0:0:
256,192,34294,1,8,0:0:0:0:
256,192,34466,1,0,0:0:0:0:
256,192,34552,1,0,0:0:0:0:
256,192,34638,1,0,0:0:0:0:
256,192,34725,1,0,0:0:0:0:
256,192,34811,1,8,0:0:0:0:
256,192,34983,1,0,0:0:0:0:
256,192,35156,1,8,0:0:0:0:
256,192,35242,1,8,0:0:0:0:
256,192,35328,1,0,0:0:0:0:
256,192,35414,1,0,0:0:0:0:
256,192,35500,1,8,0:0:0:0:
256,192,35673,1,0,0:0:0:0:
256,192,35845,1,0,0:0:0:0:
256,192,35931,1,8,0:0:0:0:
256,192,36018,1,0,0:0:0:0:
256,192,36104,1,0,0:0:0:0:
256,192,36190,1,8,0:0:0:0:
256,192,36276,1,0,0:0:0:0:
256,192,36363,1,8,0:0:0:0:
256,192,36449,1,8,0:0:0:0:
256,192,36535,1,0,0:0:0:0:
256,192,36707,1,0,0:0:0:0:
256,192,36880,1,8,0:0:0:0:
256,192,37225,1,0,0:0:0:0:
256,192,37397,1,0,0:0:0:0:
256,192,37569,1,8,0:0:0:0:
256,192,37742,1,8,0:0:0:0:
256,192,37828,1,0,0:0:0:0:
256,192,37914,1,8,0:0:0:0:
256,192,38000,1,8,0:0:0:0:
256,192,38087,1,0,0:0:0:0:
256,192,38259,1,8,0:0:0:0:
256,192,38431,1,0,0:0:0:0:
256,192,38518,1,0,0:0:0:0:
256,192,38604,1,0,0:0:0:0:
256,192,38776,1,0,0:0:0:0:
256,192,38949,1,8,0:0:0:0:
256,192,39121,1,0,0:0:0:0:
256,192,39207,1,0,0:0:0:0:
256,192,39294,1,8,0:0:0:0:
256,192,39380,1,8,0:0:0:0:
256,192,39466,1,0,0:0:0:0:
256,192,39638,1,8,0:0:0:0:
256,192,39983,1,0,0:0:0:0:
256,192,40156,1,0,0:0:0:0:
256,192,40328,1,8,0:0:0:0:
256,192,40500,1,0,0:0:0:0:
256,192,40587,1,0,0:0:0:0:
256,192,40673,1,8,0:0:0:0:
256,192,40759,1,0,0:0:0:0:
256,192,40845,1,0,0:0:0:0:
256,192,41018,1,8,0:0:0:0:
256,192,41190,1,8,0:0:0:0:
256,192,41276,1,0,0:0:0:0:
256,192,41363,1,0,0:0:0:0:
256,192,41535,1,0,0:0:0:0:
256,192,41707,1,8,0:0:0:0:
256,192,41880,1,0,0:0:0:0:
256,192,41966,1,8,0:0:0:0:
256,192,42052,1,8,0:0:0:0:
256,192,42138,1,8,0:0:0:0:
256,192,42225,1,0,0:0:0:0:
256,192,42397,1,8,0:0:0:0:
256,192,42569,1,0,0:0:0:0:
256,192,42656,1,0,0:0:0:0:
256,192,42742,1,8,0:0:0:0:
256,192,42914,1,0,0:0:0:0:
256,192,43087,1,8,0:0:0:0:
256,192,43259,1,0,0:0:0:0:
256,192,43345,1,8,0:0:0:0:
256,192,43431,1,8,0:0:0:0:
256,192,43518,1,0,0:0:0:0:
256,192,43604,1,0,0:0:0:0:
256,192,43776,1,8,0:0:0:0:
256,192,43949,1,8,0:0:0:0:
256,192,44121,1,0,0:0:0:0:
256,192,44294,1,0,0:0:0:0:
256,192,44380,1,0,0:0:0:0:
256,192,44466,1,8,0:0:0:0:
256,192,44638,1,8,0:0:0:0:
256,192,44725,1,8,0:0:0:0:
256,192,44811,1,0,0:0:0:0:
256,192,44897,1,0,0:0:0:0:
256,192,44983,1,0,0:0:0:0:
256,192,45156,1,8,0:0:0:0:
256,192,45328,1,8,0:0:0:0:
256,192,45500,1,0,0:0:0:0:
256,192,45673,1,0,0:0:0:0:
256,192,45759,1,0,0:0:0:0:
256,192,45845,1,8,0:0:0:0:
256,192,46018,1,0,0:0:0:0:
256,192,46104,1,8,0:0:0:0:
256,192,46190,1,0,0:0:0:0:
256,192,46276,1,8,0:0:0:0:
256,192,46363,1,0,0:0:0:0:
256,192,46535,1,8,0:0:0:0:
256,192,46707,1,8,0:0:0:0:
256,192,46880,1,0,0:0:0:0:
256,192,46966,1,8,0:0:0:0:
256,192,47052,1,0,0:0:0:0:
256,192,47138,1,0,0:0:0:0:
256,192,47225,1,8,0:0:0:0:
256,192,47311,1,8,0:0:0:0:
256,192,47397,1,0,0:0:0:0:
256,192,47483,1,0,0:0:0:0:
256,192,47569,1,8,0:0:0:0:
256,192,47742,1,0,0:0:0:0:
256,192,47914,1,8,0:0:0:0:
256,192,48000,1,8,0:0:0:0:
256,192,48087,1,8,0:0:0:0:
256,192,48173,1,8,0:0:0:0:
256,192,48259,1,4,0:0:0:0:
256,192,48431,1,0,0:0:0:0:
256,192,48604,1,8,0:0:0:0:
256,192,48776,1,8,0:0:0:0:
256,192,48863,1,8,0:0:0:0:
256,192,48949,1,0,0:0:0:0:
256,192,49121,1,0,0:0:0:0:
256,192,49207,1,0,0:0:0:0:
256,192,49294,1,8,0:0:0:0:
256,192,49466,1,8,0:0:0:0:
256,192,49811,1,0,0:0:0:0:
256,192,50069,1,8,0:0:0:0:
256,192,50328,1,0,0:0:0:0:
256,192,50587,1,8,0:0:0:0:
256,192,50845,1,0,0:0:0:0:
256,192,51018,1,12,0:0:0:0:
256,192,51190,1,0,0:0:0:0:
256,192,51276,1,0,0:0:0:0:
256,192,51363,1,8,0:0:0:0:
256,192,51535,1,8,0:0:0:0:
256,192,51621,1,0,0:0:0:0:
256,192,51707,1,8,0:0:0:0:
256,192,51794,1,8,0:0:0:0:
256,192,51880,1,0,0:0:0:0:
256,192,51966,1,0,0:0:0:0:
256,192,52052,1,8,0:0:0:0:
256,192,52225,1,0,0:0:0:0:
256,192,52282,1,0,0:0:0:0:
256,192,52340,1,0,0:0:0:0:
256,192,52397,1,8,0:0:0:0:
256,192,52483,1,0,0:0:0:0:
256,192,52569,1,8,0:0:0:0:
256,192,52742,1,0,0:0:0:0:
256,192,52828,1,8,0:0:0:0:
256,192,53000,1,8,0:0:0:0:
256,192,53087,1,0,0:0:0:0:
256,192,53173,1,0,0:0:0:0:
256,192,53259,1,0,0:0:0:0:
256,192,53431,1,8,0:0:0:0:
256,192,53604,1,0,0:0:0:0:
256,192,53776,1,8,0:0:0:0:
256,192,53863,1,8,0:0:0:0:
256,192,53949,1,0,0:0:0:0:
256,192,54035,1,0,0:0:0:0:
256,192,54121,1,8,0:0:0:0:
256,192,54207,1,0,0:0:0:0:
256,192,54380,1,0,0:0:0:0:
256,192,54466,1,0,0:0:0:0:
256,192,54552,1,8,0:0:0:0:
256,192,54638,1,8,0:0:0:0:
256,192,54725,1,0,0:0:0:0:
256,192,54811,1,8,0:0:0:0:
256,192,54983,1,0,0:0:0:0:
256,192,55156,1,8,0:0:0:0:
256,192,55242,1,8,0:0:0:0:
256,192,55328,1,0,0:0:0:0:
256,192,55414,1,0,0:0:0:0:
256,192,55500,1,8,0:0:0:0:
256,192,55587,1,8,0:0:0:0:
256,192,55673,1,8,0:0:0:0:
256,192,55759,1,8,0:0:0:0:
256,192,55845,1,0,0:0:0:0:
256,192,55931,1,0,0:0:0:0:
256,192,56190,1,8,0:0:0:0:
256,192,56535,1,0,0:0:0:0:
256,192,56707,1,8,0:0:0:0:
256,192,56880,1,0,0:0:0:0:
256,192,56966,1,0,0:0:0:0:
256,192,57052,1,8,0:0:0:0:
256,192,57225,1,0,0:0:0:0:
256,192,57340,1,8,0:0:0:0:
256,192,57454,1,0,0:0:0:0:
256,192,57569,1,8,0:0:0:0:
256,192,57684,1,0,0:0:0:0:
256,192,57799,1,0,0:0:0:0:
256,192,57914,1,8,0:0:0:0:
256,192,58029,1,8,0:0:0:0:
256,192,58144,1,8,0:0:0:0:
256,192,58259,1,0,0:0:0:0:
256,192,58374,1,8,0:0:0:0:
256,192,58489,1,8,0:0:0:0:
256,192,58604,1,0,0:0:0:0:
256,192,58776,1,0,0:0:0:0:
256,192,58863,1,0,0:0:0:0:
256,192,58949,1,8,0:0:0:0:
256,192,59006,1,8,0:0:0:0:
256,192,59064,1,8,0:0:0:0:
256,192,59121,1,0,0:0:0:0:
256,192,59207,1,0,0:0:0:0:
256,192,59294,1,8,0:0:0:0:
256,192,59638,1,8,0:0:0:0:
256,192,59811,1,0,0:0:0:0:
256,192,59897,1,8,0:0:0:0:
256,192,59983,1,0,0:0:0:0:
256,192,60069,1,0,0:0:0:0:
256,192,60156,1,8,0:0:0:0:
256,192,60242,1,0,0:0:0:0:
256,192,60328,1,8,0:0:0:0:
256,192,60500,1,8,0:0:0:0:
256,192,60673,1,0,0:0:0:0:
256,192,60759,1,0,0:0:0:0:
256,192,60845,1,8,0:0:0:0:
256,192,60903,1,0,0:0:0:0:
256,192,60960,1,0,0:0:0:0:
256,192,61018,1,8,0:0:0:0:
256,192,61190,1,0,0:0:0:0:
256,192,61363,1,8,0:0:0:0:
256,192,61420,1,8,0:0:0:0:
256,192,61477,1,8,0:0:0:0:
256,192,61535,1,0,0:0:0:0:
256,192,61621,1,0,0:0:0:0:
256,192,61707,1,8,0:0:0:0:
256,192,61880,1,8,0:0:0:0:
256,192,61966,1,8,0:0:0:0:
256,192,62052,1,0,0:0:0:0:
256,192,62225,1,0,0:0:0:0:
256,192,62397,1,8,0:0:0:0:
256,192,62569,1,0,0:0:0:0:
256,192,62656,1,0,0:0:0:0:
256,192,62742,1,8,0:0:0:0:
256,192,62828,1,8,0:0:0:0:
256,192,62914,1,0,0:0:0:0:
256,192,63000,1,0,0:0:0:0:
256,192,63087,1,8,0:0:0:0:
256,192,63173,1,0,0:0:0:0:
256,192,63431,1,0,0:0:0:0:
256,192,63604,1,8,0:0:0:0:
256,192,63776,1,8,0:0:0:0:
256,192,63863,1,0,0:0:0:0:
256,192,64035,1,0,0:0:0:0:
256,192,64207,1,8,0:0:0:0:
256,192,64294,1,8,0:0:0:0:
256,192,64380,1,0,0:0:0:0:
256,192,64466,1,0,0:0:0:0:
256,192,64552,1,8,0:0:0:0:
256,192,64638,1,0,0:0:0:0:
256,192,64725,1,8,0:0:0:0:
256,192,64811,1,0,0:0:0:0:
256,192,65069,1,0,0:0:0:0:
256,192,65156,1,8,0:0:0:0:
256,192,65328,1,0,0:0:0:0:
256,192,65500,1,8,0:0:0:0:
256,192,65587,1,0,0:0:0:0:
256,192,65673,1,0,0:0:0:0:
256,192,65759,1,0,0:0:0:0:
256,192,65845,1,8,0:0:0:0:
256,192,65931,1,8,0:0:0:0:
256,192,66018,1,0,0:0:0:0:
256,192,66104,1,8,0:0:0:0:
256,192,66190,1,0,0:0:0:0:
256,192,66363,1,0,0:0:0:0:
256,192,66535,1,8,0:0:0:0:
256,192,66707,1,0,0:0:0:0:
256,192,66794,1,8,0:0:0:0:
256,192,67052,1,8,0:0:0:0:
256,192,67138,1,0,0:0:0:0:
256,192,67225,1,8,0:0:0:0:
256,192,67311,1,0,0:0:0:0:
256,192,67397,1,8,0:0:0:0:
256,192,67483,1,8,0:0:0:0:
256,192,67569,1,0,0:0:0:0:
256,192,67742,1,8,0:0:0:0:
256,192,67799,1,0,0:0:0:0:
256,192,67857,1,0,0:0:0:0:
256,192,67914,1,8,0:0:0:0:
256,192,68087,1,8,0:0:0:0:
256,192,68144,1,8,0:0:0:0:
256,192,68202,1,8,0:0:0:0:
256,192,68259,1,0,0:0:0:0:
256,192,68431,1,0,0:0:0:0:
256,192,68604,1,8,0:0:0:0:
256,192,68776,1,8,0:0:0:0:
256,192,68863,1,0,0:0:0:0:
256,192,68949,1,0,0:0:0:0:
256,192,69121,1,0,0:0:0:0:
256,192,69294,1,8,0:0:0:0:
256,192,69466,1,0,0:0:0:0:
256,192,69638,1,8,0:0:0:0:
256,192,69725,1,8,0:0:0:0:
256,192,69811,1,0,0:0:0:0:
256,192,69897,1,0,0:0:0:0:
256,192,69983,1,8,0:0:0:0:
256,192,70069,1,8,0:0:0:0:
256,192,70156,1,0,0:0:0:0:
256,192,70328,1,8,0:0:0:0:
256,192,70414,1,8,0:0:0:0:
256,192,70500,1,8,0:0:0:0:
256,192,70587,1,8,0:0:0:0:
256,192,70673,1,0,0:0:0:0:
256,192,71018,1,8,0:0:0:0:
256,192,71104,1,8,0:0:0:0:
256,192,71190,1,0,0:0:0:0:
256,192,71363,1,8,0:0:0:0:
256,192,71535,1,0,0:0:0:0:
256,192,71621,1,8,0:0:0:0:
256,192,71707,1,0,0:0:0:0:
256,192,71794,1,8,0:0:0:0:
256,192,71880,1,8,0:0:0:0:
256,192,71966,1,0,0:0:0:0:
256,192,72052,1,8,0:0:0:0:
256,192,72110,1,0,0:0:0:0:
256,192,72167,1,0,0:0:0:0:
256,192,72225,1,8,0:0:0:0:
256,192,72311,1,8,0:0:0:0:
256,192,72397,1,0,0:0:0:0:
256,192,72569,1,8,0:0:0:0:
256,192,72627,1,8,0:0:0:0:
256,192,72684,1,8,0:0:0:0:
256,192,72742,1,0,0:0:0:0:
256,192,72828,1,0,0:0:0:0:
256,192,72914,1,8,0:0:0:0:
256,192,73087,1,4,0:0:0:0:
256,192,73259,1,0,0:0:0:0:
256,192,73431,1,8,0:0:0:0:
256,192,73604,1,0,0:0:0:0:
256,192,73690,1,0,0:0:0:0:
256,192,73776,1,0,0:0:0:0:
256,192,73949,1,8,0:0:0:0:
256,192,74121,1,0,0:0:0:0:
256,192,74294,1,0,0:0:0:0:
256,192,74466,1,8,0:0:0:0:
256,192,74638,1,0,0:0:0:0:
256,192,74725,1,0,0:0:0:0:
256,192,74811,1,8,0:0:0:0:
256,192,74897,1,8,0:0:0:0:
256,192,74983,1,8,0:0:0:0:
256,192,75069,1,8,0:0:0:0:
256,192,75156,1,0,0:0:0:0:
256,192,75328,1,0,0:0:0:0:
256,192,75500,1,8,0:0:0:0:
256,192,75845,1,8,0:0:0:0:
256,192,75931,1,0,0:0:0:0:
256,192,76018,1,0,0:0:0:0:
256,192,76190,1,8,0:0:0:0:
256,192,76363,1,8,0:0:0:0:
256,192,76449,1,8,0:0:0:0:
256,192,76535,1,0,0:0:0:0:
256,192,76621,1,8,0:0:0:0:
256,192,76707,1,0,0:0:0:0:
256,192,76880,1,8,0:0:0:0:
256,192,76966,1,0,0:0:0:0:
256,192,77052,1,8,0:0:0:0:
256,192,77138,1,8,0:0:0:0:
256,192,77225,1,0,0:0:0:0:
256,192,77311,1,0,0:0:0:0:
256,192,77397,1,8,0:0:0:0:
256,192,77483,1,0,0:0:0:0:
256,192,77569,1,8,0:0:0:0:
256,192,77742,1,0,0:0:0:0:
256,192,77828,1,0,0:0:0:0:
256,192,77914,1,8,0:0:0:0:
256,192,78000,1,8,0:0:0:0:
256,192,78087,1,0,0:0:0:0:
256,192,78259,1,8,0:0:0:0:
256,192,78345,1,0,0:0:0:0:
256,192,78604,1,0,0:0:0:0:
256,192,78776,1,0,0:0:0:0:
256,192,78949,1,8,0:0:0:0:
256,192,79121,1,0,0:0:0:0:
256,192,79207,1,8,0:0:0:0:
256,192,79294,1,0,0:0:0:0:
256,192,79380,1,8,0:0:0:0:
256,192,79552,1,0,0:0:0:0:
256,192,79638,1,8,0:0:0:0:
256,192,79811,1,0,0:0:0:0:
256,192,79983,1,8,0:0:0:0:
256,192,80069,1,8,0:0:0:0:
256,192,80156,1,0,0:0:0:0:
256,192,80242,1,0,0:0:0:0:
256,192,80328,1,8,0:0:0:0:
256,192,80414,1,0,0:0:0:0:
256,192,80500,1,8,0:0:0:0:
256,192,80587,1,8,0:0:0:0:
256,192,80673,1,0,0:0:0:0:
256,192,80845,1,0,0:0:0:0:
256,192,81018,1,8,0:0:0:0:
256,192,81104,1,8,0:0:0:0:
256,192,81190,1,8,0:0:0:0:
256,192,81363,1,4,0:0:0:0:
256,192,82742,1,0,0:0:0:0:
256,192,83431,1,0,0:0:0:0:
256,192,84121,1,8,0:0:0:0:
256,192,85156,1,8,0:0:0:0:
256,192,85500,1,0,0:0:0:0:
256,192,86190,1,8,0:0:0:0:
256,192,86535,1,8,0:0:0:0:
256,192,86880,1,0,0:0:0:0:
256,192,86966,1,8,0:0:0:0:
256,192,87052,1,8,0:0:0:0:
256,192,87138,1,0,0:0:0:0:
256,192,87225,1,8,0:0:0:0:
256,192,87397,1,0,0:0:0:0:
256,192,87569,1,0,0:0:0:0:
256,192,87656,1,8,0:0:0:0:
256,192,87742,1,0,0:0:0:0:
256,192,87828,1,0,0:0:0:0:
256,192,87914,1,8,0:0:0:0:
256,192,88087,1,0,0:0:0:0:
256,192,88173,1,0,0:0:0:0:
256,192,88259,1,8,0:0:0:0:
256,192,88374,1,0,0:0:0:0:
256,192,88489,1,8,0:0:0:0:
256,192,88604,1,8,0:0:0:0:
256,192,88719,1,0,0:0:0:0:
256,192,88834,1,0,0:0:0:0:
256,192,88949,1,8,0:0:0:0:
256,192,89121,1,8,0:0:0:0:
256,192,89294,1,0,0:0:0:0:
256,192,89638,1,0,0:0:0:0:
256,192,89753,1,0,0:0:0:0:
256,192,89868,1,8,0:0:0:0:
256,192,89983,1,8,0:0:0:0:
256,192,90098,1,0,0:0:0:0:
256,192,90213,1,8,0:0:0:0:
256,192,90328,1,0,0:0:0:0:
256,192,90443,1,8,0:0:0:0:
256,192,90558,1,0,0:0:0:0:
256,192,90673,1,8,0:0:0:0:
256,192,90788,1,8,0:0:0:0:
256,192,90903,1,8,0:0:0:0:
256,192,91018,1,0,0:0:0:0:
256,192,91190,1,0,0:0:0:0:
256,192,91363,1,8,0:0:0:0:
256,192,91449,1,8,0:0:0:0:
256,192,91535,1,0,0:0:0:0:
256,192,91621,1,8,0:0:0:0:
256,192,91707,1,0,0:0:0:0:
256,192,91794,1,0,0:0:0:0:
256,192,91880,1,0,0:0:0:0:
256,192,91966,1,0,0:0:0:0:
256,192,92052,1,8,0:0:0:0:
256,192,92138,1,0,0:0:0:0:
256,192,92397,1,8,0:0:0:0:
256,192,92569,1,0,0:0:0:0:
256,192,92742,1,8,0:0:0:0:
256,192,92828,1,8,0:0:0:0:
256,192,92914,1,0,0:0:0:0:
256,192,93087,1,0,0:0:0:0:
256,192,93173,1,8,0:0:0:0:
256,192,93259,1,0,0:0:0:0:
256,192,93345,1,0,0:0:0:0:
256,192,93431,1,8,0:0:0:0:
256,192,93518,1,8,0:0:0:0:
256,192,93604,1,0,0:0:0:0:
256,192,93690,1,0,0:0:0:0:
256,192,93776,1,8,0:0:0:0:
256,192,93819,1,8,0:0:0:0:
256,192,94035,1,8,0:0:0:0:
256,192,94078,1,8,0:0:0:0:
256,192,94294,1,0,0:0:0:0:
256,192,94337,1,0,0:0:0:0:
256,192,94552,1,0,0:0:0:0:
256,192,94595,1,0,0:0:0:0:
256,192,94811,1,8,0:0:0:0:
256,192,94854,1,8,0:0:0:0:
256,192,94983,1,8,0:0:0:0:
256,192,95026,1,8,0:0:0:0:
256,192,95156,1,0,0:0:0:0:
256,192,95328,1,0,0:0:0:0:
256,192,95500,1,8,0:0:0:0:
256,192,95673,1,0,0:0:0:0:
256,192,95759,1,8,0:0:0:0:
256,192,95845,1,0,0:0:0:0:
256,192,96018,1,0,0:0:0:0:
256,192,96190,1,8,0:0:0:0:
256,192,96276,1,8,0:0:0:0:
256,192,96363,1,8,0:0:0:0:
256,192,96449,1,8,0:0:0:0:
256,192,96535,1,0,0:0:0:0:
256,192,96707,1,8,0:0:0:0:
256,192,96794,1,0,0:0:0:0:
256,192,96880,1,8,0:0:0:0:
256,192,97052,1,8,0:0:0:0:
256,192,97138,1,8,0:0:0:0:
256,192,97225,1,0,0:0:0:0:
256,192,97311,1,8,0:0:0:0:
256,192,97397,1,0,0:0:0:0:
256,192,97483,1,0,0:0:0:0:
256,192,97569,1,8,0:0:0:0:
256,192,97627,1,0,0:0:0:0:
256,192,97684,1,0,0:0:0:0:
256,192,97742,1,8,0:0:0:0:
256,192,97828,1,8,0:0:0:0:
256,192,97914,1,0,0:0:0:0:
256,192,98087,1,0,0:0:0:0:
256,192,98173,1,0,0:0:0:0:
256,192,98259,1,8,0:0:0:0:
256,192,98431,1,0,0:0:0:0:
256,192,98518,1,0,0:0:0:0:
256,192,98604,1,8,0:0:0:0:
256,192,98690,1,0,0:0:0:0:
256,192,98776,1,8,0:0:0:0:
256,192,98863,1,0,0:0:0:0:
256,192,98949,1,8,0:0:0:0:
256,192,99035,1,0,0:0:0:0:
256,192,99207,1,8,0:0:0:0:
256,192,99294,1,0,0:0:0:0:
256,192,99466,1,0,0:0:0:0:
256,192,99638,1,8,0:0:0:0:
256,192,99725,1,8,0:0:0:0:
256,192,99811,1,8,0:0:0:0:
256,192,99897,1,8,0:0:0:0:
256,192,99983,1,0,0:0:0:0:
256,192,100069,1,0,0:0:0:0:
256,192,100156,1,0,0:0:0:0:
256,192,100242,1,0,0:0:0:0:
256,192,100328,1,8,0:0:0:0:
256,192,100587,1,8,0:0:0:0:
256,192,100673,1,0,0:0:0:0:
256,192,100845,1,0,0:0:0:0:
256,192,101018,1,8,0:0:0:0:
256,192,101104,1,0,0:0:0:0:
256,192,101190,1,0,0:0:0:0:
256,192,101276,1,0,0:0:0:0:
256,192,101363,1,8,0:0:0:0:
256,192,101449,1,8,0:0:0:0:
256,192,101535,1,0,0:0:0:0:
256,192,101707,1,8,0:0:0:0:
256,192,101794,1,0,0:0:0:0:
256,192,102052,1,0,0:0:0:0:
256,192,102225,1,0,0:0:0:0:
256,192,102397,1,8,0:0:0:0:
256,192,102483,1,8,0:0:0:0:
256,192,102569,1,0,0:0:0:0:
256,192,102656,1,8,0:0:0:0:
256,192,102742,1,0,0:0:0:0:
256,192,102828,1,8,0:0:0:0:
256,192,102914,1,0,0:0:0:0:
256,192,103000,1,0,0:0:0:0:
256,192,103087,1,8,0:0:0:0:
256,192,103259,1,8,0:0:0:0:
256,192,103345,1,8,0:0:0:0:
256,192,103431,1,0,0:0:0:0:
256,192,103604,1,8,0:0:0:0:
256,192,103776,1,0,0:0:0:0:
256,192,103949,1,0,0:0:0:0:
256,192,104035,1,0,0:0:0:0:
256,192,104121,1,8,0:0:0:0:
256,192,104207,1,8,0:0:0:0:
256,192,104294,1,8,0:0:0:0:
256,192,104380,1,8,0:0:0:0:
256,192,104466,1,0,0:0:0:0:
256,192,104552,1,8,0:0:0:0:
256,192,104638,1,8,0:0:0:0:
256,192,104725,1,8,0:0:0:0:
256,192,104811,1,0,0:0:0:0:
256,192,104897,1,0,0:0:0:0:
256,192,105156,1,0,0:0:0:0:
256,192,105500,1,8,0:0:0:0:
256,192,105845,1,0,0:0:0:0:
256,192,106018,1,8,0:0:0:0:
256,192,106190,1,4,0:0:0:0:
256,192,106363,1,0,0:0:0:0:
256,192,106535,1,8,0:0:0:0:
256,192,106707,1,0,0:0:0:0:
256,192,106794,1,8,0:0:0:0:
256,192,106880,1,0,0:0:0:0:
256,192,106966,1,8,0:0:0:0:
256,192,107052,1,0,0:0:0:0:
256,192,107138,1,0,0:0:0:0:
256,192,107225,1,8,0:0:0:0:
256,192,107397,1,8,0:0:0:0:
256,192,107483,1,8,0:0:0:0:
256,192,107569,1,0,0:0:0:0:
256,192,107656,1,0,0:0:0:0:
256,192,107742,1,8,0:0:0:0:
256,192,107828,1,0,0:0:0:0:
256,192,107914,1,8,0:0:0:0:
256,192,108087,1,0,0:0:0:0:
256,192,108259,1,8,0:0:0:0:
256,192,108345,1,0,0:0:0:0:
256,192,108431,1,0,0:0:0:0:
256,192,108518,1,0,0:0:0:0:
256,192,108604,1,8,0:0:0:0:
256,192,108776,1,8,0:0:0:0:
256,192,108949,1,0,0:0:0:0:
256,192,109121,1,0,0:0:0:0:
256,192,109294,1,8,0:0:0:0:
256,192,109466,1,8,0:0:0:0:
256,192,109552,1,0,0:0:0:0:
256,192,109638,1,8,0:0:0:0:
256,192,109811,1,0,0:0:0:0:
256,192,109983,1,8,0:0:0:0:
256,192,110069,1,0,0:0:0:0:
256,192,110156,1,8,0:0:0:0:
256,192,110242,1,8,0:0:0:0:
256,192,110328,1,0,0:0:0:0:
256,192,110673,1,8,0:0:0:0:
256,192,110759,1,8,0:0:0:0:
256,192,110845,1,8,0:0:0:0:
256,192,111018,1,8,0:0:0:0:
256,192,111104,1,8,0:0:0:0:
256,192,111190,1,8,0:0:0:0:
256,192,111363,1,8,0:0:0:0:
256,192,111449,1,0,0:0:0:0:
256,192,111535,1,8,0:0:0:0:
256,192,111621,1,8,0:0:0:0:
256,192,111707,1,0,0:0:0:0:
256,192,111880,1,0,0:0:0:0:
256,192,112052,1,8,0:0:0:0:
256,192,112225,1,0,0:0:0:0:
256,192,112397,1,8,0:0:0:0:
256,192,112483,1,8,0:0:0:0:
256,192,112569,1,0,0:0:0:0:
256,192,112656,1,0,0:0:0:0:
256,192,112742,1,8,0:0:0:0:
256,192,112914,1,8,0:0:0:0:
256,192,113000,1,0,0:0:0:0:
256,192,113087,1,8,0:0:0:0:
256,192,113173,1,8,0:0:0:0:
256,192,113259,1,0,0:0:0:0:
256,192,113345,1,0,0:0:0:0:
256,192,113431,1,8,0:0:0:0:
256,192,113604,1,8,0:0:0:0:
256,192,113690,1,8,0:0:0:0:
256,192,113776,1,0,0:0:0:0:
256,192,113863,1,0,0:0:0:0:
256,192,113949,1,0,0:0:0:0:
256,192,114035,1,0,0:0:0:0:
256,192,114121,1,8,0:0:0:0:
256,192,114294,1,8,0:0:0:0:
256,192,114466,1,0,0:0:0:0:
256,192,114581,1,8,0:0:0:0:
256,192,114696,1,8,0:0:0:0:
256,192,114811,1,0,0:0:0:0:
256,192,114926,1,8,0:0:0:0:
256,192,115041,1,8,0:0:0:0:
256,192,115156,1,0,0:0:0:0:
256,192,115328,1,0,0:0:0:0:
256,192,115500,1,8,0:0:0:0:
256,192,115587,1,8,0:0:0:0:
256,192,115673,1,8,0:0:0:0:
256,192,115845,1,4,0:0:0:0:
256,192,116018,1,0,0:0:0:0:
256,192,116190,1,8,0:0:0:0:
256,192,116276,1,8,0:0:0:0:
256,192,116363,1,0,0:0:0:0:
256,192,116449,1,0,0:0:0:0:
256,192,116535,1,8,0:0:0:0:
256,192,116707,1,0,0:0:0:0:
256,192,116765,1,0,0:0:0:0:
256,192,116822,1,0,0:0:0:0:
256,192,116880,1,8,0:0:0:0:
256,192,116966,1,0,0:0:0:0:
256,192,117052,1,8,0:0:0:0:
256,192,117138,1,8,0:0:0:0:
256,192,117225,1,0,0:0:0:0:
256,192,117397,1,0,0:0:0:0:
256,192,117569,1,8,0:0:0:0:
256,192,117742,1,8,0:0:0:0:
256,192,117799,1,8,0:0:0:0:
256,192,117857,1,8,0:0:0:0:
256,192,117914,1,0,0:0:0:0:
256,192,118000,1,8,0:0:0:0:
256,192,118087,1,0,0:0:0:0:
256,192,118173,1,0,0:0:0:0:
256,192,118259,1,8,0:0:0:0:
256,192,118431,1,8,0:0:0:0:
256,192,118518,1,8,0:0:0:0:
256,192,118604,1,0,0:0:0:0:
256,192,118776,1,0,0:0:0:0:
256,192,118949,1,8,0:0:0:0:
256,192,119035,1,8,0:0:0:0:
256,192,119121,1,0,0:0:0:0:
256,192,119207,1,0,0:0:0:0:
256,192,119294,1,8,0:0:0:0:
256,192,119351,1,8,0:0:0:0:
256,192,119408,1,8,0:0:0:0:
256,192,119466,1,0,0:0:0:0:
256,192,119552,1,0,0:0:0:0:
256,192,119638,1,8,0:0:0:0:
256,192,119811,1,0,0:0:0:0:
256,192,119868,1,0,0:0:0:0:
256,192,119926,1,0,0:0:0:0:
256,192,119983,1,8,0:0:0:0:
256,192,120069,1,8,0:0:0:0:
256,192,120156,1,0,0:0:0:0:
256,192,120242,1,0,0:0:0:0:
256,192,120328,1,8,0:0:0:0:
256,192,120500,1,0,0:0:0:0:
256,192,120587,1,8,0:0:0:0:
256,192,120759,1,8,0:0:0:0:
256,192,120845,1,0,0:0:0:0:
256,192,121018,1,8,0:0:0:0:
256,192,121104,1,0,0:0:0:0:
256,192,121190,1,8,0:0:0:0:
256,192,121276,1,8,0:0:0:0:
256,192,121363,1,0,0:0:0:0:
256,192,121535,1,8,0:0:0:0:
256,192,121707,1,0,0:0:0:0:
256,192,121794,1,0,0:0:0:0:
256,192,121880,1,8,0:0:0:0:
256,192,122052,1,8,0:0:0:0:
256,192,122225,1,0,0:0:0:0:
256,192,122311,1,0,0:0:0:0:
256,192,122397,1,8,0:0:0:0:
256,192,122569,1,0,0:0:0:0:
256,192,122656,1,0,0:0:0:0:
256,192,122742,1,8,0:0:0:0:
256,192,122828,1,8,0:0:0:0:
256,192,122914,1,0,0:0:0:0:
256,192,123000,1,0,0:0:0:0:
256,192,123087,1,8,0:0:0:0:
256,192,123259,1,8,0:0:0:0:
256,192,123431,1,0,0:0:0:0:
256,192,123489,1,0,0:0:0:0:
256,192,123546,1,0,0:0:0:0:
256,192,123604,1,8,0:0:0:0:
256,192,123690,1,0,0:0:0:0:
256,192,123776,1,8,0:0:0:0:
256,192,123949,1,0,0:0:0:0:
256,192,124035,1,0,0:0:0:0:
256,192,124121,1,8,0:0:0:0:
256,192,124294,1,0,0:0:0:0:
256,192,124466,1,0,0:0:0:0:
256,192,124638,1,8,0:0:0:0:
256,192,124811,1,0,0:0:0:0:
256,192,124983,1,0,0:0:0:0:
256,192,125156,1,8,0:0:0:0:
256,192,125328,1,8,0:0:0:0:
256,192,125414,1,8,0:0:0:0:
256,192,125500,1,0,0:0:0:0:
256,192,125673,1,0,0:0:0:0:
256,192,125845,1,8,0:0:0:0:
256,192,125931,1,8,0:0:0:0:
256,192,126018,1,8,0:0:0:0:
256,192,126104,1,8,0:0:0:0:
256,192,126276,1,8,0:0:0:0:
256,192,126363,1,0,0:0:0:0:
256,192,126535,1,8,0:0:0:0:
256,192,126621,1,8,0:0:0:0:
256,192,126707,1,8,0:0:0:0:
256,192,126880,1,4,0:0:0:0:
256,192,127225,1,8,0:0:0:0:
256,192,127397,1,0,0:0:0:0:
256,192,127483,1,0,0:0:0:0:
256,192,127569,1,0,0:0:0:0:
256,192,127742,1,0,0:0:0:0:
256,192,127914,1,8,0:0:0:0:
256,192,128087,1,0,0:0:0:0:
256,192,128173,1,8,0:0:0:0:
256,192,128259,1,0,0:0:0:0:
256,192,128431,1,0,0:0:0:0:
256,192,128604,1,8,0:0:0:0:
256,192,128776,1,0,0:0:0:0:
256,192,128863,1,0,0:0:0:0:
256,192,128949,1,8,0:0:0:0:
256,192,129121,1,0,0:0:0:0:
256,192,129294,1,8,0:0:0:0:
256,192,129466,1,0,0:0:0:0:
256,192,129552,1,0,0:0:0:0:
256,192,129638,1,0,0:0:0:0:
256,192,129811,1,0,0:0:0:0:
256,192,129983,1,8,0:0:0:0:
256,192,130156,1,0,0:0:0:0:
256,192,130242,1,8,0:0:0:0:
256,192,130414,1,8,0:0:0:0:
256,192,130500,1,0,0:0:0:0:
256,192,130673,1,8,0:0:0:0:
256,192,130845,1,0,0:0:0:0:
256,192,130931,1,8,0:0:0:0:
256,192,131018,1,0,0:0:0:0:
256,192,131104,1,0,0:0:0:0:
256,192,131190,1,0,0:0:0:0:
256,192,131363,1,8,0:0:0:0:
256,192,131535,1,0,0:0:0:0:
256,192,131621,1,0,0:0:0:0:
256,192,131707,1,0,0:0:0:0:
256,192,131880,1,0,0:0:0:0:
256,192,132052,1,8,0:0:0:0:
256,192,132397,1,0,0:0:0:0:
256,192,132569,1,0,0:0:0:0:
256,192,132742,1,8,0:0:0:0:
256,192,132914,1,0,0:0:0:0:
256,192,133000,1,0,0:0:0:0:
256,192,133087,1,8,0:0:0:0:
256,192,133259,1,0,0:0:0:0:
256,192,133431,1,8,0:0:0:0:
256,192,133604,1,0,0:0:0:0:
256,192,133690,1,0,0:0:0:0:
256,192,133776,1,0,0:0:0:0:
256,192,133949,1,0,0:0:0:0:
256,192,134121,1,8,0:0:0:0:
256,192,134294,1,0,0:0:0:0:
256,192,134380,1,8,0:0:0:0:
256,192,134552,1,8,0:0:0:0:
256,192,134638,1,0,0:0:0:0:
256,192,134811,1,8,0:0:0:0:
256,192,134983,1,0,0:0:0:0:
256,192,135069,1,0,0:0:0:0:
256,192,135156,1,8,0:0:0:0:
256,192,135328,1,0,0:0:0:0:
256,192,135500,1,8,0:0:0:0:
256,192,135673,1,0,0:0:0:0:
256,192,135759,1,8,0:0:0:0:
256,192,135845,1,0,0:0:0:0:
256,192,136018,1,0,0:0:0:0:
256,192,136190,1,8,0:0:0:0:
256,192,136363,1,0,0:0:0:0:
256,192,136449,1,0,0:0:0:0:
256,192,136535,1,0,0:0:0:0:
256,192,136707,1,0,0:0:0:0:
256,192,136880,1,8,0:0:0:0:
256,192,137052,1,0,0:0:0:0:
256,192,137138,1,8,0:0:0:0:
256,192,137225,1,0,0:0:0:0:
256,192,137397,1,8,0:0:0:0:
256,192,137483,1,8,0:0:0:0:
256,192,137569,1,0,0:0:0:0:
256,192,137656,1,8,0:0:0:0:
256,192,137742,1,8,0:0:0:0:
256,192,137828,1,8,0:0:0:0:
256,192,137914,1,0,0:0:0:0:
256,192,138259,1,8,0:0:0:0:
256,192,138431,1,8,0:0:0:0:
256,192,138518,1,8,0:0:0:0:
256,192,138604,1,0,0:0:0:0:
256,192,138690,1,0,0:0:0:0:
256,192,138776,1,0,0:0:0:0:
256,192,138863,1,0,0:0:0:0:
256,192,138949,1,8,0:0:0:0:
256,192,139035,1,0,0:0:0:0:
256,192,139121,1,8,0:0:0:0:
256,192,139207,1,0,0:0:0:0:
256,192,139294,1,8,0:0:0:0:
256,192,139466,1,0,0:0:0:0:
256,192,139552,1,0,0:0:0:0:
256,192,139638,1,8,0:0:0:0:
256,192,139725,1,8,0:0:0:0:
256,192,139811,1,0,0:0:0:0:
256,192,139897,1,0,0:0:0:0:
256,192,139983,1,8,0:0:0:0:
256,192,140156,1,0,0:0:0:0:
256,192,140328,1,8,0:0:0:0:
256,192,140414,1,0,0:0:0:0:
256,192,140500,1,0,0:0:0:0:
256,192,140587,1,0,0:0:0:0:
256,192,140673,1,8,0:0:0:0:
256,192,140845,1,8,0:0:0:0:
256,192,140931,1,0,0:0:0:0:
256,192,141018,1,8,0:0:0:0:
256,192,141190,1,0,0:0:0:0:
256,192,141276,1,8,0:0:0:0:
256,192,141449,1,8,0:0:0:0:
256,192,141621,1,0,0:0:0:0:
256,192,141707,1,8,0:0:0:0:
256,192,141794,1,0,0:0:0:0:
256,192,141966,1,8,0:0:0:0:
256,192,142052,1,0,0:0:0:0:
256,192,142138,1,8,0:0:0:0:
256,192,142225,1,0,0:0:0:0:
256,192,142311,1,0,0:0:0:0:
256,192,142397,1,8,0:0:0:0:
256,192,142569,1,0,0:0:0:0:
256,192,142627,1,8,0:0:0:0:
256,192,142684,1,8,0:0:0:0:
256,192,142742,1,0,0:0:0:0:
256,192,142828,1,8,0:0:0:0:
256,192,142914,1,0,0:0:0:0:
256,192,143000,1,0,0:0:0:0:
256,192,143087,1,8,0:0:0:0:
256,192,143259,1,8,0:0:0:0:
256,192,143431,1,0,0:0:0:0:
256,192,143518,1,8,0:0:0:0:
256,192,143604,1,0,0:0:0:0:
256,192,143690,1,0,0:0:0:0:
256,192,143776,1,8,0:0:0:0:
256,192,143863,1,8,0:0:0:0:
256,192,143949,1,0,0:0:0:0:
256,192,144035,1,8,0:0:0:0:
256,192,144121,1,0,0:0:0:0:
256,192,144207,1,8,0:0:0:0:
256,192,144294,1,0,0:0:0:0:
256,192,144380,1,0,0:0:0:0:
256,192,144466,1,8,0:0:0:0:
256,192,144638,1,0,0:0:0:0:
256,192,144696,1,8,0:0:0:0:
256,192,144753,1,8,0:0:0:0:
256,192,144811,1,0,0:0:0:0:
256,192,144897,1,0,0:0:0:0:
256,192,144983,1,8,0:0:0:0:
256,192,145069,1,0,0:0:0:0:
256,192,145156,1,8,0:0:0:0:
256,192,145328,1,0,0:0:0:0:
256,192,145414,1,8,0:0:0:0:
256,192,145500,1,0,0:0:0:0:
256,192,145587,1,8,0:0:0:0:
256,192,145673,1,0,0:0:0:0:
256,192,145759,1,8,0:0:0:0:
256,192,145845,1,8,0:0:0:0:
256,192,146018,1,0,0:0:0:0:
256,192,146104,1,8,0:0:0:0:
256,192,146190,1,0,0:0:0:0:
256,192,146276,1,0,0:0:0:0:
256,192,146363,1,0,0:0:0:0:
256,192,146449,1,0,0:0:0:0:
256,192,146535,1,8,0:0:0:0:
256,192,146707,1,8,0:0:0:0:
256,192,146794,1,0,0:0:0:0:
256,192,146880,1,8,0:0:0:0:
256,192,146966,1,8,0:0:0:0:
256,192,147052,1,0,0:0:0:0:
256,192,147138,1,0,0:0:0:0:
256,192,147225,1,8,0:0:0:0:
256,192,147397,1,8,0:0:0:0:
256,192,147483,1,8,0:0:0:0:
256,192,147569,1,0,0:0:0:0:
256,192,147742,1,8,0:0:0:0:
256,192,147914,1,8,0:0:0:0:
256,192,148000,1,0,0:0:0:0:
256,192,148173,1,0,0:0:0:0:
256,192,148259,1,8,0:0:0:0:
256,192,148431,1,0,0:0:0:0:
256,192,148604,1,8,0:0:0:0:
256,192,148690,1,8,0:0:0:0:
256,192,148776,1,8,0:0:0:0:
256,192,148949,1,4,0:0:0:0:
256,192,149294,1,8,0:0:0:0:
256,192,149466,1,0,0:0:0:0:
256,192,149552,1,8,0:0:0:0:
256,192,149638,1,0,0:0:0:0:
256,192,149725,1,8,0:0:0:0:
256,192,149811,1,0,0:0:0:0:
256,192,149983,1,8,0:0:0:0:
256,192,150156,1,0,0:0:0:0:
256,192,150242,1,8,0:0:0:0:
256,192,150328,1,0,0:0:0:0:
256,192,150500,1,0,0:0:0:0:
256,192,150673,1,8,0:0:0:0:
256,192,150845,1,0,0:0:0:0:
256,192,150931,1,8,0:0:0:0:
256,192,151018,1,0,0:0:0:0:
256,192,151104,1,0,0:0:0:0:
256,192,151190,1,0,0:0:0:0:
256,192,151363,1,8,0:0:0:0:
256,192,151535,1,8,0:0:0:0:
256,192,151621,1,8,0:0:0:0:
256,192,151707,1,0,0:0:0:0:
256,192,151880,1,0,0:0:0:0:
256,192,152052,1,8,0:0:0:0:
256,192,152225,1,0,0:0:0:0:
256,192,152311,1,0,0:0:0:0:
256,192,152397,1,8,0:0:0:0:
256,192,152483,1,0,0:0:0:0:
256,192,152569,1,0,0:0:0:0:
256,192,152742,1,8,0:0:0:0:
256,192,152914,1,0,0:0:0:0:
256,192,153000,1,8,0:0:0:0:
256,192,153087,1,0,0:0:0:0:
256,192,153259,1,0,0:0:0:0:
256,192,153431,1,8,0:0:0:0:
256,192,153604,1,0,0:0:0:0:
256,192,153690,1,8,0:0:0:0:
256,192,153776,1,0,0:0:0:0:
256,192,153863,1,0,0:0:0:0:
256,192,153949,1,0,0:0:0:0:
256,192,154121,1,8,0:0:0:0:
256,192,154207,1,8,0:0:0:0:
256,192,154294,1,8,0:0:0:0:
256,192,154380,1,8,0:0:0:0:
256,192,154466,1,0,0:0:0:0:
256,192,154811,1,8,0:0:0:0:
256,192,154983,1,0,0:0:0:0:
256,192,155069,1,8,0:0:0:0:
256,192,155156,1,0,0:0:0:0:
256,192,155242,1,8,0:0:0:0:
256,192,155328,1,0,0:0:0:0:
256,192,155500,1,8,0:0:0:0:
256,192,155673,1,0,0:0:0:0:
256,192,155759,1,8,0:0:0:0:
256,192,155845,1,0,0:0:0:0:
256,192,156018,1,0,0:0:0:0:
256,192,156190,1,8,0:0:0:0:
256,192,156363,1,0,0:0:0:0:
256,192,156449,1,8,0:0:0:0:
256,192,156535,1,0,0:0:0:0:
256,192,156621,1,0,0:0:0:0:
256,192,156707,1,0,0:0:0:0:
256,192,156880,1,8,0:0:0:0:
256,192,157052,1,0,0:0:0:0:
256,192,157225,1,8,0:0:0:0:
256,192,157311,1,8,0:0:0:0:
256,192,157397,1,0,0:0:0:0:
256,192,157483,1,0,0:0:0:0:
256,192,157569,1,8,0:0:0:0:
256,192,157742,1,0,0:0:0:0:
256,192,157828,1,0,0:0:0:0:
256,192,157914,1,8,0:0:0:0:
256,192,158087,1,0,0:0:0:0:
256,192,158173,1,8,0:0:0:0:
256,192,158259,1,8,0:0:0:0:
256,192,158345,1,8,0:0:0:0:
256,192,158431,1,0,0:0:0:0:
256,192,158604,1,8,0:0:0:0:
256,192,158863,1,0,0:0:0:0:
256,192,158949,1,8,0:0:0:0:
256,192,159121,1,8,0:0:0:0:
256,192,159294,1,0,0:0:0:0:
256,192,159466,1,0,0:0:0:0:
256,192,159638,1,8,0:0:0:0:
256,192,159725,1,0,0:0:0:0:
256,192,159983,1,4,0:0:0:0:
256,192,160156,1,0,0:0:0:0:
256,192,160328,1,8,0:0:0:0:
256,192,160500,1,0,0:0:0:0:
256,192,160587,1,8,0:0:0:0:
256,192,160673,1,8,0:0:0:0:
256,192,160759,1,8,0:0:0:0:
256,192,160845,1,0,0:0:0:0:
256,192,161018,1,8,0:0:0:0:
256,192,161104,1,0,0:0:0:0:
256,192,161190,1,8,0:0:0:0:
256,192,161276,1,8,0:0:0:0:
256,192,161363,1,0,0:0:0:0:
256,192,161535,1,0,0:0:0:0:
256,192,161707,1,8,0:0:0:0:
256,192,161880,1,0,0:0:0:0:
256,192,161966,1,8,0:0:0:0:
256,192,162052,1,8,0:0:0:0:
256,192,162138,1,0,0:0:0:0:
256,192,162225,1,0,0:0:0:0:
256,192,162311,1,0,0:0:0:0:
256,192,162397,1,8,0:0:0:0:
256,192,162569,1,8,0:0:0:0:
256,192,162742,1,0,0:0:0:0:
256,192,162914,1,0,0:0:0:0:
256,192,163087,1,8,0:0:0:0:
256,192,163259,1,8,0:0:0:0:
256,192,163345,1,0,0:0:0:0:
256,192,163431,1,0,0:0:0:0:
256,192,163518,1,8,0:0:0:0:
256,192,163604,1,0,0:0:0:0:
256,192,163776,1,8,0:0:0:0:
256,192,163863,1,0,0:0:0:0:
256,192,163949,1,0,0:0:0:0:
256,192,164035,1,0,0:0:0:0:
256,192,164121,1,8,0:0:0:0:
256,192,164294,1,8,0:0:0:0:
256,192,164380,1,0,0:0:0:0:
256,192,164466,1,8,0:0:0:0:
256,192,164552,1,0,0:0:0:0:
256,192,164638,1,0,0:0:0:0:
256,192,164811,1,0,0:0:0:0:
256,192,164983,1,8,0:0:0:0:
256,192,165156,1,8,0:0:0:0:
256,192,165213,1,8,0:0:0:0:
256,192,165271,1,8,0:0:0:0:
256,192,165328,1,0,0:0:0:0:
256,192,165414,1,0,0:0:0:0:
256,192,165500,1,8,0:0:0:0:
256,192,165673,1,0,0:0:0:0:
256,192,165845,1,8,0:0:0:0:
256,192,166018,1,0,0:0:0:0:
256,192,166104,1,8,0:0:0:0:
256,192,166190,1,0,0:0:0:0:
256,192,166276,1,8,0:0:0:0:
256,192,166363,1,0,0:0:0:0:
256,192,166535,1,8,0:0:0:0:
256,192,166621,1,0,0:0:0:0:
256,192,166707,1,8,0:0:0:0:
256,192,166794,1,8,0:0:0:0:
256,192,166880,1,0,0:0:0:0:
256,192,167052,1,0,0:0:0:0:
256,192,167225,1,8,0:0:0:0:
256,192,167397,1,0,0:0:0:0:
256,192,167483,1,0,0:0:0:0:
256,192,167569,1,8,0:0:0:0:
256,192,167656,1,8,0:0:0:0:
256,192,167742,1,0,0:0:0:0:
256,192,167914,1,8,0:0:0:0:
256,192,168000,1,0,0:0:0:0:
256,192,168087,1,8,0:0:0:0:
256,192,168173,1,0,0:0:0:0:
256,192,168259,1,0,0:0:0:0:
256,192,168431,1,0,0:0:0:0:
256,192,168604,1,8,0:0:0:0:
256,192,168776,1,8,0:0:0:0:
256,192,168863,1,8,0:0:0:0:
256,192,168949,1,0,0:0:0:0:
256,192,169035,1,0,0:0:0:0:
256,192,169121,1,0,0:0:0:0:
256,192,169294,1,8,0:0:0:0:
256,192,169380,1,0,0:0:0:0:
256,192,169466,1,0,0:0:0:0:
256,192,169552,1,0,0:0:0:0:
256,192,169638,1,8,0:0:0:0:
256,192,169811,1,0,0:0:0:0:
256,192,169897,1,0,0:0:0:0:
256,192,169983,1,8,0:0:0:0:
256,192,170156,1,8,0:0:0:0:
256,192,170242,1,8,0:0:0:0:
256,192,170328,1,0,0:0:0:0:
256,192,170500,1,0,0:0:0:0:
256,192,170673,1,8,0:0:0:0:
256,192,170759,1,0,0:0:0:0:
256,192,170845,1,8,0:0:0:0:
256,192,170931,1,8,0:0:0:0:
256,192,171018,1,0,0:0:0:0:
256,192,171190,1,8,0:0:0:0:
256,192,171276,1,0,0:0:0:0:
256,192,171363,1,0,0:0:0:0:
256,192,171535,1,0,0:0:0:0:
256,192,171707,1,8,0:0:0:0:
256,192,171880,1,8,0:0:0:0:
256,192,171966,1,8,0:0:0:0:
256,192,172052,1,0,0:0:0:0:
256,192,172138,1,0,0:0:0:0:
256,192,172225,1,8,0:0:0:0:
256,192,172311,1,8,0:0:0:0:
256,192,172397,1,0,0:0:0:0:
256,192,172483,1,8,0:0:0:0:
256,192,172569,1,0,0:0:0:0:
256,192,172656,1,0,0:0:0:0:
256,192,172742,1,8,0:0:0:0:
256,192,172828,1,8,0:0:0:0:
256,192,172914,1,0,0:0:0:0:
256,192,173000,1,0,0:0:0:0:
256,192,173087,1,8,0:0:0:0:
256,192,173259,1,0,0:0:0:0:
256,192,173431,1,8,0:0:0:0:
256,192,173604,1,0,0:0:0:0:
256,192,173776,1,0,0:0:0:0:
256,192,173863,1,8,0:0:0:0:
256,192,173949,1,0,0:0:0:0:
256,192,174121,1,8,0:0:0:0:
256,192,174294,1,0,0:0:0:0:
256,192,174466,1,8,0:0:0:0:
256,192,174552,1,8,0:0:0:0:
256,192,174638,1,0,0:0:0:0:
256,192,174811,1,8,0:0:0:0:
256,192,174897,1,0,0:0:0:0:
256,192,174983,1,8,0:0:0:0:
256,192,175069,1,0,0:0:0:0:
256,192,175156,1,8,0:0:0:0:
256,192,175328,1,0,0:0:0:0:
256,192,175500,1,8,0:0:0:0:
256,192,175673,1,8,0:0:0:0:
256,192,175845,1,8,0:0:0:0:
256,192,175931,1,8,0:0:0:0:
256,192,176018,1,0,0:0:0:0:
256,192,176104,1,0,0:0:0:0:
256,192,176190,1,8,0:0:0:0:
256,192,176276,1,8,0:0:0:0:
256,192,176363,1,8,0:0:0:0:
256,192,176449,1,8,0:0:0:0:
256,192,176535,1,0,0:0:0:0:
256,192,176621,1,0,0:0:0:0:
256,192,176707,1,8,0:0:0:0:
256,192,176765,1,0,0:0:0:0:
256,192,176822,1,0,0:0:0:0:
256,192,176880,1,8,0:0:0:0:
256,192,177052,1,0,0:0:0:0:
256,192,177138,1,8,0:0:0:0:
256,192,177311,1,0,0:0:0:0:
256,192,177397,1,0,0:0:0:0:
256,192,177483,1,8,0:0:0:0:
256,192,177569,1,8,0:0:0:0:
256,192,177656,1,0,0:0:0:0:
256,192,177742,1,8,0:0:0:0:
256,192,177828,1,8,0:0:0:0:
256,192,177914,1,0,0:0:0:0:
256,192,178087,1,8,0:0:0:0:
256,192,178259,1,8,0:0:0:0:
256,192,178345,1,0,0:0:0:0:
256,192,178431,1,8,0:0:0:0:
256,192,178518,1,8,0:0:0:0:
256,192,178604,1,0,0:0:0:0:
256,192,178776,1,0,0:0:0:0:
256,192,178863,1,0,0:0:0:0:
256,192,178949,1,8,0:0:0:0:
256,192,179035,1,0,0:0:0:0:
256,192,179121,1,8,0:0:0:0:
256,192,179207,1,8,0:0:0:0:
256,192,179294,1,0,0:0:0:0:
256,192,179466,1,0,0:0:0:0:
256,192,179638,1,8,0:0:0:0:
256,192,179725,1,0,0:0:0:0:
256,192,179811,1,0,0:0:0:0:
256,192,179897,1,0,0:0:0:0:
256,192,179983,1,8,0:0:0:0:
256,192,180156,1,0,0:0:0:0:
256,192,180328,1,8,0:0:0:0:
256,192,180414,1,8,0:0:0:0:
256,192,180500,1,0,0:0:0:0:
256,192,180673,1,0,0:0:0:0:
256,192,180759,1,8,0:0:0:0:
256,192,180845,1,8,0:0:0:0:
256,192,180931,1,0,0:0:0:0:
256,192,181018,1,8,0:0:0:0:
256,192,181075,1,0,0:0:0:0:
256,192,181133,1,0,0:0:0:0:
256,192,181190,1,8,0:0:0:0:
256,192,181276,1,8,0:0:0:0:
256,192,181363,1,0,0:0:0:0:
256,192,181535,1,0,0:0:0:0:
256,192,181621,1,0,0:0:0:0:
256,192,181707,1,8,0:0:0:0:
256,192,181880,1,0,0:0:0:0:
256,192,181966,1,0,0:0:0:0:
256,192,182052,1,8,0:0:0:0:
256,192,182138,1,8,0:0:0:0:
256,192,182225,1,0,0:0:0:0:
256,192,182311,1,0,0:0:0:0:
256,192,182397,1,8,0:0:0:0:
256,192,182569,1,0,0:0:0:0:
256,192,182742,1,8,0:0:0:0:
256,192,182828,1,0,0:0:0:0:
256,192,182914,1,0,0:0:0:0:
256,192,183000,1,8,0:0:0:0:
256,192,183087,1,8,0:0:0:0:
256,192,183173,1,0,0:0:0:0:
256,192,183345,1,8,0:0:0:0:
256,192,183431,1,0,0:0:0:0:
256,192,183604,1,0,0:0:0:0:
256,192,183776,1,8,0:0:0:0:
256,192,183949,1,0,0:0:0:0:
256,192,184035,1,8,0:0:0:0:
256,192,184207,1,8,0:0:0:0:
256,192,184294,1,0,0:0:0:0:
256,192,184380,1,0,0:0:0:0:
256,192,184466,1,8,0:0:0:0:
256,192,184638,1,0,0:0:0:0:
256,192,184725,1,0,0:0:0:0:
256,192,184811,1,8,0:0:0:0:
256,192,184897,1,8,0:0:0:0:
256,192,184983,1,0,0:0:0:0:
256,192,185069,1,0,0:0:0:0:
256,192,185156,1,8,0:0:0:0:
256,192,185213,1,0,0:0:0:0:
256,192,185271,1,0,0:0:0:0:
256,192,185328,1,8,0:0:0:0:
256,192,185414,1,0,0:0:0:0:
256,192,185500,1,8,0:0:0:0:
256,192,185673,1,0,0:0:0:0:
256,192,185759,1,0,0:0:0:0:
256,192,185845,1,8,0:0:0:0:
256,192,186018,1,8,0:0:0:0:
256,192,186190,1,0,0:0:0:0:
256,192,186248,1,0,0:0:0:0:
256,192,186305,1,0,0:0:0:0:
256,192,186363,1,8,0:0:0:0:
256,192,186535,1,8,0:0:0:0:
256,192,186621,1,0,0:0:0:0:
256,192,186707,1,0,0:0:0:0:
256,192,186794,1,0,0:0:0:0:
256,192,186880,1,8,0:0:0:0:
256,192,187052,1,8,0:0:0:0:
256,192,187138,1,8,0:0:0:0:
256,192,187225,1,0,0:0:0:0:
256,192,187397,1,0,0:0:0:0:
256,192,187569,1,0,0:0:0:0:
256,192,187656,1,0,0:0:0:0:
256,192,187742,1,8,0:0:0:0:
256,192,187828,1,0,0:0:0:0:
256,192,187914,1,8,0:0:0:0:
256,192,188000,1,0,0:0:0:0:
256,192,188087,1,8,0:0:0:0:
256,192,188173,1,8,0:0:0:0:
256,192,188259,1,0,0:0:0:0:
256,192,188317,1,8,0:0:0:0:
256,192,188374,1,8,0:0:0:0:
256,192,188431,1,0,0:0:0:0:
256,192,188604,1,8,0:0:0:0:
256,192,188690,1,0,0:0:0:0:
256,192,188776,1,8,0:0:0:0:
256,192,188863,1,8,0:0:0:0:
256,192,188949,1,0,0:0:0:0:
256,192,189121,1,8,0:0:0:0:
256,192,189207,1,0,0:0:0:0:
256,192,189294,1,8,0:0:0:0:
256,192,189466,1,0,0:0:0:0:
256,192,189638,1,0,0:0:0:0:
256,192,189725,1,0,0:0:0:0:
256,192,189811,1,8,0:0:0:0:
256,192,189897,1,0,0:0:0:0:
256,192,189983,1,8,0:0:0:0:
256,192,190069,1,0,0:0:0:0:
256,192,190156,1,8,0:0:0:0:
256,192,190242,1,0,0:0:0:0:
256,192,190328,1,8,0:0:0:0:
256,192,190558,1,0,0:0:0:0:
256,192,190673,1,8,0:0:0:0:
256,192,190788,1,0,0:0:0:0:
256,192,191018,1,8,0:0:0:0:
256,192,191104,1,0,0:0:0:0:
256,192,191190,1,0,0:0:0:0:
256,192,191276,1,0,0:0:0:0:
256,192,191363,1,8,0:0:0:0:
256,192,191449,1,0,0:0:0:0:
256,192,191535,1,8,0:0:0:0:
256,192,191621,1,8,0:0:0:0:
256,192,191707,1,0,0:0:0:0:
256,192,191880,1,0,0:0:0:0:
256,192,192052,1,8,0:0:0:0:
256,192,192225,1,0,0:0:0:0:
256,192,192311,1,8,0:0:0:0:
256,192,192397,1,0,0:0:0:0:
256,192,192569,1,0,0:0:0:0:
256,192,192656,1,0,0:0:0:0:
256,192,192742,1,8,0:0:0:0:
256,192,192914,1,8,0:0:0:0:
256,192,193000,1,0,0:0:0:0:
256,192,193087,1,0,0:0:0:0:
256,192,193259,1,0,0:0:0:0:
256,192,193431,1,8,0:0:0:0:
256,192,193518,1,8,0:0:0:0:
256,192,193604,1,8,0:0:0:0:
256,192,193690,1,8,0:0:0:0:
256,192,193776,1,0,0:0:0:0:
256,192,193863,1,8,0:0:0:0:
256,192,193949,1,0,0:0:0:0:
256,192,194035,1,0,0:0:0:0:
256,192,194121,1,8,0:0:0:0:
256,192,194207,1,8,0:0:0:0:
256,192,194294,1,8,0:0:0:0:
256,192,194466,1,4,0:0:0:0:
256,192,194811,1,8,0:0:0:0:
256,192,194983,1,0,0:0:0:0:
256,192,195069,1,0,0:0:0:0:
256,192,195156,1,0,0:0:0:0:
256,192,195328,1,0,0:0:0:0:
256,192,195500,1,8,0:0:0:0:
256,192,195673,1,0,0:0:0:0:
256,192,195759,1,8,0:0:0:0:
256,192,195845,1,0,0:0:0:0:
256,192,196018,1,0,0:0:0:0:
256,192,196190,1,8,0:0:0:0:
256,192,196363,1,0,0:0:0:0:
256,192,196449,1,8,0:0:0:0:
256,192,196535,1,0,0:0:0:0:
256,192,196621,1,8,0:0:0:0:
256,192,196707,1,0,0:0:0:0:
256,192,196794,1,0,0:0:0:0:
256,192,196880,1,8,0:0:0:0:
256,192,197052,1,0,0:0:0:0:
256,192,197138,1,8,0:0:0:0:
256,192,197225,1,0,0:0:0:0:
256,192,197397,1,0,0:0:0:0:
256,192,197569,1,8,0:0:0:0:
256,192,197656,1,0,0:0:0:0:
256,192,197742,1,0,0:0:0:0:
256,192,197828,1,0,0:0:0:0:
256,192,197914,1,8,0:0:0:0:
256,192,198022,1,8,0:0:0:0:
256,192,198130,1,8,0:0:0:0:
256,192,198238,1,8,0:0:0:0:
256,192,198604,1,0,0:0:0:0:
256,192,198776,1,0,0:0:0:0:
256,192,198863,1,0,0:0:0:0:
256,192,198949,1,8,0:0:0:0:
256,192,199121,1,0,0:0:0:0:
256,192,199207,1,8,0:0:0:0:
256,192,199294,1,8,0:0:0:0:
256,192,199380,1,8,0:0:0:0:
256,192,199466,1,0,0:0:0:0:
256,192,199638,1,8,0:0:0:0:
256,192,199725,1,0,0:0:0:0:
256,192,199811,1,8,0:0:0:0:
256,192,199868,1,8,0:0:0:0:
256,192,199926,1,8,0:0:0:0:
256,192,199983,1,0,0:0:0:0:
256,192,200328,1,8,0:0:0:0:
256,192,200500,1,0,0:0:0:0:
256,192,200587,1,8,0:0:0:0:
256,192,200673,1,0,0:0:0:0:
256,192,200759,1,8,0:0:0:0:
256,192,200845,1,0,0:0:0:0:
256,192,201018,1,8,0:0:0:0:
256,192,201190,1,0,0:0:0:0:
256,192,201276,1,0,0:0:0:0:
256,192,201363,1,0,0:0:0:0:
256,192,201535,1,0,0:0:0:0:
256,192,201707,1,8,0:0:0:0:
256,192,201880,1,0,0:0:0:0:
256,192,201966,1,0,0:0:0:0:
256,192,202052,1,8,0:0:0:0:
256,192,202138,1,8,0:0:0:0:
256,192,202225,1,0,0:0:0:0:
256,192,202397,1,8,0:0:0:0:
256,192,202569,1,8,0:0:0:0:
256,192,202656,1,8,0:0:0:0:
256,192,202742,1,0,0:0:0:0:
256,192,203087,1,8,0:0:0:0:
256,192,203259,1,0,0:0:0:0:
256,192,203345,1,0,0:0:0:0:
256,192,203431,1,8,0:0:0:0:
256,192,203518,1,8,0:0:0:0:
256,192,203604,1,0,0:0:0:0:
256,192,203776,1,8,0:0:0:0:
256,192,203949,1,8,0:0:0:0:
256,192,204035,1,8,0:0:0:0:
256,192,204121,1,0,0:0:0:0:
256,192,204294,1,0,0:0:0:0:
256,192,204466,1,8,0:0:0:0:
256,192,204638,1,0,0:0:0:0:
256,192,204725,1,8,0:0:0:0:
256,192,204811,1,0,0:0:0:0:
256,192,204983,1,0,0:0:0:0:
256,192,205156,1,8,0:0:0:0:
256,192,205242,1,0,0:0:0:0:
256,192,205328,1,0,0:0:0:0:
256,192,205500,1,0,0:0:0:0:
256,192,205845,1,8,0:0:0:0:
256,192,206190,1,0,0:0:0:0:
256,192,206363,1,0,0:0:0:0:
256,192,206535,1,8,0:0:0:0:
256,192,206880,1,0,0:0:0:0:
256,192,207225,1,8,0:0:0:0:
256,192,207397,1,0,0:0:0:0:
256,192,207742,1,0,0:0:0:0:
256,192,207914,1,8,0:0:0:0:
256,192,208259,1,0,0:0:0:0:
256,192,208604,1,8,0:0:0:0:
256,192,208949,1,0,0:0:0:0:
256,192,209121,1,0,0:0:0:0:
256,192,209294,1,8,0:0:0:0:
256,192,209638,1,0,0:0:0:0:
256,192,209983,1,8,0:0:0:0:
256,192,210156,1,0,0:0:0:0:
256,192,210500,1,0,0:0:0:0:
256,192,210673,1,8,0:0:0:0:
256,192,211018,1,0,0:0:0:0:
256,192,211190,1,0,0:0:0:0:
256,192,211276,1,0,0:0:0:0:
256,192,211363,1,8,0:0:0:0:
256,192,211535,1,8,0:0:0:0:
256,192,211707,1,0,0:0:0:0:
256,192,211880,1,0,0:0:0:0:
256,192,212052,1,8,0:0:0:0:
256,192,212397,1,0,0:0:0:0:
256,192,212742,1,8,0:0:0:0:
256,192,212914,1,0,0:0:0:0:
256,192,213259,1,0,0:0:0:0:
256,192,213431,1,8,0:0:0:0:
256,192,213776,1,0,0:0:0:0:
256,192,213863,1,0,0:0:0:0:
256,192,213949,1,0,0:0:0:0:
256,192,214035,1,0,0:0:0:0:
256,192,214121,1,8,0:0:0:0:
256,192,214294,1,0,0:0:0:0:
256,192,214466,1,0,0:0:0:0:
256,192,214638,1,0,0:0:0:0:
256,192,214811,1,8,0:0:0:0:
256,192,215156,1,8,0:0:0:0:
256,192,215242,1,8,0:0:0:0:
256,192,215328,1,0,0:0:0:0:
256,192,215414,1,0,0:0:0:0:
256,192,215500,1,8,0:0:0:0:
256,192,215673,1,0,0:0:0:0:
256,192,215759,1,0,0:0:0:0:
256,192,215845,1,8,0:0:0:0:
256,192,215960,1,0,0:0:0:0:
256,192,216075,1,0,0:0:0:0:
256,192,216190,1,8,0:0:0:0:
256,192,216305,1,8,0:0:0:0:
256,192,216420,1,8,0:0:0:0:
256,192,216535,1,4,0:0:0:0:
256,192,216880,1,8,0:0:0:0:
256,192,217052,1,0,0:0:0:0:
256,192,217138,1,0,0:0:0:0:
256,192,217225,1,8,0:0:0:0:
256,192,217311,1,8,0:0:0:0:
256,192,217397,1,0,0:0:0:0:
256,192,217569,1,8,0:0:0:0:
256,192,217742,1,0,0:0:0:0:
256,192,217828,1,0,0:0:0:0:
256,192,217914,1,0,0:0:0:0:
256,192,218087,1,0,0:0:0:0:
256,192,218259,1,8,0:0:0:0:
256,192,218431,1,0,0:0:0:0:
256,192,218518,1,8,0:0:0:0:
256,192,218604,1,0,0:0:0:0:
256,192,218690,1,0,0:0:0:0:
256,192,218776,1,0,0:0:0:0:
256,192,218949,1,8,0:0:0:0:
256,192,219121,1,0,0:0:0:0:
256,192,219207,1,8,0:0:0:0:
256,192,219294,1,0,0:0:0:0:
256,192,219638,1,8,0:0:0:0:
256,192,219811,1,0,0:0:0:0:
256,192,219897,1,8,0:0:0:0:
256,192,219983,1,0,0:0:0:0:
256,192,220069,1,8,0:0:0:0:
256,192,220156,1,0,0:0:0:0:
256,192,220328,1,8,0:0:0:0:
256,192,220500,1,0,0:0:0:0:
256,192,220587,1,0,0:0:0:0:
256,192,220673,1,0,0:0:0:0:
256,192,220845,1,0,0:0:0:0:
256,192,221018,1,8,0:0:0:0:
256,192,221190,1,0,0:0:0:0:
256,192,221276,1,0,0:0:0:0:
256,192,221363,1,8,0:0:0:0:
256,192,221449,1,8,0:0:0:0:
256,192,221535,1,0,0:0:0:0:
256,192,221707,1,8,0:0:0:0:
256,192,221880,1,0,0:0:0:0:
256,192,221966,1,8,0:0:0:0:
256,192,222052,1,0,0:0:0:0:
256,192,222397,1,8,0:0:0:0:
256,192,222569,1,0,0:0:0:0:
256,192,222656,1,8,0:0:0:0:
256,192,222742,1,0,0:0:0:0:
256,192,222828,1,0,0:0:0:0:
256,192,222914,1,0,0:0:0:0:
256,192,223087,1,8,0:0:0:0:
256,192,223259,1,0,0:0:0:0:
256,192,223345,1,0,0:0:0:0:
256,192,223431,1,0,0:0:0:0:
256,192,223604,1,0,0:0:0:0:
256,192,223776,1,8,0:0:0:0:
256,192,223949,1,0,0:0:0:0:
256,192,224035,1,8,0:0:0:0:
256,192,224121,1,0,0:0:0:0:
256,192,224207,1,8,0:0:0:0:
256,192,224294,1,0,0:0:0:0:
256,192,224466,1,8,0:0:0:0:
256,192,224638,1,0,0:0:0:0:
256,192,224725,1,8,0:0:0:0:
256,192,224811,1,0,0:0:0:0:
256,192,225156,1,8,0:0:0:0:
256,192,225328,1,0,0:0:0:0:
256,192,225414,1,0,0:0:0:0:
256,192,225500,1,8,0:0:0:0:
256,192,225587,1,8,0:0:0:0:
256,192,225673,1,0,0:0:0:0:
256,192,225845,1,8,0:0:0:0:
256,192,226018,1,0,0:0:0:0:
256,192,226104,1,0,0:0:0:0:
256,192,226190,1,0,0:0:0:0:
256,192,226363,1,0,0:0:0:0:
256,192,226535,1,8,0:0:0:0:
256,192,226707,1,0,0:0:0:0:
256,192,226794,1,8,0:0:0:0:
256,192,226880,1,0,0:0:0:0:
256,192,227052,1,0,0:0:0:0:
256,192,227225,1,8,0:0:0:0:
256,192,227311,1,0,0:0:0:0:
256,192,227569,1,0,0:0:0:0:
256,192,227914,1,12,0:0:0:0:
256,192,228087,1,0,0:0:0:0:
256,192,228173,1,8,0:0:0:0:
256,192,228259,1,0,0:0:0:0:
256,192,228345,1,0,0:0:0:0:
256,192,228431,1,8,0:0:0:0:
256,192,228604,1,8,0:0:0:0:
256,192,228690,1,0,0:0:0:0:
256,192,228776,1,8,0:0:0:0:
256,192,228863,1,8,0:0:0:0:
256,192,228949,1,0,0:0:0:0:
256,192,229121,1,0,0:0:0:0:
256,192,229294,1,8,0:0:0:0:
256,192,229380,1,8,0:0:0:0:
256,192,229466,1,0,0:0:0:0:
256,192,229552,1,8,0:0:0:0:
256,192,229638,1,0,0:0:0:0:
256,192,229725,1,8,0:0:0:0:
256,192,229811,1,0,0:0:0:0:
256,192,229983,1,8,0:0:0:0:
256,192,230328,1,0,0:0:0:0:
256,192,230500,1,0,0:0:0:0:
256,192,230673,1,8,0:0:0:0:
256,192,230845,1,0,0:0:0:0:
256,192,230931,1,8,0:0:0:0:
256,192,231018,1,0,0:0:0:0:
256,192,231104,1,0,0:0:0:0:
256,192,231190,1,8,0:0:0:0:
256,192,231363,1,8,0:0:0:0:
256,192,231449,1,0,0:0:0:0:
256,192,231535,1,0,0:0:0:0:
256,192,231621,1,0,0:0:0:0:
256,192,231707,1,8,0:0:0:0:
256,192,231880,1,8,0:0:0:0:
256,192,231966,1,0,0:0:0:0:
256,192,232052,1,8,0:0:0:0:
256,192,232138,1,8,0:0:0:0:
256,192,232225,1,0,0:0:0:0:
256,192,232397,1,0,0:0:0:0:
256,192,232483,1,0,0:0:0:0:
256,192,232569,1,8,0:0:0:0:
256,192,232742,1,8,0:0:0:0:
256,192,232828,1,8,0:0:0:0:
256,192,232914,1,8,0:0:0:0:
256,192,233087,1,0,0:0:0:0:
256,192,233259,1,0,0:0:0:0:
256,192,233431,1,8,0:0:0:0:
256,192,233604,1,8,0:0:0:0:
256,192,233690,1,0,0:0:0:0:
256,192,233776,1,0,0:0:0:0:
256,192,233863,1,0,0:0:0:0:
256,192,233949,1,8,0:0:0:0:
256,192,234121,1,8,0:0:0:0:
256,192,234207,1,0,0:0:0:0:
256,192,234294,1,8,0:0:0:0:
256,192,234380,1,8,0:0:0:0:
256,192,234466,1,0,0:0:0:0:
256,192,234638,1,0,0:0:0:0:
256,192,234811,1,8,0:0:0:0:
256,192,234983,1,0,0:0:0:0:
256,192,235069,1,8,0:0:0:0:
256,192,235156,1,0,0:0:0:0:
256,192,235242,1,8,0:0:0:0:
256,192,235328,1,0,0:0:0:0:
256,192,235500,1,8,0:0:0:0:
256,192,235587,1,8,0:0:0:0:
256,192,235673,1,0,0:0:0:0:
256,192,235759,1,8,0:0:0:0:
256,192,235845,1,0,0:0:0:0:
256,192,236018,1,0,0:0:0:0:
256,192,236190,1,8,0:0:0:0:
256,192,236363,1,0,0:0:0:0:
256,192,236449,1,8,0:0:0:0:
256,192,236535,1,0,0:0:0:0:
256,192,236621,1,0,0:0:0:0:
256,192,236707,1,0,0:0:0:0:
256,192,236880,1,8,0:0:0:0:
256,192,236966,1,0,0:0:0:0:
256,192,237052,1,8,0:0:0:0:
256,192,237138,1,0,0:0:0:0:
256,192,237225,1,8,0:0:0:0:
256,192,237397,1,0,0:0:0:0:
256,192,237569,1,8,0:0:0:0:
256,192,237656,1,8,0:0:0:0:
256,192,237742,1,0,0:0:0:0:
256,192,237828,1,0,0:0:0:0:
256,192,237914,1,8,0:0:0:0:
256,192,238000,1,8,0:0:0:0:
256,192,238087,1,0,0:0:0:0:
256,192,238173,1,0,0:0:0:0:
256,192,238259,1,8,0:0:0:0:
256,192,238345,1,8,0:0:0:0:
256,192,238431,1,8,0:0:0:0:
256,192,238604,1,4,0:0:0:0:
256,192,238776,1,0,0:0:0:0:
256,192,238949,1,8,0:0:0:0:
256,192,239121,1,0,0:0:0:0:
256,192,239207,1,8,0:0:0:0:
256,192,239294,1,0,0:0:0:0:
256,192,239380,1,8,0:0:0:0:
256,192,239466,1,0,0:0:0:0:
256,192,239552,1,0,0:0:0:0:
256,192,239638,1,8,0:0:0:0:
256,192,239725,1,0,0:0:0:0:
256,192,239811,1,8,0:0:0:0:
256,192,239897,1,8,0:0:0:0:
256,192,239983,1,0,0:0:0:0:
256,192,240156,1,0,0:0:0:0:
256,192,240328,1,8,0:0:0:0:
256,192,240414,1,0,0:0:0:0:
256,192,240500,1,8,0:0:0:0:
256,192,240558,1,8,0:0:0:0:
256,192,240615,1,8,0:0:0:0:
256,192,240673,1,0,0:0:0:0:
256,192,240845,1,0,0:0:0:0:
256,192,241018,1,8,0:0:0:0:
256,192,241104,1,8,0:0:0:0:
256,192,241190,1,8,0:0:0:0:
256,192,241276,1,8,0:0:0:0:
256,192,241363,1,0,0:0:0:0:
256,192,241535,1,0,0:0:0:0:
256,192,241621,1,8,0:0:0:0:
256,192,241707,1,0,0:0:0:0:
256,192,241794,1,0,0:0:0:0:
256,192,241880,1,8,0:0:0:0:
256,192,242052,1,0,0:0:0:0:
256,192,242138,1,8,0:0:0:0:
256,192,242225,1,0,0:0:0:0:
256,192,242311,1,8,0:0:0:0:
256,192,242397,1,8,0:0:0:0:
256,192,242483,1,0,0:0:0:0:
256,192,242569,1,8,0:0:0:0:
256,192,242742,1,0,0:0:0:0:
256,192,242828,1,8,0:0:0:0:
256,192,242914,1,0,0:0:0:0:
256,192,243000,1,8,0:0:0:0:
256,192,243087,1,0,0:0:0:0:
256,192,243144,1,0,0:0:0:0:
256,192,243202,1,0,0:0:0:0:
256,192,243259,1,8,0:0:0:0:
256,192,243431,1,0,0:0:0:0:
256,192,243518,1,8,0:0:0:0:
256,192,243604,1,0,0:0:0:0:
256,192,243690,1,8,0:0:0:0:
256,192,243776,1,8,0:0:0:0:
256,192,243863,1,8,0:0:0:0:
256,192,243949,1,0,0:0:0:0:
256,192,244121,1,12,0:0:0:0:
256,192,244294,1,0,0:0:0:0:
256,192,244380,1,0,0:0:0:0:
256,192,244466,1,8,0:0:0:0:
256,192,244638,1,8,0:0:0:0:
256,192,244811,1,0,0:0:0:0:
256,192,244983,1,8,0:0:0:0:
256,192,245069,1,0,0:0:0:0:
256,192,245156,1,8,0:0:0:0:
256,192,245328,1,8,0:0:0:0:
256,192,245500,1,0,0:0:0:0:
256,192,245673,1,0,0:0:0:0:
256,192,245759,1,0,0:0:0:0:
256,192,245845,1,8,0:0:0:0:
256,192,245931,1,8,0:0:0:0:
256,192,246018,1,0,0:0:0:0:
256,192,246104,1,8,0:0:0:0:
256,192,246190,1,0,0:0:0:0:
256,192,246363,1,0,0:0:0:0:
256,192,246535,1,8,0:0:0:0:
256,192,246621,1,8,0:0:0:0:
256,192,246707,1,8,0:0:0:0:
256,192,246794,1,8,0:0:0:0:
256,192,246880,1,0,0:0:0:0:
256,192,247052,1,0,0:0:0:0:
256,192,247138,1,0,0:0:0:0:
256,192,247225,1,8,0:0:0:0:
256,192,247397,1,0,0:0:0:0:
256,192,247483,1,0,0:0:0:0:
256,192,247569,1,8,0:0:0:0:
256,192,247656,1,0,0:0:0:0:
256,192,247742,1,8,0:0:0:0:
256,192,247828,1,0,0:0:0:0:
256,192,247914,1,8,0:0:0:0:
256,192,248087,1,0,0:0:0:0:
256,192,248173,1,8,0:0:0:0:
256,192,248259,1,0,0:0:0:0:
256,192,248345,1,0,0:0:0:0:
256,192,248431,1,8,0:0:0:0:
256,192,248489,1,0,0:0:0:0:
256,192,248546,1,0,0:0:0:0:
256,192,248604,1,8,0:0:0:0:
256,192,248776,1,8,0:0:0:0:
256,192,248863,1,8,0:0:0:0:
256,192,248949,1,0,0:0:0:0:
256,192,249035,1,0,0:0:0:0:
256,192,249121,1,8,0:0:0:0:
256,192,249207,1,8,0:0:0:0:
256,192,249294,1,0,0:0:0:0:
256,192,249380,1,8,0:0:0:0:
256,192,249466,1,0,0:0:0:0:
256,192,249552,1,8,0:0:0:0:
256,192,249638,1,0,0:0:0:0:
256,192,249983,1,12,0:0:0:0:
256,192,250156,1,8,0:0:0:0:
256,192,250328,1,0,0:0:0:0:
256,192,250414,1,8,0:0:0:0:
256,192,250500,1,0,0:0:0:0:
256,192,250587,1,0,0:0:0:0:
256,192,250673,1,8,0:0:0:0:
256,192,250759,1,8,0:0:0:0:
256,192,250845,1,0,0:0:0:0:
256,192,250931,1,8,0:0:0:0:
256,192,251018,1,0,0:0:0:0:
256,192,251190,1,0,0:0:0:0:
256,192,251363,1,8,0:0:0:0:
256,192,251535,1,0,0:0:0:0:
256,192,251707,1,8,0:0:0:0:
256,192,251765,1,8,0:0:0:0:
256,192,251822,1,8,0:0:0:0:
256,192,251880,1,0,0:0:0:0:
256,192,251966,1,0,0:0:0:0:
256,192,252052,1,8,0:0:0:0:
256,192,252138,1,0,0:0:0:0:
256,192,252225,1,8,0:0:0:0:
256,192,252311,1,8,0:0:0:0:
256,192,252397,1,0,0:0:0:0:
256,192,252569,1,8,0:0:0:0:
256,192,252656,1,0,0:0:0:0:
256,192,252742,1,8,0:0:0:0:
256,192,252828,1,8,0:0:0:0:
256,192,252914,1,0,0:0:0:0:
256,192,253087,1,8,0:0:0:0:
256,192,253144,1,0,0:0:0:0:
256,192,253202,1,0,0:0:0:0:
256,192,253259,1,8,0:0:0:0:
256,192,253345,1,0,0:0:0:0:
256,192,253431,1,8,0:0:0:0:
256,192,253604,1,0,0:0:0:0:
256,192,253690,1,0,0:0:0:0:
256,192,253776,1,8,0:0:0:0:
256,192,253834,1,8,0:0:0:0:
256,192,253891,1,8,0:0:0:0:
256,192,253949,1,0,0:0:0:0:
256,192,254121,1,8,0:0:0:0:
256,192,254294,1,0,0:0:0:0:
256,192,254466,1,8,0:0:0:0:
256,192,254523,1,8,0:0:0:0:
256,192,254581,1,8,0:0:0:0:
256,192,254638,1,0,0:0:0:0:
256,192,254725,1,0,0:0:0:0:
256,192,254811,1,8,0:0:0:0:
256,192,254897,1,0,0:0:0:0:
256,192,254983,1,8,0:0:0:0:
256,192,255069,1,8,0:0:0:0:
256,192,255156,1,0,0:0:0:0:
256,192,255242,1,0,0:0:0:0:
256,192,255500,1,12,0:0:0:0:
256,192,255673,1,8,0:0:0:0:
256,192,255759,1,0,0:0:0:0:
256,192,255845,1,8,0:0:0:0:
256,192,255931,1,8,0:0:0:0:
256,192,256018,1,0,0:0:0:0:
256,192,256104,1,0,0:0:0:0:
256,192,256190,1,8,0:0:0:0:
256,192,256276,1,8,0:0:0:0:
256,192,256363,1,0,0:0:0:0:
256,192,256449,1,8,0:0:0:0:
256,192,256535,1,0,0:0:0:0:
256,192,256707,1,0,0:0:0:0:
256,192,256880,1,8,0:0:0:0:
256,192,257052,1,0,0:0:0:0:
256,192,257138,1,8,0:0:0:0:
256,192,257225,1,0,0:0:0:0:
256,192,257311,1,0,0:0:0:0:
256,192,257397,1,8,0:0:0:0:
256,192,257569,1,8,0:0:0:0:
256,192,257656,1,0,0:0:0:0:
256,192,257742,1,8,0:0:0:0:
256,192,257828,1,8,0:0:0:0:
256,192,257914,1,0,0:0:0:0:
256,192,258087,1,0,0:0:0:0:
256,192,258259,1,8,0:0:0:0:
256,192,258431,1,0,0:0:0:0:
256,192,258518,1,8,0:0:0:0:
256,192,258604,1,0,0:0:0:0:
256,192,258690,1,0,0:0:0:0:
256,192,258776,1,8,0:0:0:0:
256,192,258949,1,8,0:0:0:0:
256,192,259035,1,0,0:0:0:0:
256,192,259121,1,0,0:0:0:0:
256,192,259207,1,8,0:0:0:0:
256,192,259294,1,0,0:0:0:0:
256,192,259466,1,8,0:0:0:0:
256,192,259552,1,0,0:0:0:0:
256,192,259638,1,8,0:0:0:0:
256,192,259811,1,8,0:0:0:0:
256,192,259897,1,0,0:0:0:0:
256,192,259983,1,0,0:0:0:0:
256,192,260156,1,8,0:0:0:0:
256,192,260242,1,8,0:0:0:0:
256,192,260328,1,8,0:0:0:0:
256,192,260414,1,8,0:0:0:0:
256,192,260500,1,8,0:0:0:0:
256,192,260587,1,8,0:0:0:0:
256,192,260673,1,0,0:0:0:0:
