osu file format v14

[General]
AudioFilename: audio.ogg
AudioLeadIn: 0
PreviewTime: 92290
Countdown: 0
SampleSet: Normal
StackLeniency: 0.7
Mode: 1
LetterboxInBreaks: 0
WidescreenStoryboard: 1

[Editor]
Bookmarks: 9638,14466,17914,22052,26190,28949,33431,37569,40328,43087,45845,48259,51018,53087,57914,62052,66535,70673,77225,81363,85500,88949,92397,95156,97225,100673,103431,109638,114466,118604,122397,125845,127225,129983,132742,135500,139294,142742,146535,149294,153431,154811,158604,162052,167569,173087,177914,182742,186880,190328,194811,197914,200328,203087,207225,209983,212742,215156,216880,219638,222397,225156,228949,232052,234811,239294,242742,247225,253087,258604
DistanceSpacing: 2.8
BeatDivisor: 4
GridSize: 32
TimelineZoom: 2.238166

[Metadata]
Title:Glitched KKD
TitleUnicode:Glitched KKD
Artist:tellur
ArtistUnicode:テルル
Creator:paz08
Version:Futsuu
Source:
Tags:electronic instrumental dnb drum and bass breakcore breakbeats tsundere violence TUNEDERE VOL. 6 himeko katagiri tellursmplng sampling teruru
BeatmapID:3583777
BeatmapSetID:1446763

[Difficulty]
HPDrainRate:7.2
CircleSize:2.8
OverallDifficulty:4.4
ApproachRate:9.8
SliderMultiplier:1.4
SliderTickRate:1

[Events]
//Background and Video events
0,0,"89175946_p0.jpg",0,-25
//Break Periods
//Storyboard Layer 0 (Background)
//Storyboard Layer 1 (Fail)
//Storyboard Layer 2 (Pass)
//Storyboard Layer 3 (Foreground)
//Storyboard Layer 4 (Overlay)
//Storyboard Sound Samples

[TimingPoints]
1363,344.827586206897,4,1,0,60,1,0
1363,-125,4,1,0,60,0,0
6866,-124.99912,4,1,0,40,0,0
7211,-124.976425,4,1,0,43,0,0
7555,-124.89146,4,1,0,46,0,0
7728,-124.81221,4,1,0,47,0,0
7900,-124.70243,4,1,0,49,0,0
8245,-124.369064,4,1,0,52,0,0
8590,-123.85262,4,1,0,55,0,0
8935,-123.117096,4,1,0,58,0,0
9107,-122.65841,4,1,0,60,0,0
9280,-122.13044,4,1,0,61,0,0
9452,-121.536125,4,1,0,63,0,0
9624,-120.86982,4,1,0,64,0,0
10314,-117.43373,4,1,0,71,0,0
10659,-115.24384,4,1,0,74,0,0
10831,-114.034904,4,1,0,75,0,0
11004,-112.74192,4,1,0,77,0,0
11349,-109.940834,4,1,0,80,0,0
11693,-106.87103,4,1,0,83,0,0
11866,-105.2314,4,1,0,85,0,0
12038,-103.54308,4,1,0,86,0,0
12383,-100,4,1,0,90,0,0
34452,-101.33253,4,1,0,89,0,0
34624,-102.00346,4,1,0,88,0,0
34797,-102.6828,4,1,0,87,0,0
35142,-104.05106,4,1,0,86,0,0
35314,-104.74001,4,1,0,86,0,0
35486,-105.433525,4,1,0,85,0,0
35831,-106.838455,4,1,0,84,0,0
36004,-107.54998,4,1,0,83,0,0
36176,-108.2621,4,1,0,82,0,0
36349,-108.9831,4,1,0,82,0,0
36521,-109.70471,4,1,0,81,0,0
36854,-111.111115,4,1,0,80,0,0
37225,-117.647058823529,4,1,0,80,0,0
41005,-116.780716,4,1,0,80,0,0
41350,-115.92076,4,1,0,80,0,0
41694,-115.0696,4,1,0,80,0,0
42039,-114.22224,4,1,0,80,0,0
42212,-113.79968,4,1,0,80,0,0
42384,-113.38112,4,1,0,80,0,0
42729,-112.5462,4,1,0,80,0,0
43074,-111.71743,4,1,0,80,0,0
43763,-110.0805,4,1,0,80,0,0
44108,-109.26987,4,1,0,80,0,0
44453,-108.46522,4,1,0,80,0,0
44798,-107.666504,4,1,0,80,0,0
44970,-107.2705,4,1,0,80,0,0
45143,-106.873665,4,1,0,80,0,0
45487,-106.08892,4,1,0,80,0,0
45832,-105.3077,4,1,0,80,0,0
46522,-103.762474,4,1,0,80,0,0
46867,-102.99837,4,1,0,82,0,0
47212,-102.239914,4,1,0,84,0,0
47556,-101.489204,4,1,0,85,0,0
47729,-101.11375,4,1,0,87,0,0
47901,-100.74185,4,1,0,87,0,0
48246,-100,4,1,0,90,0,0
58591,-98.38682,4,1,0,93,0,0
58763,-97.59231,4,1,0,95,0,0
58936,-96.79966,4,1,0,97,0,0
59294,-95.2381,4,1,0,100,0,1
70328,-95.2380952380952,4,1,0,90,0,0
71363,-95.2381,4,1,0,100,0,1
71694,-95.2004,4,1,0,100,0,1
72039,-94.93606,4,1,0,100,0,1
72212,-94.64843,4,1,0,100,0,1
72384,-94.2249,4,1,0,100,0,1
72729,-92.86928,4,1,0,100,0,1
73061,-90.9090909090909,4,1,0,100,0,1
73246,-95.2380952380952,4,1,0,100,0,1
79970,-95.201836,4,1,0,100,0,1
80143,-95.11545,4,1,0,100,0,1
80315,-94.94874,4,1,0,100,0,1
80660,-94.26848,4,1,0,100,0,1
81005,-92.97136,4,1,0,100,0,1
81177,-92.045876,4,1,0,100,0,1
81363,-90.90909,4,1,0,100,0,0
81522,-125,4,1,0,50,0,0
83418,-124.890236,4,1,0,50,0,0
84108,-124.38043,4,1,0,50,0,0
85143,-122.52547,4,1,0,50,0,0
85487,-121.574295,4,1,0,50,0,0
86177,-119.133545,4,1,0,50,0,0
86522,-117.64706,4,1,0,50,0,0
86867,-111.111111111111,4,1,0,90,0,0
89970,-111.08665,4,1,0,90,0,0
90315,-110.91559,4,1,0,90,0,0
90487,-110.73053,4,1,0,90,0,0
90660,-110.45398,4,1,0,90,0,0
91005,-109.56597,4,1,0,90,0,0
91350,-108.13273,4,1,0,90,0,0
91694,-106.06997,4,1,0,90,0,0
91867,-104.77503,4,1,0,90,0,0
92039,-103.31245,4,1,0,90,0,0
92384,-100,4,1,0,90,0,0
104810,-99.71399,4,1,0,91,0,0
105142,-98.57486,4,1,0,93,0,0
105486,-97.45198,4,1,0,95,0,0
105831,-96.338684,4,1,0,98,0,0
106004,-95.78521,4,1,0,99,0,0
106190,-95.2381,4,1,0,100,0,1
110328,-95.2380952380952,4,1,0,100,0,0
110673,-95.2380952380952,4,1,0,100,0,1
125832,-95.224976,4,1,0,100,0,1
126350,-94.3983,4,1,0,100,0,1
126522,-93.614334,4,1,0,100,0,1
126694,-92.46975,4,1,0,100,0,1
126880,-90.90909,4,1,0,100,0,0
127026,-105.263157894737,4,1,0,80,0,0
136867,-103.920975,4,1,0,83,0,0
137039,-103.258255,4,1,0,84,0,0
137384,-101.941635,4,1,0,86,0,0
137556,-101.29153,4,1,0,87,0,0
137729,-100.641815,4,1,0,89,0,0
137901,-99.999985,4,1,0,90,0,0
138259,-95.2380952380952,4,1,0,100,0,1
146177,-95.24433,4,1,0,100,0,1
146350,-95.25918,4,1,0,100,0,1
146522,-95.28794,4,1,0,100,0,1
147212,-95.638306,4,1,0,100,0,1
147556,-96.02152,4,1,0,100,0,1
147729,-96.28469,4,1,0,100,0,1
147901,-96.60041,4,1,0,100,0,1
148246,-97.420204,4,1,0,100,0,1
148591,-98.53307,4,1,0,100,0,1
148763,-99.21591,4,1,0,100,0,1
148949,-100,4,1,0,100,0,0
149108,-105.263157894737,4,1,0,80,0,0
157212,-105.261635,4,1,0,81,0,0
157384,-105.25106,4,1,0,81,0,0
157556,-105.22244,4,1,0,82,0,0
157901,-105.07474,4,1,0,83,0,0
158074,-104.93743,4,1,0,84,0,0
158246,-104.74749,4,1,0,85,0,0
158591,-104.17288,4,1,0,86,0,0
159281,-102.04359,4,1,0,89,0,0
159453,-101.27459,4,1,0,89,0,0
159625,-100.40208,4,1,0,90,0,0
159637,-100.40745,4,1,0,90,0,0
159983,-95.2380952380952,4,1,0,100,0,1
193418,-95.25123,4,1,0,100,0,1
193591,-95.344124,4,1,0,100,0,1
193936,-96.092964,4,1,0,100,0,1
194108,-96.91918,4,1,0,100,0,1
194281,-98.18611,4,1,0,100,0,1
194466,-100,4,1,0,100,0,0
194625,-105.263157894737,4,1,0,80,0,0
197901,-105.24672,4,1,0,81,0,0
198591,-104.82124,4,1,0,84,0,0
198936,-104.22164,4,1,0,86,0,0
199281,-103.247955,4,1,0,87,0,0
199625,-101.83357,4,1,0,89,0,0
199798,-100.93771,4,1,0,89,0,0
199970,-100,4,1,0,90,0,0
204970,-101.79077,4,1,0,90,0,0
205143,-103.62431,4,1,0,90,0,0
205487,-107.36888,4,1,0,90,0,0
205832,-111.111111111111,4,1,0,90,0,0
213763,-110.4232,4,1,0,90,0,0
213936,-109.7356,4,1,0,90,0,0
214108,-109.056206,4,1,0,90,0,0
214453,-107.70613,4,1,0,90,0,0
214625,-107.0393,4,1,0,90,0,0
214798,-106.37275,4,1,0,90,0,0
215143,-105.055885,4,1,0,90,0,0
215487,-103.75909,4,1,0,90,0,0
215660,-103.11297,4,1,0,90,0,0
216005,-101.836464,4,1,0,90,0,0
216177,-101.20597,4,1,0,90,0,0
216350,-100.57576,4,1,0,90,0,0
216522,-100,4,1,0,90,0,0
227914,-95.2380952380952,4,1,0,95,0,1
237212,-95.2381,4,1,0,96,0,1
237384,-95.2381,4,1,0,97,0,1
237901,-95.2381,4,1,0,98,0,1
238246,-95.2381,4,1,0,99,0,1
238418,-95.2381,4,1,0,100,0,1
241005,-97.59001,4,1,0,95,0,1
241177,-98.784164,4,1,0,93,0,1
241363,-100,4,1,0,90,0,0
243418,-99.03119,4,1,0,92,0,0
243591,-98.06621,4,1,0,94,0,0
243763,-97.11612,4,1,0,96,0,0
244121,-95.2381,4,1,0,100,0,1
246522,-97.59001,4,1,0,95,0,1
246694,-98.784164,4,1,0,93,0,1
246880,-100,4,1,0,90,0,0
249983,-95.2380952380952,4,1,0,100,0,1
252039,-97.118866,4,1,0,96,0,1
252396,-99.03679,4,1,0,92,0,0
252569,-100.00707,4,1,0,90,0,0
255500,-95.2380952380952,4,1,0,100,0,1
257556,-97.139595,4,1,0,96,0,1
257729,-98.11016,4,1,0,94,0,1
257913,-99.084724,4,1,0,92,0,0
258074,-100,4,1,0,90,0,0
259453,-99.99002,4,1,0,91,0,0
259798,-99.72966,4,1,0,94,0,0
260143,-98.75916,4,1,0,96,0,0
260315,-97.87743,4,1,0,98,0,0
260487,-96.673645,4,1,0,99,0,0
260660,-95.2380952380952,4,1,0,5,0,0

[HitObjects]
256,192,6880,5,0,0:0:0:0:
256,192,7225,1,8,0:0:0:0:
256,192,7569,1,8,0:0:0:0:
256,192,7742,1,0,0:0:0:0:
256,192,7914,1,8,0:0:0:0:
256,192,8259,1,0,0:0:0:0:
256,192,8604,1,8,0:0:0:0:
256,192,8949,1,8,0:0:0:0:
256,192,9121,1,0,0:0:0:0:
256,192,9294,1,8,0:0:0:0:
256,192,9466,1,8,0:0:0:0:
256,192,9638,1,0,0:0:0:0:
256,192,10328,1,8,0:0:0:0:
256,192,10673,1,8,0:0:0:0:
256,192,10845,1,8,0:0:0:0:
256,192,11018,1,0,0:0:0:0:
256,192,11363,1,8,0:0:0:0:
256,192,11707,1,0,0:0:0:0:
256,192,11880,1,0,0:0:0:0:
256,192,12052,1,8,0:0:0:0:
256,192,12397,1,4,0:0:0:0:
256,192,12742,1,8,0:0:0:0:
256,192,13087,1,0,0:0:0:0:
256,192,13259,1,8,0:0:0:0:
256,192,13431,1,0,0:0:0:0:
256,192,13776,1,8,0:0:0:0:
256,192,13949,1,0,0:0:0:0:
256,192,14121,1,8,0:0:0:0:
256,192,14466,1,0,0:0:0:0:
256,192,15156,1,0,0:0:0:0:
256,192,15500,1,8,0:0:0:0:
256,192,15845,1,8,0:0:0:0:
256,192,16018,1,0,0:0:0:0:
256,192,16190,1,8,0:0:0:0:
256,192,16363,1,8,0:0:0:0:
256,192,16535,1,0,0:0:0:0:
256,192,16880,1,8,0:0:0:0:
256,192,17225,1,0,0:0:0:0:
256,192,17397,1,0,0:0:0:0:
256,192,17569,1,8,0:0:0:0:
256,192,17914,1,0,0:0:0:0:
256,192,18604,1,0,0:0:0:0:
256,192,18949,1,0,0:0:0:0:
256,192,19121,1,0,0:0:0:0:
256,192,19294,1,8,0:0:0:0:
256,192,19638,1,0,0:0:0:0:
256,192,19811,1,8,0:0:0:0:
256,192,20156,1,0,0:0:0:0:
256,192,20328,1,8,0:0:0:0:
256,192,20673,1,8,0:0:0:0:
256,192,20845,1,0,0:0:0:0:
256,192,21018,1,8,0:0:0:0:
256,192,21363,1,0,0:0:0:0:
256,192,21707,1,8,0:0:0:0:
256,192,22052,1,0,0:0:0:0:
256,192,22742,1,0,0:0:0:0:
256,192,23087,1,8,0:0:0:0:
256,192,23259,1,8,0:0:0:0:
256,192,23431,1,0,0:0:0:0:
256,192,23776,1,8,0:0:0:0:
256,192,23949,1,0,0:0:0:0:
256,192,24121,1,8,0:0:0:0:
256,192,24466,1,8,0:0:0:0:
256,192,24811,1,0,0:0:0:0:
256,192,24983,1,0,0:0:0:0:
256,192,25156,1,8,0:0:0:0:
256,192,25500,1,0,0:0:0:0:
256,192,25845,1,8,0:0:0:0:
256,192,26190,1,0,0:0:0:0:
256,192,26880,1,0,0:0:0:0:
256,192,27225,1,8,0:0:0:0:
256,192,27397,1,8,0:0:0:0:
256,192,27569,1,0,0:0:0:0:
256,192,27914,1,8,0:0:0:0:
256,192,28259,1,0,0:0:0:0:
256,192,28431,1,0,0:0:0:0:
256,192,28604,1,8,0:0:0:0:
256,192,28949,1,0,0:0:0:0:
256,192,29638,1,0,0:0:0:0:
256,192,29983,1,8,0:0:0:0:
256,192,30328,1,0,0:0:0:0:
256,192,30673,1,0,0:0:0:0:
256,192,30845,1,0,0:0:0:0:
256,192,31018,1,8,0:0:0:0:
256,192,31363,1,8,0:0:0:0:
256,192,31707,1,0,0:0:0:0:
256,192,31880,1,0,0:0:0:0:
256,192,32052,1,8,0:0:0:0:
256,192,32225,1,0,0:0:0:0:
256,192,32397,1,8,0:0:0:0:
256,192,32742,1,8,0:0:0:0:
256,192,33087,1,0,0:0:0:0:
256,192,33431,1,8,0:0:0:0:
256,192,34121,1,8,0:0:0:0:
256,192,34466,1,0,0:0:0:0:
256,192,34638,1,0,0:0:0:0:
256,192,34811,1,8,0:0:0:0:
256,192,35156,1,0,0:0:0:0:
256,192,35328,1,0,0:0:0:0:
256,192,35500,1,8,0:0:0:0:
256,192,35845,1,0,0:0:0:0:
256,192,36018,1,0,0:0:0:0:
256,192,36190,1,8,0:0:0:0:
256,192,36363,1,8,0:0:0:0:
256,192,36535,1,0,0:0:0:0:
256,192,36880,1,8,0:0:0:0:
256,192,37225,1,0,0:0:0:0:
256,192,37569,1,8,0:0:0:0:
256,192,38259,1,8,0:0:0:0:
256,192,38604,1,0,0:0:0:0:
256,192,38949,1,8,0:0:0:0:
256,192,39294,1,0,0:0:0:0:
256,192,39466,1,0,0:0:0:0:
256,192,39638,1,8,0:0:0:0:
256,192,39983,1,0,0:0:0:0:
256,192,40328,1,8,0:0:0:0:
256,192,41018,1,8,0:0:0:0:
256,192,41363,1,0,0:0:0:0:
256,192,41707,1,8,0:0:0:0:
256,192,42052,1,0,0:0:0:0:
256,192,42225,1,0,0:0:0:0:
256,192,42397,1,8,0:0:0:0:
256,192,42742,1,0,0:0:0:0:
256,192,43087,1,8,0:0:0:0:
256,192,43776,1,8,0:0:0:0:
256,192,44121,1,0,0:0:0:0:
256,192,44466,1,8,0:0:0:0:
256,192,44811,1,8,0:0:0:0:
256,192,44983,1,0,0:0:0:0:
256,192,45156,1,8,0:0:0:0:
256,192,45500,1,0,0:0:0:0:
256,192,45845,1,8,0:0:0:0:
256,192,46535,1,8,0:0:0:0:
256,192,46880,1,0,0:0:0:0:
256,192,47225,1,8,0:0:0:0:
256,192,47569,1,0,0:0:0:0:
256,192,47742,1,0,0:0:0:0:
256,192,47914,1,8,0:0:0:0:
256,192,48259,1,4,0:0:0:0:
256,192,48604,1,8,0:0:0:0:
256,192,48949,1,0,0:0:0:0:
256,192,49294,1,8,0:0:0:0:
256,192,49466,1,8,0:0:0:0:
256,192,49811,1,0,0:0:0:0:
256,192,50069,1,8,0:0:0:0:
256,192,50328,1,0,0:0:0:0:
256,192,50587,1,8,0:0:0:0:
256,192,50845,1,0,0:0:0:0:
256,192,51018,1,12,0:0:0:0:
256,192,51707,1,0,0:0:0:0:
256,192,52052,1,8,0:0:0:0:
256,192,52225,1,0,0:0:0:0:
256,192,52569,1,8,0:0:0:0:
256,192,52828,1,8,0:0:0:0:
256,192,53087,1,0,0:0:0:0:
256,192,53776,1,8,0:0:0:0:
256,192,53949,1,0,0:0:0:0:
256,192,54121,1,8,0:0:0:0:
256,192,54466,1,0,0:0:0:0:
256,192,54811,1,8,0:0:0:0:
256,192,55156,1,0,0:0:0:0:
256,192,55328,1,0,0:0:0:0:
256,192,55500,1,8,0:0:0:0:
256,192,55845,1,0,0:0:0:0:
256,192,56190,1,8,0:0:0:0:
256,192,56535,1,0,0:0:0:0:
256,192,56880,1,8,0:0:0:0:
256,192,57052,1,8,0:0:0:0:
256,192,57225,1,0,0:0:0:0:
256,192,57454,1,0,0:0:0:0:
256,192,57914,1,8,0:0:0:0:
256,192,58604,1,0,0:0:0:0:
256,192,58776,1,8,0:0:0:0:
256,192,58949,1,0,0:0:0:0:
256,192,59294,1,4,0:0:0:0:
256,192,59638,1,8,0:0:0:0:
256,192,59983,1,0,0:0:0:0:
256,192,60156,1,0,0:0:0:0:
256,192,60328,1,8,0:0:0:0:
256,192,60673,1,8,0:0:0:0:
256,192,60845,1,0,0:0:0:0:
256,192,61018,1,8,0:0:0:0:
256,192,61190,1,8,0:0:0:0:
256,192,61363,1,0,0:0:0:0:
256,192,61707,1,8,0:0:0:0:
256,192,62052,1,0,0:0:0:0:
256,192,62742,1,8,0:0:0:0:
256,192,62914,1,0,0:0:0:0:
256,192,63087,1,8,0:0:0:0:
256,192,63431,1,0,0:0:0:0:
256,192,63604,1,8,0:0:0:0:
256,192,63776,1,8,0:0:0:0:
256,192,64035,1,0,0:0:0:0:
256,192,64207,1,8,0:0:0:0:
256,192,64466,1,8,0:0:0:0:
256,192,64811,1,0,0:0:0:0:
256,192,65156,1,8,0:0:0:0:
256,192,65328,1,8,0:0:0:0:
256,192,65500,1,0,0:0:0:0:
256,192,65845,1,8,0:0:0:0:
256,192,66190,1,0,0:0:0:0:
256,192,66363,1,0,0:0:0:0:
256,192,66535,1,8,0:0:0:0:
256,192,67225,1,8,0:0:0:0:
256,192,67569,1,0,0:0:0:0:
256,192,67742,1,8,0:0:0:0:
256,192,67914,1,8,0:0:0:0:
256,192,68259,1,0,0:0:0:0:
256,192,68604,1,8,0:0:0:0:
256,192,68949,1,0,0:0:0:0:
256,192,69121,1,0,0:0:0:0:
256,192,69294,1,8,0:0:0:0:
256,192,69811,1,0,0:0:0:0:
256,192,69983,1,8,0:0:0:0:
256,192,70328,1,8,0:0:0:0:
256,192,70673,1,0,0:0:0:0:
256,192,71363,1,8,0:0:0:0:
256,192,71707,1,0,0:0:0:0:
256,192,72052,1,8,0:0:0:0:
256,192,72225,1,8,0:0:0:0:
256,192,72397,1,0,0:0:0:0:
256,192,72742,1,8,0:0:0:0:
256,192,73087,1,4,0:0:0:0:
256,192,73431,1,8,0:0:0:0:
256,192,73604,1,0,0:0:0:0:
256,192,73949,1,8,0:0:0:0:
256,192,74121,1,0,0:0:0:0:
256,192,74466,1,8,0:0:0:0:
256,192,74638,1,8,0:0:0:0:
256,192,74811,1,0,0:0:0:0:
256,192,75156,1,0,0:0:0:0:
256,192,75500,1,8,0:0:0:0:
256,192,75845,1,0,0:0:0:0:
256,192,76018,1,0,0:0:0:0:
256,192,76190,1,8,0:0:0:0:
256,192,76535,1,0,0:0:0:0:
256,192,76880,1,8,0:0:0:0:
256,192,77225,1,0,0:0:0:0:
256,192,77914,1,0,0:0:0:0:
256,192,78087,1,0,0:0:0:0:
256,192,78259,1,8,0:0:0:0:
256,192,78604,1,0,0:0:0:0:
256,192,78949,1,8,0:0:0:0:
256,192,79121,1,0,0:0:0:0:
256,192,79638,1,8,0:0:0:0:
256,192,79983,1,8,0:0:0:0:
256,192,80156,1,0,0:0:0:0:
256,192,80328,1,8,0:0:0:0:
256,192,80673,1,0,0:0:0:0:
256,192,81018,1,8,0:0:0:0:
256,192,81190,1,8,0:0:0:0:
256,192,81363,1,4,0:0:0:0:
256,192,82742,1,0,0:0:0:0:
256,192,83431,1,0,0:0:0:0:
256,192,84121,1,8,0:0:0:0:
256,192,85156,1,8,0:0:0:0:
256,192,85500,1,0,0:0:0:0:
256,192,86190,1,8,0:0:0:0:
256,192,86535,1,8,0:0:0:0:
256,192,86880,1,0,0:0:0:0:
256,192,87225,1,8,0:0:0:0:
256,192,87569,1,0,0:0:0:0:
256,192,87742,1,0,0:0:0:0:
256,192,87914,1,8,0:0:0:0:
256,192,88259,1,8,0:0:0:0:
256,192,88431,1,0,0:0:0:0:
256,192,88604,1,8,0:0:0:0:
256,192,88949,1,0,0:0:0:0:
256,192,89638,1,0,0:0:0:0:
256,192,89983,1,8,0:0:0:0:
256,192,90328,1,0,0:0:0:0:
256,192,90500,1,0,0:0:0:0:
256,192,90673,1,8,0:0:0:0:
256,192,91018,1,0,0:0:0:0:
256,192,91363,1,8,0:0:0:0:
256,192,91707,1,8,0:0:0:0:
256,192,91880,1,0,0:0:0:0:
256,192,92052,1,8,0:0:0:0:
256,192,92397,1,0,0:0:0:0:
256,192,93087,1,0,0:0:0:0:
256,192,93259,1,0,0:0:0:0:
256,192,93431,1,8,0:0:0:0:
256,192,93776,1,8,0:0:0:0:
256,192,94035,1,8,0:0:0:0:
256,192,94294,1,0,0:0:0:0:
256,192,94552,1,0,0:0:0:0:
256,192,94811,1,8,0:0:0:0:
256,192,95156,1,0,0:0:0:0:
256,192,95845,1,0,0:0:0:0:
256,192,96190,1,8,0:0:0:0:
256,192,96363,1,8,0:0:0:0:
256,192,96535,1,0,0:0:0:0:
256,192,96880,1,8,0:0:0:0:
256,192,97225,1,0,0:0:0:0:
256,192,97914,1,0,0:0:0:0:
256,192,98259,1,8,0:0:0:0:
256,192,98604,1,0,0:0:0:0:
256,192,98776,1,0,0:0:0:0:
256,192,98949,1,8,0:0:0:0:
256,192,99294,1,0,0:0:0:0:
256,192,99638,1,8,0:0:0:0:
256,192,99811,1,8,0:0:0:0:
256,192,99983,1,0,0:0:0:0:
256,192,100328,1,8,0:0:0:0:
256,192,100673,1,0,0:0:0:0:
256,192,101363,1,0,0:0:0:0:
256,192,101707,1,8,0:0:0:0:
256,192,102052,1,0,0:0:0:0:
256,192,102225,1,0,0:0:0:0:
256,192,102397,1,8,0:0:0:0:
256,192,102656,1,8,0:0:0:0:
256,192,103087,1,8,0:0:0:0:
256,192,103431,1,0,0:0:0:0:
256,192,104121,1,8,0:0:0:0:
256,192,104294,1,8,0:0:0:0:
256,192,104466,1,8,0:0:0:0:
256,192,104811,1,0,0:0:0:0:
256,192,105156,1,0,0:0:0:0:
256,192,105500,1,8,0:0:0:0:
256,192,105845,1,0,0:0:0:0:
256,192,106018,1,8,0:0:0:0:
256,192,106190,1,4,0:0:0:0:
256,192,106535,1,8,0:0:0:0:
256,192,106880,1,0,0:0:0:0:
256,192,107052,1,8,0:0:0:0:
256,192,107225,1,8,0:0:0:0:
256,192,107569,1,0,0:0:0:0:
256,192,107742,1,0,0:0:0:0:
256,192,107914,1,8,0:0:0:0:
256,192,108431,1,0,0:0:0:0:
256,192,108604,1,8,0:0:0:0:
256,192,108949,1,8,0:0:0:0:
256,192,109121,1,0,0:0:0:0:
256,192,109294,1,8,0:0:0:0:
256,192,109638,1,0,0:0:0:0:
256,192,110328,1,0,0:0:0:0:
256,192,110673,1,8,0:0:0:0:
256,192,111018,1,8,0:0:0:0:
256,192,111363,1,0,0:0:0:0:
256,192,111535,1,8,0:0:0:0:
256,192,111707,1,0,0:0:0:0:
256,192,112052,1,8,0:0:0:0:
256,192,112397,1,8,0:0:0:0:
256,192,112569,1,0,0:0:0:0:
256,192,112742,1,8,0:0:0:0:
256,192,113087,1,0,0:0:0:0:
256,192,113431,1,8,0:0:0:0:
256,192,113604,1,8,0:0:0:0:
256,192,113776,1,0,0:0:0:0:
256,192,114121,1,8,0:0:0:0:
256,192,114466,1,0,0:0:0:0:
256,192,115156,1,0,0:0:0:0:
256,192,115500,1,8,0:0:0:0:
256,192,115673,1,8,0:0:0:0:
256,192,115845,1,4,0:0:0:0:
256,192,116190,1,8,0:0:0:0:
256,192,116363,1,0,0:0:0:0:
256,192,116535,1,8,0:0:0:0:
256,192,116880,1,8,0:0:0:0:
256,192,117225,1,0,0:0:0:0:
256,192,117569,1,8,0:0:0:0:
256,192,117742,1,0,0:0:0:0:
256,192,117914,1,0,0:0:0:0:
256,192,118259,1,8,0:0:0:0:
256,192,118604,1,0,0:0:0:0:
256,192,119294,1,8,0:0:0:0:
256,192,119638,1,8,0:0:0:0:
256,192,119811,1,8,0:0:0:0:
256,192,119983,1,0,0:0:0:0:
256,192,120328,1,8,0:0:0:0:
256,192,120587,1,8,0:0:0:0:
256,192,120845,1,0,0:0:0:0:
256,192,121018,1,8,0:0:0:0:
256,192,121363,1,0,0:0:0:0:
256,192,121707,1,8,0:0:0:0:
256,192,121880,1,0,0:0:0:0:
256,192,122225,1,0,0:0:0:0:
256,192,122742,1,0,0:0:0:0:
256,192,123087,1,8,0:0:0:0:
256,192,123431,1,0,0:0:0:0:
256,192,123604,1,0,0:0:0:0:
256,192,123776,1,8,0:0:0:0:
256,192,124121,1,8,0:0:0:0:
256,192,124466,1,0,0:0:0:0:
256,192,124638,1,8,0:0:0:0:
256,192,124983,1,0,0:0:0:0:
256,192,125156,1,8,0:0:0:0:
256,192,125500,1,0,0:0:0:0:
256,192,125673,1,0,0:0:0:0:
256,192,125845,1,8,0:0:0:0:
256,192,126363,1,0,0:0:0:0:
256,192,126535,1,8,0:0:0:0:
256,192,126707,1,8,0:0:0:0:
256,192,126880,1,4,0:0:0:0:
256,192,127225,1,8,0:0:0:0:
256,192,127914,1,8,0:0:0:0:
256,192,128259,1,0,0:0:0:0:
256,192,128604,1,8,0:0:0:0:
256,192,128949,1,0,0:0:0:0:
256,192,129121,1,0,0:0:0:0:
256,192,129294,1,8,0:0:0:0:
256,192,129638,1,0,0:0:0:0:
256,192,129983,1,8,0:0:0:0:
256,192,130673,1,8,0:0:0:0:
256,192,131018,1,0,0:0:0:0:
256,192,131363,1,8,0:0:0:0:
256,192,131707,1,0,0:0:0:0:
256,192,131880,1,0,0:0:0:0:
256,192,132052,1,8,0:0:0:0:
256,192,132397,1,0,0:0:0:0:
256,192,132742,1,8,0:0:0:0:
256,192,133431,1,8,0:0:0:0:
256,192,133776,1,0,0:0:0:0:
256,192,134121,1,8,0:0:0:0:
256,192,134294,1,8,0:0:0:0:
256,192,134638,1,0,0:0:0:0:
256,192,134811,1,8,0:0:0:0:
256,192,134983,1,8,0:0:0:0:
256,192,135156,1,0,0:0:0:0:
256,192,135500,1,8,0:0:0:0:
256,192,136190,1,8,0:0:0:0:
256,192,136535,1,0,0:0:0:0:
256,192,136880,1,8,0:0:0:0:
256,192,137052,1,0,0:0:0:0:
256,192,137397,1,8,0:0:0:0:
256,192,137569,1,8,0:0:0:0:
256,192,137742,1,8,0:0:0:0:
256,192,137914,1,0,0:0:0:0:
256,192,138259,1,8,0:0:0:0:
256,192,138604,1,0,0:0:0:0:
256,192,138776,1,0,0:0:0:0:
256,192,138949,1,8,0:0:0:0:
256,192,139294,1,0,0:0:0:0:
256,192,139983,1,8,0:0:0:0:
256,192,140156,1,0,0:0:0:0:
256,192,140328,1,8,0:0:0:0:
256,192,140673,1,0,0:0:0:0:
256,192,141018,1,8,0:0:0:0:
256,192,141190,1,0,0:0:0:0:
256,192,141535,1,0,0:0:0:0:
256,192,141707,1,8,0:0:0:0:
256,192,142052,1,0,0:0:0:0:
256,192,142225,1,8,0:0:0:0:
256,192,142397,1,8,0:0:0:0:
256,192,142742,1,0,0:0:0:0:
256,192,143431,1,8,0:0:0:0:
256,192,143604,1,8,0:0:0:0:
256,192,143776,1,0,0:0:0:0:
256,192,144121,1,0,0:0:0:0:
256,192,144466,1,8,0:0:0:0:
256,192,144811,1,0,0:0:0:0:
256,192,144983,1,0,0:0:0:0:
256,192,145156,1,8,0:0:0:0:
256,192,145500,1,0,0:0:0:0:
256,192,145845,1,8,0:0:0:0:
256,192,146190,1,0,0:0:0:0:
256,192,146363,1,0,0:0:0:0:
256,192,146535,1,8,0:0:0:0:
256,192,147225,1,8,0:0:0:0:
256,192,147569,1,0,0:0:0:0:
256,192,147742,1,8,0:0:0:0:
256,192,147914,1,0,0:0:0:0:
256,192,148259,1,8,0:0:0:0:
256,192,148604,1,8,0:0:0:0:
256,192,148776,1,8,0:0:0:0:
256,192,148949,1,4,0:0:0:0:
256,192,149294,1,8,0:0:0:0:
256,192,149983,1,8,0:0:0:0:
256,192,150328,1,0,0:0:0:0:
256,192,150673,1,8,0:0:0:0:
256,192,151018,1,0,0:0:0:0:
256,192,151190,1,0,0:0:0:0:
256,192,151363,1,8,0:0:0:0:
256,192,151707,1,0,0:0:0:0:
256,192,152052,1,8,0:0:0:0:
256,192,152569,1,8,0:0:0:0:
256,192,152742,1,8,0:0:0:0:
256,192,153087,1,0,0:0:0:0:
256,192,153431,1,8,0:0:0:0:
256,192,154121,1,8,0:0:0:0:
256,192,154294,1,8,0:0:0:0:
256,192,154466,1,0,0:0:0:0:
256,192,154811,1,8,0:0:0:0:
256,192,155500,1,0,0:0:0:0:
256,192,155673,1,8,0:0:0:0:
256,192,155845,1,0,0:0:0:0:
256,192,156190,1,8,0:0:0:0:
256,192,156363,1,0,0:0:0:0:
256,192,156707,1,0,0:0:0:0:
256,192,156880,1,8,0:0:0:0:
256,192,157225,1,8,0:0:0:0:
256,192,157397,1,8,0:0:0:0:
256,192,157569,1,0,0:0:0:0:
256,192,157914,1,8,0:0:0:0:
256,192,158087,1,0,0:0:0:0:
256,192,158259,1,8,0:0:0:0:
256,192,158604,1,8,0:0:0:0:
256,192,159294,1,0,0:0:0:0:
256,192,159466,1,0,0:0:0:0:
256,192,159638,1,8,0:0:0:0:
256,192,159983,1,4,0:0:0:0:
256,192,160328,1,8,0:0:0:0:
256,192,160673,1,8,0:0:0:0:
256,192,160845,1,0,0:0:0:0:
256,192,161018,1,8,0:0:0:0:
256,192,161363,1,0,0:0:0:0:
256,192,161707,1,8,0:0:0:0:
256,192,161880,1,8,0:0:0:0:
256,192,162052,1,0,0:0:0:0:
256,192,162742,1,0,0:0:0:0:
256,192,163087,1,8,0:0:0:0:
256,192,163431,1,0,0:0:0:0:
256,192,163604,1,0,0:0:0:0:
256,192,163776,1,8,0:0:0:0:
256,192,164121,1,0,0:0:0:0:
256,192,164466,1,8,0:0:0:0:
256,192,164638,1,0,0:0:0:0:
256,192,164983,1,0,0:0:0:0:
256,192,165156,1,8,0:0:0:0:
256,192,165328,1,8,0:0:0:0:
256,192,165500,1,0,0:0:0:0:
256,192,165845,1,8,0:0:0:0:
256,192,166190,1,0,0:0:0:0:
256,192,166363,1,0,0:0:0:0:
256,192,166535,1,8,0:0:0:0:
256,192,166880,1,0,0:0:0:0:
256,192,167225,1,8,0:0:0:0:
256,192,167397,1,8,0:0:0:0:
256,192,167569,1,0,0:0:0:0:
256,192,168259,1,0,0:0:0:0:
256,192,168604,1,8,0:0:0:0:
256,192,168949,1,0,0:0:0:0:
256,192,169121,1,0,0:0:0:0:
256,192,169294,1,8,0:0:0:0:
256,192,169638,1,0,0:0:0:0:
256,192,169983,1,8,0:0:0:0:
256,192,170156,1,0,0:0:0:0:
256,192,170500,1,0,0:0:0:0:
256,192,170673,1,8,0:0:0:0:
256,192,170845,1,8,0:0:0:0:
256,192,171018,1,0,0:0:0:0:
256,192,171363,1,0,0:0:0:0:
256,192,171707,1,8,0:0:0:0:
256,192,171880,1,0,0:0:0:0:
256,192,172052,1,8,0:0:0:0:
256,192,172397,1,0,0:0:0:0:
256,192,172742,1,8,0:0:0:0:
256,192,173087,1,0,0:0:0:0:
256,192,173776,1,0,0:0:0:0:
256,192,173949,1,0,0:0:0:0:
256,192,174121,1,8,0:0:0:0:
256,192,174466,1,0,0:0:0:0:
256,192,174811,1,8,0:0:0:0:
256,192,175156,1,0,0:0:0:0:
256,192,175328,1,0,0:0:0:0:
256,192,175500,1,8,0:0:0:0:
256,192,175673,1,8,0:0:0:0:
256,192,175845,1,0,0:0:0:0:
256,192,176190,1,8,0:0:0:0:
256,192,176535,1,0,0:0:0:0:
256,192,176707,1,8,0:0:0:0:
256,192,176880,1,8,0:0:0:0:
256,192,177110,1,8,0:0:0:0:
256,192,177569,1,8,0:0:0:0:
256,192,177742,1,8,0:0:0:0:
256,192,177914,1,0,0:0:0:0:
256,192,178604,1,0,0:0:0:0:
256,192,178949,1,0,0:0:0:0:
256,192,179121,1,8,0:0:0:0:
256,192,179294,1,0,0:0:0:0:
256,192,179638,1,8,0:0:0:0:
256,192,179983,1,8,0:0:0:0:
256,192,180156,1,0,0:0:0:0:
256,192,180328,1,8,0:0:0:0:
256,192,180673,1,0,0:0:0:0:
256,192,181018,1,8,0:0:0:0:
256,192,181190,1,8,0:0:0:0:
256,192,181363,1,0,0:0:0:0:
256,192,181707,1,8,0:0:0:0:
256,192,182052,1,8,0:0:0:0:
256,192,182397,1,0,0:0:0:0:
256,192,182569,1,0,0:0:0:0:
256,192,182742,1,8,0:0:0:0:
256,192,183431,1,0,0:0:0:0:
256,192,183776,1,8,0:0:0:0:
256,192,184121,1,8,0:0:0:0:
256,192,184294,1,0,0:0:0:0:
256,192,184466,1,8,0:0:0:0:
256,192,184811,1,0,0:0:0:0:
256,192,185156,1,8,0:0:0:0:
256,192,185328,1,8,0:0:0:0:
256,192,185500,1,0,0:0:0:0:
256,192,185845,1,8,0:0:0:0:
256,192,186190,1,0,0:0:0:0:
256,192,186363,1,0,0:0:0:0:
256,192,186535,1,8,0:0:0:0:
256,192,186880,1,8,0:0:0:0:
256,192,187569,1,8,0:0:0:0:
256,192,187742,1,8,0:0:0:0:
256,192,187914,1,8,0:0:0:0:
256,192,188259,1,0,0:0:0:0:
256,192,188604,1,8,0:0:0:0:
256,192,188776,1,8,0:0:0:0:
256,192,188949,1,0,0:0:0:0:
256,192,189294,1,8,0:0:0:0:
256,192,189466,1,0,0:0:0:0:
256,192,189638,1,8,0:0:0:0:
256,192,189983,1,0,0:0:0:0:
256,192,190328,1,8,0:0:0:0:
256,192,191018,1,0,0:0:0:0:
256,192,191363,1,8,0:0:0:0:
256,192,191535,1,8,0:0:0:0:
256,192,191707,1,0,0:0:0:0:
256,192,192052,1,8,0:0:0:0:
256,192,192225,1,0,0:0:0:0:
256,192,192569,1,0,0:0:0:0:
256,192,192742,1,8,0:0:0:0:
256,192,193087,1,0,0:0:0:0:
256,192,193431,1,8,0:0:0:0:
256,192,193604,1,8,0:0:0:0:
256,192,193949,1,0,0:0:0:0:
256,192,194121,1,8,0:0:0:0:
256,192,194294,1,8,0:0:0:0:
256,192,194466,1,4,0:0:0:0:
256,192,194811,1,8,0:0:0:0:
256,192,195500,1,8,0:0:0:0:
256,192,195845,1,0,0:0:0:0:
256,192,196190,1,8,0:0:0:0:
256,192,196707,1,0,0:0:0:0:
256,192,196880,1,8,0:0:0:0:
256,192,197225,1,0,0:0:0:0:
256,192,197397,1,0,0:0:0:0:
256,192,197569,1,8,0:0:0:0:
256,192,197914,1,8,0:0:0:0:
256,192,198604,1,0,0:0:0:0:
256,192,198949,1,8,0:0:0:0:
256,192,199294,1,8,0:0:0:0:
256,192,199638,1,8,0:0:0:0:
256,192,199811,1,8,0:0:0:0:
256,192,199983,1,0,0:0:0:0:
256,192,200328,1,8,0:0:0:0:
256,192,201018,1,8,0:0:0:0:
256,192,201363,1,0,0:0:0:0:
256,192,201707,1,8,0:0:0:0:
256,192,202052,1,0,0:0:0:0:
256,192,202225,1,0,0:0:0:0:
256,192,202397,1,8,0:0:0:0:
256,192,202742,1,0,0:0:0:0:
256,192,203087,1,8,0:0:0:0:
256,192,203776,1,8,0:0:0:0:
256,192,204121,1,0,0:0:0:0:
256,192,204466,1,8,0:0:0:0:
256,192,204811,1,0,0:0:0:0:
256,192,204983,1,0,0:0:0:0:
256,192,205156,1,8,0:0:0:0:
256,192,205500,1,0,0:0:0:0:
256,192,205845,1,8,0:0:0:0:
256,192,206190,1,0,0:0:0:0:
256,192,206363,1,0,0:0:0:0:
256,192,206535,1,8,0:0:0:0:
256,192,206880,1,0,0:0:0:0:
256,192,207225,1,8,0:0:0:0:
256,192,207914,1,8,0:0:0:0:
256,192,208259,1,0,0:0:0:0:
256,192,208604,1,8,0:0:0:0:
256,192,208949,1,0,0:0:0:0:
256,192,209121,1,0,0:0:0:0:
256,192,209294,1,8,0:0:0:0:
256,192,209638,1,0,0:0:0:0:
256,192,209983,1,8,0:0:0:0:
256,192,210673,1,8,0:0:0:0:
256,192,211018,1,0,0:0:0:0:
256,192,211190,1,8,0:0:0:0:
256,192,211363,1,8,0:0:0:0:
256,192,211707,1,0,0:0:0:0:
256,192,211880,1,0,0:0:0:0:
256,192,212052,1,8,0:0:0:0:
256,192,212397,1,0,0:0:0:0:
256,192,212742,1,8,0:0:0:0:
256,192,213431,1,8,0:0:0:0:
256,192,213776,1,0,0:0:0:0:
256,192,213949,1,0,0:0:0:0:
256,192,214121,1,8,0:0:0:0:
256,192,214466,1,8,0:0:0:0:
256,192,214638,1,0,0:0:0:0:
256,192,214811,1,8,0:0:0:0:
256,192,215156,1,0,0:0:0:0:
256,192,215500,1,8,0:0:0:0:
256,192,215673,1,0,0:0:0:0:
256,192,216018,1,0,0:0:0:0:
256,192,216190,1,8,0:0:0:0:
256,192,216363,1,8,0:0:0:0:
256,192,216535,1,4,0:0:0:0:
256,192,216880,1,8,0:0:0:0:
256,192,217569,1,8,0:0:0:0:
256,192,217914,1,0,0:0:0:0:
256,192,218259,1,8,0:0:0:0:
256,192,218604,1,8,0:0:0:0:
256,192,218776,1,0,0:0:0:0:
256,192,218949,1,8,0:0:0:0:
256,192,219294,1,0,0:0:0:0:
256,192,219638,1,8,0:0:0:0:
256,192,220328,1,0,0:0:0:0:
256,192,220673,1,0,0:0:0:0:
256,192,221018,1,8,0:0:0:0:
256,192,221363,1,0,0:0:0:0:
256,192,221535,1,0,0:0:0:0:
256,192,221707,1,8,0:0:0:0:
256,192,222052,1,0,0:0:0:0:
256,192,222397,1,8,0:0:0:0:
256,192,223087,1,8,0:0:0:0:
256,192,223431,1,0,0:0:0:0:
256,192,223776,1,8,0:0:0:0:
256,192,224121,1,0,0:0:0:0:
256,192,224294,1,0,0:0:0:0:
256,192,224466,1,8,0:0:0:0:
256,192,224811,1,0,0:0:0:0:
256,192,225156,1,8,0:0:0:0:
256,192,225845,1,0,0:0:0:0:
256,192,226190,1,0,0:0:0:0:
256,192,226535,1,8,0:0:0:0:
256,192,226880,1,0,0:0:0:0:
256,192,227052,1,0,0:0:0:0:
256,192,227225,1,8,0:0:0:0:
256,192,227569,1,0,0:0:0:0:
256,192,227914,1,12,0:0:0:0:
256,192,228259,1,0,0:0:0:0:
256,192,228604,1,8,0:0:0:0:
256,192,228776,1,0,0:0:0:0:
256,192,228949,1,0,0:0:0:0:
256,192,229294,1,8,0:0:0:0:
256,192,229466,1,8,0:0:0:0:
256,192,229638,1,0,0:0:0:0:
256,192,229983,1,8,0:0:0:0:
256,192,230328,1,0,0:0:0:0:
256,192,230673,1,8,0:0:0:0:
256,192,231018,1,0,0:0:0:0:
256,192,231190,1,8,0:0:0:0:
256,192,231363,1,8,0:0:0:0:
256,192,231707,1,0,0:0:0:0:
256,192,231880,1,8,0:0:0:0:
256,192,232052,1,0,0:0:0:0:
256,192,232742,1,8,0:0:0:0:
256,192,233087,1,0,0:0:0:0:
256,192,233431,1,8,0:0:0:0:
256,192,233604,1,8,0:0:0:0:
256,192,233776,1,0,0:0:0:0:
256,192,234121,1,8,0:0:0:0:
256,192,234466,1,0,0:0:0:0:
256,192,234638,1,0,0:0:0:0:
256,192,234811,1,8,0:0:0:0:
256,192,235500,1,8,0:0:0:0:
256,192,235845,1,0,0:0:0:0:
256,192,236190,1,8,0:0:0:0:
256,192,236535,1,0,0:0:0:0:
256,192,236707,1,0,0:0:0:0:
256,192,236880,1,8,0:0:0:0:
256,192,237225,1,8,0:0:0:0:
256,192,237397,1,0,0:0:0:0:
256,192,237569,1,8,0:0:0:0:
256,192,237914,1,0,0:0:0:0:
256,192,238259,1,8,0:0:0:0:
256,192,238431,1,8,0:0:0:0:
256,192,238604,1,4,0:0:0:0:
256,192,238949,1,8,0:0:0:0:
256,192,239294,1,0,0:0:0:0:
256,192,239983,1,0,0:0:0:0:
256,192,240328,1,8,0:0:0:0:
256,192,240500,1,0,0:0:0:0:
256,192,240673,1,0,0:0:0:0:
256,192,241018,1,8,0:0:0:0:
256,192,241190,1,8,0:0:0:0:
256,192,241363,1,0,0:0:0:0:
256,192,241707,1,0,0:0:0:0:
256,192,242052,1,8,0:0:0:0:
256,192,242225,1,0,0:0:0:0:
256,192,242397,1,8,0:0:0:0:
256,192,242742,1,0,0:0:0:0:
256,192,243431,1,8,0:0:0:0:
256,192,243604,1,8,0:0:0:0:
256,192,243776,1,0,0:0:0:0:
256,192,244121,1,12,0:0:0:0:
256,192,244466,1,8,0:0:0:0:
256,192,244811,1,0,0:0:0:0:
256,192,244983,1,0,0:0:0:0:
256,192,245156,1,8,0:0:0:0:
256,192,245500,1,0,0:0:0:0:
256,192,245845,1,8,0:0:0:0:
256,192,246190,1,0,0:0:0:0:
256,192,246535,1,8,0:0:0:0:
256,192,246707,1,8,0:0:0:0:
256,192,246880,1,0,0:0:0:0:
256,192,247225,1,8,0:0:0:0:
256,192,247914,1,8,0:0:0:0:
256,192,248259,1,0,0:0:0:0:
256,192,248431,1,0,0:0:0:0:
256,192,248604,1,8,0:0:0:0:
256,192,248949,1,0,0:0:0:0:
256,192,249294,1,8,0:0:0:0:
256,192,249638,1,0,0:0:0:0:
256,192,249983,1,12,0:0:0:0:
256,192,250328,1,0,0:0:0:0:
256,192,250500,1,0,0:0:0:0:
256,192,250673,1,8,0:0:0:0:
256,192,251018,1,0,0:0:0:0:
256,192,251363,1,8,0:0:0:0:
256,192,251535,1,8,0:0:0:0:
256,192,251707,1,0,0:0:0:0:
256,192,252052,1,8,0:0:0:0:
256,192,252397,1,0,0:0:0:0:
256,192,252742,1,8,0:0:0:0:
256,192,252914,1,0,0:0:0:0:
256,192,253087,1,8,0:0:0:0:
256,192,253776,1,0,0:0:0:0:
256,192,253949,1,0,0:0:0:0:
256,192,254121,1,8,0:0:0:0:
256,192,254466,1,0,0:0:0:0:
256,192,254811,1,8,0:0:0:0:
256,192,255156,1,0,0:0:0:0:
256,192,255500,1,12,0:0:0:0:
256,192,255845,1,0,0:0:0:0:
256,192,256190,1,8,0:0:0:0:
256,192,256363,1,8,0:0:0:0:
256,192,256535,1,0,0:0:0:0:
256,192,256880,1,8,0:0:0:0:
256,192,257052,1,0,0:0:0:0:
256,192,257225,1,0,0:0:0:0:
256,192,257569,1,8,0:0:0:0:
256,192,257742,1,8,0:0:0:0:
256,192,257914,1,0,0:0:0:0:
256,192,258259,1,8,0:0:0:0:
256,192,258604,1,0,0:0:0:0:
256,192,259294,1,0,0:0:0:0:
256,192,259466,1,0,0:0:0:0:
256,192,259811,1,8,0:0:0:0:
256,192,260156,1,8,0:0:0:0:
256,192,260328,1,8,0:0:0:0:
256,192,260500,1,8,0:0:0:0:
256,192,260673,1,0,0:0:0:0:
