osu file format v14

[General]
AudioFilename: audio.mp3
AudioLeadIn: 0
PreviewTime: 1427
Countdown: 0
SampleSet: Soft
StackLeniency: 0.3
Mode: 0
LetterboxInBreaks: 0
WidescreenStoryboard: 1

[Editor]
Bookmarks: 2043,31632,44783,57934,71084,84235,97386,103961,117112,130263,143413,156564,169715,182865,196016,209167,222317,228893,242043,255194,268345,281495,294646,307797
DistanceSpacing: 1.3
BeatDivisor: 8
GridSize: 16
TimelineZoom: 2.799999

[Metadata]
Title:Hallucinate
TitleUnicode:ハルシネイト
Artist:teikuru
ArtistUnicode:ていくる
Creator:Some Hero
Version:Expert
Source:
Tags:VOCALOID 初音ミク Hatsune Miku Japanese Rock j-rock jrock VOCAROCK hard dance edm trap wave dubcore
BeatmapID:3046442
BeatmapSetID:1485662

[Difficulty]
HPDrainRate:5.2
CircleSize:4
OverallDifficulty:8.4
ApproachRate:9.4
SliderMultiplier:2.4
SliderTickRate:1

[Events]
//Background and Video events
0,0,"the method.jpg",0,0
//Break Periods
2,69846,70530
//Storyboard Layer 0 (Background)
//Storyboard Layer 1 (Fail)
//Storyboard Layer 2 (Pass)
//Storyboard Layer 3 (Foreground)
//Storyboard Layer 4 (Overlay)
//Storyboard Sound Samples

[TimingPoints]
400,410.958904109589,4,2,1,25,1,0
400,-400,4,2,1,25,0,0
2043,-100,4,2,1,60,0,0
18790,-100,4,2,0,60,0,0
18893,-100,4,2,1,60,0,0
25365,-100,4,2,0,60,0,0
25468,-100,4,2,1,60,0,0
28345,-333.333333333333,4,2,1,60,0,0
30742,-100,4,2,1,60,0,0
31632,-125,4,2,1,50,0,0
37043,-125,4,2,1,25,0,0
37180,-125,4,2,1,50,0,0
37249,-125,4,2,1,25,0,0
37386,-125,4,2,1,50,0,0
43619,-125,4,2,1,25,0,0
43756,-125,4,2,1,50,0,0
43824,-125,4,2,1,25,0,0
43961,-125,4,2,1,50,0,0
44783,-111.111111111111,4,2,1,60,0,0
50947,-333.333333333333,4,2,1,60,0,0
51358,-111.111111111111,4,2,1,60,0,0
57934,-125,4,2,1,50,0,0
71084,-80,4,2,1,70,0,1
71906,-66.6666666666667,4,2,1,70,0,1
72728,-80,4,2,1,70,0,1
73550,-66.6666666666667,4,2,1,70,0,1
74680,-80,4,2,1,70,0,1
75194,-66.6666666666667,4,2,1,70,0,1
76016,-80,4,2,1,70,0,1
76838,-66.6666666666667,4,2,1,70,0,1
77660,-80,4,2,1,70,0,1
78482,-66.6666666666667,4,2,1,70,0,1
79304,-80,4,2,1,70,0,1
80126,-66.6666666666667,4,2,1,70,0,1
81256,-80,4,2,1,70,0,1
81769,-66.6666666666667,4,2,1,70,0,1
82591,-80,4,2,1,70,0,1
83413,-66.6666666666667,4,2,1,70,0,1
84030,-66.6666666666667,4,2,1,70,0,0
84646,-80,4,2,1,60,0,1
84852,-80,4,2,1,60,0,0
97386,-80,4,2,2,50,0,0
98619,-250,4,2,2,50,0,0
99030,-80,4,2,2,60,0,0
100263,-250,4,2,2,60,0,0
100673,-80,4,2,2,70,0,0
101906,-250,4,2,2,70,0,0
102317,-80,4,2,2,80,0,0
103550,-250,4,2,2,80,0,0
103961,-80,4,2,3,60,0,0
104680,-133.333333333333,4,2,4,5,0,0
104783,-133.333333333333,4,2,3,60,0,0
105194,-333.333333333333,4,2,3,60,0,0
105913,-333.333333333333,4,2,4,5,0,0
106016,-200,4,2,3,60,0,0
106632,-149.253731343284,4,2,3,60,0,0
106941,-149.253731343284,4,2,4,5,0,0
107043,-80,4,2,3,60,0,0
107146,-80,4,2,4,5,0,0
107249,-133.333333333333,4,2,3,60,0,0
107968,-133.333333333333,4,2,4,5,0,0
108071,-133.333333333333,4,2,3,60,0,0
108482,-333.333333333333,4,2,3,60,0,0
109201,-333.333333333333,4,2,4,5,0,0
109304,-200,4,2,3,60,0,0
109920,-149.253731343284,4,2,3,60,0,0
110228,-149.253731343284,4,2,4,5,0,0
110331,-80,4,2,3,60,0,0
110433,-80,4,2,4,5,0,0
110536,-133.333333333333,4,2,3,60,0,0
111256,-133.333333333333,4,2,4,5,0,0
111359,-133.333333333333,4,2,3,60,0,0
111769,-333.333333333333,4,2,3,60,0,0
112488,-333.333333333333,4,2,4,5,0,0
112591,-200,4,2,3,60,0,0
113207,-149.253731343284,4,2,3,60,0,0
113516,-149.253731343284,4,2,4,5,0,0
113618,-80,4,2,3,60,0,0
113721,-80,4,2,4,5,0,0
113824,-133.333333333333,4,2,3,60,0,0
114543,-133.333333333333,4,2,4,5,0,0
114646,-133.333333333333,4,2,3,60,0,0
115057,-333.333333333333,4,2,3,60,0,0
116290,-80,4,2,3,30,0,0
117112,-80,4,2,3,60,0,0
117831,-80,4,2,4,5,0,0
117934,-80,4,2,3,60,0,0
118345,-100,4,2,3,60,0,0
129852,-200,4,2,2,60,0,0
130263,-44.4444444444445,4,2,5,50,0,1
131084,-57.1428571428571,4,2,5,50,0,1
131495,-66.6666666666667,4,2,5,50,0,1
133550,-44.4444444444445,4,2,5,50,0,1
134371,-57.1428571428571,4,2,5,50,0,1
134782,-66.6666666666667,4,2,5,50,0,1
136632,-33.3333333333333,4,2,5,50,0,1
136838,-44.4444444444445,4,2,5,50,0,1
137659,-57.1428571428571,4,2,5,50,0,1
138070,-66.6666666666667,4,2,5,50,0,1
140125,-44.4444444444445,4,2,5,50,0,1
140946,-57.1428571428571,4,2,5,50,0,1
141357,-66.6666666666667,4,2,5,50,0,1
142694,-66.6666666666667,4,2,5,60,0,0
143413,-44.4444444444445,4,2,5,50,0,1
144235,-57.1428571428571,4,2,5,50,0,1
144646,-66.6666666666667,4,2,5,50,0,1
146701,-44.4444444444445,4,2,5,50,0,1
147523,-57.1428571428571,4,2,5,50,0,1
147934,-66.6666666666667,4,2,5,50,0,1
149783,-33.3333333333333,4,2,5,50,0,1
149989,-50,4,2,5,50,0,1
150810,-57.1428571428571,4,2,5,50,0,1
151119,-200,4,2,5,50,0,1
151427,-57.1428571428571,4,2,5,50,0,1
152763,-200,4,2,5,50,0,1
153071,-57.1428571428571,4,2,5,50,0,1
153687,-200,4,2,5,50,0,1
154098,-57.1428571428571,4,2,5,50,0,1
154406,-200,4,2,5,50,0,1
154715,-57.1428571428571,4,2,5,50,0,1
156153,-57.1428571428571,4,2,2,70,0,0
156564,-125,4,2,1,50,0,0
161975,-125,4,2,1,25,0,0
162112,-125,4,2,1,50,0,0
162180,-125,4,2,1,25,0,0
162317,-125,4,2,1,50,0,0
168550,-125,4,2,1,25,0,0
168687,-125,4,2,1,50,0,0
168756,-125,4,2,1,25,0,0
168893,-125,4,2,1,50,0,0
169715,-111.111111111111,4,2,1,60,0,0
175673,-80,4,2,1,60,0,0
175982,-166.666666666667,4,2,1,60,0,0
176290,-100,4,2,1,60,0,0
180810,-200,4,2,1,60,0,0
181221,-66.6666666666667,4,2,6,70,0,1
182249,-66.6666666666667,4,2,6,70,0,0
182865,-125,4,2,1,50,0,0
183276,-125,4,2,7,50,0,0
183379,-125,4,2,1,50,0,0
183687,-125,4,2,7,50,0,0
183790,-125,4,2,1,50,0,0
184098,-125,4,2,7,50,0,0
184201,-125,4,2,1,50,0,0
184509,-125,4,2,7,50,0,0
184612,-125,4,2,1,50,0,0
184920,-125,4,2,7,50,0,0
185023,-125,4,2,1,50,0,0
185331,-125,4,2,7,50,0,0
185434,-125,4,2,1,50,0,0
185742,-125,4,2,7,50,0,0
185845,-125,4,2,1,50,0,0
186153,-125,4,2,7,50,0,0
186256,-125,4,2,1,50,0,0
186564,-125,4,2,7,50,0,0
186667,-125,4,2,1,50,0,0
186975,-125,4,2,7,50,0,0
187078,-125,4,2,1,50,0,0
187386,-125,4,2,7,50,0,0
187489,-125,4,2,1,50,0,0
187797,-125,4,2,7,50,0,0
187900,-125,4,2,1,50,0,0
188208,-125,4,2,7,50,0,0
188311,-125,4,2,1,50,0,0
189441,-100,4,2,1,50,0,0
189852,-100,4,2,7,50,0,0
189955,-100,4,2,1,50,0,0
190263,-100,4,2,7,50,0,0
190366,-100,4,2,1,50,0,0
190673,-100,4,2,7,50,0,0
190776,-100,4,2,1,50,0,0
191084,-100,4,2,7,50,0,0
191187,-100,4,2,1,50,0,0
191495,-100,4,2,7,50,0,0
191598,-100,4,2,1,50,0,0
191906,-100,4,2,7,50,0,0
192009,-100,4,2,1,50,0,0
192317,-100,4,2,7,50,0,0
192386,-100,4,2,1,50,0,0
192728,-100,4,2,7,50,0,0
192831,-100,4,2,1,50,0,0
195194,-222.222222222222,4,2,1,40,0,0
196016,-80,4,2,1,70,0,1
196838,-66.6666666666667,4,2,1,70,0,1
197660,-80,4,2,1,70,0,1
198482,-66.6666666666667,4,2,1,70,0,1
199612,-80,4,2,1,70,0,1
200126,-66.6666666666667,4,2,1,70,0,1
200947,-80,4,2,1,70,0,1
201769,-66.6666666666667,4,2,1,70,0,1
202591,-80,4,2,1,70,0,1
203413,-66.6666666666667,4,2,1,70,0,1
204235,-80,4,2,1,70,0,1
205057,-66.6666666666667,4,2,1,70,0,1
206187,-80,4,2,1,70,0,1
206701,-66.6666666666667,4,2,1,70,0,1
207523,-80,4,2,1,70,0,1
208345,-66.6666666666667,4,2,1,70,0,1
208961,-66.6666666666667,4,2,1,70,0,0
209167,-400,4,2,1,40,0,0
209578,-80,4,2,1,60,0,1
209783,-80,4,2,1,60,0,0
221906,-66.6666666666667,4,2,1,60,0,0
222317,-80,4,2,2,50,0,0
222934,-68.9655172413793,4,2,2,50,0,0
223345,-60.6060606060606,4,2,2,50,0,0
224167,-57.1428571428571,4,2,2,50,0,0
224578,-54.054054054054,4,2,2,50,0,0
224989,-51.2820512820513,4,2,2,50,0,0
228482,-250,4,2,2,80,0,0
228893,-80,4,2,3,60,0,0
230126,-100,4,2,3,60,0,0
231564,-149.253731343284,4,2,3,60,0,0
231873,-149.253731343284,4,2,4,5,0,0
231975,-80,4,2,3,60,0,0
233413,-100,4,2,3,60,0,0
234852,-149.253731343284,4,2,3,60,0,0
235160,-149.253731343284,4,2,4,5,0,0
235263,-80,4,2,3,60,0,0
236702,-100,4,2,3,60,0,0
238140,-149.253731343284,4,2,3,60,0,0
238448,-149.253731343284,4,2,4,5,0,0
238551,-80,4,2,3,60,0,0
239989,-100,4,2,3,60,0,0
240400,-80,4,2,3,30,0,0
241221,-57.1428571428571,4,2,3,60,0,0
241632,-50,4,2,3,40,0,0
241838,-66.6666666666667,4,2,3,50,0,0
242043,-80,4,2,3,60,0,0
254372,-200,4,2,2,60,0,0
255194,-33.3333333333333,4,2,5,50,0,0
261358,-44.4444444444445,4,2,5,50,0,1
261769,-44.4444444444445,4,2,5,50,0,0
266906,-66.6666666666667,4,2,5,50,0,0
267626,-66.6666666666667,4,2,5,50,0,0
271427,-33.3333333333333,4,2,5,50,0,0
274098,-66.6666666666667,4,2,5,50,0,0
274509,-44.4444444444445,4,2,5,50,0,1
274920,-50,4,2,5,50,0,0
275742,-57.1428571428571,4,2,5,50,0,0
276050,-200,4,2,5,50,0,0
276358,-57.1428571428571,4,2,5,50,0,0
277694,-200,4,2,5,50,0,0
278002,-57.1428571428571,4,2,5,50,0,0
278619,-200,4,2,5,50,0,0
279030,-57.1428571428571,4,2,5,50,0,0
279338,-200,4,2,5,50,0,0
279646,-57.1428571428571,4,2,5,50,0,0
281084,-200,4,2,3,60,0,0
281221,-200,4,2,2,60,0,0
281495,-50,4,2,5,60,0,1
281906,-100,4,2,5,50,0,0
284372,-66.6666666666667,4,2,5,50,0,0
284783,-50,4,2,5,60,0,1
285194,-100,4,2,5,50,0,0
288071,-50,4,2,5,60,0,1
288482,-100,4,2,5,50,0,0
290947,-100,4,2,5,50,0,0
291358,-50,4,2,5,60,0,1
291769,-100,4,2,5,50,0,0
296290,-50,4,2,5,60,0,1
296701,-80,4,2,5,50,0,0
297523,-100,4,2,5,50,0,0
297934,-50,4,2,5,60,0,1
298345,-80,4,2,5,50,0,0
301221,-50,4,2,5,60,0,1
301632,-50,4,2,5,50,0,0
302043,-57.1428571428571,4,2,5,50,0,0
302352,-200,4,2,5,50,0,0
302660,-57.1428571428571,4,2,5,50,0,0
303995,-200,4,2,5,50,0,0
304304,-57.1428571428571,4,2,5,50,0,0
304509,-50,4,2,5,60,0,1
304920,-200,4,2,5,50,0,0
305331,-57.1428571428571,4,2,5,50,0,0
305639,-200,4,2,5,50,0,0
305947,-57.1428571428571,4,2,5,50,0,0

[Colours]
Combo1 : 254,245,245
Combo2 : 203,250,237
Combo3 : 219,145,208
Combo4 : 238,224,145

[HitObjects]
5,323,400,6,0,L|5:383,2,60,2|2|2,0:3|0:3|0:3,0:0:0:0:
72,149,2043,6,0,P|20:172|24:228,1,120,6|0,3:2|0:2,0:2:0:0:
171,190,2352,1,8,0:2:0:0:
171,190,2454,2,0,L|175:130,1,60,2|0,3:2|0:2,0:2:0:0:
256,135,2660,2,0,L|252:195,1,60,8|0,0:2|0:2,0:2:0:0:
393,382,2865,6,0,P|442:349|501:343,1,120,2|0,3:2|0:2,0:2:0:0:
375,199,3173,2,0,P|357:175|356:145,1,60,10|0,0:2|3:2,0:2:0:0:
497,160,3379,1,0,0:2:0:0:
497,160,3482,2,0,P|494:218|452:259,2,120,10|0|0,0:2|3:2|0:2,0:2:0:0:
443,50,3995,1,8,0:2:0:0:
443,50,4098,2,0,L|383:41,1,60,0|0,3:2|0:2,0:2:0:0:
263,142,4304,5,10,0:2:0:0:
263,142,4406,1,2,0:2:0:0:
263,142,4509,2,0,P|206:160|156:191,1,120,2|0,3:2|0:2,0:2:0:0:
133,38,4817,2,0,P|161:50|177:74,1,60,10|0,0:2|3:2,0:2:0:0:
50,218,5023,1,0,0:2:0:0:
50,218,5126,2,0,P|34:162|62:111,2,120,10|0|0,0:2|3:2|0:2,0:2:0:0:
133,304,5639,1,8,0:2:0:0:
133,304,5742,2,0,L|192:295,1,60,0|0,3:2|0:2,0:2:0:0:
348,350,5947,5,10,0:2:0:0:
348,350,6049,1,2,0:2:0:0:
348,350,6152,2,0,P|407:357|462:380,1,120,2|0,3:2|0:2,0:2:0:0:
363,208,6461,2,0,P|343:230|318:245,1,60,10|0,0:2|3:2,0:2:0:0:
512,288,6667,1,0,0:2:0:0:
512,288,6769,2,0,P|499:230|497:170,2,120,10|0|0,0:2|3:2|0:2,0:2:0:0:
367,212,7283,1,8,0:2:0:0:
367,212,7386,2,0,L|308:197,1,60,0|0,3:2|0:2,0:2:0:0:
175,48,7591,5,10,0:2:0:0:
175,48,7694,1,2,0:2:0:0:
175,48,7797,2,0,P|230:31|273:73,1,120,2|0,3:2|0:2,0:2:0:0:
240,154,8105,1,8,0:2:0:0:
240,154,8208,2,0,P|186:180|148:225,1,120,2|8,3:2|0:2,0:2:0:0:
21,373,8619,6,0,P|38:317|18:261,1,120,6|0,3:2|0:2,0:2:0:0:
142,304,8927,1,8,0:2:0:0:
169,332,9030,1,2,3:2:0:0:
201,344,9132,1,0,0:2:0:0:
243,339,9235,1,8,0:2:0:0:
276,317,9338,1,0,0:2:0:0:
296,286,9441,6,0,P|294:257|283:229,1,60,2|0,3:2|0:2,0:2:0:0:
435,219,9646,1,0,0:2:0:0:
435,219,9749,2,0,P|410:235|391:258,1,60,10|0,0:2|3:2,0:2:0:0:
313,122,9954,1,0,0:2:0:0:
313,122,10057,2,0,P|339:135|369:140,1,60,10|0,0:2|0:2,0:2:0:0:
261,31,10263,5,0,3:2:0:0:
224,51,10365,1,0,0:2:0:0:
205,85,10468,1,0,0:2:0:0:
173,110,10571,1,8,0:2:0:0:
132,111,10673,1,0,3:2:0:0:
94,90,10776,1,0,0:2:0:0:
58,97,10879,5,10,0:2:0:0:
58,97,10982,1,2,0:2:0:0:
58,96,11084,2,0,P|29:105|9:127,1,60,2|0,3:2|0:2,0:2:0:0:
145,203,11289,1,0,0:2:0:0:
145,203,11393,2,0,P|151:173|142:145,1,60,10|0,0:2|3:2,0:2:0:0:
5,235,11597,1,0,0:2:0:0:
5,235,11701,2,0,P|27:254|56:261,1,60,10|0,0:2|0:2,0:2:0:0:
174,335,11906,5,0,3:2:0:0:
214,320,12009,1,0,0:2:0:0:
258,320,12112,1,0,0:2:0:0:
297,342,12215,1,8,0:2:0:0:
340,353,12317,1,0,3:2:0:0:
381,344,12420,1,0,0:2:0:0:
417,318,12523,5,10,0:2:0:0:
417,318,12626,1,2,0:2:0:0:
417,318,12728,2,0,P|412:289|402:261,1,60,2|0,3:2|0:2,0:2:0:0:
254,209,12933,1,0,0:2:0:0:
254,209,13036,2,0,P|281:220|311:224,1,60,10|0,0:2|3:2,0:2:0:0:
424,117,13241,1,0,0:2:0:0:
424,117,13345,2,0,P|400:135|381:158,1,60,10|0,0:2|0:2,0:2:0:0:
227,117,13550,5,0,3:2:0:0:
186,134,13653,1,0,0:2:0:0:
144,121,13756,1,0,0:2:0:0:
120,86,13858,1,8,0:2:0:0:
123,42,13961,1,0,3:2:0:0:
153,10,14064,1,0,0:2:0:0:
201,16,14167,5,10,0:2:0:0:
201,16,14269,1,2,0:2:0:0:
201,16,14372,2,0,P|213:43|208:72,1,60,2|0,3:2|0:2,0:2:0:0:
71,150,14578,1,0,0:2:0:0:
71,150,14680,2,0,P|58:177|63:206,1,60,10|2,0:2|3:2,0:2:0:0:
15,293,14886,1,0,0:2:0:0:
12,332,14989,1,8,0:2:0:0:
9,369,15091,1,0,0:2:0:0:
237,239,15605,5,8,3:2:0:0:
314,229,15708,1,8,0:3:0:0:
360,292,15811,1,4,0:3:0:0:
325,358,15914,1,4,0:3:0:0:
239,379,16016,6,0,P|230:319|210:263,1,120,6|0,3:2|0:2,0:2:0:0:
293,134,16324,1,10,0:2:0:0:
293,134,16427,2,0,P|273:156|267:185,1,60,0|0,3:2|0:2,0:2:0:0:
235,54,16632,1,10,0:2:0:0:
477,145,16838,6,0,P|431:182|373:197,1,120,0|0,3:2|0:2,0:2:0:0:
453,60,17146,1,8,0:2:0:0:
453,60,17249,1,0,3:2:0:0:
314,286,17454,5,10,0:2:0:0:
314,286,17557,1,2,0:2:0:0:
314,286,17660,2,0,P|323:228|373:197,1,120,2|8,3:2|0:2,0:2:0:0:
449,364,17968,1,2,0:2:0:0:
449,364,18071,2,0,P|437:336|413:319,1,60,0|0,3:2|0:2,0:2:0:0:
479,251,18276,1,10,0:2:0:0:
160,255,18482,6,0,B|155:374,1,120,4|0,3:2|0:2,0:2:0:0:
251,384,18790,1,0,3:2:0:0:
251,384,18893,1,8,0:2:0:0:
366,258,19098,5,2,0:2:0:0:
366,258,19201,1,2,0:2:0:0:
366,258,19304,2,0,P|338:270|313:286,1,60,2|0,3:2|0:2,0:2:0:0:
271,135,19509,1,0,0:2:0:0:
271,135,19612,1,10,0:2:0:0:
271,135,19715,2,0,P|283:107|299:82,1,60,0|0,3:2|0:2,0:2:0:0:
395,103,19920,1,10,0:2:0:0:
142,10,20126,6,0,L|160:128,1,120,0|0,3:2|0:2,0:2:0:0:
108,201,20434,1,8,0:2:0:0:
108,201,20536,2,0,L|94:259,1,60,0|0,3:2|0:2,0:2:0:0:
50,66,20742,6,0,P|33:39|35:7,1,60,10|0,0:2|0:2,0:2:0:0:
142,9,20947,2,0,P|198:-7|254:11,1,120,2|8,3:2|0:2,0:2:0:0:
381,91,21358,2,0,P|325:121|268:134,1,120,2|8,3:2|0:2,0:2:0:0:
87,355,21769,6,0,P|120:310|94:259,1,120,2|0,3:2|0:2,0:2:0:0:
293,250,22180,5,8,0:2:0:0:
271,326,22283,1,8,0:3:0:0:
325,384,22386,1,4,0:3:0:0:
397,366,22489,1,4,0:3:0:0:
428,293,22591,6,0,P|419:234|422:175,1,120,6|0,3:2|0:2,0:2:0:0:
405,36,22899,1,10,0:2:0:0:
405,36,23002,2,0,P|390:62|380:92,1,60,0|0,3:2|0:2,0:2:0:0:
489,70,23207,1,10,0:2:0:0:
245,157,23413,6,0,P|189:136|139:104,1,120,0|0,3:2|0:2,0:2:0:0:
215,238,23721,1,8,0:2:0:0:
215,238,23824,1,0,3:2:0:0:
0,274,24029,5,10,0:2:0:0:
0,274,24132,1,2,0:2:0:0:
0,274,24235,2,0,P|-2:216|40:176,1,120,0|8,3:2|0:2,0:2:0:0:
125,232,24543,1,2,0:2:0:0:
125,232,24646,2,0,P|138:262|136:293,1,60,0|0,3:2|0:2,0:2:0:0:
85,376,24851,1,10,0:2:0:0:
318,349,25057,6,0,B|301:230,1,120,4|0,3:2|0:2,0:2:0:0:
335,146,25365,1,0,3:2:0:0:
335,146,25468,1,8,0:2:0:0:
466,201,25673,5,2,0:2:0:0:
466,201,25776,1,2,0:2:0:0:
466,201,25879,2,0,P|449:176|423:162,1,60,2|0,3:2|0:2,0:2:0:0:
285,75,26084,1,0,0:2:0:0:
285,75,26187,1,10,0:2:0:0:
285,75,26290,2,0,P|260:91|246:117,1,60,0|0,3:2|0:2,0:2:0:0:
202,0,26495,1,10,0:2:0:0:
43,262,26701,6,0,P|54:205|106:182,1,120,0|0,3:2|0:2,0:2:0:0:
187,103,27009,1,8,0:2:0:0:
187,103,27112,2,0,L|245:117,1,60,0|0,3:2|0:2,0:2:0:0:
476,67,27317,6,0,P|491:42|487:13,1,60,10|0,0:2|0:2,0:2:0:0:
362,33,27522,2,0,P|394:83|418:138,1,120,2|8,3:2|0:2,0:2:0:0:
492,212,27831,1,0,0:2:0:0:
492,212,27934,2,0,P|458:259|401:256,1,120,2|8,3:2|0:2,0:2:0:0:
267,377,28242,5,0,0:2:0:0:
267,377,28345,2,0,B|279:239|206:267|211:136,1,251.999992309571,12|0,3:2|0:2,0:2:0:0:
94,11,29989,6,0,L|41:20,1,53.9999983520508,2|2,0:2|0:2,0:2:0:0:
175,57,30605,1,2,0:3:0:0:
181,59,30673,1,2,0:3:0:0:
187,61,30742,2,0,P|204:96|211:136,1,80,2|0,0:3|0:2,0:2:0:0:
349,239,31016,5,10,0:2:0:0:
427,76,31221,1,10,0:2:0:0:
427,76,31632,6,0,L|439:171,1,96,6|0,3:2|0:2,0:2:0:0:
496,243,31941,1,0,3:2:0:0:
496,243,32043,1,8,0:2:0:0:
496,243,32249,1,2,3:2:0:0:
439,171,32454,2,0,L|427:76,1,96,2|0,0:2|3:2,0:2:0:0:
369,14,32865,1,8,0:2:0:0:
148,184,33071,5,2,0:2:0:0:
97,247,33276,1,2,3:2:0:0:
152,317,33482,1,2,0:2:0:0:
152,317,33584,1,0,3:2:0:0:
152,317,33687,1,10,0:2:0:0:
226,287,33893,1,2,3:2:0:0:
234,210,34098,2,0,P|228:162|216:115,2,96,2|0|8,0:2|3:2|0:2,0:2:0:0:
454,215,34715,5,2,3:2:0:0:
342,305,34920,2,0,P|388:296|429:318,1,96,2|0,3:2|0:2,0:2:0:0:
490,384,35228,1,0,3:2:0:0:
490,384,35331,1,8,0:2:0:0:
490,384,35536,1,2,3:2:0:0:
429,318,35742,2,0,P|388:296|342:305,2,96,2|0|8,0:2|3:2|0:2,0:2:0:0:
398,155,36358,5,2,0:2:0:0:
322,129,36564,1,2,3:2:0:0:
389,73,36769,1,2,0:2:0:0:
389,73,36872,1,0,3:2:0:0:
389,73,36975,2,0,L|385:36,5,32,10|2|2|0|2|2,0:2|0:3|0:3|3:2|0:3|0:3,0:2:0:0:
305,45,37386,2,0,P|262:66|217:80,1,96,2|0,0:2|3:2,0:2:0:0:
70,144,37797,5,8,0:2:0:0:
70,144,37900,1,8,0:2:0:0:
70,144,38002,1,2,3:3:0:0:
87,328,38208,6,0,P|97:281|114:236,1,96,2|0,3:2|0:2,0:2:0:0:
74,148,38516,1,0,3:2:0:0:
74,148,38619,1,8,0:2:0:0:
74,148,38824,1,2,3:2:0:0:
114,236,39030,2,0,P|97:281|87:328,1,96,2|0,0:2|3:2,0:2:0:0:
168,377,39441,1,8,0:2:0:0:
334,210,39646,5,2,0:2:0:0:
321,131,39852,1,2,3:2:0:0:
264,77,40057,1,2,0:2:0:0:
264,77,40160,1,0,3:2:0:0:
264,77,40263,2,0,P|217:71|171:81,1,96,10|0,0:2|3:2,0:2:0:0:
350,7,40673,2,0,P|397:0|443:10,1,96,2|0,0:2|3:2,0:2:0:0:
512,75,41084,1,8,0:2:0:0:
430,238,41290,5,2,3:2:0:0:
479,310,41495,2,0,P|435:326|391:346,1,96,2|0,3:2|0:2,0:2:0:0:
309,314,41804,1,0,3:2:0:0:
309,314,41906,1,8,0:2:0:0:
309,314,42112,1,2,3:2:0:0:
390,346,42317,2,0,P|433:326|479:310,1,96,2|0,0:2|3:2,0:2:0:0:
309,314,42728,1,8,0:2:0:0:
222,376,42934,5,2,0:2:0:0:
143,377,43139,2,0,B|135:300|177:303|164:237,1,144,2|0,3:2|3:2,0:2:0:0:
229,189,43550,2,0,L|232:155,5,32,8|2|2|2|2|2,0:2|0:3|0:3|3:2|0:3|0:3,0:2:0:0:
240,78,43961,1,2,0:2:0:0:
403,86,44167,5,8,3:2:0:0:
409,89,44235,1,8,0:2:0:0:
415,92,44304,1,8,0:2:0:0:
421,95,44372,2,0,P|441:107|458:124,1,48,8|8,0:2|0:2,0:2:0:0:
468,304,44578,5,8,0:2:0:0:
468,304,44680,1,8,0:2:0:0:
468,304,44783,2,0,P|435:261|385:245,1,107.999996704102,6|2,3:2|0:2,0:2:0:0:
325,367,45091,1,2,0:2:0:0:
325,367,45194,2,0,P|323:339|305:318,1,53.9999983520508,10|0,0:2|0:2,0:2:0:0:
205,272,45400,2,0,P|182:284|156:293,1,53.9999983520508,2|0,0:2|0:2,0:2:0:0:
100,227,45605,1,0,3:2:0:0:
421,95,45810,6,0,P|433:71|431:44,1,53.9999983520508,2|0,0:2|0:2,0:2:0:0:
340,53,46016,2,0,P|286:52|240:79,1,107.999996704102,10|0,0:2|0:2,0:2:0:0:
173,187,46324,5,0,0:2:0:0:
173,187,46427,2,0,L|162:133,1,53.9999983520508,2|0,3:2|0:2,0:2:0:0:
92,19,46632,1,2,0:2:0:0:
92,19,46735,1,2,0:2:0:0:
92,19,46838,2,0,L|83:73,1,53.9999983520508,10|0,0:2|0:2,0:2:0:0:
281,114,47043,2,0,P|259:98|240:78,1,53.9999983520508,2|0,0:2|0:2,0:2:0:0:
263,199,47249,1,0,3:2:0:0:
405,338,47454,6,0,P|429:324|454:314,1,53.9999983520508,2|0,0:2|0:2,0:2:0:0:
329,288,47660,2,0,P|276:289|232:319,1,107.999996704102,10|0,0:2|0:2,0:2:0:0:
127,384,47968,5,0,0:2:0:0:
127,384,48071,2,0,L|113:331,1,53.9999983520508,2|0,3:2|0:2,0:2:0:0:
0,297,48276,1,2,0:2:0:0:
0,297,48379,1,2,0:2:0:0:
0,297,48482,2,0,P|14:273|23:248,1,53.9999983520508,10|0,0:2|0:2,0:2:0:0:
103,175,48687,2,0,P|88:151|79:126,1,53.9999983520508,2|0,0:2|0:2,0:2:0:0:
0,125,48893,1,0,3:2:0:0:
293,29,49098,6,0,P|266:31|248:50,1,53.9999983520508,2|0,0:2|0:2,0:2:0:0:
312,114,49304,2,0,P|360:88|413:81,1,107.999996704102,10|0,0:2|0:2,0:2:0:0:
496,177,49612,5,0,0:2:0:0:
496,177,49715,2,0,L|479:228,1,53.9999983520508,2|0,3:2|0:2,0:2:0:0:
372,300,49920,1,2,0:2:0:0:
360,291,50023,1,2,0:2:0:0:
347,289,50126,2,0,P|330:309|329:336,1,53.9999983520508,10|0,3:2|0:2,0:2:0:0:
425,380,50331,2,0,P|441:359|442:332,1,53.9999983520508,2|0,0:2|0:2,0:2:0:0:
129,57,50742,5,14,3:2:0:0:
224,303,50947,2,0,P|238:280|235:253,1,53.9999983520508,14|0,3:2|0:2,0:2:0:0:
150,244,51358,6,0,P|102:270|67:311,1,107.999996704102,6|2,3:2|0:2,0:2:0:0:
0,146,51667,1,2,0:2:0:0:
0,146,51769,2,0,P|25:155|51:161,1,53.9999983520508,10|0,0:2|0:2,0:2:0:0:
129,57,51975,2,0,P|153:45|176:31,1,53.9999983520508,2|0,0:2|0:2,0:2:0:0:
229,106,52180,1,0,3:2:0:0:
363,169,52386,6,0,P|351:193|354:220,1,53.9999983520508,2|0,0:2|0:2,0:2:0:0:
436,104,52591,2,0,P|483:127|494:178,1,107.999996704102,10|0,0:2|0:2,0:2:0:0:
512,312,52899,5,0,0:2:0:0:
512,312,53002,2,0,L|502:366,1,53.9999983520508,2|0,3:2|0:2,0:2:0:0:
358,383,53208,2,0,L|349:330,1,53.9999983520508,2|0,0:2|0:2,0:2:0:0:
142,197,53413,2,0,P|130:220|132:247,1,53.9999983520508,10|0,0:2|0:2,0:2:0:0:
228,258,53619,2,0,P|239:234|237:207,1,53.9999983520508,2|0,0:2|0:2,0:2:0:0:
314,251,53824,1,0,3:2:0:0:
131,28,54030,6,0,P|105:37|84:54,1,53.9999983520508,2|0,0:2|0:2,0:2:0:0:
212,56,54235,2,0,P|238:65|264:60,1,53.9999983520508,10|0,0:2|0:2,0:2:0:0:
416,93,54441,5,2,0:2:0:0:
411,84,54543,1,2,0:2:0:0:
403,79,54646,2,0,P|364:116|364:168,1,107.999996704102,2|2,3:2|0:2,0:2:0:0:
465,231,54954,1,2,0:2:0:0:
465,231,55057,2,0,P|467:258|461:285,1,53.9999983520508,10|0,0:2|0:2,0:2:0:0:
377,331,55263,2,0,P|375:357|381:384,1,53.9999983520508,2|0,0:2|0:2,0:2:0:0:
462,381,55468,1,0,3:2:0:0:
230,355,55673,6,0,P|241:303|244:249,2,107.999996704102,2|10|2,0:2|0:2|0:2,0:2:0:0:
11,369,56290,6,0,P|30:296|106:286,1,161.999995056153,2|2,3:2|0:2,0:2:0:0:
164,211,56701,2,0,L|138:163,1,53.9999983520508,10|0,0:2|0:2,0:2:0:0:
213,125,56906,2,0,L|238:172,1,53.9999983520508,2|0,0:2|0:2,0:2:0:0:
264,57,57112,1,0,3:2:0:0:
499,128,57317,5,14,0:2:0:0:
264,57,57523,1,14,0:2:0:0:
325,108,57728,1,2,0:2:0:0:
228,326,57934,5,6,3:2:0:0:
305,367,58139,2,0,P|305:272|275:181,1,192,2|0,3:2|3:2,0:2:0:0:
73,149,58756,5,10,0:2:0:0:
131,287,58961,2,0,B|60:309|10:276|0:236|0:236|31:213,1,192,2|0,3:2|3:2,0:2:0:0:
185,9,59578,5,2,3:2:0:0:
264,57,59783,2,0,B|264:142|218:144|216:242,1,192,2|0,3:2|3:2,0:2:0:0:
422,159,60399,1,10,0:2:0:0:
453,290,60605,2,0,P|491:265|487:220,1,96,2|2,3:2|3:3,0:2:0:0:
453,290,61221,5,2,3:2:0:0:
378,365,61427,2,0,P|289:330|196:308,1,192,2|0,3:2|3:2,0:2:0:0:
31,200,62043,2,0,P|23:247|21:295,1,96,10|0,0:2|3:2,0:2:0:0:
123,165,62454,2,0,P|116:119|73:104,1,96,2|0,0:2|3:2,0:2:0:0:
277,0,62865,5,2,3:2:0:0:
213,65,63071,2,0,B|291:83|291:83|312:117|312:117|381:135,1,192,2|0,3:2|3:2,0:2:0:0:
450,237,63687,2,0,P|438:283|429:330,1,96,10|0,0:2|3:2,0:2:0:0:
289,226,64098,1,10,0:2:0:0:
285,215,64201,1,8,0:2:0:0:
281,204,64304,1,0,3:2:0:0:
125,336,64509,5,6,3:2:0:0:
254,378,64715,2,0,B|265:360|290:349|290:349|247:273|173:274,1,192,2|2,3:2|3:2,0:2:0:0:
130,0,65331,2,0,P|112:47|112:99,1,96,10|0,0:2|3:2,0:2:0:0:
222,145,65742,2,0,P|239:102|212:64,1,96,2|0,0:2|3:2,0:2:0:0:
1,18,66153,5,2,3:2:0:0:
0,133,66358,2,0,B|-8:211|56:231|42:316,1,192,2|0,3:2|3:2,0:2:0:0:
165,370,66975,2,0,P|210:356|249:328,1,96,10|0,0:2|3:2,0:2:0:0:
415,273,67386,1,10,0:2:0:0:
457,294,67489,1,8,0:2:0:0:
474,338,67591,1,0,3:2:0:0:
418,21,67797,5,14,3:2:0:0:
301,190,68002,1,14,3:2:0:0:
42,316,69030,5,8,0:2:0:0:
82,294,69132,1,8,0:2:0:0:
125,274,69235,1,0,3:2:0:0:
38,46,69441,5,14,3:2:0:0:
259,86,69646,1,14,3:2:0:0:
435,359,71084,6,0,P|489:310|477:239,1,150,6|0,3:2|0:0,0:0:0:0:
390,89,71393,1,2,1:2:0:0:
390,89,71495,1,0,3:2:0:0:
390,89,71701,2,0,P|363:117|363:154,1,75,2|0,1:2|0:2,0:2:0:0:
290,304,71906,6,0,B|302:289|311:283|311:283|306:264|282:226|216:241|192:277|201:333,1,180.000006866455,2|0,3:2|0:2,0:2:0:0:
83,361,72215,1,0,1:2:0:0:
83,361,72317,2,0,P|114:329|119:286,1,90.0000034332277,2|0,3:2|0:2,0:2:0:0:
22,174,72523,2,0,B|4:193|-14:204|-14:204|-12:229|2:242,1,90.0000034332277,0|0,1:2|0:2,0:2:0:0:
210,169,72728,6,0,B|213:110|185:69|185:69|141:56,1,150,2|0,3:2|0:2,0:2:0:0:
27,17,73036,1,2,1:2:0:0:
27,17,73139,1,0,3:2:0:0:
27,17,73345,2,0,P|11:50|17:87,1,75,2|0,1:2|0:2,0:2:0:0:
210,169,73550,6,0,P|286:124|375:116,1,180.000006866455,2|0,3:2|0:2,0:2:0:0:
475,201,73858,1,0,1:2:0:0:
475,201,73961,1,2,3:2:0:0:
258,333,74167,6,0,B|298:376|298:376|328:340|335:292|296:255,1,180.000006866455,2|6,1:2|3:2,0:2:0:0:
22,310,74578,1,0,0:2:0:0:
15,316,74680,2,0,P|16:352|45:374,1,75,2|0,1:2|3:2,0:2:0:0:
210,168,74989,5,2,1:2:0:0:
214,161,75091,1,2,0:2:0:0:
218,154,75194,2,0,P|133:143|89:216,1,180.000006866455,2|0,3:2|0:2,0:2:0:0:
0,57,75502,1,2,1:2:0:0:
0,57,75605,1,0,3:2:0:0:
0,57,75810,2,0,P|33:83|76:73,1,90.0000034332277,2|0,1:2|0:2,0:2:0:0:
287,15,76016,6,0,P|349:55|394:115,1,150,2|0,3:2|0:2,0:2:0:0:
418,237,76324,1,2,1:2:0:0:
418,237,76427,1,0,3:2:0:0:
362,373,76632,5,2,1:2:0:0:
418,237,76838,1,2,3:2:0:0:
226,329,77043,1,0,1:2:0:0:
281,186,77249,1,2,3:2:0:0:
362,373,77454,1,0,1:2:0:0:
114,126,77660,6,0,P|147:191|134:263,1,150,6|0,3:2|0:2,0:0:0:0:
1,336,77968,1,2,1:2:0:0:
1,336,78071,1,0,3:2:0:0:
1,336,78276,2,0,P|8:300|38:278,1,75,2|0,1:2|0:2,0:0:0:0:
281,186,78482,6,0,B|287:158|302:144|302:144|240:155|229:207|246:241,1,180.000006866455,2|0,3:2|0:2,0:0:0:0:
440,324,78790,1,2,1:2:0:0:
440,324,78893,2,0,L|418:236,1,90.0000034332277,0|0,3:2|0:2,0:0:0:0:
492,51,79098,5,2,1:2:0:0:
498,55,79201,1,2,0:2:0:0:
504,58,79304,2,0,P|499:129|431:149,1,150,2|0,3:2|0:2,0:0:0:0:
306,148,79612,1,2,1:2:0:0:
306,148,79715,1,0,3:2:0:0:
306,148,79920,2,0,B|299:112|299:112|295:107|295:107|289:75,1,75,2|0,1:2|0:0,0:0:0:0:
108,90,80126,6,0,B|58:169|151:183|123:261,1,180.000006866455,2|0,3:2|0:2,0:0:0:0:
3,329,80434,1,0,1:2:0:0:
3,329,80537,1,2,3:2:0:0:
124,258,80742,6,0,B|145:235|228:223|243:290|243:290|226:300|213:313,1,180.000006866455,2|6,1:2|3:2,0:0:0:0:
493,377,81153,1,0,0:2:0:0:
500,371,81256,2,0,P|499:335|470:313,1,75,2|0,1:2|3:2,0:2:0:0:
306,147,81564,5,2,1:2:0:0:
301,153,81666,1,2,0:2:0:0:
295,160,81769,2,0,P|369:199|421:135,1,180.000006866455,2|0,3:2|0:2,0:2:0:0:
512,0,82077,1,2,1:2:0:0:
512,0,82180,1,2,3:2:0:0:
512,0,82386,2,0,P|477:28|433:35,1,90.0000034332277,2|0,1:2|0:2,0:2:0:0:
226,71,82591,6,0,B|227:122|187:169|187:169|180:148|166:133,1,150,2|0,3:2|0:2,0:0:0:0:
98,41,82900,1,2,1:2:0:0:
98,41,83002,1,0,3:2:0:0:
98,41,83208,2,0,P|61:44|42:75,1,75,2|0,1:2|0:2,0:0:0:0:
0,263,83413,6,0,B|69:328|94:206|162:261,1,180.000006866455,2|0,3:2|0:2,0:0:0:0:
233,384,83721,1,0,1:2:0:0:
233,384,83824,2,0,P|209:348|224:307,1,90.0000034332277,2|0,3:2|0:2,0:2:0:0:
312,268,84030,1,2,1:3:0:0:
312,268,84646,6,0,P|305:193|294:119,1,150,6|8,3:2|0:2,0:0:0:0:
98,40,85057,2,0,P|49:92|76:158,1,150,2|0,3:2|0:2,0:2:0:0:
189,114,85365,1,10,0:2:0:0:
189,114,85468,2,0,P|195:77|205:41,1,75,0|0,3:2|0:2,0:2:0:0:
75,157,85673,2,0,P|81:193|91:229,1,75,10|0,0:2|0:2,0:2:0:0:
0,384,85879,6,0,P|28:319|98:326,1,150,0|0,3:2|0:2,0:2:0:0:
195,378,86187,1,8,0:2:0:0:
195,378,86290,2,0,L|267:361,1,75,0|0,3:2|0:2,0:2:0:0:
412,272,86495,5,10,0:2:0:0:
412,272,86598,1,2,0:2:0:0:
412,272,86701,2,0,P|416:197|424:122,1,150,2|0,3:2|0:2,0:2:0:0:
340,37,87009,1,10,0:2:0:0:
340,37,87112,2,0,P|309:16|272:18,1,75,0|0,3:2|0:2,0:2:0:0:
237,182,87317,2,0,P|273:174|298:147,1,75,10|0,0:2|0:2,0:2:0:0:
197,109,87523,6,0,P|91:131|36:226,1,225,4|8,3:2|0:2,0:2:0:0:
114,290,87934,1,0,3:2:0:0:
283,355,88139,5,10,0:2:0:0:
283,355,88242,1,2,0:2:0:0:
283,355,88345,2,0,P|291:319|274:286,2,75,2|0|0,3:2|0:2|0:2,0:2:0:0:
118,294,88653,1,10,0:2:0:0:
118,294,88756,2,0,P|144:319|181:321,1,75,0|0,3:2|0:2,0:2:0:0:
236,182,88961,2,0,P|200:192|180:223,1,75,10|0,0:2|0:2,0:2:0:0:
419,211,89167,6,0,P|425:137|437:63,1,150,0|0,3:2|0:2,0:2:0:0:
300,60,89475,2,0,P|292:95|308:128,1,75,8|0,0:2|3:2,0:2:0:0:
280,351,89783,5,10,0:2:0:0:
283,355,89989,2,0,P|209:340|136:354,1,150,2|8,3:2|0:2,0:2:0:0:
0,295,90400,1,2,3:2:0:0:
0,295,90502,1,2,0:2:0:0:
0,295,90605,2,0,P|32:278|42:243,1,75,8|0,0:2|0:2,0:2:0:0:
158,151,90810,6,0,P|182:81|227:21,1,150,6|0,3:2|0:2,0:2:0:0:
324,51,91119,1,8,0:2:0:0:
324,51,91221,2,0,L|349:121,1,75,2|0,3:2|0:2,0:2:0:0:
429,87,91427,2,0,L|404:17,1,75,8|0,0:2|0:2,0:2:0:0:
512,232,91632,2,0,P|446:201|384:237,1,150,2|0,3:2|0:2,0:2:0:0:
485,384,91941,2,0,P|495:348|479:315,1,75,10|0,0:2|3:2,0:2:0:0:
258,199,92249,6,0,P|247:273|214:341,2,150,10|0|0,0:2|3:2|0:2,0:2:0:0:
158,150,92763,1,8,0:2:0:0:
158,150,92865,2,0,P|122:161|87:148,1,75,0|0,3:2|0:2,0:2:0:0:
8,242,93071,5,10,0:2:0:0:
8,242,93173,1,2,0:2:0:0:
8,242,93276,2,0,B|18:278|18:278|17:281|17:281|27:316,2,75,2|0|0,3:2|0:2|0:2,0:2:0:0:
121,383,93584,1,10,0:2:0:0:
121,383,93687,2,0,B|132:346|132:346|130:342|130:342|140:310,1,75,0|0,3:2|0:2,0:2:0:0:
258,199,93893,5,10,0:2:0:0:
261,203,94098,2,0,B|295:212|329:200|329:200|372:214|384:258,1,150,4|0,3:2|0:2,0:2:0:0:
478,165,94406,1,8,0:2:0:0:
478,165,94509,2,0,P|457:134|462:98,1,75,0|0,3:2|0:2,0:2:0:0:
332,26,94715,5,10,0:2:0:0:
332,26,94817,1,2,0:2:0:0:
332,26,94920,2,0,B|296:31|296:31|293:33|293:33|258:39,2,75,2|0|0,3:2|0:2|0:2,0:2:0:0:
147,64,95228,1,10,0:2:0:0:
147,64,95331,2,0,P|166:94|163:131,1,75,0|0,3:2|0:2,0:2:0:0:
43,159,95536,2,0,P|23:128|26:91,1,75,10|0,0:2|0:2,0:2:0:0:
29,303,95742,6,0,P|82:251|156:246,1,150,0|0,3:2|0:2,0:2:0:0:
231,309,96050,1,8,0:2:0:0:
231,309,96153,1,0,3:2:0:0:
351,232,96358,5,10,0:2:0:0:
354,236,96564,2,0,P|408:286|434:355,1,150,2|0,3:2|0:2,0:2:0:0:
491,154,96872,1,8,0:2:0:0:
491,154,96975,2,0,P|460:172|449:207,1,75,2|0,3:2|0:2,0:2:0:0:
434,355,97180,1,8,0:2:0:0:
256,192,97386,5,6,1:2:0:0:
258,116,97797,1,2,1:2:0:0:
259,43,98208,1,2,1:2:0:0:
259,43,98619,6,0,L|187:37,1,72,8|0,0:1|0:2,0:2:0:0:
256,192,99030,5,2,1:2:0:0:
254,268,99441,1,2,1:2:0:0:
253,341,99852,1,2,1:2:0:0:
253,341,100263,6,0,L|324:333,1,72,8|0,0:1|0:2,0:2:0:0:
256,192,100673,5,2,1:2:0:0:
256,192,100879,1,2,1:2:0:0:
256,192,101084,1,2,1:2:0:0:
256,192,101290,1,2,1:2:0:0:
256,192,101495,1,2,1:2:0:0:
256,192,101701,1,2,1:2:0:0:
256,192,101906,6,0,P|256:167|250:192,1,72,8|0,0:1|0:0,0:2:0:0:
325,233,102317,5,0,1:2:0:0:
369,235,102420,1,0,1:2:0:0:
407,208,102523,1,0,1:2:0:0:
416,161,102626,1,0,1:2:0:0:
389,88,102728,5,0,1:2:0:0:
315,57,102831,1,0,1:2:0:0:
242,88,102934,1,0,1:2:0:0:
164,70,103036,1,0,1:2:0:0:
128,0,103139,5,10,0:2:0:0:
128,0,103345,1,10,0:2:0:0:
79,266,103550,6,0,P|58:280|81:271,1,72,8|0,0:1|0:0,0:2:0:0:
154,215,103961,6,0,B|217:154|311:187|340:244|279:300|310:376|396:397|552:368|499:265|470:188|358:273,1,525,6|0,3:2|0:2,3:2:0:0:
396,250,104783,1,8,0:2:0:0:
371,5,105194,6,0,P|363:58|356:132,1,125.999996154785,2|0,3:2|0:2,0:2:0:0:
272,119,106016,2,0,P|277:59|286:0,1,120,2|8,3:2|0:2,0:2:0:0:
68,38,106632,6,0,P|47:90|86:133,1,120.599994295349,2|0,3:2|0:2,0:2:0:0:
126,215,107043,2,0,P|153:239|157:276,1,75,2|0,3:2|0:2,0:2:0:0:
88,355,107249,6,0,P|92:199|147:52,1,315.000012016297,2|0,3:2|0:2,0:2:0:0:
147,51,108071,1,8,0:2:0:0:
415,124,108482,6,0,P|443:178|410:228,1,125.999996154785,2|0,3:2|0:2,0:2:0:0:
320,219,109304,2,0,P|295:168|326:119,1,120,2|8,3:2|0:2,0:2:0:0:
150,240,109920,6,0,P|197:276|203:337,1,120.599994295349,2|0,3:2|0:2,0:2:0:0:
378,350,110331,2,0,P|398:319|391:284,1,75,2|0,3:2|0:2,0:2:0:0:
320,219,110536,6,0,P|173:271|56:375,1,315.000012016297,2|0,3:2|0:2,0:2:0:0:
55,375,111358,1,8,0:2:0:0:
117,111,111769,6,0,P|126:170|76:204,1,125.999996154785,2|0,3:2|0:2,0:2:0:0:
0,173,112591,2,0,P|-8:118|36:78,1,120,2|8,3:2|0:2,0:2:0:0:
336,117,113208,6,0,P|387:87|424:40,1,120.599994295349,2|0,3:2|0:2,0:2:0:0:
503,116,113619,2,0,P|503:152|478:180,1,75,2|0,3:2|0:2,0:2:0:0:
460,315,113824,6,0,P|436:134|359:23,1,315.000012016297,2|0,3:2|0:2,0:2:0:0:
363,27,114646,1,8,0:2:0:0:
244,187,115057,6,0,P|224:253|266:308,1,143.999995605469,2|2,3:2|3:2,0:2:0:0:
266,308,116290,6,2,L|261:345,15,37.5,8|0|0|0|0|0|0|0|0|0|0|0|0|0|0|0,0:2|0:2|0:2|0:2|0:2|0:2|0:2|0:2|0:2|0:2|0:2|0:2|0:2|0:2|0:2|0:2,1:2:0:0:
244,187,117112,6,0,B|308:163|377:77|242:-82|144:51|51:138|134:284,1,525,6|0,3:2|0:2,3:2:0:0:
133,282,117934,1,10,0:3:0:0:
137,286,118345,1,2,3:3:0:0:
321,250,118550,5,2,0:2:0:0:
407,359,118756,1,2,0:3:0:0:
407,359,118858,2,0,L|395:300,1,60,2|0,0:2|0:2,0:2:0:0:
499,372,119064,1,2,0:2:0:0:
499,372,119167,2,0,L|487:313,1,60,2|0,3:3|0:2,0:2:0:0:
450,130,119372,5,2,0:2:0:0:
450,130,119475,2,0,L|438:189,1,60,2|10,0:2|0:3,0:2:0:0:
371,62,119680,1,2,0:0:0:0:
371,62,119783,2,0,L|359:121,1,60,2|0,3:2|0:2,0:2:0:0:
301,5,119989,1,2,0:3:0:0:
301,5,120092,1,2,0:2:0:0:
301,5,120195,1,2,3:2:0:0:
283,182,120399,6,0,P|166:169|74:241,2,240,2|2|10,3:3|0:3|0:3,0:2:0:0:
26,122,121427,1,2,0:2:0:0:
26,122,121530,2,0,P|22:93|34:66,1,60,2|2,0:2|3:3,0:0:0:0:
142,13,121735,5,2,0:2:0:0:
142,13,121838,2,0,L|130:72,1,60,2|0,0:2|0:2,0:2:0:0:
235,8,122043,1,2,0:3:0:0:
235,8,122146,2,0,L|223:67,1,60,2|0,0:2|0:2,0:2:0:0:
328,0,122352,1,2,0:2:0:0:
328,0,122455,2,0,L|316:59,1,60,2|0,3:3|0:2,0:2:0:0:
164,232,122659,5,2,0:2:0:0:
164,232,122763,2,0,L|152:173,1,60,2|10,0:2|0:3,0:2:0:0:
85,300,122968,1,2,0:2:0:0:
85,300,123071,2,0,L|73:241,1,60,2|0,3:2|0:2,0:2:0:0:
11,357,123276,1,2,0:3:0:0:
11,357,123379,1,2,0:2:0:0:
11,357,123482,1,2,3:2:0:0:
263,380,123687,6,0,P|272:260|298:143,2,240,2|2|10,3:3|0:3|0:3,0:2:0:0:
439,303,124715,1,2,0:2:0:0:
439,303,124817,2,0,P|432:273|415:249,1,60,2|2,0:2|3:3,0:0:0:0:
302,147,125023,5,2,0:2:0:0:
302,147,125126,2,0,L|361:159,1,60,2|0,0:2|0:2,0:2:0:0:
439,25,125331,1,2,0:3:0:0:
439,25,125434,2,0,L|399:70,1,60,2|0,0:2|0:2,0:2:0:0:
484,207,125639,1,2,0:2:0:0:
484,207,125742,2,0,L|464:149,1,60,2|0,3:3|0:2,0:2:0:0:
157,5,125947,5,2,0:2:0:0:
157,5,126051,2,0,L|98:17,1,60,2|10,0:2|0:3,0:2:0:0:
146,116,126256,1,2,0:2:0:0:
146,116,126359,2,0,L|205:128,1,60,2|0,3:2|0:2,0:2:0:0:
302,147,126564,1,2,0:3:0:0:
302,147,126667,1,2,0:2:0:0:
302,147,126770,1,2,3:2:0:0:
3,63,126975,6,0,P|19:181|19:301,2,240,2|2|10,3:3|0:3|0:3,0:2:0:0:
138,245,128002,1,2,0:0:0:0:
138,245,128105,2,0,P|164:261|194:262,1,60,2|2,0:2|3:3,0:0:0:0:
288,301,128310,5,2,0:2:0:0:
329,290,128413,1,2,0:2:0:0:
369,296,128516,1,2,0:2:0:0:
401,321,128619,2,0,L|389:380,1,60,2|0,0:3|0:2,0:2:0:0:
502,265,128824,1,2,3:2:0:0:
502,265,128927,1,2,3:2:0:0:
502,265,129030,2,0,L|490:206,3,60,2|0|0|0,3:3|0:2|0:2|0:2,0:2:0:0:
356,10,129441,5,10,0:2:0:0:
263,164,129646,1,10,0:2:0:0:
263,164,129852,6,0,L|257:124,2,40,2|2|2,0:3|0:3|0:3,0:0:0:0:
146,31,130263,6,0,B|103:9|47:46|38:121|95:154|95:154|96:161|96:161|194:203|164:297|111:307,1,405.000015449525,2|0,1:2|3:2,1:2:0:0:
69,380,130673,2,0,P|84:246|126:117,1,270.000010299683,2|0,1:2|3:2,3:2:0:0:
495,161,131084,6,0,B|504:198|504:198|504:211|504:211|494:227|494:227|464:252|464:252|463:259|463:259|422:294|422:294|420:303|420:303|426:339,1,210.000002002716,6|0,1:1|0:2,0:2:0:0:
247,289,131393,5,0,3:2:0:0:
279,211,131495,2,0,P|289:182|283:212,1,90.0000034332277,2|0,1:2|0:2,0:2:0:0:
313,345,131701,2,0,P|334:369|305:355,1,90.0000034332277,2|0,3:2|0:2,0:2:0:0:
165,301,131906,5,0,1:2:0:0:
148,298,132009,1,2,0:3:0:0:
130,295,132112,1,2,0:3:0:0:
113,292,132215,1,2,3:3:0:0:
19,226,132420,5,2,0:3:0:0:
45,221,132523,1,2,0:3:0:0:
69,218,132626,1,2,3:3:0:0:
159,153,132831,5,2,0:3:0:0:
122,147,132934,1,2,0:3:0:0:
91,142,133037,1,2,3:3:0:0:
35,74,133242,5,2,0:3:0:0:
86,65,133345,1,2,3:3:0:0:
131,58,133448,1,2,0:3:0:0:
267,163,133550,6,0,B|320:160|354:126|354:126|356:120|356:120|421:79|417:-2|390:-35|283:-52|262:20|283:64,1,405.000015449525,2|0,1:2|3:2,1:2:0:0:
283,280,133961,2,0,B|256:298|222:290|222:290|219:285|219:285|167:279|145:226|154:196|214:147|251:197|251:223,1,270.000010299683,2|0,1:2|3:2,3:2:0:0:
484,215,134372,6,0,B|440:243|440:243|431:264|431:264|434:282|434:282|439:291|439:291|470:331|470:331|477:360|477:360|468:384,1,210.000002002716,6|0,1:1|0:2,0:2:0:0:
302,384,134680,1,0,3:2:0:0:
283,280,134783,5,0,1:2:0:0:
280,263,134886,1,2,0:3:0:0:
277,245,134989,1,2,0:3:0:0:
274,228,135092,1,2,3:3:0:0:
195,194,135297,5,2,0:3:0:0:
190,220,135400,1,2,0:3:0:0:
187,244,135503,1,2,3:3:0:0:
108,304,135708,5,2,0:3:0:0:
102,267,135811,1,2,0:3:0:0:
97,236,135914,1,2,3:3:0:0:
16,210,136119,5,2,0:3:0:0:
7,261,136222,1,2,0:3:0:0:
0,306,136325,1,2,3:3:0:0:
67,372,136427,2,0,L|156:384,1,90.0000034332277,2|2,1:3|0:3,0:2:0:0:
450,276,136632,6,0,B|445:244|445:244|421:228|421:228|406:218|406:218|356:234|356:234|337:230|337:230|331:201,1,180.000006866455,2|0,3:1|0:2,0:2:0:0:
334,73,136838,6,0,B|390:67|412:119|412:119|408:169|396:205|396:205|398:211|398:211|375:269|372:326|372:326|406:371|454:355,1,405.000015449525,2|0,1:2|3:2,1:2:0:0:
487,200,137249,2,0,B|506:210|516:223|516:223|506:190|502:163|502:163|472:129|440:99|440:99|387:91|372:140,1,270.000010299683,2|0,1:2|3:2,3:2:0:0:
67,372,137660,6,0,B|31:383|31:383|27:371|27:371|34:359|34:359|59:321|59:321|58:314|58:314|84:271|84:271|71:228,1,210.000002002716,6|0,1:1|0:2,0:2:0:0:
192,66,137968,5,0,3:2:0:0:
293,131,138070,2,0,P|281:102|285:134,1,90.0000034332277,2|0,1:2|0:2,0:2:0:0:
235,216,138276,2,0,P|211:233|242:224,1,90.0000034332277,2|0,3:2|0:2,0:2:0:0:
322,371,138482,5,0,1:3:0:0:
339,367,138585,1,2,0:3:0:0:
357,364,138688,1,2,0:3:0:0:
374,360,138791,1,2,3:3:0:0:
458,293,138996,5,2,0:3:0:0:
432,289,139099,1,2,0:3:0:0:
408,287,139202,1,2,3:3:0:0:
306,227,139407,5,2,0:3:0:0:
343,220,139510,1,2,0:3:0:0:
374,213,139613,1,2,3:3:0:0:
425,140,139818,5,2,0:3:0:0:
373,133,139921,1,2,3:3:0:0:
328,128,140024,1,2,0:3:0:0:
241,63,140126,6,0,B|254:33|254:33|234:15|234:15|236:14|236:14|220:0|220:0|184:34|142:46|142:46|125:110|167:103|157:162|157:162|182:190|182:190|235:170|235:170|223:150,1,405.000015449525,2|0,1:2|3:2,1:2:0:0:
328,128,140536,2,0,P|226:216|168:337,1,270.000010299683,0|0,1:2|3:2,3:2:0:0:
0,138,140947,6,0,B|31:157|31:157|59:143|59:143|38:42|38:42|74:14|74:14,1,210.000002002716,6|0,1:1|0:2,0:2:0:0:
241,63,141256,1,0,3:2:0:0:
328,128,141358,5,0,1:2:0:0:
331,146,141461,1,2,0:3:0:0:
334,164,141564,1,2,0:3:0:0:
337,181,141667,1,2,3:3:0:0:
357,271,141769,5,2,1:3:0:0:
359,276,141872,1,2,0:3:0:0:
361,281,141975,2,0,P|366:297|353:286,2,45.0000017166138,2|0|2,0:3|0:0|3:3,0:0:0:0:
441,346,142180,1,0,1:2:0:0:
444,341,142232,1,0,0:0:0:0:
447,336,142283,1,2,0:3:0:0:
450,331,142334,1,0,0:0:0:0:
453,326,142386,2,0,L|459:282,4,45.0000017166138,2|0|2|0|0,3:3|0:3|0:3|0:3|1:3,0:3:0:0:
407,68,142720,5,2,3:2:0:0:
306,56,142822,5,2,3:2:0:0:
376,115,142925,5,2,3:2:0:0:
324,104,143028,5,2,3:2:0:0:
344,152,143156,5,2,3:2:0:0:
97,130,143413,6,0,B|77:95|88:47|88:47|42:156|106:203|106:203|114:201|114:201|182:266|163:340,1,405.000015449525,2|0,1:2|3:2,1:2:0:0:
34,312,143824,2,0,P|57:180|147:83,1,270.000010299683,2|0,1:2|3:2,3:2:0:0:
411,321,144235,6,0,B|436:278|436:278|435:263|435:263|390:186|390:186|390:173|390:173|414:129,1,210.000002002716,6|0,1:1|0:2,0:2:0:0:
231,81,144543,5,0,3:2:0:0:
164,173,144646,2,0,P|135:163|165:169,1,90.0000034332277,2|0,1:2|0:2,0:2:0:0:
228,251,144851,2,0,P|240:277|223:252,1,90.0000034332277,2|0,3:2|0:2,0:2:0:0:
25,366,145057,5,0,1:2:0:0:
28,347,145159,1,2,0:3:0:0:
31,329,145262,1,2,0:3:0:0:
34,312,145365,1,2,3:3:0:0:
105,265,145570,5,2,0:3:0:0:
110,291,145673,1,2,0:3:0:0:
113,315,145776,1,2,3:3:0:0:
184,365,145981,5,2,0:3:0:0:
190,328,146084,1,2,0:3:0:0:
195,297,146187,1,2,3:3:0:0:
267,245,146392,5,2,0:3:0:0:
276,296,146495,1,2,3:3:0:0:
283,341,146598,1,2,0:3:0:0:
363,324,146701,6,0,B|376:353|376:376|376:376|400:343|415:306|415:306|419:306|419:306|432:281|451:260|451:260|433:217|424:148|424:148|377:185|340:195,1,405.000015449525,2|0,1:2|3:2,1:2:0:0:
344,96,147112,2,0,B|336:73|341:45|341:45|295:113|302:165|302:165|342:191|351:236,1,270.000010299683,2|0,1:2|3:2,3:2:0:0:
95,206,147523,6,0,B|108:241|108:241|115:239|115:239|117:184|117:184|69:143|69:143|79:85,1,210.000002002716,6|0,1:1|0:2,0:2:0:0:
211,14,147831,1,0,3:2:0:0:
344,96,147934,5,0,1:2:0:0:
361,99,148037,1,2,0:3:0:0:
379,102,148140,1,2,0:3:0:0:
396,105,148243,1,2,3:3:0:0:
470,171,148448,5,2,0:3:0:0:
444,176,148551,1,2,0:3:0:0:
420,179,148654,1,2,3:3:0:0:
365,248,148859,5,2,0:3:0:0:
402,254,148962,1,2,0:3:0:0:
433,259,149065,1,2,3:3:0:0:
468,335,149270,5,2,0:3:0:0:
417,344,149373,1,2,0:3:0:0:
372,351,149476,1,2,3:3:0:0:
275,309,149578,2,0,L|263:220,1,90.0000034332277,2|2,1:3|0:3,0:2:0:0:
42,353,149783,6,0,B|74:348|74:348|90:324|90:324|100:309|100:309|84:259|84:259|90:240|90:240|117:234,1,180.000006866455,2|0,3:1|0:2,0:2:0:0:
29,42,149989,5,0,1:2:0:0:
29,42,150057,5,0,3:2:0:0:
29,42,150126,6,0,B|11:63|11:63|8:99|8:99|21:121,3,80,0|0|0|0,3:2|3:2|3:2|3:2,0:2:0:0:
130,52,150400,5,2,1:2:0:0:
130,52,150810,6,0,B|181:66|181:66|221:108|221:108|231:160|231:160|216:203,1,210.000002002716,6|0,1:1|0:2,0:2:0:0:
79,242,151119,2,0,P|62:266|61:296,1,60,2|0,1:2|0:2,0:2:0:0:
143,372,151427,2,0,P|168:327|218:317,1,105.000001001358,2|0,1:2|0:2,0:2:0:0:
484,240,151632,6,0,P|454:141|382:66,1,210.000002002716,2|2,1:3|0:3,0:2:0:0:
305,116,151941,1,2,0:3:0:0:
305,116,152043,2,0,P|334:216|406:291,1,210.000002002716,2|2,1:3|0:3,0:2:0:0:
222,321,152352,5,2,0:3:0:0:
222,321,152454,2,0,P|192:220|126:139,1,210.000002002716,2|2,1:3|0:3,0:2:0:0:
50,48,152763,2,0,P|34:74|9:89,1,60,2|2,1:3|0:3,0:2:0:0:
229,48,153071,2,0,P|196:8|145:0,1,105.000001001358,2|2,1:3|0:3,0:2:0:0:
52,305,153276,6,0,B|82:325|82:325|143:323|178:240|178:240|181:240|181:240|220:176|255:172|255:172|309:192,1,315.000003004074,2|0,1:2|0:2,1:2:0:0:
355,252,153687,2,0,P|336:292|324:335,1,90,2|0,1:2|0:2,3:2:0:0:
499,181,154098,6,0,B|501:125|501:125|473:74|473:74|429:45|429:45|385:45,1,210.000002002716,6|0,1:1|0:2,0:2:0:0:
248,102,154406,2,0,P|231:77|229:48,1,60,2|2,1:2|0:3,0:2:0:0:
386,45,154715,2,0,P|361:90|358:142,1,105.000001001358,2|2,1:3|0:3,0:2:0:0:
138,162,154920,6,0,P|152:270|154:376,1,210.000002002716,2|2,1:3|0:3,0:2:0:0:
24,269,155228,1,2,0:3:0:0:
24,269,155280,1,0,0:2:0:0:
24,269,155331,2,0,L|17:216,7,52.500000500679,2|0|2|0|2|0|2|0,1:3|0:2|0:3|0:2|0:3|0:2|0:3|0:2,0:2:0:0:
0,109,155742,6,0,P|48:96|55:47,1,105.000001001358,0|2,1:2|0:3,0:2:0:0:
174,245,155947,2,2,P|135:212|138:161,1,105.000001001358,2|2,1:3|0:3,0:2:0:0:
198,16,156153,5,10,0:1:0:0:
198,16,156564,6,0,P|245:19|293:28,1,96,6|0,3:2|0:2,0:2:0:0:
379,74,156872,1,0,3:2:0:0:
379,74,156975,1,8,0:2:0:0:
379,74,157180,1,2,3:2:0:0:
293,28,157386,2,0,P|245:19|198:16,1,96,2|0,0:2|3:2,0:2:0:0:
141,91,157797,1,8,0:2:0:0:
352,225,158002,5,2,0:2:0:0:
355,229,158208,1,2,3:2:0:0:
439,207,158413,1,2,0:2:0:0:
439,207,158516,1,0,3:2:0:0:
439,207,158619,1,10,0:2:0:0:
420,290,158824,1,2,3:2:0:0:
423,294,159030,2,0,P|380:315|344:347,2,96,2|0|8,0:2|3:2|0:2,0:2:0:0:
287,182,159646,5,2,3:2:0:0:
194,262,159852,2,0,B|188:368,1,96,2|0,3:2|0:2,0:2:0:0:
105,384,160160,1,0,3:2:0:0:
105,384,160263,1,8,0:2:0:0:
105,384,160468,1,2,3:2:0:0:
188,357,160673,2,0,B|194:262,2,96,2|0|8,0:2|3:2|0:2,0:2:0:0:
47,138,161290,5,2,0:2:0:0:
113,195,161496,1,2,3:2:0:0:
164,95,161701,1,2,0:2:0:0:
164,95,161804,1,0,3:2:0:0:
164,95,161907,2,0,L|168:139,5,32,10|2|2|0|2|2,0:2|0:3|0:3|3:2|0:3|0:3,0:2:0:0:
262,80,162318,2,0,P|257:33|217:10,1,96,2|0,0:2|3:2,0:2:0:0:
324,228,162728,5,8,0:2:0:0:
330,226,162797,1,8,0:2:0:0:
336,225,162865,1,8,0:2:0:0:
342,224,162934,1,10,3:2:0:0:
347,223,163002,1,8,0:2:0:0:
353,222,163071,1,8,0:2:0:0:
359,221,163139,6,0,B|394:187|394:187|380:141,1,96,2|0,3:2|0:2,0:2:0:0:
227,212,163447,2,0,B|218:236|218:236|229:255,2,48,2|8|0,3:2|0:2|0:2,0:2:0:0:
285,341,163756,2,0,B|294:365|294:365|282:385,1,48,2|0,3:2|0:2,0:2:0:0:
188,354,163961,2,0,P|141:348|93:351,2,96,2|0|10,0:2|3:2|0:2,0:2:0:0:
396,338,164578,5,0,0:2:0:0:
399,342,164783,2,0,B|422:298|422:298|425:298|425:298|444:259,1,96,2|0,3:2|0:2,0:2:0:0:
408,173,165091,2,0,B|397:147|397:147|403:126,2,48,2|8|0,3:2|0:2|0:2,0:2:0:0:
285,195,165400,1,2,3:2:0:0:
288,199,165605,2,0,P|241:197|211:162,2,96,2|2|10,0:2|3:2|0:2,0:2:0:0:
119,43,166221,5,0,3:2:0:0:
68,112,166427,2,0,P|82:157|91:204,1,96,2|0,3:2|0:2,0:2:0:0:
148,269,166735,2,0,L|149:317,2,48,2|8|0,3:2|0:2|0:2,0:2:0:0:
231,314,167043,2,0,L|228:266,1,48,2|0,3:2|0:2,0:2:0:0:
359,238,167249,2,0,P|331:200|285:193,2,96,2|0|10,0:2|3:2|0:2,0:2:0:0:
397,383,167865,5,0,0:2:0:0:
464,319,168071,2,0,B|472:253|433:242|442:177,1,144,2|2,3:2|3:2,0:2:0:0:
372,127,168482,2,0,L|337:125,5,32,8|2|2|2|2|2,0:2|0:3|0:3|3:2|0:3|0:3,0:2:0:0:
286,194,168893,1,2,0:2:0:0:
248,65,169099,5,8,3:2:0:0:
245,59,169167,1,8,0:2:0:0:
242,53,169236,1,8,0:2:0:0:
239,47,169304,2,0,L|183:44,1,48,8|8,0:2|0:2,0:2:0:0:
39,14,169510,5,8,0:2:0:0:
47,21,169612,1,8,0:2:0:0:
55,28,169715,1,6,3:2:0:0:
112,252,169920,5,2,0:2:0:0:
112,252,170023,2,0,P|138:256|162:245,1,53.9999983520508,2|0,0:2|3:2,0:2:0:0:
29,195,170228,1,2,0:2:0:0:
29,195,170331,2,0,P|11:215|9:241,1,53.9999983520508,2|0,0:2|0:2,0:2:0:0:
115,150,170536,1,2,3:2:0:0:
112,141,170605,1,2,0:2:0:0:
108,134,170673,1,2,0:2:0:0:
102,128,170742,1,2,0:2:0:0:
296,175,170947,5,2,3:2:0:0:
296,175,171050,2,0,L|287:228,1,53.9999983520508,2|0,0:2|0:2,0:2:0:0:
365,308,171256,5,2,0:2:0:0:
409,307,171358,1,2,3:2:0:0:
443,276,171461,1,2,0:2:0:0:
453,233,171564,1,2,0:2:0:0:
440,190,171667,2,0,P|426:168|406:150,1,53.9999983520508,2|0,0:2|3:2,0:2:0:0:
364,30,171872,1,2,0:2:0:0:
364,30,171975,2,0,P|349:52|329:70,1,53.9999983520508,2|0,0:2|0:2,0:2:0:0:
210,186,172180,6,0,P|221:161|241:143,1,53.9999983520508,2|0,3:2|0:2,0:2:0:0:
93,74,172386,2,0,P|119:82|146:79,1,53.9999983520508,2|0,0:2|0:2,0:2:0:0:
112,252,172591,1,2,3:2:0:0:
112,252,172694,2,0,P|106:225|90:203,1,53.9999983520508,2|0,0:2|0:2,0:2:0:0:
225,272,172900,5,2,0:2:0:0:
212,315,173002,1,2,3:2:0:0:
181,346,173105,1,2,0:2:0:0:
139,364,173208,1,2,0:2:0:0:
92,368,173310,2,0,P|66:363|42:352,1,53.9999983520508,2|0,0:2|3:2,0:2:0:0:
39,219,173516,1,2,0:2:0:0:
39,219,173619,2,0,P|65:214|89:203,1,53.9999983520508,2|0,0:2|0:2,0:2:0:0:
93,74,173824,1,2,3:2:0:0:
88,68,173893,1,2,0:2:0:0:
83,62,173961,1,2,0:2:0:0:
78,56,174030,1,2,0:2:0:0:
230,48,174235,5,2,3:2:0:0:
230,48,174338,2,0,L|223:101,1,53.9999983520508,2|0,0:2|0:2,0:2:0:0:
302,228,174543,1,2,0:2:0:0:
302,228,174646,2,0,L|295:174,1,53.9999983520508,2|0,3:2|0:2,0:2:0:0:
369,98,174852,5,2,0:2:0:0:
411,107,174954,1,2,0:2:0:0:
443,137,175057,1,2,3:2:0:0:
454,179,175160,1,2,0:2:0:0:
444,224,175263,2,0,P|423:240|405:260,1,53.9999983520508,2|0,0:2|0:2,0:2:0:0:
331,323,175468,6,0,L|327:358,2,35.9999989013672,2|2|2,3:2|0:2|0:2,0:2:0:0:
241,381,175673,2,0,P|215:354|216:318,1,75,12|0,0:2|0:2,0:2:0:0:
102,225,175879,1,12,3:2:0:0:
102,225,175982,2,0,P|124:251|123:286,1,71.9999978027344,2|0,0:2|0:2,0:2:0:0:
5,250,176290,6,0,P|8:191|22:132,1,120,6|2,3:2|0:2,0:2:0:0:
124,113,176598,1,2,0:2:0:0:
124,113,176701,2,0,P|146:131|176:132,1,60,8|2,0:2|0:2,0:2:0:0:
101,23,176906,1,2,0:2:0:0:
241,26,177112,5,2,3:2:0:0:
241,26,177180,1,2,0:2:0:0:
241,26,177249,1,2,0:2:0:0:
241,26,177317,1,2,0:2:0:0:
232,197,177523,1,10,0:2:0:0:
232,197,177626,2,0,L|238:257,1,60,2|0,0:2|0:2,0:2:0:0:
345,186,177831,1,2,0:2:0:0:
345,186,177934,2,0,L|339:126,1,60,2|0,3:2|0:2,0:2:0:0:
431,247,178139,5,2,0:2:0:0:
431,247,178242,2,0,P|452:267|464:295,1,60,2|8,0:2|0:2,0:2:0:0:
354,350,178447,1,2,0:2:0:0:
354,350,178550,2,0,P|325:358|295:354,1,60,2|0,0:2|0:2,0:2:0:0:
319,238,178755,1,2,3:2:0:0:
319,238,178858,2,0,P|326:209|344:185,1,60,2|0,0:2|0:2,0:2:0:0:
232,197,179064,1,2,0:2:0:0:
232,197,179167,1,10,0:2:0:0:
73,290,179372,6,0,P|96:271|106:242,1,60,2|0,0:2|0:2,0:2:0:0:
49,119,179578,2,0,P|8:160|9:219,1,120,2|2,3:2|0:2,0:2:0:0:
29,384,179886,2,0,L|88:375,1,60,2|8,0:2|0:2,0:2:0:0:
233,318,180091,1,2,0:2:0:0:
233,318,180194,2,0,L|174:309,1,60,2|0,0:2|0:2,0:2:0:0:
344,185,180400,5,2,3:2:0:0:
395,183,180502,1,2,0:2:0:0:
442,208,180605,1,2,0:2:0:0:
461,256,180708,1,2,0:2:0:0:
368,326,180810,2,0,P|354:300|355:270,1,60,10|0,0:2|0:2,0:2:0:0:
434,38,181221,5,2,3:1:0:0:
512,0,181324,1,2,3:1:0:0:
80,40,181530,5,2,3:1:0:0:
0,0,181632,1,2,1:1:0:0:
0,0,181735,1,2,3:1:0:0:
0,0,181838,1,2,3:1:0:0:
0,0,181941,1,2,3:1:0:0:
77,341,182146,5,2,3:1:0:0:
0,384,182249,1,2,3:1:0:0:
256,192,182865,6,0,P|325:207|384:248,1,144,6|0,3:2|3:2,0:2:0:0:
449,192,183276,2,0,P|436:171|437:148,1,48,2|0,0:2|0:2,0:2:0:0:
384,248,183482,1,2,3:2:0:0:
387,252,183687,1,10,0:2:0:0:
227,277,183893,2,0,P|221:300|203:315,1,48,2|0,3:2|0:2,0:2:0:0:
144,249,184098,2,0,P|126:232|121:209,1,48,2|0,0:2|0:2,0:2:0:0:
210,191,184304,2,0,P|232:184|255:191,1,48,2|0,3:2|0:2,0:2:0:0:
137,116,184509,6,0,P|91:112|63:75,1,96,2|2,3:2|0:2,0:2:0:0:
4,198,184817,1,0,3:2:0:0:
4,198,184920,2,0,B|1:241|1:241|-1:245|-1:245|-4:293,2,96,2|2|10,0:2|3:2|0:2,0:2:0:0:
80,374,185536,2,0,L|127:379,1,48,2|0,3:2|0:2,0:2:0:0:
144,249,185742,2,0,L|115:287,1,48,2|0,3:2|0:2,0:2:0:0:
222,360,185947,2,0,L|203:315,1,48,2|0,0:2|0:2,0:2:0:0:
288,220,186153,6,0,P|332:235|353:277,1,96,6|2,3:2|0:2,0:2:0:0:
379,153,186461,1,0,3:2:0:0:
379,153,186564,2,0,P|362:108|379:64,2,96,2|2|10,0:2|3:2|0:2,0:2:0:0:
484,317,187180,2,0,L|484:269,1,48,2|0,3:2|0:2,0:2:0:0:
485,190,187386,2,0,L|485:142,1,48,2|0,0:2|0:2,0:2:0:0:
485,65,187591,2,0,L|485:17,1,48,2|0,3:2|0:2,0:2:0:0:
380,65,187797,6,0,P|333:76|298:108,1,96,2|2,3:2|0:2,0:2:0:0:
191,197,188105,1,0,3:2:0:0:
191,197,188208,2,0,P|214:157|195:115,1,96,2|0,0:2|3:2,0:2:0:0:
0,0,188619,5,8,0:3:0:0:
1,7,188687,1,8,0:3:0:0:
2,14,188756,1,8,0:3:0:0:
3,21,188824,1,4,0:3:0:0:
4,28,188892,1,4,0:3:0:0:
5,35,188962,1,4,0:3:0:0:
6,42,189030,1,6,3:2:0:0:
313,253,189441,5,10,0:2:0:0:
320,260,189749,1,10,0:2:0:0:
320,260,189852,1,2,3:2:0:0:
231,344,190057,2,0,B|179:363|143:323|143:323|154:303,1,120,0|2,1:2|3:2,0:2:0:0:
86,188,190468,2,0,P|96:215|87:244,1,60,2|0,1:2|0:2,0:2:0:0:
1,214,190673,1,2,1:2:0:0:
263,32,191084,5,14,0:2:0:0:
270,39,191392,1,8,0:2:0:0:
270,39,191495,1,2,3:2:0:0:
483,142,191701,2,0,B|486:63|486:63|471:50|459:32,2,120,0|2|0,1:2|3:2|1:2,0:2:0:0:
418,276,192317,1,2,3:2:0:0:
422,281,192386,1,8,0:2:0:0:
426,287,192454,2,0,L|425:328,3,40,8|8|8|8,0:2|0:2|0:2|0:2,0:2:0:0:
350,368,192729,5,10,3:2:0:0:
350,368,192831,1,10,0:2:0:0:
350,368,192934,1,10,0:2:0:0:
350,368,193036,1,10,0:2:0:0:
291,316,193139,1,10,3:2:0:0:
292,240,193242,1,10,0:2:0:0:
332,174,193345,1,10,0:2:0:0:
340,99,193447,1,10,0:2:0:0:
297,31,193550,1,10,3:2:0:0:
222,13,193653,1,10,0:2:0:0:
163,60,193756,1,10,0:2:0:0:
170,132,193858,1,10,0:2:0:0:
244,171,193961,1,10,3:2:0:0:
244,171,194064,1,10,0:2:0:0:
244,171,194167,2,0,P|264:150|267:120,1,60,10|8,0:2|0:2,0:2:0:0:
97,0,194372,5,2,1:1:0:0:
28,234,194578,1,2,1:1:0:0:
244,282,195194,6,2,B|250:297|251:313|251:313|265:285|267:244|217:240|211:192|244:169,1,188.999994232178,12|0,2:2|0:0,0:1:0:0:
248,285,196016,6,0,P|183:310|150:250,1,150,6|0,3:2|0:2,0:2:0:0:
72,92,196324,1,2,1:2:0:0:
72,92,196427,1,0,3:2:0:0:
72,92,196632,2,0,P|79:127|57:156,1,75,2|0,1:2|0:2,0:2:0:0:
242,168,196838,6,0,B|230:101|292:54|292:54|331:81,1,180.000006866455,2|0,3:2|0:2,0:2:0:0:
430,192,197146,1,0,1:2:0:0:
430,192,197249,2,0,P|402:226|358:223,1,90.0000034332277,2|0,3:2|0:2,0:2:0:0:
331,81,197454,1,0,1:2:0:0:
149,250,197660,6,0,B|227:228|202:309|287:291,1,150,2|0,3:2|0:2,0:2:0:0:
72,384,197968,1,2,1:2:0:0:
72,384,198071,1,0,3:2:0:0:
72,384,198276,2,0,P|42:362|38:326,1,75,2|0,1:2|0:2,0:2:0:0:
149,250,198482,6,0,B|156:267|165:278|165:278|202:203|149:131,1,180.000006866455,2|0,3:2|0:2,0:2:0:0:
0,97,198790,1,0,1:2:0:0:
0,97,198893,1,2,3:2:0:0:
331,81,199098,6,0,B|330:63|303:50|303:50|262:67|253:107|253:107|273:130|278:159,1,180.000006866455,2|6,1:2|3:2,0:2:0:0:
497,57,199509,1,0,0:2:0:0:
496,50,199612,2,0,P|465:28|429:32,1,75,2|0,1:2|3:2,0:2:0:0:
369,195,199920,5,2,1:2:0:0:
374,200,200023,1,0,0:2:0:0:
379,205,200126,2,0,P|350:283|269:266,1,180.000006866455,2|0,3:2|0:2,0:2:0:0:
133,173,200434,1,2,1:2:0:0:
133,173,200537,1,0,3:2:0:0:
133,173,200742,2,0,P|159:206|149:249,1,90.0000034332277,2|0,1:2|0:2,0:2:0:0:
0,193,200948,6,0,B|-16:155|0:118|0:118|38:101|54:62,1,150,2|0,3:2|0:2,0:2:0:0:
148,42,201256,1,2,1:2:0:0:
148,42,201359,1,0,3:2:0:0:
148,42,201564,5,2,1:2:0:0:
355,133,201769,1,2,3:2:0:0:
286,6,201975,1,0,1:2:0:0:
255,231,202181,1,2,3:2:0:0:
133,173,202386,1,0,1:2:0:0:
442,97,202591,6,0,B|486:164|415:176|440:239,1,150,6|0,3:2|0:2,0:2:0:0:
305,380,202900,1,2,1:2:0:0:
305,380,203002,1,0,3:2:0:0:
305,380,203208,2,0,P|288:346|300:312,1,75,0|0,1:2|0:2,0:2:0:0:
255,231,203413,6,0,P|286:148|250:69,1,180.000006866455,2|0,3:2|0:2,0:2:0:0:
116,2,203721,1,2,1:2:0:0:
110,0,203824,2,0,B|91:18|87:43|87:43|92:67|111:73,1,90.0000034332277,2|0,3:2|0:2,0:2:0:0:
9,180,204030,6,0,B|85:233|151:204|151:204|138:179,1,180.000006866455,2|2,1:2|3:2,0:2:0:0:
22,320,204441,1,0,0:2:0:0:
16,324,204543,2,0,P|17:360|45:384,1,75,2|0,1:2|3:2,0:2:0:0:
274,317,204852,5,2,1:2:0:0:
268,312,204954,1,2,0:2:0:0:
262,307,205057,2,0,P|260:221|337:183,1,180.000006866455,2|0,3:2|0:2,0:2:0:0:
460,132,205365,1,2,1:2:0:0:
460,132,205468,2,0,B|449:143|449:143|433:103|442:70,1,90.0000034332277,2|0,3:2|0:2,0:2:0:0:
171,28,205673,6,0,B|158:28|143:24|143:24|192:74|237:16|280:71,1,180.000006866455,2|6,1:2|3:2,0:2:0:0:
9,180,206084,1,0,0:2:0:0:
4,174,206187,2,0,P|5:134|37:111,1,75,2|0,1:2|3:2,0:2:0:0:
192,335,206495,5,2,1:2:0:0:
186,341,206598,1,2,0:2:0:0:
180,347,206701,2,0,B|107:336|58:347|58:347|31:370|10:379,1,180.000006866455,2|0,3:2|0:2,0:2:0:0:
364,268,207009,1,2,1:2:0:0:
364,268,207112,2,0,B|353:250|352:223|352:223|326:226|303:219,1,90.0000034332277,2|0,3:2|0:2,0:2:0:0:
273,316,207317,2,0,B|284:334|285:361|285:361|311:358|334:365,1,90.0000034332277,2|0,1:2|0:2,0:2:0:0:
499,373,207523,6,0,P|488:298|466:227,1,150,2|0,3:2|0:2,0:2:0:0:
416,136,207831,1,2,1:2:0:0:
416,136,207934,1,0,3:2:0:0:
416,136,208139,2,0,P|381:122|344:117,1,75,2|0,1:1|0:2,0:2:0:0:
138,86,208345,6,0,B|134:100|121:114|121:114|186:129|156:34|230:36,1,180.000006866455,2|0,3:1|0:2,0:2:0:0:
3,49,208653,1,0,1:2:0:0:
3,49,208756,2,0,B|21:70|39:76|39:76|31:97|29:120,1,90.0000034332277,2|0,3:1|0:2,0:2:0:0:
37,273,208961,1,2,1:3:0:0:
129,261,209167,6,0,B|131:236|131:236|115:223,1,45,2|0,0:2|0:2,0:2:0:0:
37,273,209578,6,0,P|25:307|42:340,1,75,6|0,3:2|0:2,0:2:0:0:
134,328,209783,2,0,P|145:293|128:260,1,75,8|0,0:2|0:2,0:2:0:0:
287,202,209989,6,0,P|360:199|424:237,1,150,2|0,3:2|0:2,0:2:0:0:
301,367,210297,1,10,0:2:0:0:
301,367,210400,2,0,P|284:334|295:299,1,75,0|0,3:2|0:2,0:2:0:0:
417,304,210605,2,0,P|434:271|423:236,1,75,10|0,0:2|0:2,0:2:0:0:
321,107,210810,6,0,B|273:98|243:111|243:111|226:143|191:158,1,150,0|0,3:2|0:2,0:2:0:0:
106,117,211119,1,8,0:2:0:0:
106,117,211221,2,0,L|91:43,1,75,0|0,3:2|0:2,0:2:0:0:
8,61,211427,2,0,L|22:134,1,75,10|0,0:2|0:2,0:2:0:0:
191,158,211632,6,0,B|222:227|170:243|185:303,1,150,2|0,3:2|0:2,0:2:0:0:
301,367,211941,1,10,0:2:0:0:
301,367,212043,2,0,P|317:334|304:300,1,75,0|0,3:2|0:2,0:2:0:0:
185,303,212249,1,10,0:2:0:0:
0,311,212454,6,0,B|-9:298|-16:294|-16:294|-12:278|6:248|59:260|76:287|78:316,1,150,6|0,3:2|0:2,0:2:0:0:
172,377,212763,1,10,0:2:0:0:
172,377,212865,2,0,L|185:303,1,75,0|0,3:2|0:2,0:2:0:0:
290,226,213071,1,10,0:2:0:0:
290,226,213173,1,2,0:2:0:0:
290,226,213276,2,0,L|303:299,2,75,2|0|0,3:2|0:2|0:2,0:2:0:0:
377,134,213584,1,10,0:2:0:0:
377,134,213687,1,0,3:2:0:0:
150,40,213893,6,0,P|221:42|256:105,2,150,10|0|0,0:2|3:2|0:2,0:2:0:0:
106,117,214406,1,8,0:2:0:0:
106,117,214509,1,0,3:2:0:0:
76,307,214715,2,0,P|40:314|8:295,1,75,10|0,0:2|0:2,0:2:0:0:
26,206,214920,2,0,P|61:198|93:217,1,75,2|0,3:2|0:2,0:2:0:0:
168,363,215126,2,0,P|172:325|179:289,1,75,8|0,0:2|0:2,0:2:0:0:
258,300,215331,2,0,P|251:336|247:374,1,75,2|0,3:2|0:2,0:2:0:0:
332,259,215536,1,8,0:2:0:0:
499,195,215742,6,0,B|451:188|451:188|416:137|416:137|376:133,1,150,6|0,3:2|0:2,0:2:0:0:
255,31,216050,1,8,0:2:0:0:
255,31,216153,2,0,P|270:64|262:100,1,75,2|0,3:2|0:2,0:2:0:0:
157,109,216358,2,0,P|141:75|149:39,1,75,8|0,0:2|0:2,0:2:0:0:
5,57,216564,6,0,P|19:130|25:205,1,150,2|0,3:2|0:2,0:2:0:0:
77,285,216872,1,10,0:2:0:0:
77,285,216975,1,0,3:2:0:0:
215,336,217180,2,0,B|291:328|252:267|336:260,2,150,10|0|0,0:2|3:2|0:2,0:2:0:0:
255,166,217694,5,8,0:2:0:0:
255,166,217797,2,0,P|243:131|261:99,1,75,0|0,3:2|0:2,0:2:0:0:
342,194,218002,2,0,P|353:228|335:260,1,75,10|0,0:2|0:2,0:2:0:0:
475,339,218208,2,0,B|480:354|475:374|475:374|507:328|470:310|486:263,1,150,2|0,3:2|0:2,0:2:0:0:
512,177,218516,1,10,0:2:0:0:
512,177,218619,2,0,B|501:141|501:141|502:137|502:137|492:105,1,75,2|0,3:2|0:2,0:2:0:0:
327,67,218824,5,10,0:2:0:0:
330,71,219030,2,0,P|263:94|254:165,1,150,4|0,3:2|0:2,0:2:0:0:
175,271,219338,1,8,0:2:0:0:
175,271,219441,2,0,P|178:234|154:207,1,75,0|0,3:2|0:2,0:2:0:0:
90,320,219646,2,0,P|86:356|110:383,1,75,10|0,0:2|0:2,0:2:0:0:
15,265,219852,2,0,B|22:239|33:217|33:217|16:119,1,150,2|0,3:2|0:2,0:2:0:0:
61,39,220160,1,10,0:2:0:0:
61,39,220263,1,0,3:2:0:0:
210,2,220468,5,10,0:2:0:0:
213,6,220673,2,0,B|176:30|168:73|168:73|179:104|168:138,1,150,0|0,3:2|0:2,0:2:0:0:
254,165,220982,1,8,0:2:0:0:
254,165,221084,2,0,P|291:168|328:170,1,75,0|0,3:2|0:2,0:2:0:0:
326,253,221290,2,0,P|288:250|251:247,1,75,10|0,0:2|0:2,0:2:0:0:
454,353,221495,2,0,B|469:277|402:284|423:212,1,150,2|0,3:2|0:2,0:2:0:0:
512,242,221804,1,8,0:2:0:0:
512,242,221906,2,0,B|468:323|411:265|375:347,1,180.000006866455,2|8,3:2|0:2,0:2:0:0:
112,322,222317,5,14,1:2:0:0:
112,322,222523,2,0,L|186:315,1,75,2|0,0:1|0:0,0:0:0:0:
112,168,222728,5,10,1:2:0:0:
112,168,222934,2,0,L|73:246,1,87.0000026550294,2|0,0:1|0:0,0:0:0:0:
239,214,223139,5,10,1:2:0:0:
239,214,223345,2,0,L|196:124,1,99.0000009441376,2|0,0:1|0:0,0:0:0:0:
157,47,223550,1,8,0:1:0:0:
436,288,223961,5,10,1:2:0:0:
436,288,224167,2,0,L|445:183,1,105.000001001358,2|0,0:1|0:0,0:0:0:0:
388,77,224372,5,10,1:2:0:0:
388,77,224578,2,0,L|338:176,1,110.999999576569,2|0,0:1|0:0,0:0:0:0:
233,100,224783,5,10,1:2:0:0:
233,100,224989,2,0,L|321:23,1,117.00000044632,2|0,0:1|0:0,0:0:0:0:
400,0,225194,1,8,0:1:0:0:
0,0,225605,5,8,1:2:0:0:
95,242,225810,1,0,1:2:0:0:
174,0,226016,1,8,1:2:0:0:
95,242,226221,1,0,1:2:0:0:
0,0,226427,1,8,1:2:0:0:
0,0,226632,1,0,1:2:0:0:
91,112,226838,1,8,0:1:0:0:
172,346,227249,5,0,1:2:0:0:
128,348,227352,1,0,1:2:0:0:
90,321,227455,1,0,1:2:0:0:
81,274,227558,1,0,1:2:0:0:
108,201,227660,5,0,1:2:0:0:
182,170,227763,1,0,1:2:0:0:
250,205,227866,1,0,1:2:0:0:
257,281,227968,1,0,1:2:0:0:
184,251,228071,5,10,0:2:0:0:
184,251,228277,1,10,0:2:0:0:
400,96,228482,6,0,P|421:108|394:107,1,72,8|0,0:1|0:0,0:2:0:0:
322,46,228893,6,0,B|285:11|150:0|177:50|-58:115|76:346|210:259|230:233|230:169|194:149,1,525,6|0,3:2|0:2,3:2:0:0:
194,149,229715,1,10,0:1:0:0:
36,352,229921,5,2,0:2:0:0:
36,352,230023,1,2,0:2:0:0:
36,352,230126,2,0,P|152:325|271:306,2,240,2|2|2,3:2|0:2|3:2,0:2:0:0:
198,153,231358,5,10,0:1:0:0:
320,159,231564,2,0,P|301:105|334:56,1,120.599994295349,2|0,3:2|0:2,0:2:0:0:
504,204,231975,2,0,P|522:172|512:137,1,75,2|0,3:2|0:2,0:2:0:0:
410,230,232180,2,0,L|439:377,3,150,2|2|2|2,3:2|0:2|0:2|0:2,0:2:0:0:
217,371,233002,1,10,0:1:0:0:
125,324,233208,5,2,0:2:0:0:
125,324,233310,1,2,0:2:0:0:
125,324,233413,2,0,P|155:217|266:223,2,240,2|2|2,3:2|0:2|3:2,0:2:0:0:
280,18,234646,5,10,0:1:0:0:
328,112,234852,2,0,P|276:135|236:95,1,120.599994295349,2|0,3:2|0:2,0:2:0:0:
109,87,235263,2,0,P|79:65|42:67,1,75,2|0,3:2|0:2,0:2:0:0:
16,232,235468,2,0,L|159:187,3,150,2|2|2|2,3:2|0:2|0:2|0:2,0:2:0:0:
210,358,236291,1,10,0:1:0:0:
346,292,236496,5,2,0:2:0:0:
346,292,236599,1,2,0:2:0:0:
346,292,236702,2,0,P|351:172|359:52,2,240,2|2|2,3:2|0:2|3:2,0:2:0:0:
360,53,237934,5,10,0:1:0:0:
455,213,238140,2,0,P|478:161|438:121,1,120.599994295349,2|0,3:2|0:2,0:2:0:0:
360,53,238551,2,0,P|324:60|295:38,1,75,2|0,3:2|0:2,0:2:0:0:
193,0,238756,2,0,L|201:149,3,150,2|2|2|2,3:2|0:2|0:2|0:2,0:2:0:0:
321,251,239578,1,10,0:1:0:0:
68,338,239784,1,2,0:2:0:0:
68,338,239886,1,2,0:2:0:0:
68,338,239989,2,0,L|84:219,1,120,2|2,3:2|0:2,0:2:0:0:
205,153,240297,5,2,0:0:0:0:
205,153,240400,2,2,L|208:191,15,37.5,8|0|0|0|0|0|0|0|0|0|0|0|0|0|0|0,0:2|0:2|0:2|0:2|0:2|0:2|0:2|0:2|0:2|0:2|0:2|0:2|0:2|0:2|0:2|0:2,1:2:0:0:
180,283,241221,6,0,B|169:303|148:321|148:321|199:348|199:348|201:348|201:348|246:373|246:373|263:335|263:335|266:331|266:331|284:295|284:295|257:276,1,280.000002670288,10|0,0:1|0:2,0:2:0:0:
470,235,241632,6,2,B|484:253|484:253|496:250|496:250|525:258|525:258|540:283|540:283|535:313|535:313|518:318|518:318|505:330,1,160,8|0,0:2|0:2,0:1:0:0:
505,329,241838,6,0,P|533:343|501:341,1,90.0000034332277,2|0,0:1|0:2,0:2:0:0:
421,306,242043,6,0,B|340:301|323:229|349:173|417:167|417:167|517:157|490:-16|362:-7|341:87|397:122,1,525,6|0,3:2|0:2,3:2:0:0:
394,120,242865,5,10,0:1:0:0:
152,6,243071,5,2,0:2:0:0:
152,6,243173,2,0,P|131:36|137:72,1,75,2|2,0:2|3:3,0:2:0:0:
45,92,243379,1,2,0:2:0:0:
45,92,243482,2,0,L|43:131,4,37.5,2|0|0|0|2,0:2|0:2|0:2|0:2|0:3,0:2:0:0:
113,228,243790,2,0,L|38:223,1,75,2|0,0:2|0:2,0:2:0:0:
32,307,243995,1,2,0:2:0:0:
32,307,244098,2,0,L|106:311,1,75,2|0,3:3|0:2,0:2:0:0:
195,384,244304,5,2,0:2:0:0:
195,384,244406,2,0,P|214:352|209:316,1,75,2|10,0:2|0:1,0:2:0:0:
326,241,244612,1,2,0:2:0:0:
326,241,244715,2,0,P|306:272|311:308,1,75,2|0,3:2|0:2,0:2:0:0:
413,314,244920,2,0,L|416:276,4,37.5,2|0|2|0|0,0:3|0:2|0:2|0:2|3:2,0:2:0:0:
490,208,245228,5,2,0:2:0:0:
489,201,245280,1,0,0:2:0:0:
487,194,245331,2,0,P|464:164|428:158,1,75,2|0,3:3|0:2,0:2:0:0:
332,92,245536,2,0,P|302:114|296:150,1,75,2|0,0:2|0:2,0:2:0:0:
239,243,245742,2,0,P|261:272|297:278,1,75,2|0,0:3|0:2,0:2:0:0:
377,372,245947,2,0,P|406:349|412:313,1,75,2|0,0:2|0:2,0:2:0:0:
295,149,246153,6,0,P|223:147|171:199,1,150,10|2,0:1|0:2,0:2:0:0:
71,197,246461,2,0,P|66:160|38:137,1,75,2|2,0:2|3:3,0:2:0:0:
40,46,246667,1,2,0:2:0:0:
40,46,246769,2,0,L|42:7,4,37.5,2|0|0|0|2,0:2|0:2|0:2|0:2|0:3,0:2:0:0:
132,17,247078,2,0,L|206:19,1,75,2|0,0:2|0:2,0:2:0:0:
293,22,247283,1,2,0:2:0:0:
293,22,247386,2,0,L|367:24,1,75,2|0,3:3|0:2,0:2:0:0:
405,173,247591,5,2,0:2:0:0:
405,173,247694,2,0,L|365:236,1,75,2|10,0:2|0:1,0:2:0:0:
291,317,247899,1,2,0:2:0:0:
291,317,248002,2,0,L|255:250,1,75,2|0,3:2|0:2,0:2:0:0:
220,146,248207,1,2,0:3:0:0:
220,146,248258,1,0,0:2:0:0:
220,146,248310,2,0,L|294:148,1,75,2|0,0:2|3:2,0:2:0:0:
114,222,248515,5,0,0:2:0:0:
114,222,248567,1,0,0:2:0:0:
114,222,248618,2,0,P|80:237|45:225,1,75,2|0,3:3|0:2,0:2:0:0:
46,105,248824,2,0,P|30:71|42:37,1,75,2|0,0:2|0:2,0:2:0:0:
153,31,249029,2,0,P|186:16|220:28,1,75,2|0,0:3|0:2,0:2:0:0:
220,146,249235,2,0,P|234:179|222:214,1,75,2|0,0:2|0:2,0:2:0:0:
291,317,249440,6,0,P|360:290|410:235,1,150,10|2,0:1|0:2,0:2:0:0:
485,147,249748,1,2,0:2:0:0:
485,147,249851,2,0,P|470:114|472:77,1,75,2|2,3:3|0:2,0:2:0:0:
403,17,250056,2,0,L|365:22,3,37.5,2|0|0|0,0:2|0:2|0:2|0:2,0:2:0:0:
231,71,250262,5,2,0:3:0:0:
231,71,250365,2,0,L|219:145,1,75,2|0,0:2|0:2,0:2:0:0:
119,130,250570,1,2,0:2:0:0:
119,130,250673,2,0,L|107:204,1,75,2|0,3:3|0:2,0:2:0:0:
11,179,250878,1,2,0:2:0:0:
11,179,250981,2,0,L|0:253,1,75,2|10,0:2|0:1,0:2:0:0:
214,347,251186,5,2,0:2:0:0:
214,347,251290,2,0,P|215:310|191:282,1,75,2|0,3:2|0:2,0:2:0:0:
97,319,251495,1,2,0:3:0:0:
97,319,251547,1,0,0:2:0:0:
97,319,251598,2,0,P|95:355|119:383,1,75,2|0,0:2|3:2,0:2:0:0:
316,360,251804,5,0,0:2:0:0:
316,360,251855,1,0,0:2:0:0:
316,360,251906,2,0,L|390:366,1,75,2|0,3:3|0:2,0:2:0:0:
502,371,252112,2,0,L|508:296,1,75,2|0,0:2|0:2,0:2:0:0:
512,184,252317,2,0,L|437:177,1,75,2|0,0:3|0:2,0:2:0:0:
325,167,252523,2,0,L|331:92,1,75,2|0,0:2|0:2,0:2:0:0:
207,45,252728,6,0,P|137:60|118:129,1,150,10|2,0:1|0:2,0:2:0:0:
23,161,253036,2,0,P|35:195|21:229,1,75,2|2,0:2|3:3,0:2:0:0:
59,314,253241,5,2,0:2:0:0:
59,314,253344,2,0,L|97:319,3,37.5,2|0|0|0,0:2|0:2|0:2|0:2,0:2:0:0:
194,331,253550,1,2,0:3:0:0:
332,174,253756,5,2,3:2:0:0:
332,174,253858,1,2,3:2:0:0:
332,174,253961,1,2,3:3:0:0:
332,174,254372,5,8,0:2:0:0:
512,0,254578,1,8,0:2:0:0:
450,116,254783,6,0,L|454:155,2,40,8|2|2,0:1|0:3|0:3,0:2:0:0:
297,59,255194,5,0,1:2:0:0:
272,89,255297,1,2,0:3:0:0:
264,129,255400,1,2,0:3:0:0:
276,165,255502,1,2,3:3:0:0:
142,118,255708,5,2,0:3:0:0:
161,146,255811,1,2,3:3:0:0:
190,161,255913,1,2,0:3:0:0:
80,230,256119,5,2,0:3:0:0:
108,235,256222,1,2,0:3:0:0:
134,226,256324,1,2,3:3:0:0:
97,352,256530,5,2,0:3:0:0:
114,339,256633,1,2,3:3:0:0:
123,320,256735,1,2,0:3:0:0:
272,199,256941,5,2,0:3:0:0:
271,180,257044,1,2,0:3:0:0:
276,165,257146,1,2,3:3:0:0:
350,259,257352,5,2,0:3:0:0:
358,249,257455,1,2,3:3:0:0:
369,244,257557,1,2,0:3:0:0:
352,357,257763,5,2,0:3:0:0:
361,357,257866,1,2,0:3:0:0:
370,360,257968,1,2,3:3:0:0:
260,311,258173,5,2,0:3:0:0:
254,314,258276,2,0,B|215:312|215:312|204:296|204:296|208:257|208:257|227:233|227:233|221:202|221:202|191:188,1,180.000006866455,2|0,3:1|0:0,0:0:0:0:
18,15,258482,5,0,1:2:0:0:
17,57,258584,1,2,0:3:0:0:
17,97,258687,1,2,0:3:0:0:
16,139,258789,1,2,3:3:0:0:
109,116,258995,5,2,0:3:0:0:
111,73,259097,1,2,3:3:0:0:
111,32,259200,1,2,0:3:0:0:
203,41,259406,5,2,0:3:0:0:
203,73,259509,1,2,0:3:0:0:
202,107,259611,1,2,3:3:0:0:
291,97,259817,5,2,0:3:0:0:
292,73,259919,1,2,3:3:0:0:
293,48,260022,1,2,0:3:0:0:
382,54,260228,5,2,0:3:0:0:
382,69,260331,1,2,0:3:0:0:
382,84,260433,1,2,3:3:0:0:
472,76,260639,5,2,0:3:0:0:
472,66,260741,1,2,3:3:0:0:
472,56,260844,1,2,0:3:0:0:
434,163,261050,5,2,0:3:0:0:
434,169,261153,1,2,0:3:0:0:
434,175,261255,1,2,3:3:0:0:
435,181,261358,6,2,B|386:168|386:168|322:221|322:221|317:221|317:221|250:277|250:277|207:264,1,270.000010299683,6|0,1:1|3:2,0:2:0:0:
0,282,261769,5,0,1:2:0:0:
3,242,261872,1,2,0:3:0:0:
32,212,261975,1,2,0:3:0:0:
75,202,262078,1,2,3:3:0:0:
168,110,262283,5,2,0:3:0:0:
159,72,262386,1,2,3:3:0:0:
133,47,262489,1,2,0:3:0:0:
300,146,262694,5,2,0:3:0:0:
281,166,262797,1,2,0:3:0:0:
253,172,262900,1,2,3:3:0:0:
180,255,263105,5,2,0:3:0:0:
185,277,263208,1,2,3:3:0:0:
200,292,263311,1,2,0:3:0:0:
324,317,263516,5,2,0:3:0:0:
311,329,263619,1,2,0:3:0:0:
307,347,263722,1,2,3:3:0:0:
435,181,263927,5,2,0:3:0:0:
431,168,264030,1,2,3:3:0:0:
421,159,264133,1,2,0:3:0:0:
512,338,264338,5,2,0:3:0:0:
503,340,264441,1,2,0:3:0:0:
494,338,264544,1,2,3:3:0:0:
404,311,264749,5,2,0:3:0:0:
404,311,264852,2,0,B|434:288|434:288|425:257|425:257|394:269|394:269|400:300,1,135.000005149842,2|0,3:1|0:0,0:0:0:0:
200,292,265057,5,0,1:2:0:0:
233,284,265159,1,2,0:3:0:0:
269,275,265262,1,2,0:3:0:0:
305,268,265365,1,2,3:3:0:0:
227,198,265570,5,2,0:3:0:0:
194,190,265672,1,2,3:3:0:0:
161,182,265775,1,2,0:3:0:0:
202,106,265981,5,2,0:3:0:0:
227,100,266084,1,2,0:3:0:0:
250,94,266186,1,2,3:3:0:0:
219,12,266392,5,2,0:3:0:0:
201,9,266494,1,2,3:3:0:0:
183,7,266597,1,2,0:3:0:0:
17,106,266804,5,2,0:3:0:0:
17,106,266906,2,0,P|12:89|22:102,2,45.0000017166138,2|0|2,0:3|0:0|3:3,0:0:0:0:
37,191,267111,1,0,1:2:0:0:
39,196,267163,1,0,0:0:0:0:
41,201,267214,1,0,0:0:0:0:
43,206,267265,1,0,0:0:0:0:
45,211,267317,2,0,L|57:254,4,45.0000017166138,0|0|0|0|0,3:3|0:3|0:3|0:3|1:3,0:3:0:0:
154,381,267626,5,2,3:2:0:0:
251,381,267728,5,2,3:2:0:0:
174,334,267831,5,2,3:2:0:0:
227,335,267934,5,2,3:2:0:0:
201,289,268071,5,2,3:2:0:0:
369,0,268345,5,0,1:2:0:0:
354,8,268447,1,2,0:3:0:0:
340,18,268550,1,2,0:3:0:0:
328,27,268653,1,2,3:3:0:0:
443,74,268858,5,2,0:3:0:0:
460,86,268961,1,2,3:3:0:0:
475,97,269064,1,2,0:3:0:0:
344,115,269269,5,2,0:3:0:0:
322,126,269372,1,2,0:3:0:0:
302,135,269475,1,2,3:3:0:0:
450,181,269680,5,2,0:3:0:0:
468,198,269783,1,2,3:3:0:0:
485,212,269886,1,2,0:3:0:0:
334,231,270091,5,2,0:3:0:0:
307,241,270194,1,2,0:3:0:0:
283,250,270297,1,2,3:3:0:0:
449,298,270502,5,2,0:3:0:0:
468,320,270605,1,2,3:3:0:0:
487,341,270708,1,2,0:3:0:0:
377,355,270810,6,0,L|332:359,4,45.0000017166138,0|0|0|0|0,1:2|0:2|0:2|0:2|0:2,0:2:0:0:
219,357,271119,1,2,3:2:0:0:
219,357,271221,1,2,1:2:0:0:
219,357,271427,2,0,B|220:317|220:317|197:297|197:297|159:282|159:282|139:273|139:273|128:252|128:252|130:229,1,180.000006866455,2|0,3:1|0:2,0:2:0:0:
168,122,271632,5,0,1:2:0:0:
179,116,271735,1,2,0:3:0:0:
190,106,271838,1,2,0:3:0:0:
197,95,271941,1,2,3:3:0:0:
38,162,272146,5,2,0:3:0:0:
29,148,272249,1,2,3:3:0:0:
26,130,272352,1,2,0:3:0:0:
69,3,272557,5,2,0:3:0:0:
87,0,272660,1,2,0:3:0:0:
108,8,272763,1,2,3:3:0:0:
304,49,272968,5,2,0:3:0:0:
286,65,273071,1,2,3:3:0:0:
274,90,273174,1,2,0:3:0:0:
129,229,273379,5,2,0:3:0:0:
159,239,273482,1,2,0:3:0:0:
187,236,273585,1,2,3:3:0:0:
383,296,273790,5,2,0:3:0:0:
386,255,273893,1,2,3:3:0:0:
370,220,273996,1,2,0:3:0:0:
289,181,274098,6,0,P|271:176|282:190,4,45.0000017166138,0|0|0|0|0,1:2|0:2|0:2|0:2|0:2,0:2:0:0:
508,224,274406,5,2,3:2:0:0:
508,224,274509,2,0,B|461:191|461:191|471:115|471:115|474:111|474:111|482:34|482:34|439:0,1,270.000010299683,6|0,1:1|3:2,0:2:0:0:
123,131,274920,5,0,1:2:0:0:
123,131,274988,5,0,3:2:0:0:
123,131,275057,6,0,B|95:131|95:131|65:111|65:111|56:87,3,80,0|0|0|0,3:2|3:2|3:2|3:2,0:2:0:0:
84,0,275331,5,2,1:2:0:0:
84,0,275742,6,0,P|178:42|241:125,1,210.000002002716,2|2,1:2|0:3,0:2:0:0:
191,202,276050,2,0,P|168:221|160:249,1,60,2|2,1:2|0:3,0:2:0:0:
47,364,276358,2,0,P|59:316|25:279,1,105.000001001358,2|2,1:2|0:3,0:2:0:0:
202,336,276564,2,0,P|306:332|393:275,1,210.000002002716,2|2,1:2|0:3,0:2:0:0:
201,112,276872,1,2,0:3:0:0:
201,112,276975,2,0,P|174:155|191:202,1,105.000001001358,2|2,1:2|0:3,0:2:0:0:
362,88,277180,5,2,0:3:0:0:
362,88,277283,1,2,0:3:0:0:
362,88,277386,2,0,P|415:175|393:275,1,210.000002002716,2|2,1:2|0:3,0:2:0:0:
289,219,277694,2,0,P|283:190|296:163,1,60,2|2,1:2|0:3,0:2:0:0:
201,112,278002,6,0,P|187:95|196:115,2,52.500000500679,2|0|0,1:2|0:2|0:2,1:2:0:0:
57,240,278208,6,0,P|143:301|212:380,1,210.000002002716,2|2,1:2|0:3,0:2:0:0:
310,298,278516,1,2,0:3:0:0:
310,298,278619,2,0,P|284:262|289:218,1,90,2|2,1:2|0:3,0:2:0:0:
449,125,279030,2,0,P|474:221|392:274,1,210.000002002716,2|2,1:2|0:3,0:2:0:0:
355,144,279338,2,0,P|365:117|361:87,1,60,2|2,1:2|0:3,0:2:0:0:
259,28,279646,6,0,B|218:39|218:39|196:27|196:27|160:36,2,105.000001001358,2|0|0,1:1|0:2|1:2,0:2:0:0:
25,182,280057,6,0,B|66:193|66:193|88:181|88:181|123:190,1,105.000001001358,2|0,0:1|0:2,0:2:0:0:
289,219,280263,1,2,1:1:0:0:
226,140,280365,1,2,0:1:0:0:
198,239,280468,1,2,0:1:0:0:
198,239,280571,1,2,3:1:0:0:
198,239,280673,2,0,L|170:340,1,105.000001001358,2|2,1:1|0:3,0:2:0:0:
59,384,280879,2,0,L|87:283,1,105.000001001358,2|2,1:3|0:3,0:2:0:0:
25,182,281084,6,0,L|21:143,2,40,10|2|2,0:1|0:3|0:3,0:2:0:0:
402,374,281495,6,0,B|495:397|500:279|420:273|420:273|339:265|347:171|417:166,1,360,6|0,1:1|3:2,0:2:0:0:
482,97,281906,2,0,L|463:40,1,60,2|0,1:2|0:2,0:2:0:0:
368,30,282112,2,0,L|386:86,1,60,2|0,3:2|0:2,0:2:0:0:
415,166,282317,2,0,L|357:183,1,60,2|0,1:2|0:2,0:2:0:0:
512,201,282523,1,2,0:2:0:0:
512,201,282626,1,2,3:2:0:0:
169,23,282934,5,2,3:2:0:0:
169,23,283036,1,2,0:2:0:0:
169,23,283139,2,0,L|145:78,1,60,2|0,1:2|0:2,0:2:0:0:
186,223,283345,2,0,L|149:175,1,60,2|0,0:2|3:2,0:2:0:0:
2,136,283550,2,0,L|61:128,1,60,2|0,1:2|0:2,0:2:0:0:
293,18,283756,5,2,3:3:0:0:
289,93,283858,5,2,0:3:0:0:
286,167,283961,6,0,L|282:226,1,60,2|0,1:2|0:2,0:2:0:0:
276,303,284167,2,0,L|272:362,1,60,2|0,0:2|3:2,0:2:0:0:
85,376,284372,6,0,B|20:391|17:310|72:306|72:306|123:301|121:226|81:220|50:231,1,270.000010299683,2|0,1:2|0:2,0:2:0:0:
51,231,284783,6,0,P|200:188|115:58,1,360,6|0,1:1|3:2,0:2:0:0:
0,8,285194,2,0,L|59:0,1,60,2|0,1:2|0:2,0:2:0:0:
115,58,285399,2,0,L|174:49,1,60,2|0,3:2|0:2,0:2:0:0:
277,107,285605,2,0,L|285:166,1,60,2|0,1:2|0:2,0:2:0:0:
267,0,285810,1,2,0:2:0:0:
267,0,285913,1,2,3:2:0:0:
452,231,286221,5,2,3:2:0:0:
452,231,286324,1,2,0:2:0:0:
452,231,286427,2,0,L|409:189,1,60,2|0,1:2|0:2,0:2:0:0:
402,344,286632,2,0,L|459:327,1,60,2|0,0:2|3:2,0:2:0:0:
332,240,286838,2,0,L|317:298,1,60,2|0,1:2|0:2,0:2:0:0:
211,364,287043,5,2,3:3:0:0:
139,376,287146,5,2,0:3:0:0:
65,384,287249,6,0,P|53:356|58:327,1,60,2|0,1:2|0:2,0:2:0:0:
21,228,287454,2,0,P|48:216|77:221,1,60,2|0,0:2|3:2,0:2:0:0:
175,133,287660,2,0,P|186:160|181:189,1,60,2|0,1:2|0:2,0:2:0:0:
225,279,287865,2,0,P|197:290|168:285,1,60,2|0,3:2|0:2,0:2:0:0:
100,37,288071,6,0,B|184:-35|268:59|261:82|256:103|316:179|399:122,1,360,6|0,1:1|3:2,0:2:0:0:
487,219,288482,2,0,L|489:160,1,60,2|0,1:2|0:2,0:2:0:0:
492,67,288687,2,0,L|494:8,1,60,2|0,3:2|0:2,0:2:0:0:
402,63,288893,2,0,L|400:122,1,60,2|0,1:2|0:2,0:2:0:0:
398,219,289098,1,2,0:2:0:0:
398,219,289201,1,2,3:2:0:0:
188,133,289509,5,2,3:2:0:0:
188,133,289612,1,2,0:2:0:0:
188,133,289715,2,0,L|188:72,1,60,2|0,1:2|0:2,0:2:0:0:
86,88,289920,2,0,L|33:116,1,60,2|0,0:2|3:2,0:2:0:0:
96,193,290126,2,0,L|147:223,1,60,2|0,1:2|0:2,0:2:0:0:
393,368,290331,5,2,3:3:0:0:
397,292,290434,5,2,0:3:0:0:
398,219,290537,6,0,L|338:212,1,60,2|0,1:2|0:2,0:2:0:0:
347,131,290742,2,0,L|406:137,1,60,2|0,0:2|3:2,0:2:0:0:
337,9,290947,6,0,B|289:-14|261:27|262:36|262:44|242:90|188:72,1,180,2|0,1:2|0:2,0:2:0:0:
188,72,291358,6,0,P|225:186|251:303,1,240,6|2,1:1|0:2,0:2:0:0:
99,379,291667,1,2,3:2:0:0:
15,340,291769,2,0,P|2:312|6:283,1,60,2|0,1:2|0:2,0:2:0:0:
93,233,291975,2,0,P|105:260|101:289,1,60,2|0,3:2|0:2,0:2:0:0:
251,303,292180,6,0,L|309:288,1,60,2|0,1:2|0:2,0:2:0:0:
395,266,292386,1,2,0:2:0:0:
395,266,292489,1,2,3:2:0:0:
157,119,292797,5,2,3:2:0:0:
157,119,292900,1,2,0:2:0:0:
157,119,293003,2,0,L|199:162,1,60,2|0,1:2|0:2,0:2:0:0:
230,11,293208,2,0,L|172:26,1,60,2|0,0:2|3:2,0:2:0:0:
285,127,293413,2,0,L|302:70,1,60,2|0,1:2|0:2,0:2:0:0:
54,24,293619,5,2,3:3:0:0:
26,91,293722,5,2,0:3:0:0:
0,161,293825,6,0,P|3:190|23:212,1,60,2|0,1:2|0:2,0:2:0:0:
37,316,294030,2,0,P|66:313|88:293,1,60,2|0,0:2|3:2,0:2:0:0:
197,276,294235,2,0,P|194:246|174:224,1,60,2|0,1:2|0:2,0:2:0:0:
157,119,294441,2,0,P|127:121|105:141,1,60,2|0,3:2|0:2,0:2:0:0:
98,218,294646,5,2,3:2:0:0:
98,218,294954,1,2,3:2:0:0:
98,218,295263,1,2,3:2:0:0:
393,156,295468,5,2,3:2:0:0:
400,164,295673,1,2,0:3:0:0:
400,164,295776,1,2,3:2:0:0:
400,164,296084,5,2,3:3:0:0:
323,133,296187,5,2,0:3:0:0:
250,107,296290,6,0,B|275:60|386:102|313:195|313:195|267:213|267:213|227:279|277:324,1,360,6|0,1:1|3:2,0:2:0:0:
470,352,296701,5,2,1:2:0:0:
435,280,296804,2,0,P|403:263|366:264,2,75,2|2|2,0:2|3:2|0:2,0:2:0:0:
277,324,297112,2,0,L|240:317,4,37.5,2|0|2|0|2,1:2|0:2|0:2|0:2|0:2,0:2:0:0:
157,369,297420,1,0,3:2:0:0:
157,369,297523,2,0,P|99:361|54:322,1,120,2|0,1:2|3:2,0:2:0:0:
53,321,297934,6,0,P|25:206|48:89,1,240,6|2,1:1|0:2,0:2:0:0:
160,10,298242,1,2,3:2:0:0:
243,29,298345,2,0,P|260:61|259:98,1,75,2|2,1:2|0:2,0:2:0:0:
184,251,298550,2,0,P|203:219|235:201,1,75,2|0,3:2|0:2,0:2:0:0:
336,167,298756,2,0,L|370:181,4,37.5,0|0|2|0|2,1:2|0:2|0:2|0:2|0:2,0:2:0:0:
460,170,299064,1,2,3:2:0:0:
460,170,299167,1,0,1:2:0:0:
368,357,299372,5,2,3:2:0:0:
368,357,299475,1,2,0:2:0:0:
368,357,299578,2,0,L|295:336,1,75,2|0,1:2|0:2,0:2:0:0:
204,337,299783,2,0,L|131:357,1,75,2|0,0:2|3:2,0:2:0:0:
53,321,299989,1,2,1:2:0:0:
2,138,300194,5,2,3:3:0:0:
80,127,300297,5,2,0:3:0:0:
119,194,300399,6,0,L|110:240,4,37.5,2|0|0|0|2,1:2|0:2|0:2|0:2|0:2,0:2:0:0:
275,96,300708,1,0,3:2:0:0:
275,96,300810,2,0,P|270:59|242:35,1,75,2|0,1:2|0:2,0:2:0:0:
165,78,301016,2,0,P|169:114|197:138,1,75,2|0,3:2|0:2,0:2:0:0:
399,242,301221,5,6,1:1:0:0:
399,242,301289,5,0,3:2:0:0:
399,242,301358,6,0,B|399:214|399:214|379:184|379:184|355:175,3,80,0|0|0|0,3:2|3:2|3:2|3:2,0:2:0:0:
272,210,301632,5,2,1:2:0:0:
272,210,302043,6,0,B|194:182|183:247|183:254|183:262|171:312|114:306,1,210.000002002716,2|0,1:2|0:2,0:2:0:0:
0,179,302352,2,0,P|-6:150|1:121,1,60,2|0,1:2|0:2,0:2:0:0:
82,25,302660,5,2,1:2:0:0:
82,25,302763,1,2,0:2:0:0:
82,25,302865,2,0,P|179:42|196:139,1,210.000002002716,2|0,1:2|0:2,0:2:0:0:
386,324,303276,2,0,P|288:306|271:209,1,210.000002002716,2|2,1:2|0:3,0:2:0:0:
413,19,303584,5,2,0:3:0:0:
480,73,303687,6,0,P|511:172|492:284,1,210.000002002716,2|0,1:2|0:2,0:2:0:0:
386,324,303995,2,0,P|378:296|384:267,1,60,2|0,1:2|0:2,0:2:0:0:
178,227,304304,2,0,P|220:198|270:209,1,105.000001001358,2|0,1:2|0:2,0:2:0:0:
60,176,304509,6,0,B|-33:153|-38:271|42:277|42:277|123:285|115:379|45:384,1,360,6|0,1:1|0:2,0:2:0:0:
46,383,304920,2,0,P|33:343|61:310,1,90,2|0,1:2|0:2,0:2:0:0:
178,227,305331,6,0,P|281:247|383:273,1,210.000002002716,2|0,1:2|0:2,0:2:0:0:
512,161,305639,2,0,P|504:190|479:205,1,60,2|0,1:2|0:2,0:2:0:0:
484,69,305947,5,2,1:2:0:0:
484,69,306050,1,2,0:2:0:0:
484,69,306153,2,0,P|380:85|282:123,1,210.000002002716,2|2,1:2|0:2,0:2:0:0:
104,198,306461,1,2,0:2:0:0:
104,198,306564,2,0,P|125:245|121:297,1,105.000001001358,2|0,1:2|0:2,0:2:0:0:
96,20,306769,5,2,0:3:0:0:
172,29,306872,5,2,0:3:0:0:
247,38,306975,6,0,P|285:73|283:124,1,105.000001001358,2|0,1:2|0:2,0:2:0:0:
407,190,307180,6,0,P|371:228|320:226,1,105.000001001358,2|0,1:2|0:2,0:2:0:0:
259,342,307386,6,0,P|220:306|222:255,1,105.000001001358,2|0,1:2|0:2,0:2:0:0:
104,198,307591,6,0,P|139:159|190:161,1,105.000001001358,2|0,1:2|0:2,0:2:0:0:
256,192,307797,5,2,1:2:0:0:
