osu file format v14

[General]
AudioFilename: audio.mp3
AudioLeadIn: 0
PreviewTime: 18032
Countdown: 0
SampleSet: Soft
StackLeniency: 0.3
Mode: 0
LetterboxInBreaks: 0
WidescreenStoryboard: 1

[Editor]
Bookmarks: 1575,4146,7060,18032,39975,42717,53689,64660,70146,87289,92089,114032,127746,129117,135975,157917,168889,179860,190832,201803,207289,219289,223746,245689,267289
DistanceSpacing: 0.2
BeatDivisor: 6
GridSize: 16
TimelineZoom: 2.1

[Metadata]
Title:Deadroid
TitleUnicode:デッドロイド
Artist:teikuru
ArtistUnicode:ていくる
Creator:Heroine
Version:Kazarii's Insane
Source:
Tags:Arc [Arc] Kazarii vocaloid 初音ミク hatsune miku jrock j-rock japanese rock Some Hero Some_Hero
BeatmapID:3609842
BeatmapSetID:1657761

[Difficulty]
HPDrainRate:6
CircleSize:4
OverallDifficulty:8
ApproachRate:8.8
SliderMultiplier:1.4
SliderTickRate:1

[Events]
//Background and Video events
0,0,"rez.jpg",0,0
//Break Periods
//Storyboard Layer 0 (Background)
//Storyboard Layer 1 (Fail)
//Storyboard Layer 2 (Pass)
//Storyboard Layer 3 (Foreground)
//Storyboard Layer 4 (Overlay)
//Storyboard Sound Samples

[TimingPoints]
1575,342.857142857143,4,2,1,70,1,0
2260,-100,4,2,1,80,0,0
4146,-100,4,2,1,70,0,0
7060,-100,4,2,1,40,0,0
12546,-100,4,2,1,50,0,0
16660,-100,4,2,1,50,0,0
17689,-100,4,2,1,50,0,0
18032,-71.4285714285714,4,3,1,60,0,0
22489,-100,4,2,1,60,0,0
22746,-100,4,2,1,60,0,0
23003,-100,4,2,1,60,0,0
23517,-71.4285714285714,4,3,1,60,0,0
27975,-100,4,2,1,60,0,0
28232,-100,4,2,1,60,0,0
28489,-100,4,2,1,60,0,0
29003,-71.4285714285714,4,3,1,70,0,0
39975,-100,4,2,0,50,0,0
42375,-100,4,2,1,50,0,0
42717,-100,4,2,1,50,0,0
42975,-100,4,2,1,50,0,0
43232,-100,4,2,1,50,0,0
45975,-100,4,2,1,50,0,0
46832,-100,4,2,1,50,0,0
52317,-100,4,2,1,50,0,0
52575,-100,4,2,1,50,0,0
52832,-100,4,2,1,50,0,0
53689,-100,4,3,1,55,0,0
54203,-90.9090909090909,4,3,1,55,0,0
57803,-76.9230769230769,4,2,1,55,0,0
59175,-90.9090909090909,4,2,4,55,0,0
59260,-90.9090909090909,4,2,1,55,0,0
59432,-90.9090909090909,4,2,4,55,0,0
59517,-90.9090909090909,4,2,1,55,0,0
60546,-90.9090909090909,4,2,4,55,0,0
60717,-90.9090909090909,4,2,1,55,0,0
60803,-90.9090909090909,4,2,4,55,0,0
60889,-90.9090909090909,4,2,1,55,0,0
61917,-90.9090909090909,4,2,4,55,0,0
62089,-90.9090909090909,4,2,1,55,0,0
62175,-90.9090909090909,4,2,4,55,0,0
62260,-90.9090909090909,4,2,1,55,0,0
63289,-76.9230769230769,4,2,1,55,0,0
63546,-76.9230769230769,4,2,1,55,0,0
63803,-76.9230769230769,4,2,1,55,0,0
64660,-100,4,2,1,40,0,0
68775,-76.9230769230769,4,2,1,60,0,0
69803,-100,4,2,1,50,0,0
70146,-71.4285714285714,4,3,1,70,0,1
70489,-71.4285714285714,4,3,1,70,0,0
71689,-71.4285714285714,4,3,1,70,0,0
72032,-71.4285714285714,4,3,1,70,0,0
80346,-62.5,4,3,1,70,0,1
81117,-71.4285714285714,4,3,1,70,0,0
86603,-71.4285714285714,4,2,1,80,0,1
87117,-71.4285714285714,4,2,1,80,0,1
87289,-71.4285714285714,4,2,1,80,0,1
87546,-71.4285714285714,4,2,1,80,0,1
88660,-71.4285714285714,4,2,1,80,0,1
88917,-71.4285714285714,4,2,1,80,0,1
89346,-71.4285714285714,4,3,1,70,0,0
90717,-100,4,3,1,70,0,0
91403,-100,4,3,1,60,0,0
92089,-100,4,3,1,80,0,0
92432,-71.4285714285714,4,3,2,50,0,0
94832,-71.4285714285714,4,3,2,50,0,0
96889,-100,4,3,2,50,0,0
97232,-100,4,3,2,50,0,0
97575,-71.4285714285714,4,3,2,50,0,0
98260,-100,4,3,2,50,0,0
98946,-83.3333333333333,4,3,2,50,0,0
99632,-100,4,3,2,50,0,0
100317,-71.4285714285714,4,3,2,50,0,0
101175,-100,4,3,2,50,0,0
101689,-83.3333333333333,4,3,2,50,0,0
102717,-100,4,3,2,50,0,0
103060,-100,4,3,2,60,0,0
108546,-100,4,3,2,70,0,0
108889,-125,4,3,2,70,0,0
109232,-111.111111111111,4,3,0,70,0,0
109317,-100,4,3,2,70,0,0
109575,-100,4,3,0,70,0,0
109660,-100,4,3,2,70,0,0
109917,-90.9090909090909,4,3,0,70,0,0
110002,-100,4,3,2,70,0,0
110260,-83.3333333333333,4,3,2,70,0,0
110603,-76.9230769230769,4,3,0,70,0,0
110688,-100,4,3,2,70,0,0
111289,-100,4,3,3,80,0,0
114032,-66.6666666666667,4,2,3,80,0,1
114717,-100,4,2,3,80,0,0
116089,-83.3333333333333,4,2,3,80,0,0
117460,-66.6666666666667,4,2,3,80,0,0
117803,-100,4,2,3,80,0,0
118146,-71.4285714285714,4,2,3,80,0,0
118832,-100,4,2,3,80,0,0
119003,-100,4,2,3,80,0,0
119517,-66.6666666666667,4,2,3,80,0,1
120203,-100,4,2,3,80,0,0
121060,-100,4,2,3,80,0,0
121403,-83.3333333333333,4,2,3,80,0,0
125003,-62.5,4,2,3,80,0,1
125689,-83.3333333333333,4,2,3,80,0,0
127060,-71.4285714285714,4,2,3,80,0,0
130489,-62.5,4,2,3,80,0,1
131175,-71.4285714285714,4,2,3,80,0,0
135975,-76.9230769230769,4,2,3,90,0,1
136660,-125,4,2,3,90,0,1
137346,-83.3333333333333,4,2,3,90,0,1
138717,-76.9230769230769,4,2,3,90,0,1
139403,-125,4,2,3,90,0,1
140089,-100,4,2,3,90,0,1
141117,-66.6666666666667,4,2,3,90,0,1
142146,-125,4,2,3,90,0,1
142832,-83.3333333333333,4,2,3,90,0,1
143517,-100,4,2,3,90,0,1
144203,-71.4285714285714,4,2,3,90,0,1
144889,-125,4,2,3,90,0,1
145917,-100,4,2,3,90,0,1
146946,-71.4285714285714,4,2,3,90,0,1
147632,-125,4,2,3,90,0,1
148317,-100,4,2,3,90,0,1
148660,-100,4,2,3,90,0,1
149003,-100,4,2,3,90,0,1
149346,-100,4,2,3,90,0,1
149689,-71.4285714285714,4,2,3,90,0,1
150375,-125,4,2,3,90,0,1
151060,-100,4,2,3,90,0,1
152432,-71.4285714285714,4,2,3,90,0,1
153117,-125,4,2,3,90,0,1
153803,-83.3333333333333,4,2,3,90,0,1
154489,-100,4,2,3,90,0,1
157575,-100,4,2,0,70,0,0
157917,-100,4,3,1,60,0,0
168889,-100,4,3,1,50,0,0
175403,-100,4,3,1,60,0,0
176089,-100,4,2,1,60,0,0
177117,-83.3333333333333,4,3,1,70,0,1
178489,-100,4,3,1,70,0,0
179860,-71.4285714285714,4,3,1,70,0,1
180203,-71.4285714285714,4,3,1,70,0,0
187575,-71.4285714285714,4,3,0,70,0,0
187917,-71.4285714285714,4,3,1,70,0,0
190060,-62.5,4,3,1,70,0,1
190317,-71.4285714285714,4,3,1,70,0,1
190832,-71.4285714285714,4,3,1,70,0,0
191003,-71.4285714285714,4,3,1,80,0,1
191175,-71.4285714285714,4,3,1,80,0,1
196317,-66.6666666666667,4,2,1,80,0,1
196832,-66.6666666666667,4,2,1,80,0,1
197003,-66.6666666666667,4,2,1,80,0,1
198375,-83.3333333333333,4,2,1,80,0,1
198546,-66.6666666666667,4,2,0,80,0,1
198889,-71.4285714285714,4,2,1,80,0,1
199060,-71.4285714285714,4,3,1,70,0,1
200432,-100,4,3,1,70,0,1
201117,-100,4,3,1,60,0,1
201803,-100,4,2,0,80,0,0
204546,-100,4,2,0,80,0,0
212775,-100,4,2,0,60,0,0
218260,-100,4,3,0,70,0,0
218603,-125,4,3,0,70,0,0
218946,-111.111111111111,4,3,0,70,0,0
219289,-100,4,3,0,70,0,0
219632,-90.9090909090909,4,3,0,70,0,0
219975,-83.3333333333333,4,3,0,70,0,0
220317,-76.9230769230769,4,3,0,70,0,0
220660,-71.4285714285714,4,3,0,70,0,0
221003,-100,4,2,3,80,0,0
223746,-50,4,2,3,80,0,1
224089,-71.4285714285714,4,2,3,80,0,1
224432,-71.4285714285714,4,2,3,80,0,0
226146,-55.5555555555556,4,2,3,80,0,0
227175,-71.4285714285714,4,2,3,80,0,0
228203,-71.4285714285714,4,2,3,80,0,0
228375,-71.4285714285714,4,2,3,80,0,0
228717,-71.4285714285714,4,2,3,80,0,0
229232,-50,4,2,3,80,0,1
229575,-71.4285714285714,4,2,3,80,0,1
229917,-71.4285714285714,4,2,3,80,0,0
230946,-71.4285714285714,4,2,3,80,0,0
231632,-71.4285714285714,4,2,3,80,0,0
231975,-71.4285714285714,4,2,3,80,0,0
232489,-71.4285714285714,4,2,3,80,0,0
234717,-50,4,2,3,80,0,1
235060,-71.4285714285714,4,2,3,80,0,1
235403,-71.4285714285714,4,2,3,80,0,0
237117,-55.5555555555556,4,2,3,80,0,0
238146,-71.4285714285714,4,2,3,80,0,0
240203,-50,4,2,3,80,0,0
240546,-71.4285714285714,4,2,3,80,0,0
240889,-71.4285714285714,4,2,3,80,0,0
242260,-71.4285714285714,4,2,3,80,0,0
242603,-55.5555555555556,4,2,3,80,0,0
242946,-71.4285714285714,4,2,3,80,0,0
245689,-62.5,4,2,3,90,0,1
246375,-111.111111111111,4,2,3,90,0,1
247060,-83.3333333333333,4,2,3,90,0,1
248089,-100,4,2,3,90,0,1
248432,-62.5,4,2,3,90,0,1
249117,-111.111111111111,4,2,3,90,0,1
249803,-83.3333333333333,4,2,3,90,0,1
250832,-100,4,2,3,90,0,1
251175,-62.5,4,2,3,90,0,1
251860,-111.111111111111,4,2,3,90,0,1
252546,-83.3333333333333,4,2,3,90,0,1
253917,-62.5,4,2,3,90,0,1
254603,-100,4,2,3,90,0,1
256660,-62.5,4,2,3,90,0,1
257346,-111.111111111111,4,2,3,90,0,1
258032,-83.3333333333333,4,2,3,90,0,1
258375,-83.3333333333333,4,2,3,90,0,1
259403,-62.5,4,2,3,90,0,1
260089,-111.111111111111,4,2,3,90,0,1
260775,-83.3333333333333,4,2,3,90,0,1
262146,-62.5,4,2,3,90,0,1
262832,-100,4,2,3,90,0,1
267289,-100,4,2,0,70,0,0

[Colours]
Combo1 : 17,254,176
Combo2 : 173,255,95
Combo3 : 255,88,100
Combo4 : 255,94,55

[HitObjects]
87,57,1575,6,6,B|74:107|74:107|122:147,1,105,12|0,1:2|0:2,0:1:0:0:
289,135,1917,2,2,B|251:98|251:98|189:121,1,105,12|0,1:2|0:0,0:1:0:0:
175,205,2260,5,10,0:2:0:0:
181,224,2346,1,2,3:2:0:0:
187,243,2432,1,10,0:2:0:0:
192,260,2517,1,10,0:2:0:0:
196,274,2603,1,10,0:2:0:0:
203,290,2689,1,10,0:2:0:0:
208,306,2775,1,10,0:1:0:0:
208,306,3117,5,2,0:0:0:0:
322,263,3289,1,2,0:0:0:0:
370,369,3460,2,0,B|362:357|362:357|293:340,2,70,2|2|2,0:0|0:0|0:0,0:0:0:0:
0,269,4146,5,4,1:1:0:0:
0,269,7060,5,0,1:0:0:0:
0,269,7403,1,0,1:0:0:0:
0,269,7746,1,0,1:0:0:0:
0,269,8089,1,0,1:0:0:0:
56,207,8432,5,0,1:0:0:0:
56,207,8775,1,0,1:0:0:0:
56,207,9118,1,0,1:0:0:0:
56,207,9461,1,0,1:0:0:0:
15,124,9803,5,0,1:0:0:0:
15,124,10146,1,0,1:0:0:0:
15,124,10489,1,0,1:0:0:0:
15,124,10832,1,0,1:0:0:0:
103,77,11175,5,0,1:0:0:0:
103,77,11518,1,0,1:0:0:0:
103,77,11861,1,0,1:0:0:0:
103,77,12204,1,0,1:0:0:0:
46,19,12375,5,0,3:2:0:0:
46,19,12460,1,0,3:2:0:0:
46,19,12546,1,0,1:2:0:0:
188,81,12803,1,0,3:2:0:0:
188,81,12889,1,0,1:2:0:0:
224,10,13060,1,0,3:2:0:0:
260,130,13232,2,0,P|303:114|339:107,1,70,8|0,0:2|3:2,0:0:0:0:
386,176,13575,2,0,P|427:187|459:201,1,70,0|2,1:2|3:3,0:0:0:0:
492,268,13832,5,0,3:2:0:0:
492,268,13917,2,0,P|473:319|458:374,2,105,0|0|0,1:2|1:2|1:2,0:2:0:0:
452,197,14603,1,8,0:2:0:0:
512,141,14775,1,0,3:2:0:0:
473,68,14946,1,0,1:2:0:0:
473,68,15117,1,2,3:3:0:0:
356,100,15289,6,0,B|339:99|339:99|219:66,1,140,0|2,1:2|1:3,0:2:0:0:
176,5,15803,1,8,0:3:0:0:
243,155,15975,1,8,0:2:0:0:
169,187,16146,1,2,3:3:0:0:
169,187,16232,1,2,0:3:0:0:
169,187,16317,1,2,1:2:0:0:
126,109,16489,1,8,0:3:0:0:
51,146,16660,6,0,P|44:183|35:221,1,70,0|2,1:2|0:3,0:0:0:0:
80,321,17003,1,8,0:3:0:0:
99,315,17089,1,6,0:3:0:0:
118,309,17175,1,6,0:3:0:0:
137,305,17260,2,0,L|181:322,2,35,10|4|0,0:1|0:3|1:2,0:0:0:0:
217,379,17517,1,8,0:2:0:0:
235,373,17603,1,2,0:3:0:0:
252,367,17689,1,2,1:1:0:0:
252,367,18032,5,6,1:2:0:0:
325,179,18203,1,2,0:2:0:0:
370,270,18375,1,10,0:2:0:0:
370,270,18460,1,2,0:2:0:0:
370,270,18546,1,0,0:0:0:0:
237,225,18717,2,0,P|187:202|150:159,1,97.9999970092774,0|0,1:2|0:2,0:0:0:0:
196,104,18975,1,2,0:2:0:0:
196,104,19060,2,0,L|211:0,1,97.9999970092774,10|0,0:2|0:2,0:0:0:0:
79,164,19403,5,2,1:2:0:0:
10,114,19575,1,2,0:2:0:0:
22,250,19746,1,10,0:2:0:0:
22,250,19832,1,2,0:2:0:0:
22,250,19917,2,0,L|79:262,1,48.9999985046387,0|2,0:2|0:1,0:0:0:0:
99,358,20089,2,0,P|136:326|200:321,1,97.9999970092774
260,331,20346,1,2,0:2:0:0:
260,331,20432,2,0,P|205:305|194:235,1,97.9999970092774,10|2,0:2|0:3,0:2:0:0:
354,220,20775,5,2,1:2:0:0:
428,180,20946,1,2,0:2:0:0:
283,150,21117,1,10,0:2:0:0:
283,150,21203,1,2,0:2:0:0:
283,150,21289,2,0,L|224:132,1,48.9999985046387,0|2,0:2|0:1,0:0:0:0:
244,0,21460,2,0,P|275:47|323:78,1,97.9999970092774
379,35,21717,1,2,0:2:0:0:
379,35,21803,2,0,L|477:5,1,97.9999970092774,10|0,0:2|0:2,0:2:0:0:
365,137,22146,5,2,1:2:0:0:
365,137,22317,1,2,0:2:0:0:
169,73,22489,1,14,0:2:0:0:
236,135,22660,1,2,1:2:0:0:
236,135,22746,1,14,0:2:0:0:
79,173,22917,1,2,1:2:0:0:
79,173,23003,1,14,0:2:0:0:
198,210,23175,1,8,0:2:0:0:
203,236,23260,1,10,0:1:0:0:
208,262,23346,1,8,0:2:0:0:
213,288,23432,1,8,0:2:0:0:
218,315,23517,5,6,1:2:0:0:
423,263,23689,1,2,0:2:0:0:
369,356,23860,1,10,0:2:0:0:
369,356,23946,1,2,0:2:0:0:
369,356,24032,1,0,0:2:0:0:
325,217,24203,2,0,P|335:165|356:119,1,97.9999970092774,0|0,1:2|0:0,0:0:0:0:
303,68,24460,1,2,0:2:0:0:
303,68,24546,2,0,P|238:106|181:112,1,97.9999970092774,10|0,0:2|0:0,0:2:0:0:
83,52,24889,5,2,1:2:0:0:
7,14,25060,1,2,0:2:0:0:
66,139,25232,1,10,0:2:0:0:
66,139,25317,1,2,0:2:0:0:
66,139,25403,2,0,L|51:196,1,48.9999985046387,0|2,0:0|0:1,0:0:0:0:
128,277,25575,2,0,P|158:237|145:186,1,97.9999970092774,0|0,1:2|0:2,0:0:0:0:
65,220,25832,1,2,0:2:0:0:
65,220,25917,2,0,P|98:300|111:340,1,97.9999970092774,10|0,0:2|0:0,0:2:0:0:
245,356,26260,5,2,1:2:0:0:
323,317,26432,1,2,0:2:0:0:
430,367,26603,1,10,0:2:0:0:
430,367,26689,1,2,0:2:0:0:
430,367,26775,1,0,0:2:0:0:
323,235,26946,2,0,P|322:188|343:135,1,97.9999970092774,0|0,0:0|0:2,0:0:0:0:
420,136,27203,1,2,0:2:0:0:
420,136,27289,2,0,L|518:91,1,97.9999970092774,10|0,0:2|0:2,0:0:0:0:
287,86,27632,5,2,1:2:0:0:
287,86,27803,1,2,0:2:0:0:
427,237,27975,1,12,0:2:0:0:
420,136,28146,1,0,1:2:0:0:
420,136,28232,1,12,0:2:0:0:
323,235,28403,1,0,1:2:0:0:
323,235,28489,1,6,0:2:0:0:
483,305,28660,1,8,0:2:0:0:
454,279,28746,1,10,0:1:0:0:
418,273,28832,1,8,0:2:0:0:
385,284,28917,1,8,0:2:0:0:
357,307,29003,6,0,L|368:357,1,48.9999985046387,6|0,1:2|0:0,0:0:0:0:
282,376,29175,2,0,L|269:322,1,48.9999985046387,2|2,0:2|0:2,0:0:0:0:
181,301,29346,1,10,0:2:0:0:
181,301,29432,1,0,0:0:0:0:
181,301,29517,1,2,0:2:0:0:
181,301,29603,1,2,0:1:0:0:
181,301,29689,2,0,B|193:280|193:280|210:191,1,97.9999970092774,0|0,1:2|0:2,0:0:0:0:
143,167,29946,1,2,0:2:0:0:
143,167,30032,2,0,L|81:67,1,97.9999970092774,10|2,0:2|0:3,0:0:0:0:
259,45,30375,6,0,L|311:17,1,48.9999985046387,2|0,1:2|0:2,0:2:0:0:
364,69,30546,2,0,L|409:86,1,48.9999985046387,2|2,0:2|0:2,0:0:0:0:
400,161,30717,1,10,0:2:0:0:
417,187,30803,1,2,0:2:0:0:
422,214,30889,1,2,0:3:0:0:
414,243,30975,1,2,0:1:0:0:
393,265,31060,1,0,1:2:0:0:
393,265,31146,2,0,P|365:273|338:278,1,48.9999985046387,2|0,0:2|0:2,0:2:0:0:
341,361,31317,1,2,0:2:0:0:
341,361,31403,2,0,P|393:346|449:352,1,97.9999970092774,10|2,0:2|0:3,0:0:0:0:
211,258,31746,6,0,L|164:245,1,48.9999985046387,2|0,1:2|0:2,0:2:0:0:
88,274,31917,2,0,L|73:320,1,48.9999985046387,2|0,0:2|0:2,0:2:0:0:
29,223,32089,2,0,L|19:164,3,48.9999985046387,10|2|0|2,0:2|0:2|0:0|0:2,0:0:0:0:
86,129,32432,2,0,B|119:89|119:89|105:26,1,97.9999970092774,0|0,1:2|0:2,0:0:0:0:
47,0,32689,1,2,0:2:0:0:
47,0,32775,2,0,P|14:35|23:92,1,97.9999970092774,10|2,0:2|0:3,0:2:0:0:
219,164,33117,6,0,L|266:151,1,48.9999985046387,2|0,1:1|0:2,0:2:0:0:
344,184,33288,2,0,L|359:231,1,48.9999985046387,2|0,0:3|0:0,0:0:0:0:
389,115,33460,2,0,L|372:65,3,48.9999985046387,10|0|2|0,0:2|0:2|0:3|0:0,0:2:0:0:
455,72,33803,1,2,1:2:0:0:
482,66,33889,1,10,0:1:0:0:
507,59,33975,1,0,0:2:0:0:
485,229,34146,1,10,0:1:0:0:
456,203,34232,1,8,0:2:0:0:
421,196,34318,1,8,0:2:0:0:
387,208,34403,1,8,0:2:0:0:
365,232,34489,6,0,L|382:283,1,48.9999985046387,6|0,1:2|0:0,0:0:0:0:
283,351,34660,2,0,L|297:293,1,48.9999985046387,2|0,0:2|0:0,0:0:0:0:
222,277,34832,2,0,L|203:232,3,48.9999985046387,10|2|0|2,0:2|0:2|0:2|0:1,0:0:0:0:
129,255,35175,1,0,0:0:0:0:
129,255,35260,2,0,P|105:250|81:242,1,48.9999985046387,2|0,0:2|0:0,0:0:0:0:
41,316,35432,1,2,0:2:0:0:
41,316,35517,2,0,P|89:324|134:342,1,97.9999970092774,10|2,0:2|0:3,0:0:0:0:
287,221,35860,6,0,L|309:152,1,48.9999985046387,2|0,1:2|0:2,0:2:0:0:
249,117,36032,2,0,L|239:55,1,48.9999985046387,2|2,0:2|0:2,0:0:0:0:
330,34,36203,1,10,0:2:0:0:
330,34,36289,1,2,0:2:0:0:
330,34,36375,1,0,0:0:0:0:
330,34,36460,1,2,0:1:0:0:
330,34,36546,2,0,B|406:57|406:57|429:55,1,97.9999970092774,0|2,0:0|0:2,0:0:0:0:
501,42,36803,1,2,0:2:0:0:
501,42,36889,2,0,P|460:80|469:146,1,97.9999970092774,10|2,0:2|0:3,0:0:0:0:
483,275,37232,6,0,L|434:257,1,48.9999985046387,2|0,1:2|0:2,0:2:0:0:
365,289,37403,2,0,L|347:348,1,48.9999985046387,2|0,0:2|0:2,0:2:0:0:
276,310,37575,2,0,L|295:253,3,48.9999985046387,10|2|0|2,0:2|0:2|0:0|0:2,0:0:0:0:
258,191,37917,2,0,P|205:214|154:226,1,97.9999970092774,0|0,1:2|0:2,0:0:0:0:
118,167,38175,1,2,0:2:0:0:
118,167,38260,2,0,L|23:131,1,97.9999970092774,10|2,0:2|0:3,0:2:0:0:
26,295,38603,6,0,L|44:353,1,48.9999985046387,2|0,1:1|0:2,0:2:0:0:
132,367,38775,2,0,L|114:311,1,48.9999985046387,2|0,0:3|0:0,0:0:0:0:
200,322,38946,1,10,0:2:0:0:
218,315,39032,1,0,0:2:0:0:
236,309,39117,1,2,0:3:0:0:
352,326,39289,1,2,1:2:0:0:
334,332,39374,1,10,0:1:0:0:
316,339,39460,1,0,0:2:0:0:
341,212,39632,1,10,0:1:0:0:
367,236,39717,1,8,0:2:0:0:
399,252,39803,1,8,0:2:0:0:
433,260,39889,1,8,0:2:0:0:
469,255,39975,5,8,1:2:0:0:
504,157,42203,5,2,1:2:0:0:
504,157,42375,1,2,1:2:0:0:
504,157,42717,6,0,L|371:127,1,105,6|0,1:2|1:2,0:2:0:0:
220,210,43232,2,0,L|425:165,1,210,2|8,1:3|0:2,0:2:0:0:
364,217,43917,1,2,0:2:0:0:
406,283,44089,6,0,L|527:310,2,105,2|0|2,1:2|1:2|1:3,0:2:0:0:
357,347,44775,2,0,P|308:350|221:329,1,140,2|8,0:2|0:2,0:2:0:0:
155,285,45289,1,2,0:2:0:0:
68,368,45460,6,0,L|38:250,1,105,2|0,1:2|1:2,0:2:0:0:
121,90,45975,2,0,L|66:304,1,210,2|10,1:3|0:2,0:2:0:0:
16,166,46660,1,0,3:2:0:0:
130,213,46832,6,0,L|244:182,2,105,2|0|2,1:2|1:2|1:1,0:2:0:0:
130,213,47689,1,0,1:2:0:0:
260,263,47860,1,8,0:2:0:0:
185,301,48032,1,0,1:2:0:0:
231,185,48203,6,0,L|266:78,1,105,6|0,1:2|1:2,0:2:0:0:
337,240,48717,2,0,P|299:183|141:127,1,210,2|8,1:3|0:2,0:0:0:0:
98,129,49403,1,2,0:2:0:0:
231,185,49575,6,0,L|263:85,2,105,2|0|2,1:2|1:2|1:3,0:0:0:0:
160,227,50260,2,0,P|192:285|218:364,1,140,2|10,0:2|0:2,0:2:0:0:
288,378,50775,1,2,0:2:0:0:
351,286,50946,6,0,L|458:245,1,105,2|0,1:2|1:2,0:2:0:0:
431,377,51460,2,0,P|404:276|341:192,1,210,2|10,1:3|0:2,0:2:0:0:
263,198,52146,1,0,0:0:0:0:
341,113,52317,6,0,L|357:20,1,70,2|0,1:2|3:2,0:2:0:0:
270,77,52575,2,0,L|232:-9,1,70,2|0,1:1|3:2,0:2:0:0:
186,74,52832,2,0,L|107:21,1,70,2|0,1:3|0:0,0:2:0:0:
33,114,53175,1,0,1:2:0:0:
107,70,53346,1,8,0:2:0:0:
59,0,53517,1,0,1:2:0:0:
88,181,53689,5,6,1:2:0:0:
105,270,53860,1,0,0:2:0:0:
105,270,53946,1,0,1:2:0:0:
105,270,54032,1,8,0:2:0:0:
57,356,54203,2,0,P|101:320|201:276,1,154.000004699707,0|0,1:2|1:2,0:2:0:0:
265,299,54717,1,10,0:2:0:0:
317,358,54889,1,2,0:2:0:0:
395,286,55060,5,2,1:2:0:0:
430,217,55232,1,2,0:2:0:0:
371,165,55403,2,0,P|357:122|344:86,1,77.0000023498536,10|0,0:1|1:2,0:2:0:0:
512,52,55746,2,0,P|485:89|452:99,1,77.0000023498536,2|0,0:2|1:2,0:2:0:0:
407,38,56089,1,8,0:2:0:0:
407,38,56260,1,2,0:2:0:0:
346,92,56432,6,0,P|294:77|228:71,1,115.50000352478,2|0,1:2|1:2,0:2:0:0:
211,93,56775,2,0,L|125:124,1,77.0000023498536,10|0,0:2|1:2,0:0:0:0:
80,72,57117,1,2,0:2:0:0:
80,72,57289,1,0,1:2:0:0:
14,115,57460,1,10,0:2:0:0:
14,115,57546,1,8,0:2:0:0:
14,115,57632,1,0,1:2:0:0:
16,218,57803,6,0,B|49:248|49:248|63:315,1,90.9999958343508,6|0,1:2|0:2,0:2:0:0:
121,350,58060,2,0,B|140:287|140:287|161:262,1,90.9999958343508,14|0,0:1|0:0,0:2:0:0:
216,320,58317,2,0,B|299:308|276:251|260:248|310:206|357:205,1,181.999991668702,6|0,1:2|1:2,0:0:0:0:
423,146,58832,5,8,0:2:0:0:
423,146,58917,1,8,0:2:0:0:
423,146,59003,1,8,0:2:0:0:
423,146,59089,1,8,0:2:0:0:
423,146,59175,6,0,L|501:169,1,77.0000023498536,6|0,1:2|0:2,0:2:0:0:
341,206,59517,1,10,0:2:0:0:
276,156,59689,2,0,P|227:175|127:198,1,154.000004699707,2|0,1:2|1:2,0:0:0:0:
69,145,60203,1,10,0:2:0:0:
69,145,60375,1,2,0:2:0:0:
41,243,60546,5,2,1:2:0:0:
104,303,60717,1,2,0:2:0:0:
104,303,60803,1,2,1:1:0:0:
104,303,60889,1,10,0:2:0:0:
79,376,61060,1,2,1:2:0:0:
176,277,61232,2,0,P|219:263|266:257,1,77.0000023498536,2|0,0:2|1:2,0:2:0:0:
315,306,61575,2,0,B|386:333,1,77.0000023498536,10|2,0:2|0:2,0:0:0:0:
409,242,61917,6,0,P|457:210|506:162,1,115.50000352478,2|2,1:2|1:1,0:2:0:0:
489,147,62260,2,0,L|506:70,1,77.0000023498536,10|0,0:2|1:2,0:2:0:0:
451,14,62603,1,2,0:2:0:0:
380,46,62775,1,0,1:2:0:0:
309,9,62946,1,10,0:2:0:0:
309,9,63032,1,8,0:2:0:0:
309,9,63117,1,2,1:2:0:0:
247,109,63289,6,0,B|232:104|232:104|134:118,1,90.9999958343508,6|0,1:2|0:2,0:2:0:0:
123,40,63546,2,0,B|88:67|88:67|72:145,1,90.9999958343508,14|0,0:1|0:0,0:2:0:0:
5,99,63803,2,0,B|66:124|57:188|29:175|16:232|42:271,1,181.999991668702,6|0,1:2|1:2,0:2:0:0:
118,337,64317,1,8,0:2:0:0:
118,337,64403,1,8,0:2:0:0:
118,337,64489,1,8,0:2:0:0:
118,337,64575,1,8,0:2:0:0:
118,337,64660,6,0,L|165:320,5,35,10|10|10|10|10|10,1:2|0:2|0:2|0:2|0:2|0:2,0:2:0:0:
225,297,65175,2,0,L|272:280,5,35,10|10|10|10|10|2,1:2|0:2|0:2|0:2|0:2|0:2,0:0:0:0:
124,247,65689,2,0,L|145:201,5,35,10|10|10|10|10|10,1:2|0:2|0:2|0:2|0:2|0:2,0:2:0:0:
171,143,66203,2,0,L|192:97,5,35,10|10|10|10|10|0,1:2|0:2|0:2|0:2|0:2|0:0,0:0:0:0:
71,170,66717,1,10,1:2:0:0:
71,170,66803,1,10,0:2:0:0:
71,170,66889,1,10,0:2:0:0:
71,170,66975,1,2,0:2:0:0:
71,170,67060,2,0,L|54:123,3,35,10|10|10|10,1:2|0:2|0:2|0:2,0:2:0:0:
27,64,67403,2,0,L|8:15,5,35,10|0|10|10|10|10,1:2|0:0|0:2|0:2|0:2|0:2,0:2:0:0:
171,143,67917,2,0,L|196:93,5,35,10|10|10|10|10|10,1:2|0:2|0:2|0:2|0:2|0:2,0:2:0:0:
274,87,68432,1,10,1:2:0:0:
274,87,68517,1,10,0:2:0:0:
274,87,68603,1,10,0:2:0:0:
274,87,68689,1,10,0:2:0:0:
274,87,68775,5,10,1:1:0:0:
340,7,68946,2,0,B|338:24|338:24|361:94,1,90.9999958343508,14|0,0:2|1:2,0:0:0:0:
439,100,69203,2,0,L|401:204,1,90.9999958343508,14|2,0:2|1:2,0:0:0:0:
461,235,69460,2,0,P|394:222|394:307,1,136.499993751526,14|2,0:2|0:3,0:0:0:0:
386,295,69803,2,0,P|394:313|411:338,3,35,4|2|2|2,1:2|0:3|0:3|0:3,0:2:0:0:
319,375,70146,6,0,P|296:325|265:279,1,97.9999970092774,6|0,1:2|0:0,0:2:0:0:
67,277,70489,2,0,P|109:301|148:331,1,97.9999970092774,10|2,0:2|0:1,0:2:0:0:
221,216,70832,1,2,1:2:0:0:
162,292,71003,1,0,0:2:0:0:
127,166,71175,1,10,0:2:0:0:
127,166,71346,1,2,0:2:0:0:
257,80,71517,5,2,1:2:0:0:
257,80,71689,2,0,P|315:59|363:52,1,97.9999970092774,2|8,0:2|0:2,0:2:0:0:
505,88,72032,2,0,B|530:42|530:42|510:-5,1,97.9999970092774,2|0,0:1|1:2,0:2:0:0:
421,133,72375,1,2,0:2:0:0:
456,231,72546,1,8,0:2:0:0:
456,231,72717,1,2,0:2:0:0:
335,177,72889,6,0,P|283:196|201:248,1,146.999995513916,0|0,1:2|0:2,0:0:0:0:
205,244,73232,1,8,0:2:0:0:
142,147,73403,2,0,P|81:129|42:111,1,97.9999970092774,2|0,0:2|1:2,0:2:0:0:
88,250,73746,2,0,B|103:264|103:264|125:354,1,97.9999970092774,2|10,0:2|0:2,0:2:0:0:
27,332,74089,1,2,0:2:0:0:
129,354,74260,6,0,L|280:378,2,146.999995513916,0|2|2,1:2|0:2|0:2,0:0:0:0:
211,253,74946,1,2,1:2:0:0:
235,345,75117,1,2,0:2:0:0:
266,183,75289,1,10,0:2:0:0:
127,216,75460,1,2,0:2:0:0:
315,109,75632,6,0,P|367:128|475:153,1,146.999995513916,6|2,1:2|0:2,0:2:0:0:
455,149,75975,1,8,0:2:0:0:
455,149,76146,1,2,0:2:0:0:
403,259,76317,2,0,P|392:202|378:160,1,97.9999970092774,2|0,1:2|0:2,0:0:0:0:
423,63,76660,1,8,0:2:0:0:
423,63,76832,1,2,0:2:0:0:
315,109,77003,5,2,1:2:0:0:
244,66,77175,1,2,0:1:0:0:
163,78,77346,1,10,0:2:0:0:
113,141,77517,1,2,0:2:0:0:
127,280,77689,2,0,P|160:233|176:185,1,97.9999970092774,2|0,1:2|0:2,0:2:0:0:
53,70,78032,2,0,P|82:127|91:174,1,97.9999970092774,10|0,0:2|0:2,0:0:0:0:
259,174,78375,5,2,1:2:0:0:
184,206,78546,1,0,0:2:0:0:
184,206,78632,1,0,0:2:0:0:
184,206,78717,1,10,0:2:0:0:
236,94,78889,1,0,0:2:0:0:
324,222,79060,2,0,P|397:193|499:164,1,146.999995513916,2|2,1:2|0:2,0:2:0:0:
462,172,79403,2,0,P|409:164|362:153,1,97.9999970092774,8|2,0:2|0:1,0:0:0:0:
149,71,79746,5,2,1:2:0:0:
296,21,79917,1,2,0:2:0:0:
236,94,80089,1,8,0:2:0:0:
236,94,80175,2,0,B|239:94|249:140,1,48.9999985046387,2|0,0:2|0:2,0:2:0:0:
334,178,80346,2,0,B|318:192|318:192|293:254|284:346,2,168,14|14|10,0:2|0:2|0:2,0:2:0:0:
506,12,81117,5,6,1:2:0:0:
506,12,81460,1,10,0:2:0:0:
378,55,81632,1,0,0:2:0:0:
452,112,81803,1,2,1:2:0:0:
379,200,81975,1,0,0:2:0:0:
462,235,82146,2,0,B|459:253|459:253|468:353,1,97.9999970092774,10|0,0:2|0:2,0:2:0:0:
305,230,82489,6,0,P|264:197|214:169,1,97.9999970092774,2|2,1:2|0:2,0:0:0:0:
224,174,82746,1,0,0:0:0:0:
224,174,82832,1,8,0:2:0:0:
118,247,83003,2,0,P|70:236|21:233,1,97.9999970092774,2|0,0:1|1:2,0:2:0:0:
163,81,83346,1,2,0:2:0:0:
146,159,83517,1,10,0:2:0:0:
75,79,83689,1,2,0:2:0:0:
237,30,83860,6,0,P|302:6|395:2,1,146.999995513916,0|0,1:2|0:2,0:0:0:0:
379,0,84203,1,8,0:2:0:0:
503,89,84375,1,2,0:2:0:0:
503,89,84546,1,2,1:2:0:0:
503,2,84717,1,2,0:2:0:0:
418,115,84889,2,0,B|427:127|427:127|444:234,1,97.9999970092774,10|2,0:2|0:2,0:0:0:0:
312,340,85232,6,0,B|308:327|308:327|337:179,2,146.999995513916,2|2|2,1:2|0:2|0:2,0:2:0:0:
250,219,85917,1,2,1:2:0:0:
250,219,86089,1,2,0:2:0:0:
399,281,86260,1,10,0:2:0:0:
399,281,86432,1,2,0:3:0:0:
229,352,86603,6,0,B|163:382|163:382|113:296,1,146.999995513916,6|6,1:2|1:2,0:2:0:0:
340,146,87117,1,10,0:2:0:0:
321,227,87289,2,0,B|249:215|249:215|256:116,1,146.999995513916,6|6,1:2|1:2,0:2:0:0:
484,176,87803,5,10,0:2:0:0:
484,176,87889,1,10,0:2:0:0:
484,176,87975,2,0,B|431:126|431:126|492:48,2,146.999995513916,6|4|10,1:2|1:2|0:2,0:0:0:0:
395,204,88660,2,0,B|451:252|451:252|409:312,1,146.999995513916,6|4,1:2|1:2,0:2:0:0:
236,336,89175,5,10,0:2:0:0:
236,336,89260,1,10,0:2:0:0:
236,336,89346,2,0,P|177:316|136:307,1,97.9999970092774,6|0,1:2|0:0,0:0:0:0:
34,259,89689,2,0,P|91:243|139:224,1,97.9999970092774,10|0,0:2|0:2,0:0:0:0:
171,156,90032,1,2,1:2:0:0:
114,33,90203,1,8,0:2:0:0:
82,43,90289,1,8,0:2:0:0:
61,59,90375,1,10,1:2:0:0:
48,83,90460,1,8,0:2:0:0:
44,114,90546,1,8,0:2:0:0:
54,139,90632,1,8,0:1:0:0:
75,160,90717,5,6,1:2:0:0:
489,358,92089,5,4,1:1:0:0:
489,358,92432,2,0,B|484:325|484:325|493:295|493:295|480:221,2,97.9999970092774,8|0|0,0:2|0:0|0:0,0:2:0:0:
400,195,92946,2,0,B|400:176|400:176|434:90,2,97.9999970092774,8|2|2,0:2|0:3|0:3,0:2:0:0:
332,237,93460,1,8,0:1:0:0:
263,188,93632,1,2,0:2:0:0:
263,188,93717,1,0,0:2:0:0:
263,188,93803,1,2,1:2:0:0:
201,238,93975,1,2,0:2:0:0:
129,209,94146,1,6,1:2:0:0:
227,324,94317,5,2,0:3:0:0:
227,324,94489,1,2,0:3:0:0:
227,324,94660,1,2,0:3:0:0:
294,368,94832,6,0,B|303:355|303:355|330:248|330:248|343:232,1,146.999995513916,6|0,1:2|0:2,0:2:0:0:
281,189,95175,2,0,B|262:159|262:159|194:108,2,97.9999970092774,10|0|2,0:2|0:2|0:2,0:0:0:0:
358,114,95689,2,0,B|370:80|370:80|368:-4,2,97.9999970092774,10|2|0,0:2|0:2|0:2,0:2:0:0:
403,179,96203,1,8,0:1:0:0:
479,166,96375,1,2,0:2:0:0:
398,193,96546,1,2,1:2:0:0:
367,260,96717,1,2,0:2:0:0:
390,179,96889,1,4,1:2:0:0:
348,122,97060,5,2,0:3:0:0:
348,122,97232,1,2,0:3:0:0:
348,122,97403,1,2,0:3:0:0:
286,218,97575,6,0,B|275:212|275:212|162:254|162:254|156:268,1,146.999995513916,4|0,1:2|0:2,0:2:0:0:
163,343,97917,2,0,L|175:289,1,48.9999985046387,10|0,0:2|0:0,0:0:0:0:
137,224,98089,1,6,1:2:0:0:
67,246,98260,1,0,0:0:0:0:
67,246,98346,1,0,0:2:0:0:
67,246,98432,1,10,0:2:0:0:
153,149,98603,2,0,L|160:107,3,35,2|8|2|0,0:2|0:2|0:2|0:2,0:0:0:0:
84,92,98946,2,0,B|80:74|80:74|43:2,1,83.9999974365235,10|2,0:1|0:2,0:0:0:0:
234,140,99289,2,0,B|243:124|243:124|268:46,1,83.9999974365235,2|0,1:2|0:0,0:2:0:0:
276,217,99632,1,4,1:2:0:0:
357,187,99803,5,2,0:3:0:0:
357,187,99975,1,2,0:3:0:0:
357,187,100146,1,2,0:3:0:0:
434,269,100317,6,0,B|485:291|485:291|368:273,1,146.999995513916,4|0,1:2|0:2,0:2:0:0:
346,335,100660,2,0,L|288:351,1,48.9999985046387,10|0,0:2|0:2,0:2:0:0:
227,314,100832,1,6,1:2:0:0:
153,368,101003,1,0,0:0:0:0:
153,368,101089,1,0,0:2:0:0:
153,368,101175,1,10,0:2:0:0:
85,288,101346,2,0,L|94:245,2,35,2|8|2,0:2|0:2|0:2,0:0:0:0:
46,187,101689,2,0,B|39:169|39:169|-5:112,1,83.9999974365235,8|2,0:1|0:3,0:0:0:0:
191,182,102032,2,0,B|184:191|184:191|167:288,1,83.9999974365235,2|2,1:3|0:3,0:2:0:0:
260,230,102375,1,4,1:2:0:0:
121,134,102546,5,0,0:0:0:0:
121,134,102717,1,2,0:3:0:0:
121,134,102889,1,2,0:3:0:0:
348,205,103060,5,6,1:2:0:0:
256,192,103146,12,4,107175,1:2:0:0:
33,357,108375,5,2,1:3:0:0:
33,357,108546,2,0,P|56:305|66:269,1,70,4|0,1:2|0:2,0:0:0:0:
21,228,108803,1,0,0:2:0:0:
21,228,108889,2,0,L|-3:161,1,56,8|0,1:2|0:2,0:0:0:0:
75,143,109146,1,0,0:2:0:0:
75,143,109232,2,0,L|98:211,1,62.9999980773926,8|8,1:2|0:1,0:0:0:0:
172,180,109489,1,0,0:2:0:0:
172,180,109575,2,0,L|144:93,1,70,8|2,1:2|0:3,0:0:0:0:
229,71,109832,5,0,0:2:0:0:
229,71,109917,2,0,P|273:51|321:56,1,77.0000023498536,12|0,1:2|0:2,0:0:0:0:
326,131,110175,1,0,0:2:0:0:
326,131,110260,2,0,P|371:147|401:191,1,83.9999974365235,8|0,1:2|0:2,0:0:0:0:
359,247,110517,1,0,0:2:0:0:
359,247,110603,2,0,P|379:291|373:352,1,90.9999958343508,8|0,1:2|0:2,0:0:0:0:
311,362,110860,1,0,0:2:0:0:
311,362,110946,1,8,1:2:0:0:
185,287,111117,1,0,0:2:0:0:
211,370,111289,5,8,0:2:0:0:
287,199,111460,1,0,1:2:0:0:
177,298,111632,5,8,0:2:0:0:
140,132,111803,1,0,1:2:0:0:
93,299,111975,6,0,L|44:284,3,35,8|0|0|0,0:2|1:2|1:2|0:0,0:0:0:0:
5,343,112317,1,8,0:2:0:0:
5,343,112403,1,0,1:2:0:0:
5,343,112489,1,0,1:2:0:0:
5,343,112575,1,0,1:2:0:0:
5,343,112660,5,12,0:2:0:0:
487,245,114032,6,2,B|510:212|510:212|473:96|473:96|386:181|386:181|391:238,1,315.000012016297,4|2,1:1|0:3,0:1:0:0:
340,334,114717,2,0,L|406:313,1,70,8|2,0:2|0:2,0:0:0:0:
310,254,115060,1,2,0:2:0:0:
310,254,115232,1,2,0:2:0:0:
230,295,115403,5,2,1:2:0:0:
230,295,115575,1,2,0:2:0:0:
317,144,115746,1,2,0:2:0:0:
317,144,115917,1,2,0:1:0:0:
212,208,116089,2,2,B|190:214|190:214|76:165|76:165|63:139,1,167.999994873047,10|2,0:2|0:3,0:1:0:0:
50,72,116603,1,2,0:3:0:0:
161,13,116775,5,0,1:2:0:0:
169,12,116860,1,0,3:2:0:0:
177,10,116946,1,0,3:2:0:0:
185,9,117031,1,0,3:2:0:0:
192,7,117117,1,0,3:2:0:0:
200,6,117203,1,0,3:2:0:0:
208,4,117289,1,0,3:2:0:0:
216,3,117374,1,0,3:2:0:0:
224,0,117460,2,2,B|219:21|219:21|242:116,1,105.000004005432,8|0,0:2|0:0,0:1:0:0:
315,131,117803,1,2,0:3:0:0:
315,131,117975,1,2,0:3:0:0:
371,270,118146,6,2,B|366:248|366:248|389:155,1,97.9999970092774,0|0,1:2|0:0,0:1:0:0:
452,75,118489,2,2,B|447:96|447:96|465:170,1,97.9999970092774,0|0,0:2|0:0,0:1:0:0:
293,221,118832,2,0,P|341:202|497:238,1,210,8|0,0:2|0:2,0:0:0:0:
255,331,119517,6,2,B|199:194|199:194|110:292|110:292|148:278,1,315.000012016297,6|0,1:1|0:2,0:1:0:0:
293,221,120203,1,10,0:2:0:0:
293,221,120375,1,2,0:2:0:0:
117,173,120546,1,2,0:2:0:0:
117,173,120717,1,2,0:2:0:0:
189,125,120889,5,0,1:2:0:0:
151,247,121060,1,2,0:1:0:0:
151,247,121403,1,2,0:2:0:0:
124,76,121575,2,2,B|138:87|138:87|282:140,1,167.999994873047,10|0,0:2|0:0,0:1:0:0:
341,93,122089,1,0,0:0:0:0:
421,169,122260,6,0,P|456:143|504:136,1,83.9999974365235,2|2,1:1|0:1,0:2:0:0:
429,321,122775,2,0,P|469:331|498:361,1,83.9999974365235,2|8,0:1|0:2,0:2:0:0:
362,384,123117,2,0,P|344:327|327:288,1,83.9999974365235,2|0,0:1|0:0,0:2:0:0:
277,365,123460,1,2,0:1:0:0:
304,227,123632,5,0,1:2:0:0:
194,188,123803,1,2,0:1:0:0:
240,276,123975,1,2,0:1:0:0:
296,126,124146,1,2,0:1:0:0:
136,78,124317,1,10,0:1:0:0:
200,162,124489,1,2,1:1:0:0:
200,162,124575,1,0,1:2:0:0:
200,162,124660,1,10,0:1:0:0:
247,14,124832,1,2,1:1:0:0:
398,93,125003,6,2,B|416:154|416:154|321:225|321:225|384:314|384:314|380:264,1,336,6|2,1:1|0:3,0:1:0:0:
327,124,125689,2,0,B|289:110|289:110|285:104|285:104|236:83,1,83.9999974365235,8|2,0:2|0:2,0:0:0:0:
141,39,126032,1,2,0:2:0:0:
141,39,126203,1,2,0:2:0:0:
247,14,126375,5,2,1:2:0:0:
247,14,126546,1,2,0:2:0:0:
186,137,126717,1,2,0:2:0:0:
186,137,126889,1,2,0:1:0:0:
264,180,127060,2,2,B|248:171|248:171|90:210|90:210|66:198,1,195.999994018555,10|2,0:1|0:3,0:1:0:0:
18,155,127575,1,2,0:3:0:0:
31,269,127746,5,0,1:2:0:0:
38,272,127831,1,0,3:2:0:0:
46,275,127917,1,0,3:2:0:0:
53,278,128002,1,0,3:2:0:0:
60,281,128088,1,0,3:2:0:0:
67,285,128174,1,0,3:2:0:0:
74,288,128260,1,0,3:2:0:0:
82,291,128345,1,0,3:2:0:0:
90,295,128431,2,2,B|73:309|73:309|39:398,1,97.9999970092774,8|0,0:2|0:0,0:1:0:0:
218,276,128775,2,0,B|201:261|201:261|167:172,1,97.9999970092774,2|2,0:3|0:3,0:2:0:0:
265,106,129117,5,0,1:2:0:0:
337,207,129289,2,2,L|270:194,1,48.9999985046387,2|0,0:3|0:2,0:1:0:0:
269,207,129460,1,0,0:2:0:0:
166,302,129632,2,2,L|214:292,1,48.9999985046387,2|0,0:3|0:2,0:1:0:0:
243,309,129803,2,2,B|351:343|351:343|179:245,1,293.999991027832,10|0,0:2|0:2,0:1:0:0:
177,110,130489,6,2,B|173:68|173:68|271:-7|271:-7|311:110|311:110|238:103,1,336,6|0,1:1|0:0,0:1:0:0:
132,182,131175,2,0,B|120:195|120:195|34:215,1,97.9999970092774,10|2,0:2|0:2,0:2:0:0:
97,114,131517,1,2,0:2:0:0:
214,186,131689,1,2,0:2:0:0:
236,270,131860,5,0,1:2:0:0:
370,208,132032,1,2,0:1:0:0:
335,138,132203,1,2,0:1:0:0:
335,138,132375,1,2,0:1:0:0:
493,216,132546,2,2,B|400:183|400:183|374:332|374:332|408:298,1,293.999991027832,10|0,0:2|0:2,0:1:0:0:
471,125,133232,6,0,P|476:88|446:34,1,97.9999970092774,2|2,1:1|0:1,0:2:0:0:
207,17,133746,2,0,P|251:35|277:75,1,97.9999970092774,2|8,0:1|0:2,0:2:0:0:
149,81,134089,2,0,P|103:104|55:95,1,97.9999970092774,2|0,0:1|0:0,0:2:0:0:
0,46,134432,1,2,0:1:0:0:
131,179,134603,5,0,1:2:0:0:
85,292,134775,1,2,0:1:0:0:
0,267,134946,1,2,0:1:0:0:
65,371,135117,1,2,0:1:0:0:
156,339,135289,1,10,0:1:0:0:
245,377,135460,1,2,1:1:0:0:
245,377,135546,1,0,1:2:0:0:
245,377,135632,1,10,0:1:0:0:
182,254,135803,1,2,1:1:0:0:
384,250,135975,6,2,B|313:209|235:272|295:322|208:370|138:330,1,272.999987503052,4|0,1:1|0:0,1:1:0:0:
43,273,136660,2,2,P|67:324|86:377,1,112,10|0,0:2|0:0,0:1:0:0:
86,377,137175,1,0,0:0:0:0:
182,254,137346,6,2,P|205:210|69:112,1,251.999992309571,2|0,1:2|0:0,0:1:0:0:
77,107,138032,2,0,L|126:130,1,41.9999987182618,8|0,0:2|0:0,0:0:0:0:
187,95,138203,2,0,L|236:79,1,41.9999987182618,2|0,0:3|0:0,0:0:0:0:
237,9,138375,1,2,0:3:0:0:
237,9,138546,1,2,0:3:0:0:
99,4,138717,6,2,P|155:81|177:270,1,272.999987503052,2|0,1:2|0:0,0:1:0:0:
244,351,139403,2,2,P|298:341|311:274,1,112,10|0,0:2|0:0,0:1:0:0:
316,292,139917,1,0,0:2:0:0:
424,289,140089,6,2,P|412:240|364:205,1,105,2|0,1:2|0:0,0:1:0:0:
361,202,140432,2,2,P|419:202|466:172,1,105,2|0,0:3|0:0,0:1:0:0:
440,107,140775,2,0,L|451:50,1,35,8|0,0:2|0:0,0:0:0:0:
358,32,140946,2,0,L|367:65,1,35,2|0,0:3|0:0,0:0:0:0:
312,123,141117,1,2,0:3:0:0:
312,123,141289,1,2,0:3:0:0:
184,90,141460,6,2,B|166:-22|309:-10|320:84|279:143|222:125|231:241,1,315.000012016297,4|0,1:1|0:0,0:1:0:0:
378,280,142146,2,2,P|364:228|313:210,1,112,10|0,0:2|0:0,0:1:0:0:
313,210,142660,1,0,0:0:0:0:
256,321,142832,6,2,P|202:335|131:371,1,125.999996154785,2|0,1:2|0:2,0:1:0:0:
139,366,143175,2,0,L|186:379,1,41.9999987182618,2|0,0:1|0:0,0:0:0:0:
99,303,143346,2,0,L|58:314,1,41.9999987182618,2|0,0:3|0:0,0:0:0:0:
139,238,143517,1,10,0:2:0:0:
139,238,143689,1,2,0:3:0:0:
80,110,143860,1,2,0:3:0:0:
80,110,144032,1,2,0:3:0:0:
216,216,144203,6,2,B|331:188|364:64|215:-5|200:113,1,293.999991027832,2|0,1:2|0:0,0:1:0:0:
332,152,144889,2,2,P|384:167|436:196,1,112,10|0,0:2|0:0,0:1:0:0:
434,194,145403,1,0,0:0:0:0:
493,87,145575,6,2,P|457:95|427:104,1,56,2|0,1:2|0:0,0:1:0:0:
438,100,145917,1,2,0:3:0:0:
377,61,146089,1,2,0:2:0:0:
439,185,146260,1,10,0:2:0:0:
391,299,146432,1,2,1:2:0:0:
391,299,146517,1,0,1:2:0:0:
391,299,146603,1,10,0:2:0:0:
453,201,146775,1,2,1:2:0:0:
490,353,146946,6,2,P|443:305|220:243,1,293.999991027832,4|0,1:1|0:0,0:1:0:0:
80,254,147632,2,2,P|126:241|160:186,1,112,10|0,0:2|0:0,0:1:0:0:
159,189,148146,1,0,0:0:0:0:
93,138,148317,6,2,P|85:96|61:13,1,105,2|0,1:2|0:2,0:1:0:0:
68,35,148660,2,0,L|60:80,1,35,2|0,0:3|0:2,0:2:0:0:
139,82,148832,2,0,L|147:35,1,35,2|0,0:3|0:2,0:2:0:0:
220,24,149003,1,10,0:2:0:0:
220,24,149175,1,0,0:0:0:0:
312,109,149346,1,2,0:3:0:0:
312,109,149517,1,2,0:3:0:0:
467,15,149689,6,2,B|386:38|382:170|457:140|478:233|386:301,1,293.999991027832,2|0,1:2|0:2,0:1:0:0:
370,381,150375,2,2,P|352:335|292:291,1,112,10|0,0:2|0:0,0:1:0:0:
304,295,150889,1,0,0:0:0:0:
226,353,151060,6,2,P|177:342|118:331,1,105,2|0,1:2|0:2,0:1:0:0:
123,331,151403,2,0,L|172:322,1,35,2|0,0:3|0:0,0:0:0:0:
148,248,151575,2,0,L|93:258,1,35,2|0,0:1|0:0,0:0:0:0:
56,205,151746,1,10,0:1:0:0:
157,129,151917,1,2,0:1:0:0:
94,26,152089,1,2,0:1:0:0:
94,26,152260,1,2,0:1:0:0:
49,116,152432,6,2,P|158:148|329:247,1,293.999991027832,4|0,1:1|0:0,0:1:0:0:
482,259,153117,2,2,P|484:210|418:176,1,112,10|2,0:2|0:3,0:1:0:0:
437,175,153632,1,2,0:3:0:0:
393,265,153803,6,0,P|401:295|412:354,1,83.9999974365235,0|2,1:2|0:2,0:0:0:0:
314,235,154146,1,2,0:3:0:0:
314,235,154317,1,2,0:3:0:0:
442,331,154489,1,10,0:2:0:0:
272,380,154660,1,2,1:2:0:0:
272,380,154746,1,0,1:2:0:0:
272,380,154832,1,10,0:2:0:0:
332,331,155003,1,2,1:3:0:0:
363,128,155175,5,14,0:2:0:0:
256,192,155260,12,10,157575,3:1:0:0:
197,262,157917,6,0,P|147:239|106:226,1,70,6|0,1:2|0:0,0:2:0:0:
38,309,158260,2,0,L|85:293,3,35,8|0|0|0,0:2|0:2|0:2|0:2,0:0:0:0:
128,348,158603,1,2,1:2:0:0:
46,202,158860,1,2,1:2:0:0:
201,171,159117,1,10,0:2:0:0:
142,253,159375,5,0,0:2:0:0:
142,253,159460,1,2,1:2:0:0:
108,132,159632,1,10,0:2:0:0:
108,132,159975,2,0,P|125:86|147:12,2,105,0|0|10,1:2|1:2|0:2,0:0:0:0:
41,177,160575,5,8,0:2:0:0:
41,177,160660,1,6,1:2:0:0:
215,104,161003,1,8,0:2:0:0:
215,104,161089,1,8,0:2:0:0:
215,104,161175,1,8,0:2:0:0:
215,104,161260,1,8,0:2:0:0:
215,104,161346,1,8,0:3:0:0:
322,174,161603,1,12,0:3:0:0:
446,106,161860,1,8,0:2:0:0:
348,92,162117,5,0,0:2:0:0:
348,92,162203,1,0,1:2:0:0:
404,201,162375,1,8,0:2:0:0:
404,201,162717,2,0,P|388:253|369:305,2,105,0|0|10,1:2|1:2|0:2,0:2:0:0:
322,174,163317,5,8,0:2:0:0:
322,174,163403,2,0,P|277:166|228:208,1,105,6|2,1:2|0:3,0:0:0:0:
230,228,163746,2,0,L|245:283,3,35,10|2|2|2,0:2|0:3|0:3|0:3,0:2:0:0:
184,315,164089,1,2,1:3:0:0:
184,315,164175,1,2,0:3:0:0:
82,272,164346,1,2,1:3:0:0:
82,272,164432,1,2,0:3:0:0:
41,369,164603,1,10,0:2:0:0:
41,369,164689,1,2,0:3:0:0:
41,369,164946,5,2,1:2:0:0:
15,224,165117,2,0,L|-1:153,1,70,10|0,0:2|0:2,0:2:0:0:
127,178,165460,2,0,P|94:232|77:293,2,105,2|0|10,1:2|1:2|0:2,0:2:0:0:
208,172,166060,5,8,0:2:0:0:
208,172,166146,1,6,1:2:0:0:
320,236,166317,6,0,L|354:244,2,23.3333333333333,8|8|8,0:2|0:2|0:2,0:0:0:0:
384,237,166489,6,0,L|418:216,2,23.3333333333333,10|8|8,0:2|0:2|0:2,0:2:0:0:
442,203,166660,5,8,0:2:0:0:
442,203,166746,1,8,0:2:0:0:
442,203,166832,2,0,L|434:155,2,35,8|8|8,1:3|0:3|0:3,0:0:0:0:
371,122,167089,2,0,L|361:77,2,35,4|4|4,1:3|0:3|0:3,0:2:0:0:
424,37,167346,1,12,0:2:0:0:
424,37,167689,5,2,1:2:0:0:
296,129,167860,1,10,0:2:0:0:
296,129,168203,2,0,P|260:109|212:93,1,70,12|0,0:2|1:2,0:0:0:0:
137,192,168460,2,0,P|178:182|215:178,1,70,12|0,0:2|1:2,0:0:0:0:
252,237,168717,1,12,0:2:0:0:
208,346,168889,6,0,P|123:289|3:258,1,210,2|2,1:2|1:2,0:0:0:0:
77,313,169575,2,0,P|120:298|178:266,1,105,10|0,0:2|0:2,0:2:0:0:
182,247,169917,1,2,0:2:0:0:
197,169,170089,1,2,0:2:0:0:
142,113,170260,5,2,0:2:0:0:
142,113,170603,1,2,0:2:0:0:
197,169,170775,1,2,1:2:0:0:
271,142,170946,2,0,P|311:129|410:123,1,140,8|2,0:2|0:3,0:2:0:0:
512,185,171460,1,8,0:1:0:0:
428,255,171632,6,0,P|425:152|453:27,1,210,0|0,1:2|1:2,0:2:0:0:
471,116,172317,2,0,P|443:150|391:189,1,105,10|0,0:1|0:2,0:2:0:0:
371,186,172660,1,2,0:3:0:0:
292,162,172832,6,0,P|349:200|481:374,1,280,2|0,0:2|1:2,0:2:0:0:
409,324,173689,2,0,P|390:265|396:171,1,140,8|2,0:2|0:2,0:0:0:0:
477,365,174203,1,10,0:2:0:0:
313,275,174375,6,0,P|253:307|98:333,1,210,2|0,1:2|1:2,0:2:0:0:
167,288,175060,2,0,P|208:300|262:333,1,105,10|0,0:2|0:0,0:2:0:0:
270,349,175403,1,2,0:1:0:0:
220,202,175575,5,8,0:3:0:0:
220,202,175660,1,4,0:3:0:0:
220,202,175746,2,0,L|204:157,4,35,8|8|8|8|8,0:2|0:2|0:2|0:2|1:2,0:0:0:0:
89,91,176260,1,8,0:2:0:0:
80,119,176346,1,8,0:2:0:0:
83,151,176432,1,0,1:2:0:0:
97,172,176517,1,8,0:2:0:0:
122,185,176603,1,8,0:2:0:0:
239,97,176775,1,8,0:2:0:0:
239,97,176946,1,8,0:2:0:0:
218,191,177117,5,12,0:2:0:0:
376,207,177346,5,8,0:2:0:0:
159,289,177575,5,8,0:2:0:0:
296,238,177803,5,8,0:2:0:0:
264,356,178032,5,8,0:2:0:0:
162,133,178260,5,8,0:2:0:0:
355,61,178489,6,0,L|346:113,3,35,8|8|8|8,1:2|0:2|0:2|0:2,0:0:0:0:
426,118,178832,2,0,L|438:74,3,35,8|8|8|8,1:2|0:2|0:2|0:2,0:2:0:0:
301,160,179175,6,0,L|314:205,3,35,4|8|8|8,1:2|0:2|0:2|0:2,0:0:0:0:
240,225,179517,2,0,L|226:172,3,35,0|2|2|2,1:2|0:3|0:3|0:3,0:0:0:0:
147,192,179860,6,0,P|97:166|34:155,1,97.9999970092774,6|0,1:1|0:2,0:2:0:0:
213,305,180203,2,0,P|261:269|308:257,1,97.9999970092774,10|0,0:1|0:0,0:2:0:0:
421,309,180546,2,0,P|438:354|398:385,1,97.9999970092774,2|0,1:2|0:2,0:2:0:0:
296,258,180889,2,0,P|279:213|319:182,1,97.9999970092774,10|0,0:2|0:0,0:2:0:0:
469,173,181232,5,2,1:2:0:0:
397,217,181403,1,2,0:2:0:0:
488,265,181575,1,8,0:2:0:0:
512,72,181746,2,0,P|447:94|354:115,1,146.999995513916,2|0,0:1|0:0,0:2:0:0:
370,112,182089,1,2,0:2:0:0:
370,112,182260,1,8,0:2:0:0:
184,47,182432,1,2,0:2:0:0:
262,57,182603,6,0,B|278:123|278:123|261:211,1,146.999995513916,0|0,1:2|0:2,0:0:0:0:
262,200,182946,1,8,0:2:0:0:
180,277,183117,2,0,P|144:234|151:183,1,97.9999970092774,2|0,1:2|0:0,0:2:0:0:
200,127,183460,1,2,0:2:0:0:
200,127,183632,1,10,0:2:0:0:
64,178,183803,1,2,0:2:0:0:
145,194,183975,6,0,B|138:208|138:208|120:341,2,146.999995513916,2|2|2,1:2|0:2|0:2,0:0:0:0:
131,87,184660,1,2,0:2:0:0:
85,24,184832,1,2,0:2:0:0:
12,25,185003,1,10,0:2:0:0:
146,77,185175,1,0,0:0:0:0:
224,22,185346,6,0,B|271:22|304:54|285:69|327:91|371:92,1,146.999995513916,6|2,1:2|0:2,0:2:0:0:
349,89,185689,2,0,B|385:55|385:55|375:0,1,97.9999970092774,10|2,0:2|0:2,0:2:0:0:
267,160,186032,2,0,P|292:215|301:267,1,97.9999970092774,2|2,1:2|0:1,0:0:0:0:
279,329,186375,1,10,0:1:0:0:
217,281,186546,1,2,0:2:0:0:
327,221,186717,5,2,1:2:0:0:
379,164,186889,1,2,0:1:0:0:
456,162,187060,1,10,0:2:0:0:
512,221,187232,1,2,0:2:0:0:
512,221,187403,2,0,P|493:294|485:336,1,97.9999970092774,2|8,1:2|0:1,0:2:0:0:
436,79,187746,1,8,0:1:0:0:
436,79,188089,5,2,1:2:0:0:
503,27,188260,1,0,0:2:0:0:
503,27,188346,1,0,0:0:0:0:
503,27,188432,1,10,0:2:0:0:
456,162,188603,1,0,0:0:0:0:
357,54,188775,2,0,P|302:43|252:39,1,97.9999970092774,2|2,1:2|0:2,0:2:0:0:
146,151,189117,2,0,P|197:131|246:122,1,97.9999970092774,10|2,0:2|0:1,0:2:0:0:
341,235,189460,5,2,1:2:0:0:
264,215,189632,1,2,0:2:0:0:
249,296,189803,1,10,0:2:0:0:
249,296,189889,2,0,L|189:313,1,48.9999985046387,0|2,0:2|0:2,0:0:0:0:
127,384,190060,2,0,B|135:366|135:366|117:278|44:254,2,168,14|14|14,0:2|0:2|0:2,0:2:0:0:
147,144,190832,5,0,0:0:0:0:
47,255,191003,2,0,P|116:244|151:208,1,97.9999970092774,14|2,0:2|1:2,0:2:0:0:
136,227,191260,1,0,1:2:0:0:
136,227,191346,1,10,0:2:0:0:
79,79,191517,2,0,P|69:127|57:174,1,97.9999970092774,2|10,1:2|0:2,0:0:0:0:
0,87,191860,1,2,1:2:0:0:
0,87,191946,1,2,1:2:0:0:
0,87,192032,1,10,0:2:0:0:
101,0,192203,5,2,1:2:0:0:
167,47,192375,2,0,B|181:51|181:51|285:29,1,97.9999970092774,10|2,0:2|1:2,0:0:0:0:
262,33,192632,1,0,1:2:0:0:
262,33,192717,1,10,0:1:0:0:
337,165,192889,2,0,P|302:143|246:125,1,97.9999970092774,0|10,1:2|0:2,0:0:0:0:
409,76,193232,1,0,1:2:0:0:
409,76,193317,1,0,1:2:0:0:
409,76,193403,1,10,0:2:0:0:
501,173,193575,5,0,1:2:0:0:
434,219,193746,2,0,B|430:232|430:232|451:345,1,97.9999970092774,8|0,0:2|1:2,0:0:0:0:
446,315,194003,1,0,1:2:0:0:
446,315,194089,1,10,0:2:0:0:
343,267,194260,1,2,1:2:0:0:
275,327,194432,1,10,0:2:0:0:
172,271,194603,2,0,L|162:217,1,48.9999985046387,2|0,1:2|1:2,0:0:0:0:
98,189,194775,1,10,0:2:0:0:
149,359,194946,6,0,P|196:285|266:231,2,146.999995513916,2|2|10,1:2|0:2|0:2,0:2:0:0:
216,166,195632,1,2,1:2:0:0:
188,94,195803,1,10,0:2:0:0:
120,70,195975,1,2,1:2:0:0:
120,70,196060,1,2,1:2:0:0:
120,70,196146,1,10,0:2:0:0:
288,136,196317,6,0,B|335:141|365:152|365:152|367:113|390:58,1,157.500006008148,6|6,1:2|1:2,0:2:0:0:
303,53,196832,1,10,0:2:0:0:
176,262,197003,6,0,B|214:293|231:322|231:322|250:295|304:258,1,157.500006008148,6|6,1:2|1:2,0:2:0:0:
237,208,197517,2,0,L|202:167,1,52.5000020027161,10|0,0:2|0:0,0:0:0:0:
10,295,197689,6,0,B|18:336|18:373|18:373|61:365|121:364,1,157.500006008148,6|2,1:2|1:2,0:0:0:0:
90,285,198204,1,10,0:2:0:0:
119,169,198375,6,0,P|67:155|-6:104,2,125.999996154785,6|0|10,1:2|3:2|0:2,0:2:0:0:
183,121,198975,5,10,0:2:0:0:
183,121,199060,2,0,P|253:99|302:97,1,97.9999970092774,6|8,1:2|0:2,0:0:0:0:
437,139,199403,1,2,1:2:0:0:
437,139,199489,1,0,1:2:0:0:
437,139,199575,1,10,0:2:0:0:
373,57,199746,2,0,B|359:78|359:78|333:185,1,97.9999970092774,2|8,1:2|0:2,0:2:0:0:
348,155,200003,1,8,0:2:0:0:
348,155,200089,2,0,L|368:228,1,48.9999985046387,10|8,0:1|0:2,0:0:0:0:
322,268,200260,2,0,L|337:329,1,48.9999985046387,8|8,0:2|0:1,0:0:0:0:
288,383,200432,5,6,1:2:0:0:
256,192,200517,12,4,201803,1:1:0:0:
139,277,204032,5,0,0:0:0:0:
139,277,204203,1,0,0:0:0:0:
139,277,204375,1,0,0:0:0:0:
51,316,204546,6,0,B|42:303|42:303|69:192|69:192|61:179,1,140,0|8,1:2|0:2,0:2:0:0:
248,211,206775,5,0,0:0:0:0:
248,211,206946,1,0,0:0:0:0:
248,211,207117,1,0,0:0:0:0:
326,256,207289,6,0,B|334:243|334:243|307:132|307:132|315:119,1,140,0|10,1:2|0:2,0:2:0:0:
357,62,207803,1,0,1:2:0:0:
505,142,209517,5,0,0:0:0:0:
505,142,209689,1,0,0:0:0:0:
505,142,209860,1,0,0:0:0:0:
434,189,210032,6,0,L|266:144,1,140,0|8,1:2|0:2,0:2:0:0:
232,192,210546,1,0,1:2:0:0:
504,349,212775,5,4,1:2:0:0:
256,192,212860,12,2,216889,1:2:0:0:
376,16,218089,5,10,1:2:0:0:
376,16,218260,2,0,L|355:102,1,70,2|0,1:2|0:2,0:0:0:0:
289,110,218517,1,0,0:2:0:0:
289,110,218603,2,0,L|305:173,1,56,8|0,1:2|0:2,0:0:0:0:
234,205,218860,1,0,0:2:0:0:
234,205,218946,2,0,L|216:137,1,62.9999980773926,8|0,1:2|0:2,0:0:0:0:
381,191,219203,1,0,0:2:0:0:
381,191,219289,2,0,L|364:272,1,70,8|0,1:2|0:2,0:0:0:0:
391,384,219546,5,0,0:2:0:0:
391,384,219632,2,0,P|347:354|312:349,1,77.0000023498536,8|0,1:2|0:2,0:0:0:0:
267,293,219889,1,0,0:2:0:0:
267,293,219975,2,0,P|214:298|180:320,1,83.9999974365235,8|0,1:2|0:2,0:0:0:0:
125,238,220232,1,0,0:2:0:0:
125,238,220318,2,0,P|74:220|43:184,1,90.9999958343508,8|0,1:2|0:2,0:0:0:0:
74,44,220575,1,0,0:2:0:0:
74,44,220660,2,0,P|77:92|106:133,1,97.9999970092774,8|0,1:2|0:2,0:0:0:0:
200,132,220917,5,0,0:0:0:0:
200,132,221003,1,8,0:2:0:0:
367,46,221175,1,0,1:2:0:0:
291,174,221346,5,8,0:2:0:0:
207,36,221517,1,0,1:2:0:0:
251,281,221689,5,8,0:2:0:0:
259,254,221775,1,0,1:2:0:0:
275,230,221860,1,0,1:2:0:0:
293,213,221946,1,0,1:2:0:0:
315,201,222032,1,10,0:1:0:0:
342,192,222117,1,8,0:1:0:0:
368,190,222203,1,0,1:2:0:0:
391,193,222289,1,0,1:2:0:0:
414,203,222375,5,8,0:1:0:0:
414,203,223746,6,2,B|427:192|427:192|376:184|376:184|312:281|312:281|272:294,1,210,4|0,1:1|0:0,0:1:0:0:
279,294,224089,2,0,L|232:280,1,48.9999985046387,8|0,0:2|0:0,0:0:0:0:
160,312,224260,1,2,0:3:0:0:
220,377,224432,1,2,0:2:0:0:
177,226,224603,1,2,1:2:0:0:
49,264,224775,2,0,B|32:319|32:319|61:360,1,97.9999970092774,10|2,0:2|0:2,0:2:0:0:
260,274,225117,6,0,B|269:261|269:261|298:146,1,97.9999970092774,2|2,1:2|0:2,0:2:0:0:
199,31,225460,2,0,B|208:43|208:43|225:152,1,97.9999970092774,10|2,0:2|0:1,0:2:0:0:
106,141,225803,1,2,0:3:0:0:
106,141,225975,1,0,1:2:0:0:
289,181,226146,2,0,B|278:201|278:201|212:213|212:213|201:141|201:141|221:125,1,188.999994232178,8|0,0:2|0:0,0:2:0:0:
307,96,226489,5,2,1:1:0:0:
318,99,226575,1,0,3:2:0:0:
329,101,226660,1,0,3:2:0:0:
338,104,226746,1,0,3:2:0:0:
347,106,226832,1,8,3:2:0:0:
358,109,226918,1,0,3:2:0:0:
369,111,227003,1,0,3:2:0:0:
378,114,227089,1,0,3:2:0:0:
389,115,227175,2,2,B|416:70|416:70|415:6,1,97.9999970092774,2|0,0:1|1:2,0:1:0:0:
289,181,227517,2,0,L|302:241,1,48.9999985046387,10|0,0:2|0:2,0:2:0:0:
257,291,227689,1,2,0:3:0:0:
352,361,227860,6,2,P|294:316|203:346,1,146.999995513916,2|0,1:1|0:0,0:1:0:0:
208,352,228203,1,2,1:3:0:0:
126,264,228375,2,2,B|120:277|120:277|102:381,1,97.9999970092774,2|0,0:1|0:0,0:1:0:0:
106,360,228717,1,2,1:3:0:0:
32,255,228889,1,10,0:2:0:0:
200,202,229060,1,0,0:0:0:0:
186,54,229232,6,2,B|89:15|89:15|73:101|73:101|94:86,1,210,6|0,1:2|0:0,0:1:0:0:
96,89,229575,2,0,L|114:185,1,97.9999970092774,8|2,0:2|0:3,0:0:0:0:
256,136,229917,1,2,0:2:0:0:
256,136,230089,1,2,1:2:0:0:
261,277,230260,2,0,P|235:235|199:201,1,97.9999970092774,10|2,0:2|0:2,0:0:0:0:
328,208,230603,5,0,1:2:0:0:
419,211,230775,2,0,L|464:191,1,48.9999985046387,2|0,0:2|0:2,0:2:0:0:
440,118,230946,2,0,B|450:106|450:106|487:10,2,97.9999970092774,10|0|2,0:2|0:0|0:3,0:2:0:0:
376,290,231460,1,0,1:2:0:0:
427,377,231632,1,8,0:2:0:0:
427,377,231717,1,0,0:0:0:0:
427,377,231803,1,0,0:2:0:0:
427,377,231889,1,0,0:0:0:0:
427,377,231975,6,2,P|365:338|281:326,1,146.999995513916,2|0,1:1|0:0,0:1:0:0:
288,339,232317,2,0,P|246:353|226:363,1,48.9999985046387,8|0,0:2|0:0,0:0:0:0:
159,289,232489,2,0,P|114:244|160:178,1,146.999995513916,2|0,0:1|0:0,0:2:0:0:
174,184,232832,1,2,1:1:0:0:
316,163,233003,2,0,P|287:210|241:203,1,97.9999970092774,8|2,0:2|0:1,0:0:0:0:
143,58,233346,5,0,1:2:0:0:
221,99,233517,1,2,0:2:0:0:
83,125,233689,1,10,0:2:0:0:
274,23,233860,1,2,1:2:0:0:
174,184,234032,1,2,0:2:0:0:
186,259,234203,1,2,1:2:0:0:
319,334,234375,1,10,0:1:0:0:
359,162,234546,1,2,1:1:0:0:
278,259,234717,6,2,B|262:263|262:263|372:304|372:304|423:269|423:269|464:258,1,210,4|0,1:1|0:2,0:1:0:0:
451,275,235060,2,0,B|473:252|473:252|480:172,1,97.9999970092774,10|2,0:2|0:3,0:2:0:0:
408,0,235403,1,2,0:2:0:0:
427,114,235575,1,2,1:2:0:0:
356,74,235746,1,10,0:2:0:0:
480,51,235917,1,2,0:3:0:0:
481,186,236089,6,0,B|465:175|465:175|367:156,1,97.9999970092774,2|2,1:2|0:2,0:2:0:0:
260,87,236432,2,0,B|279:90|279:90|376:70,1,97.9999970092774,10|2,0:2|0:1,0:2:0:0:
131,14,236775,2,0,P|169:62|169:104,1,97.9999970092774,2|0,0:1|1:2,0:2:0:0:
143,253,237117,2,0,B|136:272|136:272|63:289|63:289|57:212|57:212|71:200,1,188.999994232178,8|0,0:2|0:2,3:2:0:0:
147,171,237460,5,2,1:1:0:0:
158,174,237546,1,0,3:2:0:0:
169,176,237631,1,0,3:2:0:0:
178,179,237717,1,0,3:2:0:0:
187,181,237803,1,8,3:2:0:0:
198,184,237889,1,0,3:2:0:0:
209,186,237974,1,0,3:2:0:0:
218,189,238060,1,0,3:2:0:0:
229,190,238146,2,0,B|244:210|244:210|274:308,1,97.9999970092774,2|0,0:1|1:2,0:2:0:0:
380,92,238489,2,2,B|378:116|378:116|336:215,1,97.9999970092774,8|0,0:2|0:2,0:1:0:0:
288,97,238832,5,0,1:2:0:0:
447,163,239003,1,2,0:3:0:0:
340,199,239175,2,0,L|355:258,1,48.9999985046387,8|0,0:2|0:0,0:0:0:0:
417,289,239346,1,2,0:3:0:0:
265,298,239517,2,0,L|249:353,1,48.9999985046387,2|0,0:3|0:2,0:2:0:0:
181,375,239689,1,2,1:3:0:0:
96,296,239860,2,0,L|81:245,1,48.9999985046387,10|0,0:1|0:2,0:2:0:0:
10,223,240032,1,2,0:1:0:0:
173,220,240203,6,2,B|182:202|182:202|148:111|148:111|178:52|178:52|176:84,1,210,4|0,1:2|0:0,0:1:0:0:
178,90,240546,2,0,L|132:122,1,48.9999985046387,8|0,0:2|0:0,0:0:0:0:
66,86,240717,1,2,0:3:0:0:
248,139,240889,1,2,0:2:0:0:
248,139,241060,1,2,1:2:0:0:
186,210,241232,1,10,0:2:0:0:
246,21,241403,1,2,0:1:0:0:
350,119,241575,6,0,B|346:130|346:130|366:237,1,97.9999970092774,0|2,1:2|0:2,0:0:0:0:
421,357,241917,2,0,B|428:348|428:348|448:241,1,97.9999970092774,10|2,0:2|0:1,0:0:0:0:
316,313,242260,1,2,0:1:0:0:
250,262,242432,2,0,L|196:286,1,48.9999985046387,0|0,1:2|0:0,0:0:0:0:
272,381,242603,2,0,L|315:190,1,188.999994232178,8|0,0:2|0:2,0:2:0:0:
251,146,242946,6,0,P|236:93|157:25,1,146.999995513916,2|0,1:1|0:0,0:2:0:0:
150,30,243289,1,8,0:2:0:0:
322,87,243460,2,0,P|378:86|429:26,1,97.9999970092774,2|0,0:1|0:0,0:2:0:0:
169,140,243803,1,2,1:1:0:0:
120,202,243975,2,0,P|120:250|136:296,1,97.9999970092774,10|2,0:1|0:1,0:2:0:0:
341,278,244317,5,0,1:2:0:0:
264,247,244489,1,2,0:1:0:0:
399,219,244660,1,10,0:1:0:0:
341,364,244832,1,2,1:1:0:0:
468,284,245003,1,10,0:1:0:0:
390,126,245175,1,2,1:1:0:0:
390,126,245260,1,0,1:2:0:0:
390,126,245346,1,10,0:1:0:0:
512,29,245517,1,2,1:1:0:0:
501,180,245689,6,2,P|417:119|181:48,1,336,4|0,1:1|0:0,0:1:0:0:
73,174,246375,2,2,P|129:174|161:117,1,125.999996154785,10|0,0:2|0:0,0:1:0:0:
160,118,246889,1,0,0:0:0:0:
66,36,247060,6,2,B|54:97|102:162|131:135|181:191|185:271,1,251.999992309571,2|0,1:2|0:0,0:1:0:0:
182,247,247746,2,0,L|191:205,1,41.9999987182618,8|0,0:2|0:0,0:0:0:0:
120,303,247917,2,0,L|103:265,1,41.9999987182618,2|0,0:3|0:0,0:0:0:0:
160,374,248089,1,2,0:3:0:0:
160,374,248260,1,2,0:3:0:0:
256,280,248432,6,2,B|310:227|447:192|513:294|413:401|342:342,1,336,2|0,1:2|0:0,0:1:0:0:
244,190,249117,2,2,P|248:147|311:76,1,125.999996154785,10|0,0:2|0:0,0:1:0:0:
297,83,249632,1,0,0:0:0:0:
168,138,249803,6,0,P|119:116|69:41,1,125.999996154785,2|0,1:1|0:0,0:2:0:0:
79,45,250146,1,2,0:3:0:0:
79,45,250489,2,0,L|144:15,1,41.9999987182618,8|0,0:2|0:0,0:0:0:0:
188,56,250660,2,0,L|245:65,1,41.9999987182618,2|0,0:3|0:0,0:0:0:0:
282,3,250832,1,2,0:3:0:0:
282,3,251003,1,2,0:3:0:0:
383,72,251175,6,2,P|326:149|235:375,1,336,4|0,1:1|0:0,0:1:0:0:
368,348,251860,2,2,P|351:287|285:264,1,125.999996154785,10|0,0:2|0:0,0:1:0:0:
297,263,252375,1,0,3:2:0:0:
209,326,252546,6,2,P|168:336|79:373,1,125.999996154785,2|0,1:3|0:0,0:1:0:0:
90,367,252889,2,0,L|37:342,1,41.9999987182618,2|0,0:1|0:2,0:2:0:0:
46,263,253060,2,0,L|88:282,1,41.9999987182618,2|0,0:1|0:0,0:0:0:0:
146,231,253232,1,10,0:1:0:0:
146,231,253403,1,2,0:3:0:0:
92,129,253575,1,2,0:3:0:0:
92,129,253746,1,2,0:3:0:0:
164,21,253917,6,2,B|255:-11|350:65|241:121|369:206|442:179,1,336,0|0,1:2|0:0,0:1:0:0:
373,54,254603,2,2,P|315:84|277:162,1,140,8|0,0:2|0:0,0:1:0:0:
266,227,255117,1,0,0:0:0:0:
294,312,255289,5,2,1:1:0:0:
294,312,255460,2,0,P|264:254|172:223,1,140,2|2,0:2|0:3,0:2:0:0:
136,275,255975,2,0,L|78:293,1,35,10|0,0:2|0:0,0:0:0:0:
45,239,256146,1,2,1:2:0:0:
45,239,256232,1,2,1:2:0:0:
45,239,256317,1,10,0:2:0:0:
200,325,256489,1,2,1:3:0:0:
68,369,256660,6,2,P|99:295|270:80,1,336,4|0,1:1|0:2,0:1:0:0:
128,0,257346,2,2,P|100:59|136:106,1,125.999996154785,8|0,0:2|0:0,0:1:0:0:
131,103,257860,1,0,0:2:0:0:
241,143,258032,6,2,P|295:122|377:102,1,125.999996154785,0|0,1:2|0:2,0:1:0:0:
360,104,258375,2,0,L|313:84,1,41.9999987182618,2|0,0:3|0:2,0:2:0:0:
449,31,258546,2,0,L|434:74,1,41.9999987182618,2|0,0:3|0:2,0:2:0:0:
432,156,258717,1,8,0:2:0:0:
432,156,258889,1,2,0:3:0:0:
366,14,259060,1,2,0:3:0:0:
366,14,259232,1,2,0:3:0:0:
212,49,259403,6,2,B|238:22|308:21|362:99|324:142|283:187|306:246|358:273|381:272,1,336,0|0,1:2|0:0,0:1:0:0:
480,280,260089,2,2,P|437:277|366:334,1,125.999996154785,8|0,0:2|0:0,0:1:0:0:
371,322,260603,1,0,0:0:0:0:
271,305,260775,6,2,P|290:352|299:390,1,83.9999974365235,2|0,1:2|0:0,0:1:0:0:
327,247,261117,2,0,L|335:201,1,41.9999987182618,2|0,0:2|0:0,0:0:0:0:
262,182,261289,2,0,L|245:135,1,41.9999987182618,2|0,0:2|0:0,0:0:0:0:
302,86,261460,1,8,0:2:0:0:
302,86,261632,1,2,0:3:0:0:
194,229,261803,1,2,0:3:0:0:
194,229,261975,1,2,0:3:0:0:
75,133,262146,6,2,P|170:179|414:218,1,336,4|0,1:1|0:0,0:1:0:0:
499,140,262832,2,0,P|421:164|371:195,1,140,10|0,0:2|0:0,0:0:0:0:
328,260,263346,1,0,0:0:0:0:
330,118,263517,6,0,L|333:28,1,70,2|0,1:2|0:0,0:0:0:0:
332,48,263860,1,2,0:2:0:0:
250,91,264032,1,2,0:2:0:0:
163,17,264203,1,10,0:1:0:0:
265,180,264375,1,0,1:2:0:0:
265,180,264460,1,0,1:2:0:0:
265,180,264546,1,10,0:1:0:0:
199,237,264717,1,2,1:3:0:0:
319,384,264889,5,14,0:2:0:0:
256,192,264975,12,10,267289,0:1:0:0:
