osu file format v14

[General]
AudioFilename: audio.mp3
AudioLeadIn: 0
PreviewTime: 143727
Countdown: 0
SampleSet: Soft
StackLeniency: 0.7
Mode: 0
LetterboxInBreaks: 0
WidescreenStoryboard: 1

[Editor]
DistanceSpacing: 1.8
BeatDivisor: 4
GridSize: 32
TimelineZoom: 2

[Metadata]
Title:Tepic Tepoch
TitleUnicode:Tepic Tepoch
Artist:technoplanet feat. chamo
ArtistUnicode:technoplanet feat. chamo
Creator:Entry
Version:Hard
Source:osu!
Tags:magic たきし takishi s.h japanese electronic pop featured artist fa yugu
BeatmapID:3170163
BeatmapSetID:1551369

[Difficulty]
HPDrainRate:5
CircleSize:3.5
OverallDifficulty:6.5
ApproachRate:8
SliderMultiplier:1.2
SliderTickRate:1

[Events]
//Background and Video events
0,0,"34.jpg",0,0
//Break Periods
2,88563,96340
//Storyboard Layer 0 (Background)
//Storyboard Layer 1 (Fail)
//Storyboard Layer 2 (Pass)
//Storyboard Layer 3 (Foreground)
//Storyboard Layer 4 (Overlay)
//Storyboard Sound Samples

[TimingPoints]
0,272.727272727273,4,2,1,50,1,0
0,-111.111111111111,4,2,1,50,0,0
4363,-111.111111111111,4,2,1,55,0,0
8727,-100,4,2,1,70,0,0
13090,-125,4,2,1,70,0,0
13363,-125,4,2,1,50,0,0
15272,-111.111111111111,4,2,1,60,0,0
17454,-111.111111111111,4,2,1,50,0,0
18545,-125,4,2,1,50,0,0
18818,-125,4,2,1,85,0,0
18954,-90.9090909090909,4,2,1,85,0,1
20727,-90.9090909090909,4,2,1,70,0,1
22909,-90.9090909090909,4,2,1,85,0,1
25090,-100,4,2,1,70,0,0
27272,-90.9090909090909,4,2,1,85,0,1
29454,-90.9090909090909,4,2,1,70,0,1
31636,-100,4,2,1,70,0,1
33818,-90.9090909090909,4,2,1,80,0,1
36000,-111.111111111111,4,2,2,60,0,0
53454,-100,4,2,1,70,0,0
57818,-111.111111111111,4,2,1,60,0,0
61636,-100,4,2,1,75,0,0
62181,-90.9090909090909,4,2,1,85,0,1
64363,-90.9090909090909,4,2,1,70,0,1
66545,-90.9090909090909,4,2,1,85,0,1
68727,-100,4,2,1,70,0,0
70909,-90.9090909090909,4,2,1,85,0,1
73090,-90.9090909090909,4,2,1,70,0,1
75272,-100,4,2,1,85,0,1
79636,-100,4,2,1,70,0,0
84000,-125,4,2,1,70,0,0
84272,-125,4,2,1,50,0,0
86181,-111.111111111111,4,2,1,60,0,0
100772,-111.111111111111,4,2,2,60,0,0
100909,-111.111111111111,4,2,1,60,0,0
102818,-111.111111111111,4,2,2,60,0,0
102954,-111.111111111111,4,2,1,60,0,0
103363,-111.111111111111,4,2,2,60,0,0
103500,-111.111111111111,4,2,1,60,0,0
105818,-90.9090909090909,4,2,1,90,0,1
114545,-100,4,2,1,70,0,0
121090,-100,4,2,1,60,0,0
124363,-100,4,2,2,70,0,0
133090,-100,4,2,2,75,0,0
137454,-111.111111111111,4,2,2,75,0,0
142909,-100,4,2,2,75,0,0
144000,-125,4,2,1,50,0,0
144272,-125,4,2,1,85,0,0
144409,-90.9090909090909,4,2,1,85,0,1
146181,-90.9090909090909,4,2,1,70,0,1
148363,-90.9090909090909,4,2,1,85,0,1
150545,-100,4,2,1,70,0,0
152727,-90.9090909090909,4,2,1,85,0,1
154909,-90.9090909090909,4,2,1,70,0,1
159272,-90.9090909090909,4,2,1,80,0,1
161454,-125,4,2,1,60,0,0
163636,-111.111111111111,4,2,1,60,0,0
164590,-111.111111111111,4,2,1,50,0,0
165818,-90.9090909090909,4,2,1,85,0,1
168000,-100,4,2,1,70,0,0
170181,-90.9090909090909,4,2,1,85,0,1
174545,-100,4,2,1,70,0,0
176727,-90.9090909090909,4,2,1,80,0,0
178909,-90.9090909090909,4,2,1,85,0,1
183272,-100,4,2,1,85,0,1
187090,-90.9090909090909,4,2,1,85,0,1
187636,-125,4,2,1,70,0,0
189272,-125,4,2,1,80,0,0
193090,-100,4,2,1,5,0,0

[Colours]
Combo1 : 164,126,77
Combo2 : 224,78,78
Combo3 : 251,113,116
Combo4 : 200,179,149

[HitObjects]
320,382,0,6,0,P|289:347|229:326,1,107.999996704102,2|2,0:0|0:0,0:0:0:0:
275,205,545,1,2,0:0:0:0:
275,205,681,2,0,P|232:198|167:180,1,107.999996704102,2|2,0:0|0:0,0:0:0:0:
52,126,1227,2,0,P|24:136|4:172,1,53.9999983520508,2|2,0:0|0:0,0:0:0:0:
5,241,1500,2,0,P|30:265|106:286,1,107.999996704102,2|2,0:0|0:0,0:0:0:0:
188,278,1909,1,2,0:0:0:0:
188,278,2045,1,0,0:0:0:0:
205,193,2181,6,0,P|196:174|190:155,4,26.9999991760254,2|0|0|0|0,0:0|0:0|0:0|0:0|0:0,0:0:0:0:
285,160,2590,2,0,P|276:141|270:122,2,26.9999991760254,0|0|2,0:0|0:0|0:0,0:0:0:0:
355,210,2863,2,0,P|381:230|408:240,1,53.9999983520508,2|0,0:0|0:0,0:0:0:0:
484,259,3136,1,2,0:0:0:0:
509,131,3409,2,0,L|493:69,1,53.9999983520508,2|2,0:0|0:0,0:0:0:0:
447,7,3681,2,0,P|390:15|356:62,1,107.999996704102,2|2,0:0|0:0,0:0:0:0:
350,138,4090,2,0,L|389:145,2,26.9999991760254,2|0|0,0:0|0:0|0:0,0:0:0:0:
242,149,4363,6,0,P|214:165|198:191,2,53.9999983520508,2|0|2,1:2|0:0|0:0,0:0:0:0:
280,75,4772,1,2,0:0:0:0:
280,75,4909,2,0,P|265:47|232:23,1,53.9999983520508,2|2,0:0|0:0,0:0:0:0:
121,8,5318,2,0,B|49:23|49:23|32:75,1,107.999996704102,2|2,1:2|0:0,0:0:0:0:
12,141,5727,1,2,0:0:0:0:
12,141,5863,2,0,P|40:180|80:249,1,107.999996704102,2|2,0:0|0:0,0:0:0:0:
105,316,6272,1,2,0:0:0:0:
105,316,6409,1,0,0:0:0:0:
182,279,6545,6,0,P|188:266|193:254,4,26.9999991760254,2|0|0|0|0,1:2|0:0|0:0|0:0|0:0,0:0:0:0:
262,312,6954,2,0,P|268:299|273:287,2,26.9999991760254,0|0|2,0:0|0:0|0:0,0:0:0:0:
320,376,7227,2,0,L|391:359,1,53.9999983520508,2|0,0:0|1:0,0:0:0:0:
456,340,7500,1,2,0:0:0:0:
496,263,7636,2,0,L|483:229,3,26.9999991760254,0|0|0|0,3:0|3:0|3:0|3:0,0:0:0:0:
455,206,7909,2,0,L|419:200,3,26.9999991760254,0|0|0|0,3:0|3:0|3:0|3:0,0:0:0:0:
388,218,8181,2,0,L|365:246,3,26.9999991760254,0|0|0|0,1:0|3:0|3:0|3:0,0:0:0:0:
370,282,8454,1,0,1:0:0:0:
265,202,8727,6,0,B|238:190|238:190|131:169,1,120,6|10,1:2|0:0,0:0:0:0:
67,192,9136,2,0,P|29:154|35:69,1,120,0|2,1:0|1:2,0:0:0:0:
55,14,9545,1,8,0:0:0:0:
55,14,9681,1,0,1:0:0:0:
210,32,9954,6,0,L|275:19,1,60,2|8,1:2|0:0,0:0:0:0:
289,111,10227,1,2,1:2:0:0:
289,111,10295,1,0,1:0:0:0:
289,111,10363,2,0,L|354:123,1,60,0|0,1:0|1:0,0:0:0:0:
421,171,10636,2,0,L|429:210,4,30,10|8|8|8|12,0:0|0:0|0:0|0:0|1:2,0:0:0:0:
427,86,11045,6,0,B|422:65|422:65|480:16|480:16|504:24,5,120,0|8|8|8|8|8,1:0|1:2|1:2|1:2|1:2|1:2,0:0:0:0:
508,107,12545,2,0,P|511:134|512:169,2,60,4|4|4,3:0|3:0|3:0,0:0:0:0:
374,190,13090,6,0,L|280:228,1,96,4|8,1:2|0:0,0:0:0:0:
257,338,13636,2,0,L|151:315,1,96,8|8,0:0|0:0,0:0:0:0:
115,212,14181,2,0,L|25:247,2,96,8|8|8,0:0|0:0|0:0,0:0:0:0:
201,135,15000,2,0,L|194:75,1,48,8|0,0:0|1:0,0:0:0:0:
242,15,15272,6,0,B|277:23|277:23|289:38|289:38|321:46|349:63,2,107.999996704102,2|0|2,1:2|3:0|3:2,0:0:0:0:
155,5,15954,1,2,3:2:0:0:
66,100,16227,2,0,P|40:75|31:5,2,107.999996704102,2|2|2,3:2|3:0|3:0,0:0:0:0:
152,90,16909,1,2,3:0:0:0:
278,118,17181,1,0,3:0:0:0:
331,237,17454,6,0,B|347:276|342:310|342:310|322:338|308:373|308:373|288:308|215:288|164:336,1,323.999990112305,2|2,0:0|0:0,0:0:0:0:
92,379,18409,5,2,0:0:0:0:
92,379,18545,2,0,P|32:356|9:321,1,96,2|14,1:2|0:0,0:0:0:0:
8,229,18954,2,0,L|84:209,1,66.0000020141602,2|0,0:0|0:0,0:0:0:0:
147,142,19227,2,0,L|223:122,1,66.0000020141602,2|8,1:2|0:0,0:0:0:0:
300,74,19500,2,0,B|312:129|312:129|308:150|308:150|318:177|321:205,1,132.00000402832,2|2,0:0|0:0,0:0:0:0:
271,292,19909,1,8,0:0:0:0:
353,369,20045,1,2,1:2:0:0:
353,369,20113,1,0,1:0:0:0:
353,369,20181,2,0,P|384:351|432:342,1,66.0000020141602,0|2,1:0|1:2,0:0:0:0:
509,378,20454,1,8,3:2:0:0:
491,214,20727,6,0,P|443:196|371:146,1,132.00000402832,6|10,1:2|0:0,0:0:0:0:
310,211,21136,2,0,P|277:171|240:92,1,132.00000402832,2|2,0:0|1:2,0:0:0:0:
278,17,21545,1,8,0:0:0:0:
278,17,21681,2,0,P|326:17|349:31,2,66.0000020141602,2|0|2,1:2|1:0|1:2,0:0:0:0:
112,6,22227,2,0,P|91:48|11:98,1,132.00000402832,2|2,1:2|1:2,0:0:0:0:
39,184,22636,2,0,P|68:177|93:166,3,33.0000010070801,2|0|0|0,1:2|1:0|1:0|1:0,0:0:0:0:
102,166,22909,6,0,P|117:229|141:299,1,132.00000402832,6|10,1:2|0:0,0:0:0:0:
198,376,23318,2,0,P|231:348|243:317,1,66.0000020141602,2|0,0:0|0:0,0:0:0:0:
285,236,23590,2,0,P|252:208|240:177,1,66.0000020141602,2|8,1:2|0:0,0:0:0:0:
222,91,23863,1,2,0:0:0:0:
222,91,24000,1,0,1:0:0:0:
149,19,24136,2,0,B|120:19|90:13|90:13|81:7|81:7|51:8|19:2,2,132.00000402832,2|2|2,0:0|1:2|1:2,0:0:0:0:
250,0,24818,1,8,3:2:0:0:
390,69,25090,6,0,B|477:105|477:105|482:117|488:128,1,120,2|0,1:2|0:0,0:0:0:0:
503,218,25500,2,0,P|471:238|478:317,1,120,2|0,1:2|0:0,0:0:0:0:
414,380,25909,2,0,B|394:362|394:362|388:361|388:361|359:332|355:281,1,120,2|8,1:2|0:0,0:0:0:0:
341,193,26318,2,0,P|375:183|407:169,2,60,2|8|8,1:2|0:0|0:0,0:0:0:0:
276,129,26727,2,0,P|226:115|137:98,1,120,10|10,1:2|1:2,0:0:0:0:
93,38,27136,1,2,0:0:0:0:
64,149,27272,6,0,B|21:159|22:205|22:205|47:264,1,132.00000402832,6|10,1:2|0:0,0:0:0:0:
60,359,27681,2,0,P|103:348|132:326,1,66.0000020141602,2|0,0:0|0:0,0:0:0:0:
181,253,27954,2,0,P|214:270|233:301,1,66.0000020141602,2|8,1:2|0:0,0:0:0:0:
298,370,28227,2,0,B|330:385|365:380|365:380|386:353|422:345,1,132.00000402832,2|2,0:0|0:0,0:0:0:0:
511,304,28636,1,8,0:0:0:0:
466,213,28772,1,2,1:2:0:0:
466,213,28840,1,0,1:0:0:0:
466,213,28909,2,0,P|469:172|476:133,1,66.0000020141602,0|0,1:0|1:0,0:0:0:0:
493,47,29181,1,8,3:2:0:0:
334,4,29454,6,0,B|325:40|325:40|232:94,1,132.00000402832,6|10,1:2|0:0,0:0:0:0:
154,75,29863,2,0,P|108:27|36:29,1,132.00000402832,2|2,0:0|1:2,0:0:0:0:
10,109,30272,1,8,0:0:0:0:
10,109,30409,2,0,L|23:191,1,66.0000020141602,2|0,1:2|1:0,0:0:0:0:
78,242,30681,2,0,L|160:229,1,66.0000020141602,2|8,1:2|0:0,0:0:0:0:
214,177,30954,2,0,B|250:160|250:160|283:203|270:258,1,132.00000402832,2|2,1:2|1:2,0:0:0:0:
211,312,31363,2,0,L|223:359,3,33.0000010070801,2|0|2|0,1:2|1:0|1:2|1:0,0:0:0:0:
227,373,31636,6,0,B|285:379|336:349|336:349|352:355|352:355|373:352|399:341,1,180,6|0,1:2|0:0,0:0:0:0:
507,236,32318,2,0,B|502:213|502:213|398:185,1,120,2|2,1:2|1:2,0:0:0:0:
320,168,32727,2,0,L|313:124,7,30,0|0|0|0|0|0|0|0,1:0|0:0|3:0|3:0|3:0|3:0|3:0|3:0,0:0:0:0:
297,113,33272,2,0,L|301:68,7,30,2|0|0|0|0|0|0|0,3:2|3:0|3:0|3:0|3:0|3:0|3:0|3:0,0:0:0:0:
306,50,33818,6,0,B|365:20|365:20|451:42|451:42|445:63|444:84,2,198.000006042481,2|2|2,1:2|1:2|1:2,0:0:0:0:
145,89,34909,1,10,0:0:0:0:
145,89,35045,2,0,P|117:128|108:214,1,132.00000402832,0|0,1:0|1:0,0:0:0:0:
143,292,35454,1,10,1:2:0:0:
285,376,35727,1,2,3:2:0:0:
436,288,36000,6,0,P|418:254|345:208,1,107.999996704102,6|10,1:2|0:0,0:0:0:0:
278,195,36409,1,2,0:0:0:0:
206,243,36545,1,0,1:0:0:0:
206,243,36681,2,0,P|192:276|166:301,1,53.9999983520508,2|8,1:2|0:0,0:0:0:0:
119,351,36954,2,0,B|151:376|151:376|188:375|224:385,2,107.999996704102,2|2|2,1:2|1:2|0:0,0:0:0:0:
58,289,37636,1,0,1:0:0:0:
58,289,37772,2,0,P|32:282|2:278,2,53.9999983520508,2|10|2,1:2|0:0|0:0,0:0:0:0:
118,227,38181,6,0,B|110:147|110:147|79:112,1,107.999996704102,2|10,1:2|0:0,0:0:0:0:
12,91,38590,2,0,P|14:65|23:37,1,53.9999983520508,2|0,0:0|1:0,0:0:0:0:
103,6,38863,2,0,P|117:30|135:52,1,53.9999983520508,2|8,1:2|0:0,0:0:0:0:
190,115,39136,2,0,P|244:90|285:42,1,107.999996704102,2|2,1:2|1:2,0:0:0:0:
351,8,39545,1,8,0:0:0:0:
351,8,39681,2,0,L|413:20,1,53.9999983520508,2|0,0:0|1:0,0:0:0:0:
452,90,39954,2,0,L|505:79,2,53.9999983520508,2|10|2,1:2|0:0|0:0,0:0:0:0:
353,134,40363,6,0,B|336:182|336:182|334:210|340:241,1,107.999996704102,4|10,1:2|0:0,0:0:0:0:
369,320,40772,1,2,0:0:0:0:
303,375,40909,1,0,1:0:0:0:
303,375,41045,2,0,P|274:368|244:355,1,53.9999983520508,2|8,1:2|0:0,0:0:0:0:
181,308,41318,2,0,P|135:327|113:389,2,107.999996704102,2|2|2,1:2|1:2|0:0,0:0:0:0:
242,246,42000,1,0,1:0:0:0:
242,246,42136,2,0,L|250:180,2,53.9999983520508,2|10|2,1:2|0:0|0:0,0:0:0:0:
157,225,42545,6,0,L|171:104,1,107.999996704102,2|10,1:2|0:0,0:0:0:0:
156,32,42954,2,0,P|120:31|87:45,1,53.9999983520508,2|0,0:0|1:0,0:0:0:0:
32,86,43227,2,0,P|31:122|45:155,1,53.9999983520508,2|8,1:2|0:0,0:0:0:0:
72,217,43500,1,2,1:2:0:0:
25,337,43772,6,0,L|82:322,1,53.9999983520508,2|8,1:2|0:0,0:0:0:0:
143,267,44045,2,0,L|268:234,1,107.999996704102,2|8,1:2|0:0,0:0:0:0:
336,259,44454,1,8,0:0:0:0:
336,259,44590,1,8,0:0:0:0:
428,315,44727,6,0,P|479:285|497:222,1,107.999996704102,6|10,1:2|0:0,0:0:0:0:
486,155,45136,1,2,0:0:0:0:
417,102,45272,1,0,1:0:0:0:
417,102,45409,2,0,L|422:27,1,53.9999983520508,2|8,1:2|0:0,0:0:0:0:
336,28,45681,2,0,P|282:18|218:0,2,107.999996704102,2|2|2,1:2|1:2|0:0,0:0:0:0:
328,117,46363,1,0,1:0:0:0:
328,117,46500,2,0,L|324:170,2,53.9999983520508,2|10|2,1:2|0:0|0:0,0:0:0:0:
243,95,46909,6,0,P|224:145|212:218,1,107.999996704102,2|10,1:2|0:0,0:0:0:0:
263,269,47318,2,0,P|252:299|226:323,1,53.9999983520508,2|0,0:0|1:0,0:0:0:0:
180,379,47590,2,0,P|148:384|114:373,1,53.9999983520508,2|8,1:2|0:0,0:0:0:0:
55,331,47863,2,0,B|25:323|16:298|16:298|20:268|42:251,1,107.999996704102,2|2,1:2|1:2,0:0:0:0:
116,205,48272,1,8,0:0:0:0:
116,205,48409,2,0,P|134:228|145:262,2,53.9999983520508,2|0|0,0:0|1:0|1:0,0:0:0:0:
43,157,48818,2,0,P|21:131|13:102,1,53.9999983520508,10|0,0:0|0:0,0:0:0:0:
59,14,49090,6,0,P|111:10|163:63,1,107.999996704102,6|10,1:2|0:0,0:0:0:0:
202,114,49500,2,0,P|240:106|263:88,1,53.9999983520508,2|0,0:0|1:0,0:0:0:0:
324,51,49772,2,0,P|350:54|374:66,1,53.9999983520508,2|8,1:2|0:0,0:0:0:0:
457,92,50045,2,0,P|474:150|491:196,1,107.999996704102,2|2,1:2|1:2,0:0:0:0:
479,284,50454,1,8,0:0:0:0:
479,284,50590,2,0,P|453:302|437:331,1,53.9999983520508,2|0,0:0|1:0,0:0:0:0:
354,332,50863,2,0,P|354:356|345:385,2,53.9999983520508,2|10|2,1:2|0:0|0:0,0:0:0:0:
330,248,51272,6,0,B|305:240|305:240|258:213|258:213|230:204,1,107.999996704102,2|6,1:2|1:2,0:0:0:0:
150,179,51681,1,2,0:0:0:0:
186,102,51818,1,4,1:2:0:0:
186,102,51954,1,2,0:0:0:0:
289,23,52227,6,0,P|334:9|411:21,2,107.999996704102,2|2|2,1:2|1:2|0:0,0:0:0:0:
271,108,52909,2,0,P|292:137|322:154,1,53.9999983520508,0|0,1:0|1:0,0:0:0:0:
385,181,53181,1,4,3:0:0:0:
475,277,53454,6,0,P|451:332|389:363,1,120,6|0,1:2|1:0,0:0:0:0:
273,381,54000,1,2,1:2:0:0:
273,381,54136,1,2,1:2:0:0:
201,270,54409,6,0,P|162:223|106:186,1,120,2|2,1:2|1:2,0:0:0:0:
36,164,54818,1,2,1:2:0:0:
18,294,55090,1,2,1:2:0:0:
18,294,55227,2,0,P|20:330|35:358,1,60,2|0,1:2|1:0,0:0:0:0:
106,380,55500,6,0,P|137:338|209:305,1,120,2|2,1:2|1:2,0:0:0:0:
273,282,55909,2,0,P|297:252|305:212,1,60,2|2,1:2|0:0,0:0:0:0:
351,165,56181,1,2,1:2:0:0:
351,165,56318,2,0,P|346:126|324:92,1,60,2|0,1:2|0:0,0:0:0:0:
269,63,56590,2,0,B|271:33|245:10|245:10|212:18|198:48,1,120,2|2,1:2|0:0,0:0:0:0:
175,123,57000,2,0,L|111:141,1,60,4|0,3:0|3:0,0:0:0:0:
81,211,57272,2,0,P|104:243|134:262,1,60,0|0,1:0|0:0,0:0:0:0:
195,286,57545,1,2,1:2:0:0:
362,275,57818,6,0,P|351:328|342:391,2,107.999996704102,6|10|10,1:2|0:0|0:0,0:0:0:0:
480,55,58772,1,2,0:0:0:0:
480,55,58909,2,0,P|440:26|361:20,1,107.999996704102,10|10,0:0|0:0,0:0:0:0:
254,126,59454,2,0,P|294:155|373:161,1,107.999996704102,10|10,0:0|0:0,0:0:0:0:
267,18,60000,6,0,B|215:-1|167:29|167:29|140:17|109:22,1,161.999995056153,2|2,3:2|3:2,0:0:0:0:
25,258,60818,2,0,B|74:245|106:275|106:275|106:279|106:279|124:311|163:329,1,161.999995056153,2|2,3:2|3:0,0:0:0:0:
436,342,61636,2,0,P|474:355|506:384,2,60,2|2|2,1:2|1:2|1:2,0:0:0:0:
350,372,62045,1,2,0:0:0:0:
268,290,62181,6,0,P|256:237|328:187,1,132.00000402832,6|8,1:2|0:0,0:0:0:0:
410,194,62590,2,0,P|449:186|482:165,1,66.0000020141602,2|0,0:0|0:0,0:0:0:0:
503,75,62863,2,0,P|473:60|441:54,1,66.0000020141602,2|8,1:2|0:0,0:0:0:0:
350,5,63136,2,0,B|348:47|334:88|334:88|308:83|280:90,1,132.00000402832,2|2,0:0|0:0,0:0:0:0:
193,131,63545,1,8,0:0:0:0:
142,222,63681,1,2,1:2:0:0:
142,222,63750,1,0,1:0:0:0:
142,222,63818,2,0,P|150:255|156:306,1,66.0000020141602,0|2,1:0|1:2,0:0:0:0:
120,382,64090,1,8,3:2:0:0:
14,255,64363,6,0,L|26:117,1,132.00000402832,6|10,1:2|0:0,0:0:0:0:
114,131,64772,2,0,L|126:-7,1,132.00000402832,2|2,0:0|1:2,0:0:0:0:
215,27,65181,1,8,0:0:0:0:
215,27,65318,2,0,P|241:47|276:57,1,66.0000020141602,2|0,1:2|1:0,0:0:0:0:
359,75,65590,2,0,P|372:37|397:2,1,66.0000020141602,2|8,1:2|0:0,0:0:0:0:
474,2,65863,2,0,B|481:40|499:78|499:78|491:96|481:131,1,132.00000402832,2|2,1:2|1:2,0:0:0:0:
461,214,66272,2,0,L|493:253,3,33.0000010070801,2|0|0|0,1:2|1:0|1:0|1:0,0:0:0:0:
500,267,66545,6,0,P|488:319|414:360,1,132.00000402832,6|10,1:2|0:0,0:0:0:0:
324,382,66954,2,0,P|318:338|300:299,1,66.0000020141602,2|0,0:0|0:0,0:0:0:0:
352,224,67227,2,0,P|316:197|276:182,1,66.0000020141602,2|8,1:2|0:0,0:0:0:0:
207,138,67500,2,0,B|156:148|156:148|139:160|139:160|80:174,1,132.00000402832,2|2,0:0|0:0,0:0:0:0:
13,251,67909,1,8,0:0:0:0:
13,251,68045,2,0,B|21:301|71:316|71:316|91:304|113:296,1,132.00000402832,2|2,1:2|1:2,0:0:0:0:
175,374,68454,1,8,3:2:0:0:
270,250,68727,6,0,B|288:228|311:213|311:213|350:204|377:188,1,120,2|0,1:2|0:0,0:0:0:0:
446,140,69136,2,0,P|443:89|390:22,1,120,2|0,1:2|0:0,0:0:0:0:
319,5,69545,2,0,B|308:38|308:38|312:42|312:42|303:68|303:68|306:96|292:125,1,120,2|8,1:2|0:0,0:0:0:0:
212,156,69954,2,0,P|202:122|187:90,2,60,2|8|8,1:2|0:0|0:0,0:0:0:0:
161,231,70363,2,0,B|194:270|194:270|194:303|173:336,1,120,10|10,1:2|1:2,0:0:0:0:
97,382,70772,1,2,0:0:0:0:
21,293,70909,6,0,P|25:233|39:137,1,132.00000402832,6|10,1:2|0:0,0:0:0:0:
8,62,71318,2,0,P|46:49|75:30,1,66.0000020141602,2|0,0:0|0:0,0:0:0:0:
166,9,71590,2,0,P|164:42|156:88,1,66.0000020141602,2|8,1:2|0:0,0:0:0:0:
146,179,71863,1,2,0:0:0:0:
146,179,72000,1,0,1:0:0:0:
203,262,72136,2,0,P|221:320|260:384,2,132.00000402832,2|2|2,0:0|1:2|1:2,0:0:0:0:
247,169,72818,1,8,3:2:0:0:
404,121,73090,6,0,B|481:96|481:96|497:72|483:42,1,132.00000402832,6|10,1:2|0:0,0:0:0:0:
404,7,73500,2,0,P|347:21|321:96,1,132.00000402832,2|2,0:0|1:2,0:0:0:0:
266,156,73909,1,8,0:0:0:0:
266,156,74045,2,0,P|236:134|206:105,2,66.0000020141602,2|0|2,1:2|1:0|1:2,0:0:0:0:
421,212,74590,2,0,B|463:228|494:254|494:254|474:268|457:294,1,132.00000402832,2|2,1:2|1:2,0:0:0:0:
443,369,75000,2,0,P|423:370|399:376,3,33.0000010070801,2|0|0|0,1:2|1:0|1:0|1:0,0:0:0:0:
380,378,75272,6,0,L|256:350,1,120,6|10,1:2|0:0,0:0:0:0:
174,370,75681,2,0,P|121:377|58:342,1,120,2|2,0:0|1:2,0:0:0:0:
125,210,76227,2,0,L|259:177,2,120,2|2|2,0:0|3:2|0:0,0:0:0:0:
49,257,76909,1,0,1:0:0:0:
49,257,77045,2,0,P|21:223|14:192,1,60,2|8,1:2|0:0,0:0:0:0:
54,56,77454,6,0,B|59:37|79:25|79:25|87:63|108:99,1,120,2|0,1:2|0:0,0:0:0:0:
174,158,77863,2,0,P|165:213|158:282,1,120,2|0,1:2|0:0,0:0:0:0:
230,330,78272,2,0,P|287:314|317:261,1,120,2|8,1:2|0:0,0:0:0:0:
400,231,78681,2,0,P|404:260|411:289,2,60,2|8|8,1:2|0:0|0:0,0:0:0:0:
441,150,79090,2,0,B|444:117|430:91|430:91|408:69|397:41,1,120,10|10,1:2|1:2,0:0:0:0:
244,7,79636,6,0,P|193:34|191:106,1,120,6|10,1:2|0:0,0:0:0:0:
226,164,80045,2,0,P|240:199|244:296,1,120,0|2,1:0|1:2,0:0:0:0:
237,367,80454,1,8,0:0:0:0:
237,367,80590,1,0,1:0:0:0:
81,350,80863,6,0,L|52:278,1,60,2|8,1:2|0:0,0:0:0:0:
147,277,81136,1,2,1:2:0:0:
147,277,81204,1,0,1:0:0:0:
147,277,81272,2,0,L|118:205,1,60,0|0,1:0|1:0,0:0:0:0:
56,172,81545,2,0,L|2:154,4,30,10|8|8|8|12,0:0|0:0|0:0|0:0|1:2,0:0:0:0:
126,125,81954,6,0,B|165:81|165:81|198:94|227:100,5,120,0|8|8|8|8|8,1:0|1:2|1:2|1:2|1:2|1:2,0:0:0:0:
272,30,83454,2,0,P|303:22|341:21,2,60,4|4|4,3:0|3:0|3:0,0:0:0:0:
313,174,84000,6,0,P|314:224|321:285,1,96,4|8,1:2|0:0,0:0:0:0:
213,315,84545,2,0,P|211:264|205:204,1,96,8|8,0:0|0:0,0:0:0:0:
102,170,85090,2,0,P|103:217|107:265,2,96,8|8|8,0:0|0:0|0:0,0:0:0:0:
154,66,85909,2,0,L|95:58,1,48,8|0,0:0|1:0,0:0:0:0:
31,102,86181,6,0,B|13:75|13:75|10:35|22:-2,2,107.999996704102,2|0|2,1:2|3:0|1:2,0:0:0:0:
9,186,86863,1,2,1:2:0:0:
112,280,87136,2,0,P|98:332|64:384,2,107.999996704102,2|2|2,1:2|1:2|1:2,0:0:0:0:
98,194,87818,2,0,P|141:131|258:177,1,215.999993408203,2|6,0:0|1:2,0:0:0:0:
281,360,97090,6,0,P|335:347|397:339,1,107.999996704102,6|2,1:2|0:0,0:0:0:0:
468,370,97500,1,2,0:0:0:0:
498,288,97636,1,0,1:0:0:0:
498,288,97772,1,2,1:2:0:0:
464,162,98045,2,0,P|487:114|502:52,2,107.999996704102,2|2|2,1:2|1:2|0:0,0:0:0:0:
421,237,98727,1,0,1:0:0:0:
421,237,98863,2,0,P|395:222|350:210,1,53.9999983520508,2|8,1:2|3:0,0:0:0:0:
258,151,99272,6,0,P|210:128|145:115,1,107.999996704102,2|2,1:2|0:0,0:0:0:0:
70,126,99681,1,2,0:0:0:0:
22,200,99818,1,0,1:0:0:0:
22,200,99954,1,2,1:2:0:0:
118,286,100227,2,0,P|86:356|65:387,2,107.999996704102,2|2|10,1:2|1:2|0:0,0:0:0:0:
143,203,100909,1,0,1:0:0:0:
143,203,101045,1,0,1:0:0:0:
200,267,101181,1,2,1:2:0:0:
319,216,101454,6,0,P|329:163|289:99,1,107.999996704102,6|2,1:2|0:0,0:0:0:0:
238,63,101863,1,2,0:0:0:0:
310,13,102000,1,0,1:0:0:0:
310,13,102136,1,2,1:2:0:0:
437,34,102409,2,0,B|464:58|464:58|469:91|483:138,1,107.999996704102,2|2,1:2|1:2,0:0:0:0:
493,218,102818,1,8,0:0:0:0:
493,218,102954,2,0,P|465:231|428:237,1,53.9999983520508,2|0,0:0|1:0,0:0:0:0:
390,305,103227,2,0,P|415:322|438:351,2,53.9999983520508,2|10|0,1:2|0:0|1:0,0:0:0:0:
304,288,103636,6,0,P|231:262|191:234,1,107.999996704102,2|2,1:2|1:2,0:0:0:0:
148,180,104045,2,0,L|169:111,2,53.9999983520508,2|0|2,0:0|1:0|0:0,0:0:0:0:
47,262,104590,2,0,P|38:299|35:379,2,107.999996704102,2|2|2,1:2|1:2|0:0,0:0:0:0:
64,180,105272,1,0,1:0:0:0:
64,180,105409,1,0,1:0:0:0:
8,111,105545,1,2,3:2:0:0:
178,9,105818,6,0,P|232:17|269:93,1,132.00000402832,6|8,1:2|0:0,0:0:0:0:
341,152,106227,2,0,P|327:192|226:219,1,132.00000402832,2|0,1:2|1:0,0:0:0:0:
156,195,106636,1,8,0:0:0:0:
156,195,106772,2,0,B|107:182|107:182|76:186|76:186|28:172,2,132.00000402832,2|0|0,1:2|1:0|1:0,0:0:0:0:
175,300,107454,1,2,1:2:0:0:
175,300,107590,1,0,1:0:0:0:
246,373,107727,2,0,P|285:359|321:330,1,66.0000020141602,2|0,3:2|3:0,0:0:0:0:
359,260,108000,5,2,1:2:0:0:
359,260,108136,1,0,1:0:0:0:
315,173,108272,1,10,0:0:0:0:
315,173,108409,1,0,1:0:0:0:
349,77,108545,2,0,P|352:43|357:12,2,66.0000020141602,2|2|10,1:2|1:2|0:0,0:0:0:0:
449,55,108954,2,0,B|454:87|454:87|465:116|465:116|468:147|468:147|476:184,1,132.00000402832,2|2,1:2|1:2,0:0:0:0:
497,284,109363,1,10,0:0:0:0:
347,354,109636,1,2,1:2:0:0:
183,376,109909,2,0,L|133:363,3,33.0000010070801,0|0|0|0,1:0|1:0|1:0|1:0,0:0:0:0:
119,358,110181,6,0,P|89:337|63:297,1,66.0000020141602,6|0,1:2|0:0,0:0:0:0:
5,234,110454,2,0,P|35:213|61:173,1,66.0000020141602,8|0,0:0|0:0,0:0:0:0:
103,100,110727,2,0,L|114:49,3,33.0000010070801,2|2|2|0,1:2|0:0|0:0|0:0,0:0:0:0:
131,42,111000,2,0,L|180:26,3,33.0000010070801,10|2|2|0,0:0|0:0|0:0|0:0,0:0:0:0:
194,39,111272,2,0,L|232:74,3,33.0000010070801,2|2|2|0,1:2|0:0|0:0|0:0,0:0:0:0:
251,68,111545,2,0,L|321:50,1,66.0000020141602,10|2,0:0|0:0,0:0:0:0:
402,105,111818,2,0,L|414:153,3,33.0000010070801,2|2|2|2,1:2|3:2|3:2|3:2,0:0:0:0:
429,163,112090,2,0,L|417:211,3,33.0000010070801,10|2|2|2,3:2|3:2|3:2|3:2,0:0:0:0:
400,221,112363,6,0,B|302:239|302:239|316:269,1,132.00000402832,2|8,1:2|0:0,0:0:0:0:
350,365,112772,1,2,1:2:0:0:
480,263,113045,1,0,1:0:0:0:
490,98,113318,2,0,P|453:42|374:22,1,132.00000402832,2|0,1:2|1:0,0:0:0:0:
291,31,113727,1,8,0:0:0:0:
127,4,114000,1,2,1:2:0:0:
127,4,114545,6,0,L|86:132,1,120,6|8,1:2|0:0,0:0:0:0:
31,174,114954,1,0,0:0:0:0:
31,174,115090,2,0,L|72:302,1,120,0|8,1:0|0:0,0:0:0:0:
153,289,115500,1,0,0:0:0:0:
153,289,115636,2,0,P|172:334|236:383,2,120,2|10|2,1:2|0:0|1:2,0:0:0:0:
165,157,116454,1,10,0:0:0:0:
281,94,116727,5,2,1:2:0:0:
281,94,116863,2,0,B|307:128|307:128|308:148|308:148|324:205,1,120,2|2,0:0|3:2,0:0:0:0:
307,282,117272,2,0,L|296:352,2,60,2|0|10,1:2|1:0|0:0,0:0:0:0:
385,260,117681,2,0,P|441:233|485:176,1,120,2|0,1:2|1:0,0:0:0:0:
494,109,118090,1,10,0:0:0:0:
407,9,118363,1,2,1:2:0:0:
274,8,118636,1,2,1:2:0:0:
165,83,118909,5,2,1:2:0:0:
165,83,119045,2,0,P|201:121|271:153,1,120,2|0,0:0|1:0,0:0:0:0:
338,176,119454,2,0,L|322:297,1,120,2|2,0:0|1:2,0:0:0:0:
267,354,119863,2,0,B|210:377|210:377|170:323,1,120,2|2,0:0|1:2,0:0:0:0:
131,261,120272,2,0,P|76:226|26:249,2,120,2|2|2,0:0|1:2|1:2,0:0:0:0:
256,218,121090,6,0,B|464:249|464:249|495:332|495:332|369:313,1,420,2|2,3:2|1:2,0:0:0:0:
309,362,122181,2,0,L|264:375,3,30,2|2|2|2,1:2|0:0|0:0|0:0,0:0:0:0:
250,363,122454,2,0,L|208:340,3,30,2|2|2|2,1:2|0:0|0:0|0:0,0:0:0:0:
207,323,122727,2,0,L|193:278,3,30,2|2|2|2,1:2|0:0|0:0|0:0,0:0:0:0:
203,264,123000,2,0,L|225:222,3,30,2|2|2|2,1:2|0:0|0:0|0:0,0:0:0:0:
232,212,123272,5,2,0:0:0:0:
32,40,124363,6,0,L|166:20,1,120,0|2,1:0|0:0,0:0:0:0:
137,154,124909,2,0,L|271:134,1,120,2|2,1:2|0:0,0:0:0:0:
329,170,125318,2,0,P|397:187|459:229,1,120,2|2,1:2|1:2,0:0:0:0:
453,296,125727,1,10,0:0:0:0:
453,296,125863,2,0,P|483:309|518:317,2,60,2|0|0,0:0|1:0|1:0,0:0:0:0:
370,287,126272,2,0,L|355:365,1,60,10|0,0:0|1:0,0:0:0:0:
283,376,126545,6,0,P|224:366|154:342,1,120,2|10,1:2|0:0,0:0:0:0:
96,307,126954,1,2,0:0:0:0:
52,375,127090,1,2,1:2:0:0:
52,375,127227,1,2,1:2:0:0:
15,247,127500,2,0,B|12:227|5:210|5:210|26:127,1,120,2|2,1:2|1:2,0:0:0:0:
3,52,127909,2,0,P|30:29|64:18,1,60,10|0,0:0|1:0,0:0:0:0:
135,8,128181,1,2,1:2:0:0:
135,8,128318,1,0,1:0:0:0:
202,52,128454,2,0,L|220:122,1,60,8|0,0:0|1:0,0:0:0:0:
315,138,128727,6,0,P|382:130|434:83,1,120,6|10,1:2|0:0,0:0:0:0:
435,18,129136,2,0,L|364:10,1,60,2|0,0:0|1:0,0:0:0:0:
294,2,129409,1,2,1:2:0:0:
216,110,129681,2,0,P|215:165|197:237,1,120,2|2,1:2|1:2,0:0:0:0:
164,303,130090,1,10,0:0:0:0:
164,303,130227,1,2,0:0:0:0:
213,366,130363,2,0,B|258:358|258:358|285:339|285:339|327:331,1,120,2|10,1:2|0:0,0:0:0:0:
397,368,130772,1,2,0:0:0:0:
454,310,130909,6,0,P|480:280|493:242,1,60,2|0,1:2|1:0,0:0:0:0:
491,180,131181,2,0,P|477:153|456:131,1,60,10|0,0:0|1:0,0:0:0:0:
383,96,131454,2,0,P|354:72|338:39,1,60,2|0,1:2|1:0,0:0:0:0:
261,37,131727,1,8,0:0:0:0:
261,37,131863,2,0,B|233:89|233:89|241:152,2,120,2|2|2,1:2|1:2|1:2,0:0:0:0:
184,8,132545,2,0,P|131:13|62:25,1,120,0|8,0:0|0:0,0:0:0:0:
46,155,133090,6,0,P|126:170|173:185,2,120,6|8|2,1:2|0:0|1:2,0:0:0:0:
6,227,133772,1,8,0:0:0:0:
6,227,133909,1,2,0:0:0:0:
16,307,134045,2,0,P|73:323|132:333,1,120,2|2,1:2|1:2,0:0:0:0:
209,374,134454,1,8,0:0:0:0:
209,374,134590,2,0,P|232:319|299:279,1,120,2|2,0:0|1:2,0:0:0:0:
335,224,135000,2,0,P|317:195|291:170,1,60,8|0,0:0|1:0,0:0:0:0:
232,130,135272,6,0,B|249:48|249:48|283:25,1,120,2|10,1:2|0:0,0:0:0:0:
357,4,135681,1,0,1:0:0:0:
388,84,135818,1,2,1:2:0:0:
388,84,135954,1,2,1:2:0:0:
497,157,136227,2,0,P|494:220|469:292,1,120,2|2,1:2|1:2,0:0:0:0:
435,345,136636,1,10,0:0:0:0:
435,345,136772,1,2,0:0:0:0:
360,378,136909,2,0,P|343:347|331:313,1,60,0|0,1:0|1:0,0:0:0:0:
343,243,137181,2,0,L|352:196,3,30,8|8|8|8,0:0|0:0|0:0|0:0,0:0:0:0:
353,186,137454,6,0,P|335:141|275:116,1,107.999996704102,6|10,1:2|0:0,0:0:0:0:
198,132,137863,2,0,P|192:179|180:248,1,107.999996704102,2|2,0:0|0:0,0:0:0:0:
229,317,138272,1,8,0:0:0:0:
229,317,138409,2,0,P|194:360|134:379,1,107.999996704102,2|2,0:0|0:0,0:0:0:0:
64,360,138818,1,8,0:0:0:0:
64,360,138954,2,0,P|31:315|28:252,1,107.999996704102,2|2,0:0|0:0,0:0:0:0:
36,177,139363,1,8,0:0:0:0:
17,48,139636,6,0,P|71:37|128:20,1,107.999996704102,6|10,1:2|0:0,0:0:0:0:
207,7,140045,1,0,1:0:0:0:
187,93,140181,1,2,0:0:0:0:
187,93,140318,1,2,1:2:0:0:
306,141,140590,2,0,P|369:155|415:182,1,107.999996704102,2|0,1:2|1:0,0:0:0:0:
479,224,141000,2,0,L|470:285,1,53.9999983520508,2|8,1:2|0:0,0:0:0:0:
384,278,141272,2,0,L|375:339,1,53.9999983520508,2|8,1:2|0:0,0:0:0:0:
304,380,141545,2,0,P|275:357|262:321,1,53.9999983520508,2|8,3:2|0:0,0:0:0:0:
253,256,141818,6,0,B|281:71|281:71|140:23,1,323.999990112305,8|8,3:0|3:0,0:0:0:0:
34,88,142909,2,0,B|15:49|15:49|31:4,4,90,2|2|2|2|2,1:2|1:2|1:2|1:2|1:2,0:0:0:0:
101,137,143863,5,2,1:2:0:0:
101,137,144000,2,0,P|145:153|178:198,1,96,2|14,0:0|0:0,0:0:0:0:
254,256,144409,2,0,P|243:294|223:320,1,66.0000020141602,2|0,0:0|0:0,0:0:0:0:
147,378,144681,2,0,P|109:367|83:347,1,66.0000020141602,2|8,1:2|0:0,0:0:0:0:
15,279,144954,2,0,B|4:242|4:242|11:192|13:141,1,132.00000402832,2|2,0:0|0:0,0:0:0:0:
15,46,145363,1,8,0:0:0:0:
116,11,145500,1,2,1:2:0:0:
116,11,145568,1,0,1:0:0:0:
116,11,145636,2,0,P|149:15|185:24,1,66.0000020141602,0|2,1:0|1:2,0:0:0:0:
276,59,145909,1,8,3:2:0:0:
347,207,146181,6,0,L|480:191,1,132.00000402832,6|10,1:2|0:0,0:0:0:0:
476,101,146590,2,0,L|344:116,1,132.00000402832,2|2,0:0|1:2,0:0:0:0:
270,164,147000,1,8,0:0:0:0:
270,164,147136,2,0,P|234:144|212:119,2,66.0000020141602,2|0|2,1:2|1:0|1:2,0:0:0:0:
369,295,147681,2,0,P|334:346|258:370,1,132.00000402832,2|2,1:2|1:2,0:0:0:0:
180,364,148090,2,0,P|186:338|189:310,3,33.0000010070801,2|0|0|0,1:2|1:0|1:0|1:0,0:0:0:0:
191,298,148363,6,0,B|151:258|151:258|109:248|73:232,1,132.00000402832,6|10,1:2|0:0,0:0:0:0:
13,156,148772,2,0,P|47:131|82:122,1,66.0000020141602,2|0,0:0|0:0,0:0:0:0:
170,140,149045,2,0,P|204:165|239:174,1,66.0000020141602,2|8,1:2|0:0,0:0:0:0:
332,164,149318,1,2,0:0:0:0:
332,164,149454,1,0,1:0:0:0:
414,223,149590,2,0,P|397:285|386:357,2,132.00000402832,2|2|2,0:0|1:2|1:2,0:0:0:0:
482,146,150272,1,8,3:2:0:0:
376,31,150545,6,0,B|360:9|328:6|328:6|320:3|320:3|248:17,1,120,2|0,1:2|0:0,0:0:0:0:
202,78,150954,2,0,B|181:59|165:35|165:35|134:37|105:52,1,120,2|0,1:2|0:0,0:0:0:0:
15,40,151363,2,0,P|19:81|38:162,1,120,2|8,1:2|0:0,0:0:0:0:
37,248,151772,2,0,P|33:276|26:311,2,60,2|8|8,1:2|0:0|0:0,0:0:0:0:
116,204,152181,2,0,B|143:282|143:282|159:293|170:309,1,120,10|10,1:2|1:2,0:0:0:0:
220,383,152590,1,2,0:0:0:0:
303,302,152727,6,0,B|361:288|361:288|378:276|378:276|435:264,1,132.00000402832,6|10,1:2|0:0,0:0:0:0:
497,188,153136,2,0,P|474:158|434:139,1,66.0000020141602,2|0,0:0|0:0,0:0:0:0:
351,116,153409,2,0,P|347:152|324:195,1,66.0000020141602,2|8,1:2|0:0,0:0:0:0:
242,221,153681,2,0,P|193:243|99:248,1,132.00000402832,2|2,0:0|0:0,0:0:0:0:
18,216,154090,1,8,0:0:0:0:
82,138,154227,1,2,1:2:0:0:
82,138,154295,1,0,1:0:0:0:
82,138,154363,2,0,P|115:132|156:119,1,66.0000020141602,0|0,1:0|1:0,0:0:0:0:
201,36,154636,1,8,3:2:0:0:
362,3,154909,6,0,B|429:11|429:11|436:16|436:16|465:32|481:64,1,132.00000402832,6|10,1:2|0:0,0:0:0:0:
489,142,155318,2,0,B|478:197|478:197|480:208|480:208|468:273,1,132.00000402832,2|2,0:0|1:2,0:0:0:0:
390,312,155727,1,8,0:0:0:0:
390,312,155863,2,0,P|385:342|357:387,1,66.0000020141602,2|0,1:2|1:0,0:0:0:0:
279,382,156136,2,0,P|263:352|257:320,1,66.0000020141602,2|8,1:2|0:0,0:0:0:0:
290,237,156409,2,0,B|301:205|298:172|298:172|279:143|273:111,1,132.00000402832,2|2,1:2|1:2,0:0:0:0:
276,21,156818,2,0,L|228:15,3,33.0000010070801,2|0|2|0,1:2|1:0|1:2|1:0,0:0:0:0:
210,13,157090,6,0,P|161:20|118:101,1,132.00000402832,6|8,1:2|0:0,0:0:0:0:
126,174,157500,1,0,1:0:0:0:
70,328,157772,2,0,P|126:314|203:259,1,132.00000402832,2|2,1:2|0:0,0:0:0:0:
225,193,158181,2,0,P|260:162|345:129,1,132.00000402832,0|8,1:0|3:2,0:0:0:0:
488,60,158727,2,0,P|450:30|415:22,1,66.0000020141602,2|0,1:2|1:0,0:0:0:0:
346,4,159000,2,0,P|321:22|283:37,1,66.0000020141602,8|0,0:0|1:0,0:0:0:0:
204,63,159272,6,0,B|159:55|159:55|94:8|94:8|23:36,2,198.000006042481,2|2|2,1:2|1:2|1:2,0:0:0:0:
324,183,160363,1,10,0:0:0:0:
324,183,160500,2,0,P|362:224|356:300,1,132.00000402832,0|0,1:0|1:0,0:0:0:0:
307,370,160909,1,10,1:2:0:0:
157,301,161181,1,2,3:2:0:0:
14,377,161454,6,0,P|21:327|25:266,1,96,6|10,0:0|0:0,0:0:0:0:
62,209,161863,2,0,P|40:158|28:118,1,96,2|2,0:0|0:0,0:0:0:0:
10,39,162272,1,8,0:0:0:0:
104,11,162409,5,2,1:2:0:0:
104,11,162545,1,0,1:0:0:0:
176,48,162681,2,0,B|225:38|225:38|243:22|265:9,2,96,2|2|2,0:0|0:0|0:0,0:0:0:0:
116,104,163363,1,8,0:0:0:0:
168,222,163636,6,0,P|189:275|230:327,1,107.999996704102,2|10,1:2|0:0,0:0:0:0:
297,353,164045,2,0,P|318:300|359:248,1,107.999996704102,2|2,0:0|0:0,0:0:0:0:
413,201,164454,1,8,0:0:0:0:
431,285,164590,5,2,0:0:0:0:
509,143,164863,1,2,0:0:0:0:
367,65,165136,1,2,0:0:0:0:
289,207,165409,1,2,0:0:0:0:
211,244,165545,2,0,L|198:207,3,26.9999991760254,2|0|0|0,3:2|3:0|3:0|3:0,0:0:0:0:
191,186,165818,6,0,P|201:124|218:52,1,132.00000402832,6|10,1:2|0:0,0:0:0:0:
308,10,166227,2,0,L|320:78,1,66.0000020141602,2|0,0:0|1:0,0:0:0:0:
415,111,166500,2,0,L|382:173,1,66.0000020141602,2|8,0:0|0:0,0:0:0:0:
289,207,166772,2,0,P|279:251|331:332,1,132.00000402832,2|2,1:2|1:2,0:0:0:0:
418,362,167181,1,8,0:0:0:0:
418,362,167318,2,0,L|510:347,1,66.0000020141602,2|0,0:0|1:0,0:0:0:0:
491,249,167590,2,0,L|399:264,1,66.0000020141602,2|8,0:0|3:2,0:0:0:0:
290,338,168000,6,0,B|248:328|248:328|227:314|227:314|174:336,1,120,2|0,1:2|0:0,0:0:0:0:
97,371,168409,2,0,P|80:321|32:265,1,120,2|0,1:2|0:0,0:0:0:0:
7,184,168818,2,0,P|43:154|102:191,1,120,2|8,1:2|0:0,0:0:0:0:
187,207,169227,2,0,P|192:174|194:137,2,60,2|8|8,1:2|0:0|0:0,0:0:0:0:
268,246,169636,2,0,B|325:236|325:236|356:218|361:181,1,120,10|10,1:2|1:2,0:0:0:0:
360,96,170045,1,2,0:0:0:0:
265,29,170181,6,0,P|213:9|131:8,1,132.00000402832,6|10,1:2|0:0,0:0:0:0:
37,30,170590,2,0,P|16:53|10:101,1,66.0000020141602,2|0,0:0|1:0,0:0:0:0:
71,166,170863,2,0,P|92:189|98:237,1,66.0000020141602,2|8,1:2|0:0,0:0:0:0:
94,324,171136,2,0,B|135:354|135:354|242:365,1,132.00000402832,2|2,0:0|0:0,0:0:0:0:
318,369,171545,1,8,0:0:0:0:
389,296,171681,1,2,1:2:0:0:
389,296,171750,1,0,1:0:0:0:
389,296,171818,2,0,P|379:255|360:224,1,66.0000020141602,0|2,1:0|1:2,0:0:0:0:
303,155,172090,1,8,3:2:0:0:
379,8,172363,6,0,B|446:19|446:19|481:76,1,132.00000402832,6|10,1:2|0:0,0:0:0:0:
509,171,172772,2,0,B|489:194|489:194|386:220,1,132.00000402832,2|2,0:0|1:2,0:0:0:0:
291,245,173181,1,8,0:0:0:0:
291,245,173318,2,0,P|267:271|261:306,1,66.0000020141602,2|0,1:2|1:0,0:0:0:0:
185,369,173590,2,0,P|167:334|138:315,1,66.0000020141602,2|8,1:2|0:0,0:0:0:0:
49,282,173863,2,0,P|8:249|32:173,1,132.00000402832,2|2,1:2|1:2,0:0:0:0:
122,149,174272,2,0,P|113:132|107:105,3,33.0000010070801,2|0|0|0,1:2|1:0|1:0|1:0,0:0:0:0:
105,88,174545,6,0,B|128:22|128:22|182:45,1,120,6|2,1:2|0:0,0:0:0:0:
248,9,174954,2,0,B|271:75|271:75|325:52,1,120,2|2,0:0|0:0,0:0:0:0:
469,18,175500,2,0,P|481:59|480:144,1,120,2|2,0:0|0:0,0:0:0:0:
390,262,176045,2,0,P|378:303|379:388,1,120,2|2,0:0|0:0,0:0:0:0:
481,135,176727,6,0,B|449:133|449:133|392:162|392:162|346:172,1,132.00000402832,2|0,1:2|0:0,0:0:0:0:
278,213,177136,2,0,P|213:197|184:134,1,132.00000402832,2|0,1:2|0:0,0:0:0:0:
100,111,177545,2,0,B|89:189|89:189|83:204|83:204|90:248,1,132.00000402832,2|8,1:2|0:0,0:0:0:0:
64,326,177954,2,0,P|30:315|-18:311,2,66.0000020141602,2|8|8,1:2|0:0|0:0,0:0:0:0:
141,370,178363,2,0,B|157:344|157:344|221:327|221:327|253:342,1,132.00000402832,10|10,1:2|1:2,0:0:0:0:
398,382,178909,6,0,P|467:350|484:292,1,132.00000402832,6|10,1:2|0:0,0:0:0:0:
502,209,179318,2,0,B|480:177|480:177|379:142,1,132.00000402832,0|2,1:0|1:2,0:0:0:0:
305,120,179727,1,10,0:0:0:0:
305,120,179863,1,2,1:2:0:0:
171,22,180136,6,0,P|130:50|41:82,1,132.00000402832,2|2,1:2|0:0,0:0:0:0:
11,164,180545,1,2,1:2:0:0:
11,164,180681,1,2,1:2:0:0:
101,184,180818,2,0,L|150:195,3,33.0000010070801,10|10|10|10,0:0|0:0|0:0|0:0,0:0:0:0:
165,198,181090,6,0,P|194:226|225:248,2,66.0000020141602,2|2|10,1:2|1:2|0:0,0:0:0:0:
116,278,181500,1,10,1:2:0:0:
246,378,181772,1,10,1:2:0:0:
303,223,182045,2,0,P|294:147|283:83,2,132.00000402832,10|10|10,1:2|1:2|1:2,0:0:0:0:
376,279,182727,2,0,P|402:258|425:235,2,66.0000020141602,4|4|4,3:0|3:0|3:0,0:0:0:0:
242,360,183272,6,0,L|164:373,1,60,6|2,1:2|0:0,0:0:0:0:
111,324,183545,2,0,L|46:278,1,60,10|2,0:0|0:0,0:0:0:0:
37,208,183818,2,0,L|24:130,1,60,10|2,0:0|0:0,0:0:0:0:
69,76,184090,2,0,L|114:11,1,60,10|2,0:0|0:0,0:0:0:0:
184,2,184363,6,0,P|206:30|231:46,1,60,10|2,0:0|0:0,0:0:0:0:
254,123,184636,2,0,P|289:117|315:104,1,60,10|2,0:0|0:0,0:0:0:0:
350,32,184909,2,0,P|384:41|416:67,1,60,10|2,0:0|0:0,0:0:0:0:
487,62,185181,2,0,P|496:95|489:136,1,60,10|10,0:0|0:0,0:0:0:0:
455,195,185454,6,0,L|411:211,7,30,2|0|0|0|10|0|8|10,1:2|0:0|0:0|0:0|0:0|0:0|0:0|0:0,0:0:0:0:
410,230,186000,2,0,L|414:276,7,30,2|0|0|0|2|0|2|0,1:2|0:0|1:0|0:0|0:0|0:0|1:2|0:0,0:0:0:0:
403,288,186545,2,0,L|359:304,7,30,2|0|0|0|2|0|0|0,0:0|0:0|1:0|0:0|0:0|0:0|1:0|0:0,0:0:0:0:
343,309,187090,2,0,P|314:349|256:367,2,88.000002685547,2|2|2,1:2|1:2|1:2,0:0:0:0:
340,220,187636,6,0,B|315:108|189:37|40:65|40:65|46:117|96:142|163:147,1,528,2|0,0:0|0:0,0:0:0:0:
230,221,189272,5,8,1:2:0:0:
230,221,189409,1,8,1:2:0:0:
208,319,189545,1,8,1:2:0:0:
208,319,189681,1,12,1:2:0:0:
256,192,189750,12,0,193090,0:0:0:0:
