osu file format v14

[General]
AudioFilename: audio.mp3
AudioLeadIn: 0
PreviewTime: 40753
Countdown: 0
SampleSet: Soft
StackLeniency: 0.5
Mode: 0
LetterboxInBreaks: 0
WidescreenStoryboard: 0

[Editor]
DistanceSpacing: 0.6
BeatDivisor: 4
GridSize: 32
TimelineZoom: 2.2

[Metadata]
Title:Kiraku na Cloudy
TitleUnicode:気楽なCloudy
Artist:technoplanet feat. Haruno
ArtistUnicode:technoplanet feat. はるの
Creator:SaltyLucario
Version:OwO~
Source:Cytus II
Tags:saltking salty 2 ハセガワシュン hasegawa shun ka9ra Kuroto Sion electropop electronic pop video rhythm game japanese rayark inc. short ver. version lokidoki seulgij
BeatmapID:2430265
BeatmapSetID:1165203

[Difficulty]
HPDrainRate:5
CircleSize:4
OverallDifficulty:8.6
ApproachRate:9.4
SliderMultiplier:1.9
SliderTickRate:1

[Events]
//Background and Video events
0,0,"smile.jpg",0,0
//Break Periods
2,92979,95277
//Storyboard Layer 0 (Background)
//Storyboard Layer 1 (Fail)
//Storyboard Layer 2 (Pass)
//Storyboard Layer 3 (Foreground)
//Storyboard Layer 4 (Overlay)
//Storyboard Sound Samples

[TimingPoints]
1640,379.746835443038,4,2,1,50,1,0
1640,-133.333333333333,4,2,1,50,0,0
3823,-133.333333333333,4,2,2,60,0,0
3918,-133.333333333333,4,2,1,60,0,0
4298,-50,4,2,1,70,0,0
4488,-166.666666666667,4,2,1,80,0,0
4677,-66.6666666666667,4,2,1,80,0,0
5437,-55.5555555555556,4,2,1,80,0,0
6386,-83.3333333333333,4,2,1,80,0,0
7241,-83.3333333333333,4,2,99,80,0,0
7336,-83.3333333333333,4,2,1,80,0,0
7621,-83.3333333333333,4,2,99,80,0,0
7715,-83.3333333333333,4,2,1,80,0,0
8475,-55.5555555555556,4,2,1,80,0,0
9994,-33.3333333333333,4,2,1,80,0,0
10089,-33.3333333333333,4,2,99,80,0,0
10374,-166.666666666667,4,2,1,80,0,0
10753,-50,4,2,1,80,0,0
11513,-55.5555555555556,4,2,1,80,0,0
13791,-100,4,2,1,80,0,0
14171,-83.3333333333333,4,2,1,80,0,0
14551,-55.5555555555556,4,2,1,80,0,0
16070,-142.857142857143,4,2,1,80,0,0
16355,-142.857142857143,4,2,99,80,0,0
16450,-250.000000000001,4,2,1,80,0,0
16734,-142.857142857143,4,2,99,80,0,0
16829,-100,4,2,1,80,0,0
21386,-200,4,2,1,60,0,0
22051,-200,4,2,99,60,0,0
22146,-200,4,2,1,60,0,0
22905,-100,4,2,1,70,0,0
28602,-250,4,2,1,70,0,0
28981,-66.6666666666667,4,2,1,60,0,0
29266,-66.6666666666667,4,2,99,60,0,0
29361,-66.6666666666667,4,2,1,60,0,0
31260,-55.5555555555556,4,2,1,60,0,0
32019,-50,4,2,1,70,0,0
32114,-50,4,2,99,70,0,0
32399,-41.6666666666667,4,2,1,70,0,0
32494,-41.6666666666667,4,2,99,70,0,0
32779,-35.7142857142857,4,2,1,70,0,0
32874,-35.7142857142857,4,2,99,70,0,0
32969,-66.6666666666667,4,2,1,70,0,0
33538,-100,4,2,1,70,0,0
34298,-66.6666666666667,4,2,1,70,0,0
34440,-66.6666666666667,4,2,99,70,0,0
34488,-100,4,2,1,70,0,0
35057,-33.3333333333333,4,2,1,70,0,0
35152,-33.3333333333333,4,2,99,70,0,0
35437,-66.6666666666667,4,2,1,70,0,0
35912,-66.6666666666667,4,2,99,70,0,0
36007,-100,4,2,1,70,0,0
36576,-80,4,2,1,70,0,0
36766,-80,4,2,99,70,0,0
36861,-80,4,2,1,70,0,0
37051,-80,4,2,99,70,0,0
37146,-80,4,2,1,70,0,0
37241,-80,4,2,99,70,0,0
37336,-80,4,2,1,70,0,0
37715,-125,4,2,1,70,0,0
38095,-80,4,2,1,70,0,0
38665,-57.1428571428571,4,2,1,70,0,0
39045,-83.3333333333333,4,2,1,70,0,0
39424,-47.6190476190476,4,2,1,70,0,0
39709,-47.6190476190476,4,2,99,70,0,0
39804,-47.6190476190476,4,2,1,70,0,0
40184,-66.6666666666667,4,2,1,70,0,0
40753,-100,4,2,1,70,0,0
41133,-66.6666666666667,4,2,1,80,0,0
45500,-40,4,2,1,80,0,1
45785,-40,4,2,99,80,0,1
45880,-40,4,2,1,80,0,1
46829,-66.6666666666667,4,2,1,80,0,1
47209,-66.6666666666667,4,2,1,80,0,0
48633,-66.6666666666667,4,2,99,80,0,0
48918,-50,4,2,1,80,0,0
49013,-66.6666666666667,4,2,99,80,0,0
49298,-62.5,4,2,1,80,0,0
49583,-66.6666666666667,4,2,99,80,0,0
49677,-62.5,4,2,1,80,0,0
50912,-66.6666666666667,4,2,99,80,0,0
51196,-100,4,2,1,80,0,0
52715,-66.6666666666667,4,2,1,80,0,0
53285,-133.333333333333,4,2,1,80,0,0
53665,-66.6666666666667,4,2,1,80,0,1
53760,-66.6666666666667,4,2,1,80,0,0
57652,-40,4,2,1,80,0,1
57937,-66.6666666666667,4,2,99,80,0,1
58032,-40,4,2,1,80,0,1
58981,-66.6666666666667,4,2,1,80,0,1
59361,-66.6666666666667,4,2,1,80,0,0
60785,-66.6666666666667,4,2,99,80,0,0
61070,-52.6315789473684,4,2,1,80,0,0
61165,-66.6666666666667,4,2,99,80,0,0
61450,-43.4782608695652,4,2,1,80,0,0
61545,-66.6666666666667,4,2,99,80,0,0
61829,-37.037037037037,4,2,1,80,0,0
61924,-66.6666666666667,4,2,99,80,0,0
62019,-37.037037037037,4,2,1,80,0,0
62209,-50,4,2,1,80,0,0
62969,-83.3333333333333,4,2,1,80,0,0
63918,-90.9090909090909,4,2,1,80,0,0
64108,-66.6666666666667,4,2,99,80,0,0
64203,-90.9090909090909,4,2,1,80,0,0
64393,-66.6666666666667,4,2,99,80,0,0
64488,-90.9090909090909,4,2,1,80,0,0
64583,-66.6666666666667,4,2,99,80,0,0
64677,-90.9090909090909,4,2,1,80,0,0
65437,-66.6666666666667,4,2,1,60,0,0
65532,-66.6666666666667,4,2,99,80,0,0
65817,-66.6666666666667,4,2,1,60,0,0
66102,-66.6666666666667,4,2,99,80,0,0
66196,-66.6666666666667,4,2,1,60,0,0
66386,-100,4,2,1,60,0,0
66481,-66.6666666666667,4,2,99,80,0,0
66576,-66.6666666666667,4,2,1,60,0,0
66671,-66.6666666666667,4,2,99,80,0,0
66766,-66.6666666666667,4,2,1,60,0,0
66956,-100,4,2,1,60,0,0
67146,-66.6666666666667,4,2,1,60,0,0
67241,-66.6666666666667,4,2,99,80,0,0
67336,-66.6666666666667,4,2,1,60,0,0
68475,-125,4,2,1,60,0,0
68760,-66.6666666666667,4,2,99,80,0,0
68855,-71.4285714285714,4,2,1,80,0,0
70848,-66.6666666666667,4,2,99,80,0,0
70943,-71.4285714285714,4,2,1,80,0,0
79108,-66.6666666666667,4,2,1,80,0,0
79393,-66.6666666666667,4,2,99,80,0,0
79488,-55.5555555555556,4,2,1,80,0,0
79772,-66.6666666666667,4,2,99,80,0,0
79867,-47.6190476190476,4,2,1,80,0,0
80152,-66.6666666666667,4,2,99,80,0,0
80247,-41.6666666666667,4,2,1,80,0,0
80532,-66.6666666666667,4,2,99,80,0,0
80627,-86.9565217391304,4,2,1,70,0,0
85184,-40,4,2,1,70,0,0
85279,-66.6666666666667,4,2,99,80,0,0
85374,-86.9565217391304,4,2,1,70,0,0
85469,-66.6666666666667,4,2,99,80,0,0
85564,-40,4,2,1,70,0,0
85658,-66.6666666666667,4,2,99,80,0,0
85753,-86.9565217391304,4,2,1,70,0,0
85848,-66.6666666666667,4,2,99,80,0,0
85943,-40,4,2,1,70,0,0
86038,-66.6666666666667,4,2,99,80,0,0
86133,-86.9565217391304,4,2,1,70,0,0
86228,-66.6666666666667,4,2,99,80,0,0
86323,-86.9565217391304,4,2,1,80,0,0
89076,-66.6666666666667,4,2,99,80,0,0
89171,-66.6666666666667,4,2,1,80,0,0
89551,-1000,4,2,1,70,0,0
90690,-86.9565217391304,4,2,1,70,0,0
91450,-66.6666666666667,4,2,99,80,0,0
91545,-86.9565217391304,4,2,1,70,0,0
91734,-66.6666666666667,4,2,99,80,0,0
91829,-86.9565217391304,4,2,1,70,0,0
91924,-66.6666666666667,4,2,99,80,0,0
92019,-86.9565217391304,4,2,1,70,0,0
92779,-200,4,2,1,50,0,0
97051,-200,4,2,99,50,0,0
97146,-33.3333333333333,4,2,1,80,0,0
97241,-66.6666666666667,4,2,99,80,0,0
97715,-66.6666666666667,4,2,1,80,0,0
98475,-66.6666666666667,4,2,1,80,0,0
100279,-66.6666666666667,4,2,99,80,0,0
100564,-50,4,2,1,80,0,0
100658,-66.6666666666667,4,2,99,80,0,0
100943,-62.5,4,2,1,80,0,0
101228,-66.6666666666667,4,2,99,80,0,0
101323,-62.5,4,2,1,80,0,0
102557,-66.6666666666667,4,2,99,80,0,0
102842,-100,4,2,1,80,0,0
104361,-66.6666666666667,4,2,1,80,0,0
104931,-133.333333333333,4,2,1,80,0,0
105310,-66.6666666666667,4,2,1,80,0,1
105406,-66.6666666666667,4,2,1,80,0,0
109298,-40,4,2,1,80,0,1
109583,-66.6666666666667,4,2,99,80,0,1
109677,-40,4,2,1,80,0,1
110627,-66.6666666666667,4,2,1,80,0,1
111007,-66.6666666666667,4,2,1,80,0,0
112431,-66.6666666666667,4,2,99,80,0,0
112715,-52.6315789473684,4,2,1,80,0,0
112810,-66.6666666666667,4,2,99,80,0,0
113095,-43.4782608695652,4,2,1,80,0,0
113190,-66.6666666666667,4,2,99,80,0,0
113474,-37.037037037037,4,2,1,80,0,0
113570,-66.6666666666667,4,2,99,80,0,0
113665,-37.037037037037,4,2,1,80,0,0
113854,-50,4,2,1,80,0,0
114614,-83.3333333333333,4,2,1,80,0,0
115563,-90.9090909090909,4,2,1,80,0,0
115753,-66.6666666666667,4,2,99,80,0,0
115848,-90.9090909090909,4,2,1,80,0,0
116038,-66.6666666666667,4,2,99,80,0,0
116133,-90.9090909090909,4,2,1,80,0,0
116228,-66.6666666666667,4,2,99,80,0,0
116323,-90.9090909090909,4,2,1,80,0,0
117083,-66.6666666666667,4,2,1,80,0,0
117842,-55.5555555555556,4,2,1,80,0,0
118792,-83.3333333333333,4,2,1,80,0,0
119646,-66.6666666666667,4,2,99,80,0,0
119741,-83.3333333333333,4,2,1,80,0,0
120026,-66.6666666666667,4,2,99,80,0,0
120121,-83.3333333333333,4,2,1,80,0,0
120880,-55.5555555555556,4,2,1,80,0,0
122399,-33.3333333333333,4,2,1,80,0,0
122779,-166.666666666667,4,2,1,80,0,0
123158,-50,4,2,1,80,0,0
123918,-55.5555555555556,4,2,1,80,0,0
126196,-100,4,2,1,80,0,0
126576,-83.3333333333333,4,2,1,80,0,0
126956,-55.5555555555556,4,2,1,80,0,0
128475,-142.857142857143,4,2,1,80,0,0
128760,-66.6666666666667,4,2,99,80,0,0
128855,-250.000000000001,4,2,1,80,0,0
129140,-66.6666666666667,4,2,99,80,0,0
129234,-142.857142857143,4,2,1,80,0,0

[Colours]
Combo1 : 222,61,235
Combo2 : 240,0,84
Combo3 : 238,220,0
Combo4 : 98,232,101
Combo5 : 70,119,219

[HitObjects]
204,284,1640,6,0,L|194:150,1,106.875004076958,2|0,0:0|0:0,0:0:0:0:
457,339,2209,5,2,0:0:0:0:
461,305,2304,1,0,0:0:0:0:
476,187,2494,1,0,0:0:0:0:
472,221,2589,1,0,0:0:0:0:
488,94,2779,1,2,0:0:0:0:
461,305,2969,1,0,0:0:0:0:
472,221,3064,6,0,B|367:218|410:299|290:271,1,178.12500679493,2|0,0:0|0:0,0:0:0:0:
252,70,3728,85,2,0:0:0:0:
269,75,3823,1,2,0:0:0:0:
284,87,3918,1,0,0:0:0:0:
303,119,4013,1,0,0:0:0:0:
305,148,4108,1,0,0:0:0:0:
277,199,4203,1,0,0:0:0:0:
194,213,4298,6,0,L|78:181,1,95,2|0,0:0|0:0,0:0:0:0:
0,208,4488,2,0,L|46:222,1,28.4999991302491
301,295,4677,6,0,P|261:282|211:316,1,71.2500027179719,4|0,0:3|0:0,0:0:0:0:
416,92,4867,2,0,B|453:81|453:81|506:112,1,71.2500027179719,2|0,0:0|0:0,0:0:0:0:
373,334,5057,5,2,0:0:0:0:
380,323,5121,5,2,0:0:0:0:
387,303,5184,5,2,0:0:0:0:
388,278,5247,5,2,0:0:0:0:
379,246,5310,5,2,0:0:0:0:
356,220,5374,5,2,0:0:0:0:
318,201,5437,6,0,B|290:213|290:213|330:18,1,170.999994781494,8|0,0:0|0:0,0:0:0:0:
190,309,5722,2,0,B|218:321|218:321|178:126,1,170.999994781494,8|0,0:0|0:0,0:0:0:0:
232,11,6007,6,0,B|221:61|221:61|31:130,1,170.999994781494,12|0,0:0|0:0,0:0:0:0:
38,336,6386,5,2,0:0:0:0:
33,263,6481,2,0,L|29:168,1,56.9999982604981
125,382,6671,5,0,0:0:0:0:
134,326,6766,1,0,0:0:0:0:
142,271,6861,1,0,0:0:0:0:
106,205,6956,6,0,B|194:162|199:274|315:194,1,170.999994781494,4|0,0:3|0:0,0:0:0:0:
432,212,7336,2,0,B|344:255|339:143|223:223,1,170.999994781494,4|0,0:3|0:0,0:0:0:0:
473,142,7715,5,4,0:3:0:0:
504,173,7810,1,0,0:0:0:0:
512,221,7905,2,0,P|502:253|476:279,1,56.9999982604981
343,157,8095,5,2,0:0:0:0:
280,85,8190,2,0,L|373:68,1,56.9999982604981
200,237,8380,1,2,0:0:0:0:
161,162,8475,6,0,B|139:130|139:130|323:170,1,170.999994781494,8|0,0:0|0:0,0:0:0:0:
6,250,8760,2,0,B|-16:282|-16:282|168:242,1,170.999994781494,8|0,0:0|0:0,0:0:0:0:
333,329,9045,6,0,B|297:296|297:296|106:343,1,170.999994781494,8|0,0:0|0:0,0:0:0:0:
405,163,9424,5,2,0:0:0:0:
418,176,9519,1,0,0:0:0:0:
440,102,9614,5,2,0:0:0:0:
444,84,9709,1,0,0:0:0:0:
369,100,9804,5,2,0:0:0:0:
351,104,9899,1,0,0:0:0:0:
418,176,9994,6,0,B|451:231|425:288|425:288|402:234,1,142.500005435944,4|0,0:3|0:0,0:0:0:0:
328,110,10374,6,0,L|335:46,1,56.9999982604981
340,15,10658,1,0,0:0:0:0:
340,15,10753,6,0,B|260:29|260:29|241:61|241:61|126:82|126:82|203:15,1,285,4|0,0:3|0:0,0:0:0:0:
208,209,11133,5,2,0:0:0:0:
197,195,11196,5,2,0:0:0:0:
180,183,11260,5,2,0:0:0:0:
159,173,11323,5,2,0:0:0:0:
131,166,11386,5,2,0:0:0:0:
92,172,11450,5,2,0:0:0:0:
56,190,11513,6,0,B|27:222|27:222|51:86,1,170.999994781494,8|0,0:0|0:0,0:0:0:0:
117,342,11798,2,0,B|148:374|148:374|124:238,1,170.999994781494,8|0,0:0|0:0,0:0:0:0:
163,49,12083,6,0,L|142:175,1,85.4999973907472,8|0,0:0|0:0,0:0:0:0:
260,312,12272,5,4,0:3:0:0:
252,269,12367,1,0,0:0:0:0:
241,225,12462,1,0,0:0:0:0:
285,240,12557,1,0,0:0:0:0:
351,300,12652,5,6,0:3:0:0:
395,315,12747,1,0,0:0:0:0:
384,271,12842,1,0,0:0:0:0:
376,228,12937,1,0,0:3:0:0:
335,148,13032,5,4,0:3:0:0:
385,155,13127,1,0,0:0:0:0:
436,163,13222,1,0,0:0:0:0:
456,132,13317,1,0,0:0:0:0:
488,48,13412,5,6,0:3:0:0:
438,41,13507,1,0,0:0:0:0:
387,33,13602,1,0,0:0:0:0:
362,79,13697,1,0,0:0:0:0:
294,163,13791,5,4,0:3:0:0:
287,151,13886,2,0,L|238:141,2,47.5
107,301,14171,5,2,0:0:0:0:
170,229,14266,2,0,L|77:212,1,56.9999982604981
250,381,14456,1,2,0:0:0:0:
289,306,14551,6,0,B|311:274|311:274|127:314,1,170.999994781494,8|0,0:0|0:0,0:0:0:0:
482,325,14836,2,0,B|504:357|504:357|320:317,1,170.999994781494,8|0,0:0|0:0,0:0:0:0:
367,119,15121,6,0,B|385:237|385:237|436:246,1,170.999994781494,8|0,0:0|0:0,0:0:0:0:
248,29,15500,5,2,0:0:0:0:
286,19,15595,1,0,0:0:0:0:
245,102,15690,5,2,0:0:0:0:
207,92,15785,1,0,0:0:0:0:
250,175,15880,5,2,0:0:0:0:
288,165,15975,1,0,0:0:0:0:
273,246,16070,6,0,B|222:267|224:225|167:246,1,99.7499969558717,4|0,0:3|0:0,0:0:0:0:
92,269,16450,2,0,B|124:282|123:255|153:267,1,57,4|0,0:0|0:0,0:0:0:0:
248,353,16829,6,0,L|153:342,1,95,4|0,0:3|0:0,0:0:0:0:
373,322,17209,1,8,0:0:0:0:
377,356,17304,1,0,0:0:0:0:
344,203,17494,1,0,0:0:0:0:
348,169,17589,2,0,L|355:113,1,47.5,2|0,0:0|0:0,0:0:0:0:
449,299,17779,6,0,L|442:243,1,47.5,4|0,0:3|0:0,0:0:0:0:
460,98,17969,2,0,L|454:145,1,47.5,8|0,0:0|0:0,0:0:0:0:
276,230,18158,1,2,0:0:0:0:
279,191,18253,1,0,0:0:0:0:
237,258,18348,6,0,L|248:361,1,95,4|0,0:3|0:0,0:0:0:0:
163,231,18633,1,0,0:0:0:0:
163,231,18728,2,0,L|88:198,1,47.5,8|0,0:0|0:0,0:0:0:0:
299,126,18918,2,0,L|218:184,1,95,2|0,0:0|0:0,0:0:0:0:
66,296,19298,1,4,0:3:0:0:
21,74,19488,5,8,0:0:0:0:
9,85,19583,1,0,0:0:0:0:
7,103,19677,1,0,0:0:0:0:
18,115,19772,1,0,0:0:0:0:
100,97,19867,6,0,P|152:89|190:34,1,95,4|0,0:3|0:0,0:0:0:0:
177,169,20152,1,0,0:0:0:0:
177,169,20247,2,0,P|221:183|249:216,1,47.5,8|0,0:0|0:0,0:0:0:0:
279,18,20437,2,0,P|259:67|285:124,1,95,2|0,0:0|0:0,0:0:0:0:
466,54,20817,1,4,0:3:0:0:
406,62,20912,1,0,0:0:0:0:
397,79,21007,1,8,0:0:0:0:
334,264,21196,1,2,0:0:0:0:
473,127,21386,6,0,L|478:180,1,47.5
411,330,21766,2,0,P|393:327|419:305,1,71.25,2|0,0:0|0:0,0:0:0:0:
381,269,22146,2,0,L|323:262,1,47.5
193,332,22526,2,0,L|149:326,1,23.75,2|0,0:0|0:0,0:0:0:0:
236,264,22715,1,0,0:0:0:0:
216,262,22810,1,0,0:0:0:0:
199,259,22905,6,0,L|97:246,1,95,4|0,0:3|0:0,0:0:0:0:
119,66,23285,1,8,0:0:0:0:
156,60,23380,1,0,0:0:0:0:
193,54,23475,2,0,L|180:121,1,47.5
0,127,23665,6,0,L|47:121,1,47.5,2|0,0:0|0:0,0:0:0:0:
198,184,23855,2,0,L|119:174,1,47.5,4|0,0:3|0:0,0:0:0:0:
8,253,24045,5,8,0:0:0:0:
119,66,24234,1,2,0:0:0:0:
198,269,24424,6,0,L|64:277,1,95,4|0,0:3|0:0,0:0:0:0:
242,345,24709,1,0,0:0:0:0:
242,345,24804,2,0,L|291:418,1,47.5,8|0,0:0|0:0,0:0:0:0:
321,187,24994,2,0,L|278:271,1,95,2|0,0:0|0:0,0:0:0:0:
405,34,25374,1,4,0:3:0:0:
249,106,25564,1,8,0:0:0:0:
424,216,25753,1,0,0:0:0:0:
289,20,25943,6,0,L|167:29,1,95,4|0,0:3|0:0,0:0:0:0:
138,254,26323,1,8,0:0:0:0:
141,216,26418,1,0,0:0:0:0:
145,175,26513,2,0,P|186:189|239:181,1,95,2|0,0:0|0:0,0:0:0:0:
318,153,26798,1,0,0:0:0:0:
321,187,26893,1,4,0:3:0:0:
511,225,27083,1,8,0:0:0:0:
356,371,27272,1,2,0:0:0:0:
388,259,27462,5,4,0:3:0:0:
161,297,27652,5,0,0:0:0:0:
53,324,27842,1,8,0:0:0:0:
16,333,27937,1,0,0:0:0:0:
93,230,28127,1,0,0:0:0:0:
132,375,28317,1,0,0:0:0:0:
95,384,28412,5,4,0:3:0:0:
321,317,28602,2,0,L|334:364,1,38,8|0,0:0|0:0,0:0:0:0:
342,325,28981,6,0,B|355:364|355:364|410:305|302:268|396:161,1,213.750008153916,6|0,0:3|0:0,0:0:0:0:
463,109,29361,5,2,0:0:0:0:
444,121,29456,1,2,0:0:0:0:
414,132,29551,1,2,0:0:0:0:
370,129,29646,1,0,0:0:0:0:
310,94,29741,1,0,0:0:0:0:
285,278,29931,5,4,0:3:0:0:
375,50,30121,1,8,0:0:0:0:
218,116,30310,1,0,0:0:0:0:
128,20,30453,6,0,L|77:26,2,35.625001358986,2|0|0,0:0|0:0|0:0,0:0:0:0:
154,34,30880,5,2,0:0:0:0:
128,211,31070,1,0,0:0:0:0:
122,184,31165,1,0,0:0:0:0:
55,216,31260,6,0,B|25:224|-2:215|-2:215|22:237,1,85.4999973907472,2|0,0:0|0:0,0:0:0:0:
240,304,31450,2,0,B|210:296|183:305|183:305|207:283,1,85.4999973907472,2|0,0:0|0:0,0:0:0:0:
124,153,31640,5,2,0:0:0:0:
122,184,31734,1,0,0:0:0:0:
128,211,31829,1,0,0:0:0:0:
139,231,31924,1,0,0:0:0:0:
203,178,32019,6,0,L|347:192,1,95,8|0,0:0|0:0,0:0:0:0:
311,171,32399,2,0,L|171:159,1,113.999996520996,8|0,0:0|0:0,0:0:0:0:
190,143,32779,2,0,L|345:158,1,132.999995941162,8|0,0:0|0:0,0:0:0:0:
488,81,32969,5,2,0:0:0:0:
447,96,33064,1,2,0:0:0:0:
418,126,33159,1,2,0:0:0:0:
400,165,33254,1,0,0:0:0:0:
394,206,33348,1,0,0:0:0:0:
404,248,33443,1,0,0:0:0:0:
470,214,33538,6,0,L|336:227,1,95,4|0,0:3|0:0,0:0:0:0:
182,300,33918,2,0,L|246:308,1,47.5,8|0,0:0|0:0,0:0:0:0:
312,343,34108,2,0,L|264:337,1,47.5,4|0,0:3|0:0,0:0:0:0:
167,223,34298,2,0,B|260:241|236:168|217:196,1,106.875004076958,2|0,0:0|0:0,0:0:0:0:
155,142,34488,5,4,0:3:0:0:
92,188,34583,2,0,P|85:229|103:271,1,47.5,4|8,0:3|0:0,0:0:0:0:
167,136,34772,1,2,0:0:0:0:
118,75,34867,2,0,P|85:48|40:43,1,47.5,8|0,0:0|0:0,0:0:0:0:
32,314,35057,6,0,B|17:309|4:292|4:292|58:278|36:341|148:296,1,142.500005435944,6|0,0:3|0:0,0:0:0:0:
104,309,35437,6,0,P|135:309|105:346,1,95.0000036239625,8|0,0:0|0:0,0:0:0:0:
95,351,35627,1,0,0:0:0:0:
114,200,35817,6,0,P|167:207|198:230,1,71.2500027179719
257,384,36007,6,0,L|254:265,1,95,4|8,0:3|0:0,0:0:0:0:
399,143,36386,1,2,0:0:0:0:
396,182,36481,1,2,0:0:0:0:
393,224,36576,6,0,B|328:198|328:253|249:200,1,118.75,6|0,0:3|0:0,0:0:0:0:
248,86,36861,2,0,B|257:155|305:127|299:222,1,118.75,6|0,0:3|0:0,0:0:0:0:
201,282,37146,2,0,P|225:255|234:220,1,59.375,8|0,0:0|0:0,0:0:0:0:
177,37,37336,5,2,0:0:0:0:
170,48,37431,1,2,0:0:0:0:
168,123,37526,1,4,0:3:0:0:
161,134,37621,1,4,0:3:0:0:
248,86,37715,6,0,L|352:80,1,76,8|0,0:0|0:0,0:0:0:0:
121,240,38095,6,0,B|154:240|153:186|84:186|40:243,1,118.75,4|0,0:3|0:0,0:0:0:0:
170,48,38475,1,8,0:0:0:0:
216,197,38665,6,0,B|256:221|293:154|208:106|115:144,1,166.250001585484,4|0,0:3|0:0,0:0:0:0:
0,16,39045,2,0,L|114:-1,1,113.999996520996,4|8,0:3|0:0,0:0:0:0:
330,211,39424,6,0,B|344:236|314:258|314:258|336:244|365:253|365:253|421:182|366:118|308:102,1,299.249990867615,4|0,0:3|0:0,0:0:0:0:
235,251,39804,21,4,0:3:0:0:
233,266,39867,5,2,0:0:0:0:
238,287,39931,5,2,0:0:0:0:
253,310,39994,5,2,0:0:0:0:
273,327,40057,5,0,0:0:0:0:
307,336,40121,5,0,0:0:0:0:
347,326,40184,6,0,L|333:390,2,47.5000018119813,4|0|0,0:3|0:0|0:0,0:0:0:0:
468,185,40374,5,4,0:3:0:0:
397,221,40469,2,0,P|360:224|319:201,1,71.2500027179719,0|4,0:0|0:3,0:0:0:0:
479,199,40658,1,4,0:3:0:0:
417,131,40753,6,0,B|406:116|412:99|412:99|416:77|368:109|373:55,1,95,8|0,0:0|0:0,0:0:0:0:
88,41,41133,5,6,0:3:0:0:
81,93,41228,1,0,0:0:0:0:
161,128,41323,5,0,0:0:0:0:
154,76,41418,1,0,0:0:0:0:
235,42,41513,5,8,0:0:0:0:
228,94,41608,1,0,0:0:0:0:
307,130,41703,5,2,0:0:0:0:
300,78,41798,2,0,L|284:-4,1,71.2500027179719,2|0,0:0|0:0,0:0:0:0:
105,181,41988,2,0,L|118:250,1,71.2500027179719,2|4,0:0|0:3,0:0:0:0:
440,111,42177,6,0,L|424:29,1,71.2500027179719,2|8,0:0|0:0,0:0:0:0:
215,163,42367,1,0,0:0:0:0:
225,214,42462,2,0,L|238:283,1,71.2500027179719,2|0,0:0|0:0,0:0:0:0:
456,185,42652,5,4,0:3:0:0:
404,178,42747,1,0,0:0:0:0:
369,258,42842,5,0,0:0:0:0:
421,251,42937,1,0,0:0:0:0:
455,332,43032,5,8,0:0:0:0:
403,325,43127,2,0,L|314:310,1,71.2500027179719
440,111,43317,1,0,0:0:0:0:
456,185,43412,5,2,0:0:0:0:
404,178,43507,2,0,L|307:162,1,71.2500027179719,2|4,0:0|0:3,0:0:0:0:
188,344,43696,2,0,L|250:267,1,71.2500027179719,2|8,0:0|0:0,0:0:0:0:
149,68,43886,2,0,L|183:160,1,71.2500027179719,2|0,0:0|0:0,0:0:0:0:
440,111,44076,1,0,0:0:0:0:
386,103,44171,6,0,B|327:93|327:93|311:100|311:100|230:86,1,142.500005435944,4|0,0:3|0:0,0:0:0:0:
149,68,44456,1,2,0:0:0:0:
187,159,44551,1,8,0:0:0:0:
197,178,44646,2,0,P|224:153|240:93,1,71.2500027179719
117,0,44836,1,0,0:0:0:0:
69,63,44931,6,0,B|68:123|68:123|83:148|83:148|80:261,1,142.500005435944,4|0,0:3|0:0,0:0:0:0:
147,333,45215,2,0,B|146:273|146:273|161:248|161:248|158:135,1,142.500005435944,10|0,0:3|0:0,0:0:0:0:
281,40,45500,6,0,B|308:107|246:164|246:164|308:209|308:209|234:282|290:375,1,356.25,6|0,0:3|0:0,0:0:0:0:
357,297,45880,1,4,0:3:0:0:
91,201,46070,5,8,0:0:0:0:
450,117,46260,1,0,0:0:0:0:
101,33,46450,5,6,0:3:0:0:
478,124,46640,1,0,0:0:0:0:
95,119,46829,6,0,L|165:109,1,71.2500027179719,6|0,0:3|0:0,0:0:0:0:
465,195,47019,2,0,L|396:175,1,71.2500027179719
61,330,47209,5,4,0:3:0:0:
264,210,47399,5,0,0:0:0:0:
375,296,47589,1,8,0:0:0:0:
242,350,47779,1,0,0:0:0:0:
167,178,47969,5,0,0:0:0:0:
299,127,48159,1,4,0:3:0:0:
185,38,48349,1,8,0:0:0:0:
274,235,48538,6,0,L|384:241,1,71.2500027179719,6|0,0:3|0:0,0:0:0:0:
148,105,48918,6,0,L|37:119,1,95,4|0,0:3|0:0,0:0:0:0:
297,276,49298,6,0,B|388:256|368:333|450:374|487:240|426:243|363:276,1,228,6|0,0:3|0:0,0:0:0:0:
327,355,49677,2,0,P|375:380|426:385,1,76,4|0,0:3|0:0,0:0:0:0:
456,154,49867,5,8,0:0:0:0:
425,150,49962,1,0,0:0:0:0:
394,152,50057,1,0,0:0:0:0:
366,164,50152,1,0,0:0:0:0:
387,82,50248,5,4,0:3:0:0:
297,276,50817,2,0,B|287:295|287:295|276:227,1,76,2|0,0:1|0:0,0:0:0:0:
67,293,51196,6,0,P|86:289|117:298,1,47.5
175,335,51386,2,0,P|152:341|129:337,1,47.5,8|0,0:0|0:0,0:0:0:0:
7,239,51576,1,0,0:0:0:0:
41,221,51671,1,0,0:0:0:0:
75,214,51766,6,0,L|62:74,1,95,4|0,0:3|0:0,0:0:0:0:
112,295,52051,2,0,L|125:155,1,95,2|0,0:0|0:0,0:0:0:0:
103,382,52336,1,2,0:0:0:0:
2,242,52526,1,0,0:0:0:0:
246,290,52715,5,4,0:3:0:0:
290,299,52810,1,0,0:0:0:0:
338,312,52905,2,0,P|318:350|320:387,1,71.2500027179719,8|0,0:0|0:0,0:0:0:0:
400,154,53095,2,0,P|397:118|379:88,1,71.2500027179719
202,279,53285,6,0,L|149:292,3,35.625001358986,4|0|0|0,0:3|0:0|0:0|0:0,0:0:0:0:
120,200,53665,5,8,0:0:0:0:
172,207,53760,1,0,0:0:0:0:
207,127,53855,5,2,0:0:0:0:
155,134,53950,1,0,0:0:0:0:
117,57,54045,5,2,0:0:0:0:
169,64,54140,2,0,L|279:82,1,71.2500027179719,2|4,0:0|0:3,0:0:0:0:
323,294,54329,2,0,L|283:189,1,71.2500027179719,2|8,0:0|0:0,0:0:0:0:
475,21,54519,1,0,0:0:0:0:
442,57,54614,2,0,L|396:112,1,71.2500027179719,2|0,0:0|0:0,0:0:0:0:
463,350,54804,5,4,0:3:0:0:
470,298,54899,1,0,0:0:0:0:
389,257,54994,5,0,0:0:0:0:
396,309,55089,1,0,0:0:0:0:
316,346,55184,5,8,0:0:0:0:
323,294,55279,1,0,0:0:0:0:
243,257,55374,5,2,0:0:0:0:
250,309,55469,1,0,0:0:0:0:
172,341,55564,5,2,0:0:0:0:
179,289,55658,2,0,L|194:181,1,71.2500027179719,2|4,0:0|0:3,0:0:0:0:
11,81,55848,2,0,L|97:147,1,71.2500027179719,2|8,0:0|0:0,0:0:0:0:
268,43,56038,2,0,L|166:84,1,71.2500027179719,2|0,0:0|0:0,0:0:0:0:
250,309,56228,1,0,0:0:0:0:
188,218,56323,5,4,0:3:0:0:
233,226,56418,2,0,B|304:241,1,71.2500027179719,2|0,0:0|0:0,0:0:0:0:
458,273,56608,1,0,0:0:0:0:
392,360,56703,5,8,0:0:0:0:
376,334,56798,2,0,P|372:277|409:223,1,71.2500027179719
420,82,56988,1,0,0:0:0:0:
459,174,57083,5,4,0:3:0:0:
414,166,57178,2,0,B|345:151,1,71.2500027179719,2|0,0:0|0:0,0:0:0:0:
192,64,57367,2,0,B|257:55|257:55|279:67|279:67|386:58,1,142.500005435944,4|0,0:3|0:0,0:0:0:0:
376,264,57652,6,0,B|297:281|255:221|255:221|234:265|190:268|190:268|120:192|2:286,1,356.25,6|0,0:3|0:0,0:0:0:0:
115,317,58032,1,4,0:3:0:0:
194,53,58222,5,8,0:0:0:0:
253,325,58412,1,0,0:0:0:0:
361,52,58602,5,6,0:3:0:0:
247,347,58791,1,0,0:0:0:0:
280,41,58981,6,0,L|255:120,1,71.2500027179719,6|0,0:3|0:0,0:0:0:0:
353,361,59171,2,0,L|327:294,1,71.2500027179719
443,52,59361,5,6,0:3:0:0:
428,256,59551,5,0,0:0:0:0:
503,151,59741,1,8,0:0:0:0:
376,141,59931,1,0,0:0:0:0:
353,361,60121,5,0,0:0:0:0:
301,246,60311,1,4,0:3:0:0:
428,256,60501,1,8,0:0:0:0:
230,336,60690,6,0,L|140:328,1,71.2500027179719,4|0,0:3|0:0,0:0:0:0:
74,116,61070,6,0,L|167:106,1,90.2499975900651,6|0,0:3|0:0,0:0:0:0:
251,325,61450,6,0,L|140:315,1,109.250002083778,4|0,0:3|0:0,0:0:0:0:
60,95,61829,6,0,L|192:84,1,128.250000489235,6|0,0:3|0:0,0:0:0:0:
274,77,62019,1,0,0:0:0:0:
82,384,62209,6,2,B|15:342|45:203|168:225|168:225|194:251|194:251|244:209|237:148|237:148|280:270|436:241,1,570,6|0,0:3|0:0,0:1:0:0:
498,45,62969,6,0,B|423:37|451:93|363:70,1,113.999996520996,10|0,0:0|0:0,0:0:0:0:
302,38,63348,1,0,0:0:0:0:
487,120,63538,1,10,0:0:0:0:
176,110,63918,6,0,P|112:98|70:70,1,104.500003189087,4|0,0:3|0:0,0:0:0:0:
132,183,64203,2,0,P|153:244|150:294,1,104.500003189087,2|0,0:0|0:0,0:0:0:0:
223,183,64488,2,0,B|228:165|274:123,1,52.2500015945435,2|0,0:0|0:0,0:0:0:0:
441,178,64677,5,4,0:3:0:0:
241,279,64867,1,8,0:3:0:0:
286,265,64962,1,8,0:3:0:0:
331,278,65057,1,8,0:2:0:0:
367,307,65152,1,8,0:3:0:0:
412,319,65247,1,8,0:3:0:0:
455,301,65342,1,8,0:3:0:0:
407,243,65437,6,0,L|399:133,1,71.2500027179719,4|0,0:3|0:0,0:0:0:0:
401,171,65817,1,0,0:0:0:0:
153,281,66007,6,0,L|145:171,1,71.2500027179719,2|0,0:0|0:0,0:0:0:0:
139,125,66196,1,0,0:0:0:0:
147,209,66386,2,0,P|161:223|146:248,1,47.5
334,322,66576,6,0,L|326:212,1,71.2500027179719,2|0,0:0|0:0,0:0:0:0:
321,173,66766,1,0,0:0:0:0:
328,250,66956,2,0,L|331:283,2,23.75
79,364,67146,6,0,L|71:254,1,71.2500027179719,8|0,0:0|0:0,0:0:0:0:
66,208,67336,1,8,0:0:0:0:
256,333,67526,6,0,L|247:223,2,71.2500027179719,4|8|0,0:3|0:0|0:0,0:0:0:0:
197,198,67810,5,2,0:0:0:0:
223,185,67905,1,0,0:0:0:0:
263,184,68000,1,0,0:0:0:0:
312,209,68095,1,2,0:0:0:0:
342,263,68190,1,2,0:0:0:0:
407,288,68285,1,2,0:0:0:0:
476,256,68380,1,2,0:0:0:0:
492,175,68475,6,0,B|495:152|495:152|445:176|445:176|378:151|378:151,1,114
354,12,68855,6,0,B|362:104|362:104|327:141|327:141|344:289,1,265.999991882324,12|0,0:0|0:0,0:0:0:0:
133,33,69424,2,0,L|305:61,1,132.999995941162,4|8,0:3|0:0,0:0:0:0:
0,290,69804,2,0,L|172:262,1,132.999995941162,4|0,0:3|0:0,0:0:0:0:
211,251,70089,1,2,0:0:0:0:
211,251,70184,6,0,L|202:313,2,44.3333319803874,4|0|0,0:3|0:0|0:0,0:0:0:0:
141,341,70374,2,0,L|150:403,2,44.3333319803874,8|0|0,0:0|0:0|0:0,0:0:0:0:
285,298,70564,6,0,B|293:261|293:261|345:315|283:388|218:368,1,199.499993911743,2|0,0:0|0:0,0:0:0:0:
240,192,70943,5,4,0:3:0:0:
291,176,71038,1,0,0:0:0:0:
342,189,71133,2,0,P|369:207|396:253,1,66.4999979705811,8|0,0:0|0:0,0:0:0:0:
508,72,71323,2,0,B|475:92|475:92|401:81,1,66.4999979705811,8|8,0:0|0:0,0:0:0:0:
329,321,71513,5,4,0:3:0:0:
397,340,71607,1,2,0:0:0:0:
463,311,71702,1,2,0:0:0:0:
494,246,71797,1,2,0:0:0:0:
477,177,71892,1,8,0:0:0:0:
222,184,72083,5,4,0:3:0:0:
170,233,72177,1,2,0:0:0:0:
163,305,72272,1,2,0:0:0:0:
203,364,72367,1,2,0:0:0:0:
272,384,72462,1,0,0:0:0:0:
398,168,72652,5,8,0:0:0:0:
381,98,72746,1,2,0:0:0:0:
322,56,72841,1,2,0:0:0:0:
251,61,72936,1,2,0:0:0:0:
199,111,73032,6,0,B|180:128|180:128|97:151|43:101,1,132.999995941162,4|0,0:3|0:0,0:0:0:0:
51,202,73285,2,0,B|75:209|75:209|136:270|120:342,1,132.999995941162,2|0,0:0|0:0,0:0:0:0:
198,281,73538,2,0,B|192:256|192:256|214:172|284:150,1,132.999995941162,2|0,0:0|0:0,0:0:0:0:
325,156,73791,5,4,0:3:0:0:
335,167,73855,2,0,B|365:209|365:209|350:264|299:289,1,132.999995941162,2|0,0:0|0:0,0:0:0:0:
249,363,74171,5,8,0:0:0:0:
302,359,74266,1,2,0:0:0:0:
354,353,74361,1,2,0:0:0:0:
407,348,74456,1,2,0:0:0:0:
487,334,74551,5,4,0:3:0:0:
460,295,74646,1,0,0:0:0:0:
495,234,74741,1,0,0:0:0:0:
456,168,74836,2,0,P|430:194|367:201,1,66.4999979705811,2|8,0:0|0:0,0:0:0:0:
333,55,75026,1,0,0:0:0:0:
398,102,75121,5,0,0:0:0:0:
382,119,75215,2,0,P|348:134|287:119,1,66.4999979705811,2|0,0:0|0:0,0:0:0:0:
154,125,75405,1,0,0:0:0:0:
240,208,75500,5,4,0:3:0:0:
237,185,75595,2,0,L|231:118,1,66.4999979705811,2|8,0:0|0:0,0:0:0:0:
37,233,75785,1,0,0:0:0:0:
81,165,75880,5,4,0:3:0:0:
107,198,75975,1,0,0:0:0:0:
103,271,76070,1,2,0:0:0:0:
142,286,76165,1,0,0:0:0:0:
174,350,76260,1,4,0:3:0:0:
216,344,76355,1,0,0:0:0:0:
278,384,76450,1,10,0:0:0:0:
312,358,76545,1,0,0:0:0:0:
260,274,76640,5,4,0:3:0:0:
271,285,76734,2,0,L|448:275,1,132.999995941162,2|0,0:0|0:0,0:0:0:0:
499,272,77019,1,4,0:3:0:0:
259,177,77209,5,8,0:0:0:0:
205,181,77304,1,0,0:0:0:0:
151,184,77399,2,0,L|57:193,1,66.4999979705811,2|0,0:0|0:0,0:0:0:0:
442,168,77589,5,4,0:3:0:0:
287,30,77779,5,0,0:0:0:0:
389,19,77969,1,2,0:0:0:0:
292,106,78158,1,0,0:0:0:0:
267,109,78253,1,2,0:0:0:0:
405,95,78443,1,2,0:0:0:0:
430,92,78538,1,0,0:0:0:0:
302,187,78728,1,2,0:0:0:0:
287,30,78918,1,0,0:0:0:0:
315,329,79108,6,0,B|259:377|193:346|176:314|176:314|221:337|264:323,1,213.750008153916,10|0,0:0|0:0,0:0:0:0:
114,377,79488,6,0,B|49:324|71:244|103:219|103:219|86:273|110:318,1,256.499992172241,10|0,0:0|0:0,0:0:0:0:
29,159,79867,6,0,B|90:83|183:109|212:146|212:146|149:127|96:155,1,299.249990867615,10|0,0:0|0:0,0:0:0:0:
272,78,80247,6,0,B|355:146|327:249|285:282|285:282|307:211|276:153,1,341.999989562989,10|0,0:0|0:0,0:0:0:0:
205,32,80627,5,4,0:3:0:0:
398,87,80817,1,0,0:0:0:0:
209,145,81007,1,8,0:0:0:0:
425,206,81196,2,0,L|413:68,1,109.250002083778,2|0,0:0|0:0,0:0:0:0:
193,151,81576,2,0,L|183:259,1,109.250002083778,4|8,0:3|0:0,0:0:0:0:
170,375,81956,1,0,0:0:0:0:
296,231,82146,5,4,0:3:0:0:
95,151,82336,1,0,0:0:0:0:
271,93,82526,1,8,0:0:0:0:
107,247,82715,2,0,L|-12:227,1,109.250002083778,2|0,0:0|0:0,0:0:0:0:
204,48,83094,1,4,0:3:0:0:
270,220,83285,2,0,L|377:238,1,109.250002083778,8|0,0:0|0:0,0:0:0:0:
469,28,83665,5,4,0:3:0:0:
464,166,83855,5,0,0:0:0:0:
500,173,83950,2,0,L|499:115,1,54.6250010418892,0|8,0:0|0:0,0:0:0:0:
329,146,84140,1,0,0:0:0:0:
366,151,84234,2,0,L|364:75,1,54.6250010418892,2|0,0:0|0:0,0:0:0:0:
194,192,84424,6,0,L|187:301,1,109.250002083778,4|0,0:3|0:0,0:0:0:0:
115,189,84709,2,0,L|26:122,1,109.250002083778,8|0,0:0|0:0,0:0:0:0:
152,121,84994,2,0,L|243:76,1,54.6250010418892,4|0,0:3|0:0,0:0:0:0:
375,8,85184,6,0,B|357:48|362:94|362:94|383:90|406:45,1,118.75,2|0,0:0|0:0,0:0:0:0:
398,164,85374,2,0,P|388:143|384:99,1,54.6250010418892,4|0,0:3|0:0,0:0:0:0:
200,96,85564,6,0,B|218:136|213:182|213:182|192:178|169:133,1,118.75,10|0,0:0|0:0,0:0:0:0:
180,256,85753,2,0,P|190:235|194:191,1,54.6250010418892
480,155,85943,6,0,B|462:195|467:241|467:241|488:237|511:192,1,118.75,10|0,0:0|0:0,0:0:0:0:
504,312,86133,2,0,P|494:291|490:247,1,54.6250010418892
512,58,86323,5,10,0:0:0:0:
457,53,86418,1,2,0:0:0:0:
406,73,86513,1,2,0:0:0:0:
377,119,86608,1,2,0:0:0:0:
376,173,86703,5,4,0:3:0:0:
342,0,86893,1,0,0:0:0:0:
479,156,87083,2,0,L|410:137,1,54.6250010418892,10|0,0:0|0:0,0:0:0:0:
242,95,87272,2,0,L|257:234,1,109.250002083778,2|0,0:0|0:0,0:0:0:0:
112,357,87652,1,4,0:3:0:0:
154,157,87842,1,8,0:0:0:0:
271,355,88032,1,0,0:0:0:0:
275,328,88127,1,0,0:0:0:0:
280,301,88222,6,0,L|149:311,1,109.250002083778,4|0,0:3|0:0,0:0:0:0:
45,144,88602,2,0,L|148:155,1,54.6250010418892,8|0,0:0|0:0,0:0:0:0:
335,198,88791,2,0,B|243:163|266:259|160:193,1,163.875003125668,2|0,0:0|0:0,0:0:0:0:
171,125,89171,1,4,0:3:0:0:
300,275,89361,1,8,0:0:0:0:
362,44,89551,6,0,L|370:6,1,38,2|2,0:0|0:0,0:0:0:0:
179,107,90690,6,0,P|197:97|236:98,1,54.6250010418892
299,150,90880,2,0,P|275:148|249:134,1,54.6250010418892
432,252,91260,6,0,L|447:114,1,109.250002083778,2|0,0:0|0:0,0:0:0:0:
352,237,91545,2,0,L|224:293,1,109.250002083778,2|0,0:0|0:0,0:0:0:0:
383,317,91829,2,0,L|467:378,1,54.6250010418892,2|0,0:0|0:0,0:0:0:0:
371,151,92019,5,2,0:0:0:0:
359,147,92114,1,0,0:0:0:0:
340,145,92209,1,0,0:0:0:0:
317,152,92304,1,0,0:0:0:0:
297,167,92399,1,2,0:0:0:0:
260,198,92494,1,2,0:0:0:0:
205,215,92589,1,2,0:0:0:0:
133,189,92684,1,2,0:0:0:0:
104,111,92779,5,4,0:0:0:0:
256,192,95817,12,0,97051,0:0:0:0:
254,327,97146,6,0,B|243:294|256:268|256:268|245:251|245:251|269:222|244:137,1,142.500005435944,12|0,0:0|0:0,0:0:0:0:
123,48,97715,5,8,0:0:0:0:
388,121,97905,1,0,0:0:0:0:
114,207,98095,5,12,0:0:0:0:
413,116,98285,1,0,0:0:0:0:
103,131,98475,6,0,L|185:108,1,71.2500027179719,8|0,0:0|0:0,0:0:0:0:
413,196,98665,2,0,L|328:168,1,71.2500027179719
51,286,98855,5,4,0:3:0:0:
254,167,99045,5,0,0:0:0:0:
264,298,99234,1,8,0:0:0:0:
144,242,99424,1,0,0:0:0:0:
211,87,99614,5,0,0:0:0:0:
331,143,99803,1,4,0:3:0:0:
321,12,99993,1,8,0:0:0:0:
344,269,100184,6,0,L|355:381,1,71.2500027179719,6|0,0:3|0:0,0:0:0:0:
149,191,100564,6,0,L|160:93,1,95,4|0,0:3|0:0,0:0:0:0:
365,243,100943,6,0,B|441:349|269:344|397:440|493:377|375:292,1,228,6|0,0:3|0:0,0:0:0:0:
305,297,101323,2,0,P|291:343|303:403,1,76,4|0,0:3|0:0,0:0:0:0:
452,198,101513,5,8,0:0:0:0:
456,167,101608,1,2,0:0:0:0:
454,136,101703,1,2,0:0:0:0:
442,108,101798,1,2,0:0:0:0:
375,162,101893,5,4,0:3:0:0:
245,35,102462,2,0,B|189:40|189:40|235:71,1,76,2|0,0:1|0:0,0:0:0:0:
86,191,102842,6,0,P|98:158|87:122,1,47.5,2|0,0:0|0:0,0:0:0:0:
49,68,103032,2,0,P|49:91|60:112,1,47.5,8|0,0:0|0:0,0:0:0:0:
172,242,103222,1,2,0:0:0:0:
188,211,103317,1,0,0:0:0:0:
193,176,103412,6,0,L|330:194,1,95,4|0,0:3|0:0,0:0:0:0:
97,146,103696,2,0,L|234:128,1,95
7,163,103981,1,0,0:0:0:0:
74,3,104171,1,0,0:0:0:0:
201,217,104361,1,4,0:3:0:0:
250,223,104456,1,0,0:0:0:0:
299,229,104551,2,0,P|268:295|285:349,1,71.2500027179719,8|0,0:0|0:0,0:0:0:0:
400,105,104741,2,0,P|390:70|369:42,1,71.2500027179719,2|0,0:0|0:0,0:0:0:0:
391,302,104931,6,0,L|339:297,3,35.625001358986,2|0|0|0,0:0|0:0|0:0|0:0,0:0:0:0:
427,377,105310,6,0,L|342:386,1,71.2500027179719,8|0,0:0|0:0,0:0:0:0:
328,223,105500,5,0,0:0:0:0:
380,216,105595,1,0,0:0:0:0:
423,146,105690,5,2,0:0:0:0:
369,139,105785,2,0,L|288:126,1,71.2500027179719,2|4,0:0|0:3,0:0:0:0:
163,297,105975,2,0,L|214:233,1,71.2500027179719,2|8,0:0|0:0,0:0:0:0:
116,0,106165,1,0,0:0:0:0:
136,51,106260,2,0,L|165:127,1,71.2500027179719,2|0,0:0|0:0,0:0:0:0:
84,315,106450,5,4,0:3:0:0:
79,263,106545,1,0,0:0:0:0:
10,297,106640,6,0,L|2:368,1,71.2500027179719
156,349,106829,5,8,0:0:0:0:
163,297,106924,1,0,0:0:0:0:
231,263,107019,5,0,0:0:0:0:
238,315,107114,1,0,0:0:0:0:
306,353,107209,5,2,0:0:0:0:
314,300,107304,2,0,L|328:225,1,71.2500027179719,2|4,0:0|0:3,0:0:0:0:
512,165,107494,2,0,L|440:190,1,71.2500027179719,2|8,0:0|0:0,0:0:0:0:
254,26,107684,1,0,0:0:0:0:
294,60,107779,2,0,L|351:109,1,71.2500027179719,2|0,0:0|0:0,0:0:0:0:
225,316,107969,6,0,B|235:258|235:258|251:236|251:236|273:132,1,142.500005435944,4|0,0:3|0:0,0:0:0:0:
204,85,108253,1,0,0:0:0:0:
121,133,108348,1,8,0:0:0:0:
108,114,108443,2,0,P|103:78|116:42,1,71.2500027179719,2|0,0:0|0:0,0:0:0:0:
185,196,108633,1,0,0:0:0:0:
89,220,108728,5,4,0:3:0:0:
44,212,108823,2,0,B|-46:197,1,71.2500027179719,2|0,0:0|0:0,0:0:0:0:
204,85,109013,2,0,B|261:81|261:81|277:67|277:67|356:61,1,142.500005435944,8|0,0:0|0:0,0:0:0:0:
454,265,109298,6,0,B|379:224|318:282|318:282|302:255|263:238|263:238|200:317|101:242,1,356.25,6|0,0:3|0:0,0:0:0:0:
185,196,109677,1,4,0:3:0:0:
396,330,109867,5,8,0:0:0:0:
473,50,110057,1,0,0:0:0:0:
383,363,110247,5,6,0:3:0:0:
298,62,110437,1,0,0:0:0:0:
309,378,110627,6,0,L|279:269,1,71.2500027179719,6|0,0:3|0:0,0:0:0:0:
388,60,110817,2,0,L|363:131,1,71.2500027179719
188,377,111007,5,4,0:3:0:0:
163,174,111196,5,0,0:0:0:0:
37,229,111386,1,8,0:0:0:0:
49,90,111576,1,0,0:0:0:0:
243,111,111766,5,0,0:0:0:0:
231,250,111956,1,4,0:3:0:0:
356,194,112146,1,8,0:0:0:0:
163,174,112336,6,0,L|149:287,1,71.2500027179719,4|0,0:3|0:0,0:0:0:0:
429,352,112715,6,0,L|418:262,1,90.2499975900651,6|0,0:3|0:0,0:0:0:0:
149,148,113095,6,0,L|134:274,1,109.250002083778,4|0,0:3|0:0,0:0:0:0:
454,370,113475,6,0,L|432:187,1,128.250000489235,6|0,0:3|0:0,0:0:0:0:
426,161,113665,1,0,0:0:0:0:
94,343,113855,6,2,B|192:376|240:295|219:231|219:231|187:207|187:207|281:282|360:206|360:206|301:136|230:173,1,570,6|0,0:3|0:0,0:1:0:0:
14,76,114614,6,0,B|70:51|83:119|170:54,1,113.999996520996,10|0,0:0|0:0,0:0:0:0:
192,26,114994,1,0,0:0:0:0:
44,149,115184,1,10,0:0:0:0:
370,92,115564,6,0,P|434:80|476:52,1,104.500003189087,4|0,0:3|0:0,0:0:0:0:
414,165,115848,2,0,P|393:226|396:276,1,104.500003189087,2|0,0:0|0:0,0:0:0:0:
323,165,116133,2,0,B|318:147|272:105,1,52.2500015945435,2|0,0:0|0:0,0:0:0:0:
192,26,116323,5,4,0:3:0:0:
292,250,116512,1,8,0:3:0:0:
247,236,116608,1,8,0:3:0:0:
202,249,116703,1,8,0:0:0:0:
166,278,116798,1,8,0:3:0:0:
121,290,116893,1,8,0:3:0:0:
78,272,116988,1,8,0:3:0:0:
126,211,117083,6,0,L|133:114,1,71.2500027179719,4|0,0:3|0:0,0:0:0:0:
329,22,117272,2,0,B|337:60|337:60|317:91,1,71.2500027179719
72,81,117462,5,2,0:0:0:0:
83,72,117526,5,2,0:0:0:0:
101,63,117589,5,2,0:0:0:0:
124,57,117652,5,2,0:0:0:0:
155,60,117715,5,2,0:0:0:0:
193,83,117779,5,2,0:0:0:0:
212,124,117842,6,0,B|228:157|228:157|254:9,1,170.999994781494,8|0,0:0|0:0,0:0:0:0:
347,263,118127,2,0,B|331:296|331:296|305:148,1,170.999994781494,8|0,0:0|0:0,0:0:0:0:
104,242,118412,6,0,B|217:259|217:259|240:361,1,170.999994781494,12|0,0:0|0:0,0:0:0:0:
499,131,118791,5,0,0:0:0:0:
504,204,118886,2,0,L|508:299,1,56.9999982604981
412,85,119076,5,2,0:0:0:0:
403,141,119171,1,2,0:0:0:0:
395,196,119266,1,2,0:0:0:0:
431,262,119361,6,0,B|343:305|338:193|222:273,1,170.999994781494,4|0,0:3|0:0,0:0:0:0:
114,259,119741,2,0,B|202:216|207:328|323:248,1,170.999994781494,4|0,0:3|0:0,0:0:0:0:
75,328,120121,5,4,0:3:0:0:
44,297,120216,1,0,0:0:0:0:
36,249,120311,2,0,P|46:217|72:191,1,56.9999982604981
187,80,120500,5,2,0:0:0:0:
250,152,120595,2,0,L|157:169,1,56.9999982604981
330,0,120785,1,2,0:0:0:0:
369,75,120880,6,0,B|391:107|391:107|207:67,1,170.999994781494,8|0,0:0|0:0,0:0:0:0:
512,200,121165,2,0,B|534:168|534:168|350:208,1,170.999994781494,8|0,0:0|0:0,0:0:0:0:
193,246,121450,6,0,B|306:222|306:222|350:279,1,170.999994781494,8|0,0:0|0:0,0:0:0:0:
78,242,121829,5,2,0:0:0:0:
89,255,121924,1,0,0:0:0:0:
41,179,122019,5,2,0:0:0:0:
22,183,122114,1,0,0:0:0:0:
116,177,122209,5,2,0:0:0:0:
121,159,122304,1,0,0:0:0:0:
89,255,122399,6,0,B|119:312|91:359|91:359|94:338|79:299,1,142.500005435944,4|0,0:3|0:0,0:0:0:0:
126,141,122779,6,0,L|120:79,1,56.9999982604981,4|0,0:3|0:0,0:0:0:0:
116,44,123064,1,0,0:0:0:0:
116,44,123158,6,0,B|225:52|225:52|249:82|249:82|351:91|351:91|323:61,1,285,4|0,0:3|0:0,0:0:0:0:
235,174,123538,5,2,0:0:0:0:
246,183,123602,5,2,0:0:0:0:
269,195,123665,5,2,0:0:0:0:
296,202,123728,5,2,0:0:0:0:
328,201,123791,5,2,0:0:0:0:
356,189,123855,5,2,0:0:0:0:
387,167,123918,6,0,B|416:139|416:139|399:291,1,170.999994781494,8|0,0:0|0:0,0:0:0:0:
512,42,124203,2,0,B|483:14|483:14|500:166,1,170.999994781494,8|0,0:0|0:0,0:0:0:0:
512,337,124488,6,0,L|503:219,1,85.4999973907472,8|0,0:0|0:0,0:0:0:0:
339,88,124677,5,4,0:3:0:0:
296,80,124772,1,0,0:0:0:0:
252,69,124867,1,0,0:0:0:0:
267,113,124962,1,0,0:0:0:0:
325,182,125057,5,6,0:3:0:0:
340,226,125152,1,0,0:0:0:0:
296,215,125247,1,0,0:0:0:0:
253,207,125342,1,0,0:3:0:0:
191,136,125437,5,4,0:3:0:0:
168,181,125532,1,0,0:0:0:0:
150,220,125627,1,0,0:0:0:0:
119,225,125722,1,0,0:0:0:0:
77,298,125817,5,6,0:3:0:0:
126,300,125912,1,2,0:0:0:0:
144,339,126007,1,2,0:0:0:0:
167,384,126102,1,2,0:0:0:0:
230,313,126196,5,4,0:3:0:0:
236,298,126291,2,0,L|213:249,2,47.5
168,102,126576,5,2,0:0:0:0:
231,30,126671,2,0,L|138:13,1,56.9999982604981
311,182,126861,1,2,0:0:0:0:
350,107,126956,6,0,B|372:75|372:75|188:115,1,170.999994781494,8|0,0:0|0:0,0:0:0:0:
499,189,127241,2,0,B|521:221|521:221|337:181,1,170.999994781494,8|0,0:0|0:0,0:0:0:0:
273,383,127526,6,0,B|329:380|329:380|381:248,1,170.999994781494,8|0,0:0|0:0,0:0:0:0:
97,190,127905,5,2,0:0:0:0:
87,228,128000,1,0,0:0:0:0:
170,187,128095,5,2,0:0:0:0:
160,149,128190,1,0,0:0:0:0:
243,192,128285,5,2,0:0:0:0:
233,230,128380,1,0,0:0:0:0:
314,215,128475,6,0,B|335:164|293:166|314:109,1,99.7499969558717,4|0,0:3|0:0,0:0:0:0:
333,42,128855,2,0,B|344:70|321:69|331:96,1,57,4|0,0:0|0:0,0:0:0:0:
439,92,129234,6,0,L|396:84,2,33.2499989852906,2|0|0,0:0|0:0|0:0,0:0:0:0:
