osu file format v14

[General]
AudioFilename: audio.mp3
AudioLeadIn: 0
PreviewTime: 40753
Countdown: 0
SampleSet: Soft
StackLeniency: 0.5
Mode: 0
LetterboxInBreaks: 0
WidescreenStoryboard: 1

[Editor]
DistanceSpacing: 0.9
BeatDivisor: 4
GridSize: 32
TimelineZoom: 1

[Metadata]
Title:Kiraku na Cloudy
TitleUnicode:気楽なCloudy
Artist:technoplanet feat. Haruno
ArtistUnicode:technoplanet feat. はるの
Creator:SaltyLucario
Version:Normal~
Source:Cytus II
Tags:saltking salty 2 ハセガワシュン hasegawa shun ka9ra Kuroto Sion electropop electronic pop video rhythm game japanese rayark inc. short ver. version lokidoki seulgij
BeatmapID:2432514
BeatmapSetID:1165203

[Difficulty]
HPDrainRate:3.8
CircleSize:3.2
OverallDifficulty:4
ApproachRate:5
SliderMultiplier:1.2
SliderTickRate:1

[Events]
//Background and Video events
0,0,"smile.jpg",0,0
//Break Periods
2,92979,95946
//Storyboard Layer 0 (Background)
//Storyboard Layer 1 (Fail)
//Storyboard Layer 2 (Pass)
//Storyboard Layer 3 (Foreground)
//Storyboard Layer 4 (Overlay)
//Storyboard Sound Samples

[TimingPoints]
1640,379.746835443038,4,2,1,50,1,0
3823,-100,4,2,2,60,0,0
3918,-100,4,2,1,60,0,0
4298,-100,4,2,1,70,0,0
4488,-100,4,2,1,80,0,0
16829,-111.111111111111,4,2,1,80,0,0
21386,-111.111111111111,4,2,1,60,0,0
22905,-111.111111111111,4,2,1,70,0,0
28981,-111.111111111111,4,2,1,60,0,0
32019,-111.111111111111,4,2,1,70,0,0
41133,-100,4,2,1,80,0,0
45500,-100,4,2,1,80,0,1
47209,-100,4,2,1,80,0,0
53665,-100,4,2,1,80,0,1
53760,-100,4,2,1,80,0,0
57652,-100,4,2,1,80,0,1
59361,-100,4,2,1,80,0,0
65437,-100,4,2,1,60,0,0
68855,-100,4,2,1,80,0,0
80627,-111.111111111111,4,2,1,70,0,0
92779,-111.111111111111,4,2,1,50,0,0
97146,-100,4,2,1,80,0,1
98855,-100,4,2,1,80,0,0
105310,-100,4,2,1,80,0,1
105405,-100,4,2,1,80,0,0
109298,-100,4,2,1,80,0,1
111007,-100,4,2,1,80,0,0

[Colours]
Combo1 : 222,61,235
Combo2 : 240,0,84
Combo3 : 238,220,0
Combo4 : 98,232,101
Combo5 : 70,119,219

[HitObjects]
499,302,1640,6,0,L|393:297,1,90,2|0,0:0|0:0,0:0:0:0:
308,336,2304,2,0,B|271:292|311:245|348:209|314:148|314:148|301:197,1,240,0|2,0:0|0:0,0:0:0:0:
0,62,4677,6,0,P|57:78|122:66,1,120,4|2,0:3|0:0,0:0:0:0:
209,21,5437,2,0,L|214:110,1,90,8|8,0:0|0:0,0:0:0:0:
223,191,6007,1,12,0:0:0:0:
317,138,6386,2,0,P|385:132|449:173,1,120,2|0,0:0|0:0,0:0:0:0:
450,204,6956,5,4,0:3:0:0:
357,259,7336,1,4,0:3:0:0:
392,360,7715,6,0,L|265:371,1,120,4|2,0:3|0:0,0:0:0:0:
243,331,8285,1,2,0:0:0:0:
243,331,8475,2,0,L|132:319,1,90,8|8,0:0|0:0,0:0:0:0:
72,314,9045,1,8,0:0:0:0:
104,211,9424,6,0,L|32:221,2,60,2|2|2,0:0|0:0|0:0,0:0:0:0:
155,227,9994,1,4,0:3:0:0:
243,165,10374,1,2,0:0:0:0:
163,91,10753,6,0,P|90:115|37:93,1,120,4|2,0:3|0:0,0:0:0:0:
24,207,11513,2,0,L|32:306,1,90,8|8,0:0|0:0,0:0:0:0:
42,381,12083,1,8,0:0:0:0:
42,381,12272,5,4,0:3:0:0:
132,321,12652,1,6,0:3:0:0:
234,356,13032,1,4,0:3:0:0:
318,289,13412,1,6,0:3:0:0:
414,336,13791,6,0,L|423:208,1,120,4|2,0:3|0:0,0:0:0:0:
456,174,14361,1,2,0:0:0:0:
456,174,14551,2,0,L|451:75,1,90,8|8,0:0|0:0,0:0:0:0:
445,2,15121,1,8,0:0:0:0:
353,54,15500,6,0,L|292:50,2,60,2|2|2,0:0|0:0|0:0,0:0:0:0:
358,108,16070,1,4,0:3:0:0:
367,215,16450,1,4,0:0:0:0:
259,174,16829,6,0,L|130:185,1,107.999996704102,4|8,0:3|0:0,0:0:0:0:
100,279,17589,2,0,L|167:286,1,53.9999983520508,2|4,0:0|0:3,0:0:0:0:
207,292,17969,1,8,0:0:0:0:
279,371,18348,2,0,L|378:357,2,80.9999975280763,4|0|2,0:3|0:0|0:0,0:0:0:0:
302,265,19298,2,0,L|312:204,1,53.9999983520508,4|8,0:3|0:0,0:0:0:0:
353,177,19677,1,0,0:0:0:0:
353,177,19867,6,0,L|343:77,2,80.9999975280763,4|0|2,0:3|0:0|0:0,0:0:0:0:
259,128,20817,2,0,P|163:128|136:140,1,107.999996704102,4|2,0:3|0:0,0:0:0:0:
114,168,21386,5,0,0:0:0:0:
13,128,21766,1,2,0:0:0:0:
6,235,22146,2,0,L|0:363,1,107.999996704102,0|2,0:0|0:0,0:0:0:0:
105,309,22905,6,0,P|181:317|218:352,1,107.999996704102,4|8,0:3|0:0,0:0:0:0:
296,278,23665,2,0,L|288:214,2,53.9999983520508,2|4|8,0:0|0:3|0:0,0:0:0:0:
331,318,24234,1,0,0:0:0:0:
331,318,24424,2,0,L|419:334,2,80.9999975280763,4|0|2,0:3|0:0|0:0,0:0:0:0:
396,231,25374,2,0,L|402:177,1,53.9999983520508,4|8,0:3|0:0,0:0:0:0:
442,141,25753,1,0,0:0:0:0:
442,141,25943,6,0,L|431:25,1,107.999996704102,4|8,0:3|0:0,0:0:0:0:
380,16,26513,1,2,0:0:0:0:
292,76,26893,1,4,0:3:0:0:
292,76,27083,2,0,B|228:67,1,53.9999983520508,8|0,0:0|0:0,0:0:0:0:
185,59,27462,6,0,P|212:125|198:174,1,107.999996704102,4|8,0:3|0:0,0:0:0:0:
70,249,28412,2,0,L|2:240,1,53.9999983520508,4|8,0:3|0:0,0:0:0:0:
64,338,28981,6,0,B|114:342|114:342|132:354|132:354|191:359,1,107.999996704102,6|2,0:3|0:0,0:0:0:0:
328,335,29931,1,4,0:3:0:0:
383,244,30310,1,0,0:0:0:0:
383,244,30500,2,0,P|317:230|266:252,1,107.999996704102,0|2,0:0|0:0,0:0:0:0:
206,170,31260,1,2,0:0:0:0:
206,170,31450,2,0,P|154:183|103:168,1,107.999996704102,2|0,0:0|0:0,0:0:0:0:
63,130,32019,5,8,0:0:0:0:
156,75,32399,1,8,0:0:0:0:
262,92,32779,2,0,B|332:106|332:106|389:89,1,107.999996704102,8|0,0:0|0:0,0:0:0:0:
418,78,33348,6,0,B|412:205,1,107.999996704102,2|0,0:0|0:0,0:0:0:0:
453,222,33918,2,0,L|459:288,2,53.9999983520508,8|4|2,0:0|0:3|0:0,0:0:0:0:
348,249,34677,1,8,0:0:0:0:
354,302,34867,1,0,0:0:0:0:
361,355,35057,6,0,B|309:349|309:349|307:342|307:342|253:335,1,107.999996704102,6|8,0:3|0:0,0:0:0:0:
109,309,36007,1,4,0:3:0:0:
120,205,36386,1,2,0:0:0:0:
120,205,36576,2,0,L|16:220,2,80.9999975280763,6|6|8,0:3|0:3|0:0,0:0:0:0:
231,197,37526,1,4,0:3:0:0:
231,197,37715,1,8,0:0:0:0:
231,88,38095,6,0,L|353:107,1,107.999996704102,4|8,0:3|0:0,0:0:0:0:
389,86,38665,2,0,P|404:140|399:196,1,107.999996704102,4|4,0:3|0:3,0:0:0:0:
461,280,39424,2,0,P|406:284|362:322,1,107.999996704102,4|4,0:3|0:3,0:0:0:0:
293,235,40184,2,0,P|250:202|197:199,1,107.999996704102,4|4,0:3|0:3,0:0:0:0:
150,224,40753,1,8,0:0:0:0:
165,330,41133,5,6,0:3:0:0:
58,349,41513,1,8,0:0:0:0:
39,242,41893,2,0,L|51:146,2,90,2|2|2,0:0|0:0|0:0,0:0:0:0:
86,267,42652,6,0,P|144:239|224:239,1,120,4|8,0:3|0:0,0:0:0:0:
282,303,43412,1,2,0:0:0:0:
383,267,43791,1,10,0:0:0:0:
485,301,44171,6,0,B|508:235|459:245|485:158,1,120,4|8,0:3|0:0,0:0:0:0:
493,131,44741,1,0,0:0:0:0:
504,78,44931,2,0,L|410:94,1,90,4|10,0:3|0:0,0:0:0:0:
358,150,45500,5,6,0:3:0:0:
294,63,45880,1,4,0:3:0:0:
294,63,46070,2,0,L|227:60,1,60,8|0,0:0|0:0,0:0:0:0:
193,96,46450,2,0,L|130:93,1,60,6|0,0:3|0:0,0:0:0:0:
91,127,46829,1,6,0:3:0:0:
155,220,47209,5,4,0:3:0:0:
155,220,47399,2,0,L|144:349,1,120,2|0,0:0|0:0,0:0:0:0:
195,358,47969,1,0,0:0:0:0:
195,358,48158,2,0,L|261:344,1,60,4|8,0:3|0:0,0:0:0:0:
306,331,48538,5,6,0:3:0:0:
412,349,48918,1,4,0:3:0:0:
476,259,49298,2,0,P|427:207|459:161,1,120,6|4,0:3|0:3,0:0:0:0:
484,135,49867,2,0,L|474:12,1,120,8|4,0:0|0:3,0:0:0:0:
350,120,50817,5,2,0:1:0:0:
299,30,51196,1,0,0:0:0:0:
299,30,51386,1,8,0:0:0:0:
197,72,51766,6,0,L|88:83,2,90,4|2|0,0:3|0:0|0:0,0:0:0:0:
223,119,52526,2,0,L|203:184,1,60,2|4,0:0|0:3,0:0:0:0:
155,197,52905,2,0,L|33:179,1,120,8|4,0:0|0:3,0:0:0:0:
56,285,53664,5,8,0:0:0:0:
164,285,54045,2,0,P|149:339|121:370,2,90,2|2|2,0:0|0:0|0:0,0:0:0:0:
145,234,54804,6,0,L|267:216,1,120,4|8,0:3|0:0,0:0:0:0:
330,131,55564,1,2,0:0:0:0:
436,116,55943,1,10,0:0:0:0:
452,222,56323,6,0,B|463:299|463:299|437:331,1,120,4|8,0:3|0:0,0:0:0:0:
382,326,56893,1,0,0:0:0:0:
329,321,57083,2,0,L|230:314,1,90,4|4,0:3|0:3,0:0:0:0:
158,309,57652,5,6,0:3:0:0:
57,349,58032,1,4,0:3:0:0:
57,349,58222,2,0,L|50:279,1,60,8|0,0:0|0:0,0:0:0:0:
81,244,58602,2,0,L|74:174,1,60,6|0,0:3|0:0,0:0:0:0:
97,135,58981,1,6,0:3:0:0:
84,27,59361,5,6,0:3:0:0:
84,27,59551,2,0,P|154:55|213:46,1,120,0|0,0:0|0:0,0:0:0:0:
247,31,60121,1,0,0:0:0:0:
247,31,60310,2,0,L|252:110,1,60,4|8,0:3|0:0,0:0:0:0:
281,135,60690,5,4,0:3:0:0:
387,105,61070,1,6,0:3:0:0:
421,207,61450,1,4,0:3:0:0:
320,244,61830,1,6,0:3:0:0:
362,343,62209,6,0,B|270:383|287:293|170:344,1,180,6|0,0:3|0:0,0:0:0:0:
141,361,62969,1,10,0:0:0:0:
61,297,63348,1,0,0:0:0:0:
61,297,63538,1,10,0:0:0:0:
115,203,63918,6,0,L|107:102,2,90,4|2|2,0:3|0:0|0:0,0:0:0:0:
157,236,64677,2,0,B|225:230|225:230|256:209|256:209|356:199,1,180,4|0,0:3|0:3,0:0:0:0:
383,195,65437,5,4,0:3:0:0:
472,330,66007,1,2,0:0:0:0:
310,345,66576,1,2,0:0:0:0:
381,199,67146,2,0,P|403:137|401:125,1,60,8|8,0:0|0:2,0:0:0:0:
376,104,67526,1,4,0:3:0:0:
376,104,67715,2,0,B|262:38|256:154|131:81,1,240,2|0,0:0|0:0,0:0:0:0:
45,132,68855,6,0,L|60:268,1,120,12|0,0:0|0:0,0:0:0:0:
93,292,69424,1,4,0:3:0:0:
155,203,69804,1,4,0:3:0:0:
244,264,70184,2,0,L|234:330,1,60,4|8,0:3|0:0,0:0:0:0:
274,361,70564,1,2,0:0:0:0:
377,332,70943,2,0,L|497:303,1,120,4|8,0:3|0:0,0:0:0:0:
502,250,71513,6,0,P|469:209|468:139,1,120,4|8,0:3|0:0,0:0:0:0:
491,95,72083,2,0,P|438:103|377:68,1,120,4|0,0:3|0:0,0:0:0:0:
342,34,72652,1,8,0:0:0:0:
318,139,73032,6,0,B|329:176|329:176|316:231,2,80,4|2|2,0:3|0:0|0:0,0:0:0:0:
251,100,73791,2,0,B|210:90|210:90|173:101,2,80,4|2|2,0:3|0:0|0:0,0:0:0:0:
212,177,74551,6,0,P|158:188|132:179,1,60,4|0,0:3|0:0,0:0:0:0:
112,161,74931,1,8,0:0:0:0:
112,161,75121,1,2,0:0:0:0:
13,204,75500,2,0,L|22:280,1,60,4|8,0:3|0:0,0:0:0:0:
19,317,75880,6,0,B|91:320|91:320|125:343|125:343|215:349,1,180,4|10,0:3|0:0,0:0:0:0:
246,342,76640,1,4,0:3:0:0:
330,273,77019,1,4,0:3:0:0:
330,273,77209,2,0,L|396:265,1,60,8|2,0:0|0:0,0:0:0:0:
432,299,77589,5,4,0:3:0:0:
449,33,79108,5,10,0:0:0:0:
437,140,79488,1,10,0:0:0:0:
329,129,79867,1,10,0:0:0:0:
339,21,80247,1,10,0:0:0:0:
230,19,80627,6,0,B|105:34,1,107.999996704102,4|8,0:3|0:0,0:0:0:0:
69,42,81196,1,2,0:0:0:0:
135,127,81576,1,4,0:3:0:0:
54,198,81956,1,0,0:0:0:0:
54,198,82146,6,0,L|-6:193,2,53.9999983520508,4|0|8,0:3|0:0|0:0,0:0:0:0:
83,243,82715,1,2,0:0:0:0:
105,348,83095,1,4,0:3:0:0:
263,313,83665,5,4,0:3:0:0:
263,313,83855,2,0,L|366:332,1,80.9999975280763,2|0,0:0|0:0,0:0:0:0:
413,295,84424,2,0,L|500:284,2,80.9999975280763,4|8|4,0:3|0:0|0:3,0:0:0:0:
384,250,85184,6,0,L|389:180,1,53.9999983520508,2|4,0:0|0:3,0:0:0:0:
425,156,85564,2,0,L|430:86,1,53.9999983520508,10|0,0:0|0:0,0:0:0:0:
468,65,85943,1,10,0:0:0:0:
373,13,86323,2,0,L|310:22,1,53.9999983520508,10|2,0:0|0:0,0:0:0:0:
265,29,86703,6,0,P|256:125|269:155,1,107.999996704102,4|10,0:3|0:0,0:0:0:0:
290,177,87272,1,2,0:0:0:0:
275,284,87652,1,4,0:3:0:0:
171,283,88032,1,0,0:0:0:0:
171,283,88222,6,0,L|178:358,2,53.9999983520508,4|0|8,0:3|0:0|0:0,0:0:0:0:
163,229,88791,1,2,0:0:0:0:
66,220,89171,1,4,0:3:0:0:
55,172,89361,1,8,0:0:0:0:
42,125,89551,6,0,B|135:175|144:78|251:147,1,215.999993408203,2|2,0:0|0:0,0:0:0:0:
344,119,90690,1,0,0:0:0:0:
344,119,90880,1,0,0:0:0:0:
393,35,91260,6,0,P|320:23|296:34,2,80.9999975280763,2|2|2,0:0|0:0|0:0,0:0:0:0:
434,69,92019,1,2,0:0:0:0:
344,119,92399,1,2,0:0:0:0:
398,199,92779,1,4,0:0:0:0:
57,322,97146,6,0,L|69:189,1,120,12|0,0:0|0:0,0:0:0:0:
52,150,97715,2,0,L|124:138,1,60,8|0,0:0|0:0,0:0:0:0:
136,92,98095,2,0,L|208:80,1,60,12|0,0:0|0:0,0:0:0:0:
231,42,98475,1,8,0:0:0:0:
317,116,98855,5,4,0:3:0:0:
317,116,99045,2,0,L|446:125,1,120,0|0,0:0|0:0,0:0:0:0:
474,162,99614,1,0,0:0:0:0:
474,162,99804,2,0,L|449:225,1,60,4|8,0:3|0:0,0:0:0:0:
403,243,100184,5,6,0:3:0:0:
359,341,100564,1,4,0:3:0:0:
252,300,100943,2,0,P|193:293|142:333,1,120,6|4,0:3|0:3,0:0:0:0:
93,342,101513,2,0,L|83:219,1,120,8|4,0:0|0:3,0:0:0:0:
64,61,102462,5,2,0:1:0:0:
157,126,102842,1,2,0:0:0:0:
157,126,103032,1,8,0:0:0:0:
260,96,103412,6,0,L|270:-16,2,90,4|0|0,0:3|0:0|0:0,0:0:0:0:
284,144,104171,2,0,L|352:120,1,60,2|4,0:0|0:3,0:0:0:0:
387,103,104551,2,0,L|399:232,1,120,8|2,0:0|0:0,0:0:0:0:
370,326,105310,5,8,0:0:0:0:
272,279,105690,2,0,P|242:245|234:201,2,90,2|2|2,0:0|0:0|0:0,0:0:0:0:
265,332,106450,6,0,L|135:350,1,120,4|8,0:3|0:0,0:0:0:0:
42,317,107209,1,2,0:0:0:0:
88,219,107589,1,10,0:0:0:0:
23,132,107969,6,0,P|93:111|149:130,1,120,4|8,0:3|0:0,0:0:0:0:
183,95,108538,1,0,0:0:0:0:
228,66,108728,2,0,L|333:78,1,90,4|8,0:3|0:0,0:0:0:0:
398,81,109298,5,6,0:3:0:0:
441,185,109677,1,4,0:3:0:0:
441,185,109867,2,0,L|371:192,1,60,8|0,0:0|0:0,0:0:0:0:
336,161,110248,2,0,L|266:168,1,60,6|0,0:3|0:0,0:0:0:0:
227,145,110627,1,6,0:3:0:0:
167,236,111007,5,4,0:3:0:0:
167,236,111196,2,0,P|164:308|207:360,1,120,0|0,0:0|0:0,0:0:0:0:
242,336,111766,1,0,0:0:0:0:
242,336,111956,2,0,L|324:344,1,60,4|8,0:3|0:0,0:0:0:0:
356,342,112336,5,4,0:3:0:0:
451,292,112715,1,6,0:3:0:0:
408,197,113095,1,4,0:3:0:0:
308,238,113475,1,6,0:3:0:0:
275,134,113855,6,0,B|183:94|200:184|83:133,1,180,6|0,0:3|0:0,0:0:0:0:
55,113,114614,1,10,0:0:0:0:
19,217,114994,1,0,0:0:0:0:
19,217,115184,1,10,0:0:0:0:
110,271,115564,6,0,L|89:367,2,90,4|2|2,0:3|0:0|0:0,0:0:0:0:
158,246,116323,1,0,0:3:0:0:
158,246,116513,2,0,B|211:272|211:272|292:264,1,120,0|0,0:3|0:3,0:0:0:0:
325,273,117083,6,0,P|362:224|362:155,1,120,4|2,0:3|0:0,0:0:0:0:
389,61,117843,2,0,L|289:74,1,90,8|8,0:0|0:0,0:0:0:0:
221,93,118412,1,12,0:0:0:0:
125,43,118792,2,0,P|115:122|145:172,1,120,0|2,0:0|0:0,0:0:0:0:
167,197,119362,5,4,0:3:0:0:
82,264,119742,1,4,0:3:0:0:
148,348,120121,6,0,L|275:337,1,120,4|2,0:3|0:0,0:0:0:0:
305,299,120691,1,0,0:0:0:0:
305,299,120880,2,0,L|416:311,1,90,8|8,0:0|0:0,0:0:0:0:
475,320,121450,1,8,0:0:0:0:
489,212,121830,6,0,L|495:133,2,60,2|2|2,0:0|0:0|0:0,0:0:0:0:
437,228,122400,1,4,0:3:0:0:
366,140,122780,1,4,0:3:0:0:
390,35,123159,6,0,P|330:34|280:75,1,120,4|2,0:3|0:0,0:0:0:0:
271,176,123919,2,0,L|172:168,1,90,8|8,0:0|0:0,0:0:0:0:
104,161,124489,1,8,0:0:0:0:
104,161,124678,5,4,0:3:0:0:
9,213,125058,1,6,0:3:0:0:
64,305,125438,1,4,0:3:0:0:
157,251,125818,1,6,0:3:0:0:
231,328,126197,6,0,L|359:319,1,120,4|2,0:3|0:0,0:0:0:0:
405,341,126767,1,0,0:0:0:0:
405,341,126957,2,0,L|415:242,1,90,8|8,0:0|0:0,0:0:0:0:
423,170,127527,1,8,0:0:0:0:
436,63,127906,6,0,L|508:81,2,60,2|2|2,0:0|0:0|0:0,0:0:0:0:
387,86,128476,1,4,0:3:0:0:
294,29,128855,2,0,P|214:31|173:63,1,120,4|2,0:0|0:0,0:0:0:0:
