osu file format v14

[General]
AudioFilename: audio.mp3
AudioLeadIn: 0
PreviewTime: 40753
Countdown: 0
SampleSet: Soft
StackLeniency: 0.2
Mode: 0
LetterboxInBreaks: 0
WidescreenStoryboard: 1

[Editor]
Bookmarks: 67715,75500,80247,113665,118981
DistanceSpacing: 0.6
BeatDivisor: 4
GridSize: 32
TimelineZoom: 1

[Metadata]
Title:Kiraku na Cloudy
TitleUnicode:気楽なCloudy
Artist:technoplanet feat. Haruno
ArtistUnicode:technoplanet feat. はるの
Creator:SaltyLucario
Version:Lokidoki's Insane~
Source:Cytus II
Tags:saltking salty 2 ハセガワシュン hasegawa shun ka9ra Kuroto Sion electropop electronic pop video rhythm game japanese rayark inc. short ver. version lokidoki seulgij
BeatmapID:2434684
BeatmapSetID:1165203

[Difficulty]
HPDrainRate:5.5
CircleSize:4.2
OverallDifficulty:7.5
ApproachRate:9
SliderMultiplier:1.8
SliderTickRate:1

[Events]
//Background and Video events
0,0,"smile.jpg",0,0
//Break Periods
//Storyboard Layer 0 (Background)
//Storyboard Layer 1 (Fail)
//Storyboard Layer 2 (Pass)
//Storyboard Layer 3 (Foreground)
//Storyboard Layer 4 (Overlay)
//Storyboard Sound Samples

[TimingPoints]
1640,379.746835443038,4,2,1,50,1,0
3823,-100,4,2,2,60,0,0
3918,-100,4,2,1,60,0,0
4298,-100,4,2,1,70,0,0
4488,-100,4,2,1,80,0,0
5437,-66.6666666666667,4,2,1,80,0,0
6007,-133.333333333333,4,2,1,80,0,0
6386,-100,4,2,1,80,0,0
6956,-66.6666666666667,4,2,1,80,0,0
7715,-100,4,2,1,80,0,0
8475,-66.6666666666667,4,2,1,80,0,0
9045,-133.333333333333,4,2,1,80,0,0
9424,-100,4,2,1,80,0,0
9994,-66.6666666666667,4,2,1,80,0,0
10374,-133.333333333333,4,2,1,80,0,0
10753,-66.6666666666667,4,2,1,80,0,0
12083,-133.333333333333,4,2,1,80,0,0
14551,-66.6666666666667,4,2,1,80,0,0
15121,-133.333333333333,4,2,1,80,0,0
16070,-66.6666666666667,4,2,1,80,0,0
16829,-133.333333333333,4,2,1,80,0,0
21386,-133.333333333333,4,2,1,60,0,0
22905,-133.333333333333,4,2,1,70,0,0
28981,-100,4,2,1,60,0,0
30500,-133.333333333333,4,2,1,60,0,0
32019,-100,4,2,1,70,0,0
37146,-133.333333333333,4,2,1,70,0,0
37336,-100,4,2,1,70,0,0
40753,-80,4,2,1,70,0,0
41133,-80,4,2,1,80,0,0
50247,-133.333333333333,4,2,1,80,0,0
51766,-80,4,2,1,80,0,0
62209,-133.333333333333,4,2,1,80,0,0
63918,-80,4,2,1,80,0,0
65437,-80,4,2,1,60,0,0
66576,-133.333333333333,4,2,1,60,0,0
68475,-100,4,2,1,60,0,0
68855,-100,4,2,1,80,0,0
79108,-80,4,2,1,80,0,0
80627,-100,4,2,1,70,0,0
92779,-133.333333333333,4,2,1,50,0,0
97146,-80,4,2,1,80,0,0
98475,-133.333333333333,4,2,1,80,0,0
98855,-100,4,2,1,80,0,0
100184,-80,4,2,1,80,0,0
101893,-133.333333333333,4,2,1,80,0,0
103412,-80,4,2,1,80,0,0
113855,-133.333333333333,4,2,1,80,0,0
115564,-80,4,2,1,80,0,0
117842,-66.6666666666667,4,2,1,80,0,0
118412,-133.333333333333,4,2,1,80,0,0
118791,-100,4,2,1,80,0,0
119361,-66.6666666666667,4,2,1,80,0,0
120121,-100,4,2,1,80,0,0
120880,-66.6666666666667,4,2,1,80,0,0
121450,-133.333333333333,4,2,1,80,0,0
121829,-100,4,2,1,80,0,0
122399,-66.6666666666667,4,2,1,80,0,0
122779,-133.333333333333,4,2,1,80,0,0
123158,-66.6666666666667,4,2,1,80,0,0
124488,-133.333333333333,4,2,1,80,0,0
124867,-100,4,2,1,80,0,0
126956,-66.6666666666667,4,2,1,80,0,0
127526,-133.333333333333,4,2,1,80,0,0

[Colours]
Combo1 : 222,61,235
Combo2 : 240,0,84
Combo3 : 238,220,0
Combo4 : 98,232,101
Combo5 : 70,119,219

[HitObjects]
40,30,1640,6,0,P|72:35|99:107,1,90,2|0,0:0|0:0,0:0:0:0:
88,93,1924,2,0,P|64:81|60:34,1,45
148,138,2209,5,2,0:0:0:0:
80,168,2304,2,0,L|28:148,1,45
53,236,2494,2,0,L|1:216,2,45,2|0|0,0:0|0:0|0:0,0:0:0:0:
86,306,2779,6,0,L|141:297,1,45,2|0,0:0|0:0,0:0:0:0:
155,295,2969,2,0,L|210:286,1,45,0|2,0:0|0:0,0:0:0:0:
256,192,3158,12,2,4298,0:0:0:0:
270,19,4677,6,0,L|278:70,1,45,4|0,0:3|0:0,0:0:0:0:
231,118,4867,5,2,0:0:0:0:
240,126,4962,1,0,0:0:0:0:
338,103,5057,5,2,0:0:0:0:
329,111,5152,1,0,0:0:0:0:
295,176,5247,5,2,0:0:0:0:
295,176,5437,2,0,B|379:197|296:239|431:267,1,135,8|0,0:0|0:0,0:0:0:0:
491,132,5722,2,0,B|435:137|413:182|413:182|441:162|497:186,1,135.000005149842,8|0,0:0|0:0,0:0:0:0:
486,308,6007,6,0,B|495:276|495:276|474:248,1,67.5000025749208,12|0,0:0|0:0,0:0:0:0:
394,257,6386,5,2,0:0:0:0:
394,257,6481,2,0,B|385:302|385:302|414:334,1,90
331,370,6766,2,0,L|282:365,1,45
224,235,6956,6,0,B|164:250|167:309|167:309|115:275|77:312,1,202.500007724762,4|0,0:3|0:0,0:0:0:0:
42,151,7336,6,0,B|51:205|115:214|115:214|146:154|108:120,1,202.500007724762,4|0,0:3|0:0,0:0:0:0:
143,46,7715,5,4,0:3:0:0:
154,50,7810,1,0,0:0:0:0:
201,114,7905,5,0,0:0:0:0:
212,118,8000,1,0,0:0:0:0:
262,30,8095,6,0,L|308:20,2,45,2|0|0,0:0|0:0|0:0,0:0:0:0:
281,175,8380,1,2,0:0:0:0:
281,175,8475,6,0,B|346:134|341:193|422:130,1,135.000005149842,8|0,0:0|0:0,0:0:0:0:
338,327,8760,2,0,B|299:283|332:237|332:237|332:280|353:297,1,135.000005149842,8|0,0:0|0:0,0:0:0:0:
416,316,9045,6,0,B|429:350|429:350|403:377,1,67.5000025749208,8|0,0:0|0:0,0:0:0:0:
338,327,9424,5,2,0:0:0:0:
338,327,9519,2,0,P|313:330|286:358,1,45
216,315,9709,2,0,P|206:291|172:272,2,45
85,234,9994,6,0,B|105:216|116:173|116:173|107:230|107:230|101:237|101:237|93:314,1,202.500007724762,4|0,0:3|0:0,0:0:0:0:
96,317,10374,6,0,B|71:308|71:308|13:327,1,67.5000025749208
88,97,10753,6,0,B|128:71|168:105|168:105|168:114|168:114|214:154|266:119,1,202.500007724762,4|0,0:3|0:0,0:0:0:0:
339,30,11133,6,0,B|325:32|325:32|307:72,3,45.0000017166138,2|2|2|2,0:0|0:0|0:0|0:0,0:0:0:0:
360,216,11513,6,0,B|381:171|343:133|343:133|359:166|352:182,1,135.000005149842,8|0,0:0|0:0,0:0:0:0:
249,235,11798,2,0,B|332:260|261:295|387:307,1,135.000005149842,8|0,0:0|0:0,0:0:0:0:
423,351,12083,6,0,B|446:325|446:325|436:293,1,67.5000025749208,8|4,0:0|0:3,0:0:0:0:
484,234,12367,5,2,0:0:0:0:
484,234,12462,2,0,L|528:226,1,33.7500012874604,2|0,0:0|0:0,0:0:0:0:
471,158,12652,6,0,L|515:150,3,33.7500012874604,6|0|0|0,0:3|0:0|0:0|0:0,0:0:0:0:
456,84,13032,6,0,L|500:76,3,33.7500012874604,4|0|0|0,0:3|0:0|0:0|0:0,0:0:0:0:
441,12,13412,6,0,L|485:4,3,33.7500012874604,6|0|0|0,0:3|0:0|0:0|0:0,0:0:0:0:
377,59,13791,5,4,0:3:0:0:
366,56,13886,1,0,0:0:0:0:
305,0,13981,5,0,0:0:0:0:
307,11,14076,1,0,0:0:0:0:
275,113,14171,6,0,L|297:83,3,33.7500012874604,2|0|0|2,0:0|0:0|0:0|0:0,0:0:0:0:
263,184,14551,6,0,B|295:199|302:236|302:236|295:199|321:171,1,135.000005149842,8|0,0:0|0:0,0:0:0:0:
419,246,14836,2,0,B|348:260|391:308|295:321,1,135.000005149842,8|0,0:0|0:0,0:0:0:0:
242,350,15121,6,0,B|224:321|224:321|236:291,1,67.5000025749208,8|0,0:0|0:0,0:0:0:0:
263,184,15500,5,2,0:0:0:0:
250,186,15595,1,0,0:0:0:0:
182,149,15690,5,2,0:0:0:0:
169,151,15785,1,0,0:0:0:0:
101,115,15880,5,2,0:0:0:0:
88,117,15975,1,0,0:0:0:0:
73,40,16070,6,0,B|135:28|135:28|137:23|137:23|200:11|200:11|156:29|139:69,1,202.500007724762,4|0,0:3|0:0,0:0:0:0:
317,160,16450,6,0,B|306:121|306:121|264:107|264:107|261:101|261:101|206:81,1,135.000005149842,4|0,0:0|0:0,0:0:0:0:
277,292,16829,6,0,P|302:289|340:312,1,67.5000025749208,4|0,0:3|0:0,0:0:0:0:
349,328,17114,1,0,0:0:0:0:
362,348,17209,2,0,P|387:350|425:327,2,67.5000025749208,8|0|0,0:0|0:0|0:0,0:0:0:0:
256,211,17779,5,4,0:3:0:0:
317,160,17969,2,0,L|404:179,1,67.5000025749208,8|0,0:0|0:0,0:0:0:0:
256,211,18348,6,0,B|221:218|221:218|217:226|217:226|185:232,1,67.5000025749208,4|0,0:3|0:0,0:0:0:0:
179,231,18633,2,0,B|144:224|144:224|140:216|140:216|108:210,1,67.5000025749208,2|0,0:0|0:0,0:0:0:0:
163,302,18918,6,0,B|179:304|189:321|189:321|197:305|216:303,1,67.5000025749208,2|0,0:0|0:0,0:0:0:0:
185,148,19298,1,4,0:3:0:0:
215,80,19488,6,0,B|184:66|184:66|153:81,1,67.5000025749208,8|0,0:0|0:0,0:0:0:0:
260,144,19867,6,0,L|298:133,1,33.7500012874604,4|0,0:3|0:0,0:0:0:0:
306,141,20057,1,0,0:0:0:0:
433,144,20247,6,0,L|400:153,3,33.7500012874604,8|0|0|0,0:0|0:0|0:0|0:0,0:0:0:0:
446,154,20627,2,0,L|484:143,1,33.7500012874604
491,152,20817,1,4,0:3:0:0:
437,235,20912,6,0,L|475:224,1,33.7500012874604,0|8,0:0|0:0,0:0:0:0:
482,233,21102,1,0,0:0:0:0:
429,318,21196,5,2,0:0:0:0:
197,208,21386,6,0,B|190:174|190:174|207:145,1,67.5000025749208
206,145,21766,2,0,B|238:155|238:155|255:185,1,67.5000025749208,2|0,0:0|0:0,0:0:0:0:
255,184,22146,2,0,B|229:207|229:207|195:206,1,67.5000025749208
156,270,22526,5,2,0:0:0:0:
72,163,22715,1,0,0:0:0:0:
72,163,22810,1,0,0:0:0:0:
72,163,22905,2,0,B|89:176|89:176|94:237,1,67.5000025749208,4|0,0:3|0:0,0:0:0:0:
85,232,23190,1,0,0:0:0:0:
77,243,23285,2,0,L|83:281,2,33.7500012874604,8|0|0,0:0|0:0|0:0,0:0:0:0:
196,206,23665,6,0,L|282:218,1,67.5000025749208,2|4,0:0|0:3,0:0:0:0:
280,101,24045,2,0,L|213:91,1,67.5000025749208,10|0,0:0|0:0,0:0:0:0:
135,121,24424,6,0,B|118:71|118:71|151:34,2,101.250003862381,4|2|2,0:3|0:0|0:0,0:0:0:0:
85,183,25184,1,0,0:0:0:0:
85,183,25279,1,0,0:0:0:0:
85,183,25374,2,0,L|11:193,1,67.5000025749208,4|8,0:3|0:0,0:0:0:0:
0,267,25753,1,0,0:0:0:0:
49,331,25943,6,0,B|118:295|105:353|184:305,1,135.000005149842,4|8,0:3|0:0,0:0:0:0:
243,177,26513,2,0,B|225:192|225:192|219:243,1,67.5000025749208,2|0,0:0|0:0,0:0:0:0:
266,308,26893,1,4,0:3:0:0:
365,321,27083,6,0,L|432:299,1,67.5000025749208,8|2,0:0|0:0,0:0:0:0:
243,177,27462,1,4,0:3:0:0:
273,104,27842,5,8,0:0:0:0:
266,308,28412,5,4,0:3:0:0:
243,177,28602,1,8,0:0:0:0:
384,54,28981,6,0,B|374:83|374:83|345:90|345:90|339:89|339:89|253:108,1,135,6|0,0:3|0:0,0:0:0:0:
217,52,29361,5,2,0:0:0:0:
207,54,29456,1,2,0:0:0:0:
167,116,29551,5,2,0:0:0:0:
157,118,29646,1,0,0:0:0:0:
118,186,29741,6,0,L|130:233,1,45
59,320,29931,1,4,0:3:0:0:
59,320,30121,6,0,B|125:279|123:344|201:273,1,135,8|0,0:0|0:0,0:0:0:0:
202,277,30500,6,0,B|221:301|221:301|210:353,1,67.5000025749208
129,229,30880,2,0,B|121:192|121:192|140:168,1,67.5000025749208,2|0,0:0|0:0,0:0:0:0:
153,157,31165,1,0,0:0:0:0:
178,159,31260,2,0,B|213:170|213:170|224:198,2,67.5000025749208,2|2|2,0:0|0:0|0:0,0:0:0:0:
120,79,31829,5,0,0:0:0:0:
174,20,32019,2,0,L|326:45,1,135,8|0,0:0|0:0,0:0:0:0:
313,55,32399,2,0,L|465:80,1,135,8|0,0:0|0:0,0:0:0:0:
457,90,32779,1,8,0:0:0:0:
389,160,32969,5,2,0:0:0:0:
393,172,33064,1,2,0:0:0:0:
446,221,33158,1,2,0:0:0:0:
450,233,33253,1,0,0:0:0:0:
508,274,33348,1,0,0:0:0:0:
512,286,33443,1,0,0:0:0:0:
443,345,33538,6,0,B|386:356|386:356|378:368|378:368|316:378,1,135,4|0,0:3|0:0,0:0:0:0:
298,368,33918,1,8,0:0:0:0:
299,213,34108,2,0,B|328:228|328:228|339:290,1,90,4|0,0:3|0:0,0:0:0:0:
298,368,34488,5,4,0:3:0:0:
284,362,34583,1,4,0:3:0:0:
269,355,34677,2,0,L|218:367,2,45,10|2|8,0:0|0:0|0:0,0:0:0:0:
206,286,35057,6,0,L|85:313,1,90,4|0,0:3|0:0,0:0:0:0:
118,305,35437,2,0,B|90:278|90:278|97:192,1,90,8|0,0:0|0:0,0:0:0:0:
54,162,35817,1,0,0:0:0:0:
142,57,36007,2,0,L|229:76,1,90,4|8,0:3|0:0,0:0:0:0:
359,21,36386,1,2,0:0:0:0:
359,21,36481,1,2,0:0:0:0:
359,21,36576,6,0,P|331:30|309:88,1,90,6|0,0:3|0:0,0:0:0:0:
371,128,36861,2,0,P|410:108|422:66,1,90,6|0,0:3|0:0,0:0:0:0:
304,155,37146,6,0,B|294:170|294:170|305:193,1,33.7500012874604,8|0,0:0|0:0,0:0:0:0:
345,250,37336,6,0,L|301:259,1,45,2|2,0:0|0:0,0:0:0:0:
290,272,37526,1,4,0:3:0:0:
277,287,37621,2,0,L|233:296,1,45,4|8,0:3|0:0,0:0:0:0:
158,308,37905,1,0,0:0:0:0:
173,173,38095,6,0,B|188:152|176:120|176:120|217:175|185:241,1,180,4|8,0:3|0:0,0:0:0:0:
117,69,38665,6,0,B|152:40|152:40|195:47,1,90,4|0,0:3|0:0,0:0:0:0:
264,11,39045,1,4,0:3:0:0:
346,82,39234,1,8,0:0:0:0:
450,27,39424,2,0,L|440:119,1,90,4|0,0:3|0:0,0:0:0:0:
446,134,39709,1,0,0:0:0:0:
451,150,39804,6,0,L|447:194,4,30,4|2|2|2|0,0:3|0:0|0:0|0:0|0:0,0:0:0:0:
454,198,40184,1,4,0:3:0:0:
496,270,40374,2,0,B|451:286|451:286|412:268,1,90,4|4,0:3|0:3,0:0:0:0:
344,337,40753,6,0,B|285:322|285:265|285:265|329:263|347:226,1,168.75,8|0,0:0|0:0,0:0:0:0:
248,157,41133,6,0,B|246:176|246:176|282:191,1,56.25,6|0,0:3|0:0,0:0:0:0:
334,77,41323,2,0,B|319:89|319:89|334:125,1,56.25,2|0,0:0|0:0,0:0:0:0:
454,89,41513,1,10,0:0:0:0:
454,89,41608,1,2,0:0:0:0:
454,89,41703,2,0,B|435:87|435:87|420:123,1,56.25,2|0,0:0|0:0,0:0:0:0:
512,218,41893,6,0,L|389:194,1,112.5,2|4,0:0|0:3,0:0:0:0:
394,208,42177,1,2,0:0:0:0:
358,297,42272,6,0,B|375:309|385:338|385:338|386:271|386:271|389:265|389:265|386:202,1,168.75,8|0,0:0|0:0,0:0:0:0:
454,89,42652,6,0,B|435:87|435:87|420:123,1,56.25,4|0,0:3|0:0,0:0:0:0:
334,77,42842,2,0,B|319:89|319:89|334:125,1,56.25,2|0,0:0|0:0,0:0:0:0:
248,157,43032,1,10,0:0:0:0:
248,157,43127,1,2,0:0:0:0:
248,157,43222,2,0,B|246:176|246:176|282:191,1,56.25,2|0,0:0|0:0,0:0:0:0:
262,278,43412,6,0,L|148:293,1,112.5,2|4,0:0|0:3,0:0:0:0:
146,304,43696,1,2,0:0:0:0:
98,125,43791,6,0,B|125:135|125:135|139:221,1,112.5,8|0,0:0|0:0,0:0:0:0:
127,226,44076,1,0,0:0:0:0:
12,317,44171,6,0,B|112:329|52:376|172:385,1,168.75,4|0,0:3|0:0,0:0:0:0:
264,289,44551,1,10,0:0:0:0:
264,289,44646,2,0,B|240:307|240:307|228:360,2,56.25
294,204,44931,6,0,B|282:127|282:127|295:142|313:147,1,112.5,4|0,0:3|0:0,0:0:0:0:
370,30,45215,2,0,B|346:48|346:48|334:101,1,56.25,10|0,0:0|0:0,0:0:0:0:
512,161,45405,1,0,0:0:0:0:
512,161,45500,6,0,B|448:148|448:148|441:152|441:152|391:139|391:139|421:153|431:177,1,168.75,6|0,0:3|0:0,0:0:0:0:
366,210,45880,6,0,L|372:267,1,56.25,4|0,0:3|0:0,0:0:0:0:
451,234,46070,2,0,L|457:291,1,56.25,8|0,0:0|0:0,0:0:0:0:
283,249,46260,6,0,L|289:306,1,56.25
368,273,46450,2,0,L|374:330,1,56.25,6|0,0:3|0:0,0:0:0:0:
200,289,46640,6,0,L|206:346,1,56.25
285,313,46830,2,0,L|291:370,3,56.25,6|0|0|0,0:3|0:0|0:0|0:0,0:0:0:0:
265,157,47209,6,0,B|194:158|172:217|172:217|205:198|250:229,1,168.75,4|0,0:3|0:0,0:0:0:0:
277,79,47589,2,0,B|371:108|300:146|417:182,1,168.75,8|0,0:0|0:0,0:0:0:0:
419,173,47969,1,0,0:0:0:0:
490,225,48158,2,0,B|509:173|509:173|487:120,1,112.5,4|8,0:3|0:0,0:0:0:0:
409,264,48538,6,0,B|358:275|358:275|338:269|338:269|293:278|293:278|338:288|357:332,1,168.75,6|0,0:3|0:0,0:0:0:0:
280,354,48918,2,0,B|230:333|230:333|212:264|212:264|213:256|213:256|201:213,1,168.75,4|0,0:3|0:0,0:0:0:0:
273,105,49298,6,0,B|293:116|293:116|276:218,1,112.5,6|0,0:3|0:0,0:0:0:0:
226,43,49677,5,4,0:3:0:0:
377,122,49867,5,8,0:0:0:0:
387,126,49962,1,0,0:0:0:0:
438,180,50057,1,0,0:0:0:0:
448,184,50152,1,0,0:0:0:0:
512,145,50247,6,0,P|474:165|498:247,1,135.000005149842,4|0,0:3|0:0,0:0:0:0:
489,243,50817,2,0,B|467:268|467:268|496:336,1,101.250003862381,2|0,0:1|0:0,0:0:0:0:
487,343,51196,1,0,0:0:0:0:
372,321,51386,1,8,0:0:0:0:
264,357,51576,5,0,0:0:0:0:
264,357,51671,1,0,0:0:0:0:
264,357,51766,2,0,B|232:309|265:273|265:273|282:290,1,112.5,4|0,0:3|0:0,0:0:0:0:
343,155,52051,2,0,B|375:203|342:239|342:239|325:222,1,112.5,2|0,0:0|0:0,0:0:0:0:
254,191,52336,6,0,B|207:179|207:179|189:186|189:186|129:171,2,112.5,2|0|4,0:0|0:0|0:3,0:0:0:0:
276,117,52810,1,0,0:0:0:0:
276,117,52905,2,0,B|270:94|270:94|293:58,1,56.25,8|0,0:0|0:0,0:0:0:0:
220,3,53095,2,0,B|225:25|225:25|203:62,1,56.25
141,83,53285,6,0,L|81:73,1,56.25,4|0,0:3|0:0,0:0:0:0:
124,160,53475,2,0,L|64:150,1,56.25,2|0,0:0|0:0,0:0:0:0:
107,238,53665,1,10,0:0:0:0:
107,238,53760,1,2,0:0:0:0:
107,238,53855,2,0,L|47:228,1,56.25,2|0,0:0|0:0,0:0:0:0:
151,318,54045,6,0,B|180:305|180:305|204:216,1,112.5,2|4,0:0|0:3,0:0:0:0:
213,223,54329,1,2,0:0:0:0:
346,177,54424,6,0,B|303:171|303:171|293:160|293:160|235:152|235:152|264:160|276:180,1,168.75,8|0,0:0|0:0,0:0:0:0:
107,238,54804,6,0,L|47:228,1,56.25,4|0,0:3|0:0,0:0:0:0:
124,160,54994,2,0,L|64:150,1,56.25,2|0,0:0|0:0,0:0:0:0:
141,83,55184,1,10,0:0:0:0:
141,83,55279,1,2,0:0:0:0:
141,83,55374,2,0,L|81:73,1,56.25,2|0,0:0|0:0,0:0:0:0:
209,29,55564,6,0,B|279:48|231:83|337:96,1,112.5,2|4,0:0|0:3,0:0:0:0:
316,81,55848,1,2,0:0:0:0:
367,154,55943,6,0,B|384:175|381:210|381:210|395:163|395:163|394:159|394:159|407:105,1,168.75,8|0,0:0|0:0,0:0:0:0:
470,54,56323,6,0,B|429:16|429:16|374:30,1,112.5,4|0,0:3|0:0,0:0:0:0:
479,160,56608,1,2,0:0:0:0:
479,160,56703,2,0,B|496:155|496:155|518:110,2,56.25,8|0|0,0:0|0:0|0:0,0:0:0:0:
382,210,56988,5,0,0:0:0:0:
382,210,57083,2,0,B|339:222|339:222|332:239|332:239|265:258,1,112.5,4|0,0:3|0:0,0:0:0:0:
179,137,57367,2,0,B|223:156|224:207|224:207|154:193,1,112.5,4|0,0:3|0:0,0:0:0:0:
251,367,57652,6,0,B|218:346|218:346|275:329|275:329|286:332|286:332|347:314,1,168.75,6|0,0:3|0:0,0:0:0:0:
355,323,58032,1,4,0:3:0:0:
417,161,58222,6,0,L|406:99,1,56.25,8|0,0:0|0:0,0:0:0:0:
393,34,58412,1,0,0:0:0:0:
291,172,58602,6,0,L|280:110,1,56.25,6|0,0:3|0:0,0:0:0:0:
267,45,58791,1,0,0:0:0:0:
169,184,58981,6,0,L|158:122,1,56.25,6|0,0:3|0:0,0:0:0:0:
145,57,59170,1,0,0:0:0:0:
142,46,59266,1,0,0:0:0:0:
139,36,59361,6,0,B|68:5|21:68|21:68|45:81|62:105,1,168.75,6|0,0:3|0:0,0:0:0:0:
82,153,59741,6,0,B|40:198|73:252|73:252|67:295|31:301,1,168.75,8|0,0:0|0:0,0:0:0:0:
37,311,60121,1,0,0:0:0:0:
116,358,60310,1,4,0:3:0:0:
173,290,60500,1,8,0:0:0:0:
303,258,60690,6,0,B|385:210|364:287|473:230,1,168.75,4|0,0:3|0:0,0:0:0:0:
425,85,61070,2,0,B|390:119|409:167|409:167|421:114|470:106,1,168.75,6|0,0:3|0:0,0:0:0:0:
449,317,61450,6,0,B|484:283|465:235|465:235|453:288|404:296,1,168.75,4|0,0:3|0:0,0:0:0:0:
257,164,61829,2,0,B|280:172|280:172|306:272,1,112.5,6|0,0:3|0:0,0:0:0:0:
242,340,62209,6,0,B|187:327|187:327|180:331|180:331|113:312|113:312|160:302|181:266,1,202.500007724762,6|0,0:3|0:0,0:0:0:0:
76,176,62969,2,0,B|95:183|95:183|111:238,1,67.5000025749208,10|0,0:0|0:0,0:0:0:0:
44,273,63348,1,0,0:0:0:0:
194,135,63538,6,0,B|202:153|202:153|174:203,1,67.5000025749208,10|0,0:0|0:0,0:0:0:0:
141,80,63918,6,0,P|193:56|267:105,1,112.5,4|0,0:3|0:0,0:0:0:0:
258,86,64203,2,0,P|310:102|360:78,1,112.5,2|0,0:0|0:0,0:0:0:0:
368,62,64488,1,2,0:0:0:0:
441,8,64677,1,4,0:3:0:0:
499,90,64867,5,8,0:3:0:0:
496,100,64962,1,8,0:3:0:0:
440,149,65057,1,8,0:2:0:0:
437,159,65152,1,8,0:3:0:0:
383,212,65247,1,8,0:3:0:0:
380,222,65342,1,8,0:3:0:0:
426,288,65437,6,0,B|395:293|380:320|380:320|362:293|339:289,1,112.5,4|0,0:3|0:0,0:0:0:0:
380,222,65817,1,0,0:0:0:0:
340,157,66007,2,0,B|362:153|380:125|380:125|395:153|426:158,1,112.5,2|0,0:0|0:0,0:0:0:0:
380,222,66386,5,0,0:0:0:0:
284,35,66576,2,0,B|305:44|305:44|323:106,1,67.5000025749208,2|0,0:0|0:0,0:0:0:0:
380,222,66956,5,0,0:0:0:0:
481,35,67146,2,0,B|460:44|460:44|442:106,1,67.5000025749208,8|8,0:0|0:0,0:0:0:0:
381,125,67526,1,4,0:3:0:0:
317,86,67715,5,0,0:0:0:0:
307,89,67810,1,2,0:0:0:0:
258,141,67905,1,0,0:0:0:0:
248,144,68000,1,0,0:0:0:0:
190,95,68095,5,2,0:0:0:0:
180,98,68190,1,2,0:0:0:0:
131,150,68285,1,2,0:0:0:0:
121,153,68380,1,2,0:0:0:0:
47,135,68475,6,0,B|13:170|31:223|31:223|41:202|73:189,1,135
270,264,68855,6,0,B|208:251|208:251|171:274|171:274|88:256,1,180,12|0,0:0|0:0,0:0:0:0:
347,226,69424,2,0,B|358:249|358:249|340:331,1,90,4|8,0:3|0:0,0:0:0:0:
274,186,69804,2,0,L|267:91,1,90,4|0,0:3|0:0,0:0:0:0:
313,35,70184,1,4,0:3:0:0:
406,97,70374,1,8,0:0:0:0:
274,186,70564,6,0,B|197:201|247:233|151:255,1,135,2|0,0:0|0:0,0:0:0:0:
153,261,70943,2,0,B|136:245|136:245|138:220,1,45,4|0,0:3|0:0,0:0:0:0:
65,204,71133,2,0,B|64:180|64:180|83:164,1,45,8|0,0:0|0:0,0:0:0:0:
41,109,71323,2,0,B|57:92|57:92|82:94,1,45,8|8,0:0|0:0,0:0:0:0:
140,41,71513,5,4,0:3:0:0:
151,46,71608,1,2,0:0:0:0:
200,96,71703,1,2,0:0:0:0:
211,101,71798,1,2,0:0:0:0:
303,36,71893,6,0,B|290:39|290:39|277:75,1,45,8|0,0:0|0:0,0:0:0:0:
358,153,72083,6,0,B|361:140|361:140|337:110,3,45,4|2|2|2,0:3|0:0|0:0|0:0,0:0:0:0:
223,138,72462,2,0,B|232:147|232:147|269:141,1,45
286,217,72652,6,0,L|221:228,1,45,8|2,0:0|0:0,0:0:0:0:
231,235,72842,2,0,L|166:246,1,45,2|2,0:0|0:0,0:0:0:0:
71,228,73032,6,0,B|94:215|106:181|106:181|102:234|102:234|98:239|98:239|94:307,1,180,4|8,0:3|0:0,0:0:0:0:
89,376,73602,1,2,0:0:0:0:
186,242,73791,2,0,B|168:261|168:261|188:326,1,90,4|0,0:3|0:0,0:0:0:0:
272,312,74171,2,0,B|290:293|290:293|271:231,1,90,10|2,0:0|0:0,0:0:0:0:
325,148,74551,5,4,0:3:0:0:
337,150,74646,1,0,0:0:0:0:
396,192,74741,1,0,0:0:0:0:
408,194,74836,1,2,0:0:0:0:
476,110,75026,5,0,0:0:0:0:
476,110,75121,2,0,B|462:116|462:116|465:164,2,45,0|2|0,0:0|0:0|0:0,0:0:0:0:
481,239,75405,5,0,0:0:0:0:
469,237,75500,1,4,0:3:0:0:
459,235,75595,2,0,B|444:281|444:281|464:325,1,90,2|0,0:0|0:0,0:0:0:0:
390,354,75880,6,0,L|370:306,1,45,4|0,0:3|0:0,0:0:0:0:
319,379,76070,2,0,L|299:331,1,45,2|0,0:0|0:0,0:0:0:0:
216,310,76260,6,0,L|233:351,1,45,4|0,0:3|0:0,0:0:0:0:
287,285,76450,2,0,L|304:326,1,45,10|0,0:0|0:0,0:0:0:0:
350,174,76640,5,4,0:3:0:0:
351,175,76734,2,0,B|368:202|354:238|354:238|332:207|291:205,1,135,2|4,0:0|0:3,0:0:0:0:
246,106,77209,5,8,0:0:0:0:
246,106,77304,1,0,0:0:0:0:
246,106,77399,2,0,B|234:127|234:127|246:154,1,45,2|0,0:0|0:0,0:0:0:0:
218,217,77589,5,4,0:3:0:0:
28,163,79108,6,0,B|136:166|67:217|187:227,1,168.75,10|0,0:0|0:0,0:0:0:0:
193,41,79488,2,0,B|132:82|166:143|166:143|194:108|255:100,1,168.75,10|0,0:0|0:0,0:0:0:0:
254,251,79867,2,0,B|315:210|281:149|281:149|253:184|192:192,1,168.75,10|0,0:0|0:0,0:0:0:0:
177,226,80247,2,0,B|137:244|128:290|128:290|137:244|104:209,1,168.75,10|0,0:0|0:0,0:0:0:0:
96,216,80627,5,4,0:3:0:0:
43,275,80817,1,0,0:0:0:0:
166,365,81007,2,0,P|190:345|251:344,1,90,10|0,0:0|0:0,0:0:0:0:
322,373,81386,6,0,B|337:341|337:341|323:287,1,90,0|4,0:0|0:3,0:0:0:0:
316,292,81671,2,0,B|301:260|301:260|315:206,1,90,2|0,0:0|0:0,0:0:0:0:
323,207,81956,2,0,B|338:175|338:175|324:121,1,90,2|4,0:0|0:3,0:0:0:0:
363,55,82336,5,0,0:0:0:0:
429,99,82526,2,0,B|450:57|450:57|431:18,1,90,8|0,0:0|0:0,0:0:0:0:
324,122,82905,6,0,B|309:154|309:154|323:208,1,90,0|4,0:0|0:3,0:0:0:0:
330,203,83190,2,0,B|345:235|345:235|331:289,1,90,2|0,0:0|0:0,0:0:0:0:
323,288,83475,2,0,B|308:320|308:320|322:374,2,90,2|4|2,0:0|0:3|0:0,0:0:0:0:
257,245,84045,5,8,0:0:0:0:
257,245,84140,1,0,0:0:0:0:
257,245,84234,2,0,L|167:259,1,90,2|4,0:0|0:3,0:0:0:0:
147,150,84614,1,0,0:0:0:0:
147,150,84709,2,0,B|161:156|161:156|179:190,1,45,8|0,0:0|0:0,0:0:0:0:
94,255,84899,2,0,B|92:239|92:239|112:207,1,45,0|4,0:0|0:3,0:0:0:0:
126,326,85184,5,2,0:0:0:0:
32,310,85374,1,4,0:3:0:0:
174,182,85564,5,10,0:0:0:0:
268,166,85754,1,0,0:0:0:0:
65,31,85943,6,0,B|89:45|89:45|103:119,1,90,10|0,0:0|0:0,0:0:0:0:
174,182,86323,1,10,0:0:0:0:
184,185,86418,1,2,0:0:0:0:
232,240,86513,1,2,0:0:0:0:
242,243,86608,1,2,0:0:0:0:
293,327,86703,6,0,L|188:307,1,90,4|0,0:3|0:0,0:0:0:0:
349,271,87083,1,10,0:0:0:0:
349,271,87177,1,0,0:0:0:0:
349,271,87272,2,0,B|368:285|368:285|370:363,1,90,2|0,0:0|0:0,0:0:0:0:
405,214,87652,2,0,B|386:200|386:200|384:122,1,90,4|8,0:3|0:0,0:0:0:0:
394,58,88032,5,0,0:0:0:0:
394,58,88127,1,0,0:0:0:0:
394,58,88222,2,0,P|431:70|459:127,1,90,4|2,0:3|0:0,0:0:0:0:
307,157,88602,2,0,P|298:118|334:66,1,90,8|2,0:0|0:0,0:0:0:0:
437,185,88981,2,0,P|408:211|344:206,1,90,0|4,0:0|0:3,0:0:0:0:
307,157,89361,1,8,0:0:0:0:
235,246,89551,2,0,B|217:270|217:270|237:351,1,90,2|0,0:0|0:0,0:0:0:0:
231,328,90310,5,2,0:1:0:0:
307,157,90690,5,0,0:0:0:0:
231,328,90880,1,0,0:0:0:0:
79,84,91260,6,0,L|174:69,1,90,2|0,0:0|0:0,0:0:0:0:
232,117,91545,1,2,0:0:0:0:
232,117,91640,2,0,B|242:103|242:103|244:71,1,45
314,52,91829,2,0,B|311:35|311:35|289:10,1,45,2|0,0:0|0:0,0:0:0:0:
319,126,92019,6,0,L|371:133,1,45,2|0,0:0|0:0,0:0:0:0:
352,203,92209,2,0,L|307:196,3,45,0|0|2|2,0:0|0:0|0:0|0:0,0:0:0:0:
361,217,92589,1,2,0:0:0:0:
478,116,92779,6,0,B|489:129|489:129|486:145,3,33.7500012874604,4|0|0|0,0:0|0:0|0:0|0:0,0:0:0:0:
445,241,93158,2,0,B|442:224|442:224|453:211,3,33.7500012874604
477,308,93538,5,2,0:0:0:0:
477,308,93823,1,2,0:0:0:0:
477,308,94108,1,2,0:0:0:0:
425,365,94298,5,0,0:0:0:0:
425,365,94393,1,0,0:0:0:0:
425,365,94488,2,0,L|384:370,1,33.7500012874604
378,361,94677,2,0,L|337:366,1,33.7500012874604
300,306,94867,5,0,0:0:0:0:
300,306,94962,1,0,0:0:0:0:
300,306,95057,2,0,B|287:288|287:288|297:222,1,67.5000025749208,2|0,0:0|0:0,0:0:0:0:
303,238,95342,2,0,L|313:191,1,33.7500012874604
252,91,95627,5,0,0:0:0:0:
252,91,95722,1,0,0:0:0:0:
252,91,95817,2,0,B|192:97|192:97|183:104|183:104|120:110,1,135.000005149842,2|0,0:0|0:0,0:0:0:0:
116,122,96291,1,0,0:0:0:0:
112,134,96386,1,0,0:0:0:0:
108,146,96481,1,0,0:0:0:0:
105,158,96576,6,0,B|106:177|106:177|116:191,1,33.7500012874604
136,260,96766,2,0,L|181:247,2,33.7500012874604
238,291,97146,6,0,B|270:222|210:178|210:178|258:213|323:187,1,225,12|0,0:0|0:0,0:0:0:0:
449,24,97715,6,0,B|359:43|425:93|301:116,1,168.75,8|0,0:0|0:0,0:0:0:0:
313,113,98095,2,0,B|403:132|337:182|461:205,1,168.75,12|0,0:0|0:0,0:0:0:0:
493,261,98475,6,0,B|478:273|478:273|456:278,1,33.7500012874604,8|0,0:0|0:0,0:0:0:0:
491,349,98665,1,0,0:0:0:0:
488,360,98760,1,0,0:0:0:0:
484,374,98855,6,0,B|462:366|462:366|396:382,1,90,4|0,0:3|0:0,0:0:0:0:
335,331,99234,1,8,0:0:0:0:
380,231,99424,2,0,B|415:258|415:258|412:303,1,90
335,331,99804,2,0,B|301:301|301:301|306:256,1,90,4|8,0:3|0:0,0:0:0:0:
321,182,100184,6,0,B|325:142|299:96|299:96|314:139|288:184,1,168.75,6|0,0:3|0:0,0:0:0:0:
167,228,100564,2,0,B|151:208|121:202|121:202|190:212|190:212|194:218|194:218|243:228,1,168.75,4|0,0:3|0:0,0:0:0:0:
302,300,100943,6,0,B|244:312|244:312|218:355|218:355|130:377,1,168.75,6|0,0:3|0:0,0:0:0:0:
151,361,101323,1,4,0:3:0:0:
86,286,101513,5,8,0:0:0:0:
83,276,101608,1,2,0:0:0:0:
124,213,101703,1,2,0:0:0:0:
121,203,101798,1,2,0:0:0:0:
80,139,101893,6,0,B|109:121|109:121|140:130,1,67.5000025749208,4|0,0:3|0:0,0:0:0:0:
140,130,102462,1,2,0:1:0:0:
176,51,102842,6,0,B|187:57|187:57|194:87,1,33.7500012874604,2|0,0:0|0:0,0:0:0:0:
254,128,103032,2,0,B|243:134|243:134|236:164,1,33.7500012874604,8|0,0:0|0:0,0:0:0:0:
208,228,103222,5,2,0:0:0:0:
211,238,103317,1,0,0:0:0:0:
215,250,103412,2,0,B|260:280|301:235|301:235|240:247,1,112.5,4|0,0:3|0:0,0:0:0:0:
396,174,103696,2,0,B|411:176|411:176|370:131|325:161,1,112.5
410,285,103981,6,0,B|403:264|403:264|368:241,1,56.25
332,361,104171,2,0,B|341:341|341:341|333:300,1,56.25
260,332,104361,6,0,L|180:345,1,56.25,4|0,0:3|0:0,0:0:0:0:
143,290,104551,1,8,0:0:0:0:
139,280,104646,1,0,0:0:0:0:
170,212,104741,1,2,0:0:0:0:
166,202,104836,1,0,0:0:0:0:
97,103,104931,6,0,B|91:118|91:118|112:161,1,56.25,2|0,0:0|0:0,0:0:0:0:
208,61,105121,2,0,B|193:67|193:67|177:112,1,56.25,2|0,0:0|0:0,0:0:0:0:
321,103,105310,1,10,0:0:0:0:
321,103,105405,1,2,0:0:0:0:
321,103,105500,2,0,B|306:97|306:97|269:114,1,56.25
323,183,105690,6,0,B|371:197|371:197|376:205|376:205|451:224,1,112.5,2|4,0:0|0:3,0:0:0:0:
436,213,105975,1,2,0:0:0:0:
274,336,106070,6,0,B|248:309|248:309|266:231,1,112.5,8|2,0:0|0:0,0:0:0:0:
260,223,106355,1,0,0:0:0:0:
321,103,106450,6,0,B|306:97|306:97|269:114,1,56.25,4|0,0:3|0:0,0:0:0:0:
208,61,106640,2,0,B|193:67|193:67|177:112,1,56.25,2|0,0:0|0:0,0:0:0:0:
97,103,106829,1,10,0:0:0:0:
97,103,106924,1,2,0:0:0:0:
97,103,107019,2,0,B|91:118|91:118|112:161,1,56.25
67,220,107209,6,0,B|92:242|92:242|135:231|135:231|140:232|140:232|215:213,1,112.5,2|4,0:0|0:3,0:0:0:0:
175,213,107494,1,2,0:0:0:0:
248,251,107589,6,0,B|263:198|263:198|233:149,1,112.5,8|2,0:0|0:0,0:0:0:0:
176,299,107969,6,0,B|268:324|190:359|334:382,1,168.75,4|0,0:3|0:0,0:0:0:0:
397,281,108348,2,0,B|382:288|382:288|369:329,2,56.25,8|2|0,0:0|0:0|0:0,0:0:0:0:
445,354,108633,1,0,0:0:0:0:
445,354,108728,2,0,B|460:347|460:347|473:306,1,56.25,4|2,0:3|0:0,0:0:0:0:
331,233,108918,5,0,0:0:0:0:
331,233,109013,2,0,B|316:240|316:240|303:281,1,56.25,8|0,0:0|0:0,0:0:0:0:
459,236,109203,1,0,0:0:0:0:
459,236,109298,6,0,B|482:182|451:136|451:136|454:182|431:201,1,168.75,6|0,0:3|0:0,0:0:0:0:
380,141,109677,6,0,P|387:98|411:72,1,56.25,4|0,0:3|0:0,0:0:0:0:
334,40,109867,2,0,P|369:14|404:13,1,56.25,4|0,0:3|0:0,0:0:0:0:
188,105,110057,6,0,P|221:132|232:166,1,56.25,4|0,0:3|0:0,0:0:0:0:
298,115,110247,2,0,P|302:158|285:189,1,56.25,4|0,0:3|0:0,0:0:0:0:
216,222,110437,6,0,B|187:229|187:229|164:215,1,56.25
175,136,110627,2,0,B|204:129|204:129|227:143,3,56.25,6|0|0|0,0:3|0:0|0:0|0:0,0:0:0:0:
98,114,111007,6,0,B|63:64|106:8|106:8|152:44,1,168.75,4|0,0:3|0:0,0:0:0:0:
86,192,111386,2,0,B|33:204|33:204|26:218|26:218|-24:228|-24:228|10:234|26:270,1,168.75,8|0,0:0|0:0,0:0:0:0:
14,265,111766,1,0,0:0:0:0:
149,232,111956,6,0,B|166:177|166:177|135:131,1,112.5,4|8,0:3|0:0,0:0:0:0:
159,312,112336,6,0,B|116:320|84:280|84:280|116:320|83:382,1,168.75,4|0,0:3|0:0,0:0:0:0:
227,245,112715,6,0,B|190:220|196:169|196:169|190:220|123:240,1,168.75,6|0,0:3|0:0,0:0:0:0:
327,246,113095,6,0,B|319:203|359:170|359:170|319:203|257:170,1,168.75,4|0,0:3|0:0,0:0:0:0:
453,271,113475,6,0,P|440:246|416:232,1,56.25,6|0,0:3|0:0,0:0:0:0:
405,234,113665,2,0,P|417:258|441:272,1,56.25
495,181,113855,6,0,B|533:137|493:86|493:86|430:95|427:147,1,202.500007724762,6|0,0:3|0:0,0:0:0:0:
405,234,114614,2,0,B|378:245|378:245|320:224,1,67.5000025749208,10|0,0:0|0:0,0:0:0:0:
275,193,114994,1,0,0:0:0:0:
275,193,115184,6,0,B|248:181|248:181|190:202,1,67.5000025749208,10|0,0:0|0:0,0:0:0:0:
261,331,115564,6,0,B|273:299|245:268|245:268|245:293|228:310,1,112.5,4|0,0:3|0:0,0:0:0:0:
139,237,115848,2,0,B|126:268|154:299|154:299|154:274|171:257,1,112.5,2|0,0:0|0:0,0:0:0:0:
245,98,116133,6,0,B|216:116|216:116|211:199,1,112.5,2|4,0:0|0:3,0:0:0:0:
261,331,116513,5,8,0:3:0:0:
274,328,116608,1,8,0:3:0:0:
329,280,116703,1,8,0:0:0:0:
342,277,116798,1,8,0:3:0:0:
396,228,116893,1,8,0:3:0:0:
409,225,116988,1,8,0:3:0:0:
476,197,117083,6,0,B|489:224|489:224|474:255,1,56.25,4|0,0:3|0:0,0:0:0:0:
417,151,117272,2,0,B|403:123|403:123|418:92,1,56.25
428,85,117462,2,0,L|483:96,3,37.5,2|2|2|2,0:0|0:0|0:0|0:0,0:0:0:0:
269,17,117842,6,0,B|194:33|239:72|137:84,1,135.000005149842,8|0,0:0|0:0,0:0:0:0:
100,136,118127,2,0,B|76:113|78:73|78:73|60:109|30:115,1,135.000005149842,8|0,0:0|0:0,0:0:0:0:
77,207,118412,6,0,B|111:219|111:219|143:197,1,67.5000025749208,12|0,0:0|0:0,0:0:0:0:
207,154,118791,5,2,0:0:0:0:
207,154,118886,2,0,B|225:169|225:169|208:249,1,90
278,279,119171,2,0,L|325:270,1,45
396,235,119361,6,0,B|413:204|393:163|393:163|419:216|419:216|417:224|417:224|448:294,1,202.500007724762,4|0,0:3|0:0,0:0:0:0:
512,195,119741,6,0,B|495:226|515:267|515:267|489:214|489:214|491:206|491:206|460:136,1,202.500007724762,4|0,0:3|0:0,0:0:0:0:
447,79,120121,5,4,0:3:0:0:
437,83,120215,1,0,0:0:0:0:
365,63,120310,5,0,0:0:0:0:
355,67,120404,1,0,0:0:0:0:
275,42,120500,6,0,B|264:55|264:55|279:85,2,45,2|0|0,0:0|0:0|0:0,0:0:0:0:
212,145,120785,1,2,0:0:0:0:
212,145,120880,2,0,B|291:157|232:193|335:208,1,135.000005149842,8|0,0:0|0:0,0:0:0:0:
394,302,121165,2,0,B|421:271|403:224|403:224|396:265|350:274,1,135.000005149842,8|0,0:0|0:0,0:0:0:0:
354,363,121450,6,0,B|384:381|384:381|415:371,1,67.5000025749208,8|0,0:0|0:0,0:0:0:0:
298,281,121829,5,2,0:0:0:0:
298,281,121924,2,0,P|273:284|246:312,1,45
176,269,122114,2,0,P|166:245|132:226,2,45
104,167,122399,6,0,B|77:142|77:142|65:201|65:201|60:209|60:209|50:270|50:270|81:255,1,202.500007724762,4|0,0:3|0:0,0:0:0:0:
83,267,122779,6,0,B|103:298|103:298|88:338,1,67.5000025749208,4|0,0:3|0:0,0:0:0:0:
218,159,123158,6,0,B|252:173|266:212|266:212|320:138|249:66,1,202.500007724762,4|0,0:3|0:0,0:0:0:0:
215,23,123538,5,2,0:0:0:0:
223,32,123633,1,0,0:0:0:0:
305,13,123728,5,2,0:0:0:0:
299,23,123823,1,0,0:0:0:0:
362,85,123918,6,0,B|441:88|395:140|478:139,1,135.000005149842,8|0,0:0|0:0,0:0:0:0:
468,208,124203,2,0,B|434:219|424:256|424:256|434:219|402:190,1,135.000005149842,8|0,0:0|0:0,0:0:0:0:
381,316,124488,6,0,B|406:341|406:341|435:328,1,67.5000025749208,8|4,0:0|0:3,0:0:0:0:
308,252,124772,5,2,0:0:0:0:
308,252,124867,2,0,L|352:243,1,45
290,176,125057,6,0,L|333:166,3,45,6|0|0|0,0:3|0:0|0:0|0:0,0:0:0:0:
275,100,125437,6,0,L|318:90,3,45,4|0|0|0,0:3|0:0|0:0|0:0,0:0:0:0:
258,27,125817,6,0,L|301:17,3,45,6|0|0|0,0:3|0:0|0:0|0:0,0:0:0:0:
385,54,126196,6,0,B|398:73|398:73|393:94,1,45,4|0,0:3|0:0,0:0:0:0:
466,129,126386,2,0,B|461:151|461:151|443:163,1,45
436,241,126576,6,0,L|390:227,2,45,2|0|0,0:0|0:0|0:0,0:0:0:0:
496,317,126861,1,2,0:0:0:0:
496,317,126956,6,0,B|409:324|468:373|353:378,1,135.000005149842,8|0,0:0|0:0,0:0:0:0:
318,332,127241,2,0,B|283:307|289:268|289:268|321:291|318:331,1,135.000005149842,8|0,0:0|0:0,0:0:0:0:
239,365,127526,6,0,B|211:346|211:346|214:312,1,67.5000025749208,8|0,0:0|0:0,0:0:0:0:
199,136,127905,5,2,0:0:0:0:
187,140,128000,1,0,0:0:0:0:
140,199,128095,1,2,0:0:0:0:
128,203,128190,1,0,0:0:0:0:
82,259,128285,1,2,0:0:0:0:
70,263,128380,1,0,0:0:0:0:
26,326,128475,6,0,B|41:334|41:334|33:395,1,67.5000025749208,4|0,0:3|0:0,0:0:0:0:
49,186,128855,2,0,B|34:178|34:178|42:117,1,67.5000025749208,4|0,0:0|0:0,0:0:0:0:
51,56,129234,6,0,L|56:18,2,33.7500012874604,2|0|0,0:0|0:0|0:0,0:0:0:0:
