osu file format v14

[General]
AudioFilename: Redshift.mp3
AudioLeadIn: 0
PreviewTime: 72418
Countdown: 0
SampleSet: Drum
StackLeniency: 0.7
Mode: 0
LetterboxInBreaks: 0
WidescreenStoryboard: 0

[Editor]
DistanceSpacing: 1.3
BeatDivisor: 4
GridSize: 32
TimelineZoom: 1

[Metadata]
Title:Redshift
TitleUnicode:Redshift
Artist:technoplanet
ArtistUnicode:technoplanet
Creator:cmn_891127
Version:Normal
Source:MÚSECA
Tags:-kevincela-, セツコン
BeatmapID:1083210
BeatmapSetID:500717

[Difficulty]
HPDrainRate:3
CircleSize:3.4
OverallDifficulty:4
ApproachRate:6.1
SliderMultiplier:1.2
SliderTickRate:1

[Events]
//Background and Video events
0,0,"Redshift.jpg",0,0
//Break Periods
//Storyboard Layer 0 (Background)
//Storyboard Layer 1 (Fail)
//Storyboard Layer 2 (Pass)
//Storyboard Layer 3 (Foreground)
//Storyboard Layer 4 (Overlay)
//Storyboard Sound Samples

[TimingPoints]
3023,315.789473684211,4,3,1,50,1,0
53549,-100,4,2,1,40,0,0
66180,-100,4,3,1,50,0,0
72496,-100,4,3,1,50,0,1
112917,-100,4,3,1,50,0,0

[Colours]
Combo1 : 223,207,159
Combo2 : 159,223,159
Combo3 : 159,188,223
Combo4 : 223,159,169

[HitObjects]
256,127,3023,6,0,B|272:197|240:205|256:275,1,150,8|0,1:3|0:0,0:0:0:0:
166,353,3654,2,0,L|256:353,2,90
88,352,4286,6,0,B|72:282|104:274|88:204,1,150,0|0,1:0|0:0,0:0:0:0:
178,126,4917,2,0,L|88:126,2,90
256,126,5549,6,0,B|326:110|334:142|404:126,1,150,0|0,1:0|0:0,0:0:0:0:
482,216,6180,2,0,L|482:126,2,90
481,294,6812,6,0,B|411:310|403:278|333:294,1,150,0|0,1:0|0:0,0:0:0:0:
255,204,7443,2,0,L|255:294,2,90
333,204,8075,6,0,P|374:237|355:360,1,180,8|4,1:3|0:0,0:0:0:0:
255,204,9023,2,0,L|187:204,1,60
117,204,9338,2,0,L|97:85,1,120,0|0,1:0|0:0,0:0:0:0:
231,10,9970,2,0,L|211:129,1,120
279,178,10444,1,0,0:0:0:0:
279,178,10601,6,0,P|335:191|394:151,1,120,0|0,1:0|0:0,0:0:0:0:
325,113,11075,2,0,P|328:213|418:231,1,180
398,83,11865,6,0,L|488:83,2,90,0|0|0,1:0|0:0|0:0,0:0:0:0:
386,161,12496,2,0,L|476:161,2,90
321,206,13128,6,0,B|251:222|243:190|173:206,1,150,2|0,1:3|0:0,0:0:0:0:
95,116,13759,2,0,L|95:206,2,90
97,37,14391,6,0,B|167:21|175:53|245:37,1,150,0|0,1:0|0:0,0:0:0:0:
323,127,15022,2,0,L|323:37,2,90
244,129,15654,6,0,B|228:199|260:207|244:277,1,150,0|0,1:0|0:0,0:0:0:0:
334,355,16286,2,0,L|244:355,2,90
413,353,16917,6,0,B|429:283|397:275|413:205,1,150,0|0,1:0|0:0,0:0:0:0:
323,127,17549,2,0,L|413:127,2,90
322,205,18180,6,0,P|283:277|175:272,1,180,8|4,1:3|0:0,0:0:0:0:
323,127,19128,2,0,L|323:62,1,60
248,42,19444,2,0,P|202:32|131:72,1,120,0|0,1:0|0:0,0:0:0:0:
154,139,19917,2,0,P|199:148|270:108,1,120
323,67,20391,1,0,0:0:0:0:
386,205,20707,6,0,B|324:205|273:249|209:225,2,180,0|0|0,1:0|0:0|0:0,0:0:0:0:
250,124,21970,2,0,L|128:124,1,120
133,206,22444,1,0,0:0:0:0:
133,206,22601,2,0,L|133:292,2,60
281,154,23233,6,0,L|281:20,1,120,6|8,0:0|0:0,0:0:0:0:
360,154,23865,2,0,L|423:154,2,60,2|2|8,0:0|0:0|0:0,0:0:0:0:
204,154,24496,2,0,L|75:154,1,120,2|8,0:0|0:0,0:0:0:0:
56,230,24970,1,0,0:0:0:0:
56,230,25128,2,0,L|187:230,1,120,2|8,0:0|0:0,0:0:0:0:
332,232,25759,6,0,L|307:352,1,120,2|8,0:0|0:0,0:0:0:0:
411,233,26391,2,0,L|429:297,2,60,2|2|8,0:0|0:0|0:0,0:0:0:0:
369,81,27023,2,0,L|249:81,1,120,2|8,0:0|0:0,0:0:0:0:
219,233,27654,2,0,L|199:316,2,60,2|0|8,0:0|0:0|0:0,0:0:0:0:
132,96,28286,6,0,L|5:96,1,120,2|8,0:0|0:0,0:0:0:0:
210,97,28917,2,0,L|224:160,2,60,2|2|8,0:0|0:0|0:0,0:0:0:0:
347,21,29549,2,0,L|466:20,1,120,2|8,0:0|0:0,0:0:0:0:
497,96,30023,1,0,0:0:0:0:
497,96,30180,2,0,L|378:97,1,120,2|8,0:0|0:0,0:0:0:0:
310,238,30812,6,0,L|341:368,1,120,2|8,0:0|0:0,0:0:0:0:
232,238,31444,2,0,L|221:298,2,60,2|2|8,0:0|0:0|0:0,0:0:0:0:
172,115,32075,6,0,L|185:178,1,60,4|0,0:0|0:0,0:0:0:0:
189,39,32549,2,0,L|123:20,2,60
338,75,33180,1,8,0:0:0:0:
338,75,33338,6,0,L|364:203,1,120,6|8,0:0|0:0,0:0:0:0:
439,205,33812,2,0,L|484:150,2,60,0|2|2,0:0|0:0|0:0,0:0:0:0:
388,265,34286,2,0,L|343:320,1,60,8|8,0:0|0:0,0:0:0:0:
274,291,34601,2,0,L|149:266,1,120,2|8,0:0|0:0,0:0:0:0:
98,320,35075,2,0,L|110:392,2,60,0|2|2,0:0|0:0|0:0,0:0:0:0:
81,243,35549,2,0,L|69:171,1,60,8|8,0:0|0:0,0:0:0:0:
129,131,35865,6,0,L|224:35,1,120,2|8,0:0|0:0,0:0:0:0:
287,70,36338,2,0,L|301:133,2,60,0|2|2,0:0|0:0|0:0,0:0:0:0:
365,67,36812,2,0,L|379:130,1,60,8|8,0:0|0:0,0:0:0:0:
392,202,37128,2,0,L|529:202,2,120,2|8|2,0:0|0:0|0:0,0:0:0:0:
341,261,37917,2,0,L|360:342,2,60,2|8|8,0:0|0:0|0:0,0:0:0:0:
265,239,38391,6,0,L|140:239,1,120,2|8,0:0|0:0,0:0:0:0:
72,208,38865,2,0,L|8:185,2,60,0|2|2,0:0|0:0|0:0,0:0:0:0:
133,159,39338,2,0,L|155:98,1,60,8|8,0:0|0:0,0:0:0:0:
231,103,39654,2,0,L|351:103,2,120,2|8|2,0:0|0:0|0:0,0:0:0:0:
248,179,40444,2,0,L|269:257,2,60,2|8|8,0:0|0:0|0:0,0:0:0:0:
169,177,40917,6,0,L|135:302,1,120,2|8,0:0|0:0,0:0:0:0:
208,325,41391,1,0,0:0:0:0:
279,294,41549,2,0,L|248:179,1,120,2|8,0:0|0:0,0:0:0:0:
266,35,42180,2,0,P|324:39|366:89,1,120,4|0,0:0|0:0,0:0:0:0:
291,110,42654,2,0,P|308:26|392:10,1,180
358,165,43444,5,2,1:3:0:0:
358,165,43601,2,0,L|431:166,1,60,0|0,0:0|0:0,0:0:0:0:
299,218,44075,2,0,L|209:217,2,90
455,100,45023,2,0,L|429:22,1,60,0|0,0:0|0:0,0:0:0:0:
358,45,45338,2,0,L|358:166,1,120,0|0,0:0|0:0,0:0:0:0:
229,219,45970,5,0,1:0:0:0:
229,219,46128,2,0,L|159:219,1,60,0|0,0:0|0:0,0:0:0:0:
281,153,46601,2,0,L|373:153,2,90
232,91,47233,2,0,L|232:30,2,60,0|0|0,0:0|0:0|0:0,0:0:0:0:
182,151,47707,1,0,0:0:0:0:
182,151,47865,2,0,P|124:163|64:148,1,120,0|0,0:0|0:0,0:0:0:0:
130,291,48496,5,0,1:3:0:0:
130,291,48654,2,0,L|130:352,1,60,0|0,0:0|0:0,0:0:0:0:
185,230,49128,2,0,L|186:131,2,90,0|0|0,0:0|0:0|0:0,0:0:0:0:
235,290,49759,2,0,L|355:290,1,120
417,153,50391,2,0,L|286:153,1,120
176,205,51023,5,0,1:3:0:0:
176,205,51181,2,0,L|101:205,1,60,0|0,0:0|0:0,0:0:0:0:
201,74,51654,2,0,L|291:74,2,90
394,205,52601,2,0,L|268:205,2,120,0|0|0,0:0|0:0|0:0,0:0:0:0:
332,329,53549,6,0,P|418:327|456:250,2,180,2|0|0,3:2|0:0|0:0,0:0:0:0:
258,193,54812,1,0,0:0:0:0:
179,330,56075,6,0,P|93:327|55:251,2,180,2|0|0,0:0|0:0|0:0,0:0:0:0:
258,193,57338,1,0,0:0:0:0:
128,108,58602,6,0,L|253:81,1,120,2|0,0:0|0:0,0:0:0:0:
283,150,59075,2,0,L|411:178,2,120,0|0|0,0:0|0:0|0:0,0:0:0:0:
219,195,59865,2,0,L|92:248,1,120,0|0,0:0|0:0,0:0:0:0:
262,264,60496,2,0,L|245:352,2,90,0|0|0,0:0|0:0|0:0,0:0:0:0:
282,188,61128,6,0,P|323:140|432:172,1,180,0|0,1:3|0:0,0:0:0:0:
360,216,61759,1,0,0:0:0:0:
364,212,62075,1,0,0:0:0:0:
209,226,62391,6,0,P|168:178|59:210,1,180,0|0,1:3|0:0,0:0:0:0:
131,254,63022,1,0,0:0:0:0:
127,250,63338,1,0,0:0:0:0:
280,269,63654,6,0,P|321:221|430:253,1,180,0|0,1:3|0:0,0:0:0:0:
358,297,64285,1,0,0:0:0:0:
362,293,64601,1,0,0:0:0:0:
208,272,64917,2,0,L|168:158,1,120,0|0,1:3|0:0,0:0:0:0:
289,58,65549,2,0,L|328:171,1,120,0|0,3:0|0:0,0:0:0:0:
416,300,66181,6,0,L|410:155,1,120,2|0,1:3|0:0,0:0:0:0:
336,317,66812,2,0,L|330:172,1,120
256,335,67444,2,0,L|250:190,1,120,0|0,0:3|0:0,0:0:0:0:
176,352,68075,2,0,L|170:207,1,120
120,84,68707,6,0,L|135:163,1,60,2|0,1:3|0:0,0:0:0:0:
199,89,69023,2,0,L|214:168,1,60,0|0,1:0|0:0,0:0:0:0:
278,95,69338,2,0,L|293:174,1,60,0|0,1:3|0:0,0:0:0:0:
358,102,69654,2,0,L|373:181,1,60,0|0,1:0|0:0,0:0:0:0:
370,237,69970,2,0,L|338:354,1,120,4|0,0:0|0:0,0:0:0:0:
177,350,70601,2,0,L|146:234,1,120,4|0,0:0|0:0,0:0:0:0:
199,162,72496,6,0,L|161:284,1,120,6|0,0:0|0:0,0:0:0:0:
203,347,72970,2,0,P|271:375|363:325,1,180,0|8,0:0|0:0,0:0:0:0:
374,252,73602,1,0,0:0:0:0:
374,252,73760,2,0,B|323:244|266:297|193:266,1,180,2|0,0:0|0:0,0:0:0:0:
146,209,74391,2,0,L|123:119,2,90
222,193,75023,6,0,L|261:52,1,120,2|0,0:0|0:0,0:0:0:0:
326,48,75496,2,0,P|407:73|418:158,1,180,0|8,0:0|0:0,0:0:0:0:
350,202,76128,1,0,0:0:0:0:
350,202,76286,2,0,L|225:202,1,120,2|0,0:0|0:0,0:0:0:0:
229,123,76760,2,0,L|349:123,2,120
180,62,77549,6,0,B|111:70|68:114|6:98,2,180,2|2|8,0:0|0:0|0:0,0:0:0:0:
257,94,78654,1,0,0:0:0:0:
257,94,78812,2,0,L|281:233,1,120,2|0,0:0|0:0,0:0:0:0:
329,63,79444,2,0,L|434:63,2,90,2|0|0,0:0|0:0|0:0,0:0:0:0:
328,141,80075,6,0,P|249:216|179:174,2,180,2|0|8,0:0|0:0|0:0,0:0:0:0:
290,72,81181,1,0,0:0:0:0:
290,72,81338,2,0,L|177:-14,1,120,2|0,0:0|0:0,0:0:0:0:
248,137,81970,2,0,L|174:81,2,90,2|0|0,0:0|0:0|0:0,0:0:0:0:
308,190,82601,6,0,P|313:267|274:316,1,120,2|0,0:0|0:0,0:0:0:0:
217,325,83075,2,0,B|274:328|322:360|395:339,1,180,0|8,0:0|0:0,0:0:0:0:
436,273,83707,1,0,0:0:0:0:
436,273,83865,2,0,P|456:206|432:145,1,120,2|0,0:0|0:0,0:0:0:0:
363,154,84338,2,0,P|341:219|365:280,2,120,0|0|0,0:0|0:0|0:0,0:0:0:0:
328,84,85128,6,0,B|269:83|231:111|136:89,2,180,2|0|8,0:0|0:0|0:0,0:0:0:0:
391,137,86233,1,0,0:0:0:0:
391,137,86391,2,0,L|419:264,1,120,2|0,0:0|0:0,0:0:0:0:
272,167,87023,2,0,L|247:262,2,90,2|0|0,0:0|0:0|0:0,0:0:0:0:
290,89,87654,6,0,L|423:89,1,120,2|0,0:0|0:0,0:0:0:0:
464,145,88128,2,0,P|478:222|391:286,1,180,0|8,0:0|0:0,0:0:0:0:
329,277,88760,1,0,0:0:0:0:
329,277,88917,2,0,B|259:279|220:312|143:300,1,180,2|0,0:0|0:0,0:0:0:0:
86,257,89549,2,0,L|61:131,2,120,2|0|0,0:0|0:0|0:0,0:0:0:0:
256,192,90259,12,6,92706,0:0:0:0:
244,149,93338,6,0,L|122:135,1,120,0|8,0:0|0:0,0:0:0:0:
254,226,93970,2,0,L|314:214,2,60,2|0|0,0:0|0:0|0:0,0:0:0:0:
218,298,94444,1,0,0:0:0:0:
218,298,94602,2,0,L|318:310,2,90
176,228,95233,6,0,P|162:170|177:106,1,120,2|0,0:0|0:0,0:0:0:0:
225,52,95707,1,2,0:0:0:0:
225,52,95865,2,0,B|285:54|334:93|412:74,1,180
476,54,96496,2,0,L|555:54,2,60,2|0|0,0:0|0:0|0:0,0:0:0:0:
459,130,96970,2,0,L|425:273,2,120
382,112,97759,6,0,L|348:255,1,120,2|0,0:0|0:0,0:0:0:0:
277,209,98233,2,0,L|304:92,2,120
228,270,99023,2,0,L|268:392,1,120,2|0,0:0|0:0,0:0:0:0:
147,271,99654,2,0,L|52:272,2,90
228,270,100286,6,0,P|272:273|322:330,1,120,2|0,0:0|0:0,0:0:0:0:
245,349,100760,2,0,P|268:267|355:256,1,180,0|8,0:0|0:0,0:0:0:0:
432,280,101391,1,0,0:0:0:0:
432,280,101549,2,0,L|459:217,2,60,2|0|0,0:0|0:0|0:0,0:0:0:0:
353,255,102023,2,0,B|294:255|248:304|177:286,1,180,2|8,0:0|0:0,0:0:0:0:
116,235,102654,1,0,0:0:0:0:
116,235,102812,6,0,L|126:109,1,120,6|0,0:0|0:0,0:0:0:0:
167,48,103286,2,0,P|208:45|291:150,1,180,0|8,0:0|0:0,0:0:0:0:
273,219,103917,1,0,0:0:0:0:
273,219,104075,2,0,L|259:290,2,60,2|0|0,0:0|0:0|0:0,0:0:0:0:
348,196,104549,2,0,L|470:215,2,120
291,140,105338,6,0,L|163:160,1,120,2|0,0:0|0:0,0:0:0:0:
154,238,105812,2,0,L|272:219,2,120
95,178,106602,2,0,L|57:59,1,120,2|0,0:0|0:0,0:0:0:0:
172,158,107233,2,0,L|199:72,2,90
187,235,107865,6,0,L|325:235,1,120,2|8,0:0|0:0,0:0:0:0:
323,311,108338,1,0,0:0:0:0:
171,311,108654,2,0,L|155:374,2,60,0|8|0,0:0|0:0|0:0,0:0:0:0:
187,235,109128,6,0,L|325:235,2,120,2|8|2,0:0|0:0|0:0,0:0:0:0:
172,158,109917,2,0,L|161:91,1,60,0|8,0:0|0:0,0:0:0:0:
324,158,110391,6,0,L|341:37,1,120,2|8,0:0|0:0,0:0:0:0:
399,186,111023,2,0,L|416:65,1,120,2|8,0:0|0:0,0:0:0:0:
280,39,111654,6,0,L|340:39,1,60,2|2,0:0|0:0,0:0:0:0:
312,115,111970,2,0,L|252:115,1,60,8|2,0:0|0:0,0:0:0:0:
223,190,112286,2,0,L|342:190,1,120,2|8,0:0|0:0,0:0:0:0:
424,339,112917,6,0,B|440:269|408:261|424:191,1,150,0|0,1:0|0:0,0:0:0:0:
334,113,113549,2,0,L|431:113,2,90
256,113,114180,6,0,B|186:97|178:129|108:113,1,150,0|0,1:0|0:0,0:0:0:0:
30,203,114812,2,0,L|30:113,2,90
30,282,115444,6,0,B|100:298|108:266|178:282,1,150,0|0,1:0|0:0,0:0:0:0:
256,192,116075,2,0,L|256:282,2,90
256,192,116707,12,0,117891,2:0:0:0:
