osu file format v14

[General]
AudioFilename: Redshift.mp3
AudioLeadIn: 0
PreviewTime: 72418
Countdown: 0
SampleSet: Drum
StackLeniency: 0.7
Mode: 0
LetterboxInBreaks: 0
WidescreenStoryboard: 0

[Editor]
DistanceSpacing: 0.5
BeatDivisor: 4
GridSize: 8
TimelineZoom: 1.8

[Metadata]
Title:Redshift
TitleUnicode:Redshift
Artist:technoplanet
ArtistUnicode:technoplanet
Creator:cmn_891127
Version:Insane
Source:MÚSECA
Tags:-kevincela-, セツコン
BeatmapID:1085645
BeatmapSetID:500717

[Difficulty]
HPDrainRate:6
CircleSize:4
OverallDifficulty:7
ApproachRate:8.2
SliderMultiplier:1.2
SliderTickRate:1

[Events]
//Background and Video events
0,0,"Redshift.jpg",0,0
//Break Periods
//Storyboard Layer 0 (Background)
//Storyboard Layer 1 (Fail)
//Storyboard Layer 2 (Pass)
//Storyboard Layer 3 (Foreground)
//Storyboard Layer 4 (Overlay)
//Storyboard Sound Samples

[TimingPoints]
3023,315.789473684211,4,3,1,50,1,0
53549,-100,4,2,1,40,0,0
66180,-100,4,3,1,50,0,0
72496,-100,4,3,1,50,0,1
112917,-100,4,3,1,50,0,0

[Colours]
Combo1 : 223,207,159
Combo2 : 159,223,159
Combo3 : 159,188,223
Combo4 : 223,159,169

[HitObjects]
136,113,3023,5,0,0:0:0:0:
174,180,3180,2,0,L|168:267,1,60
208,249,3417,2,0,L|217:315,1,60
251,325,3654,2,0,P|296:327|339:309,2,90
276,206,4286,5,0,0:0:0:0:
348,177,4444,2,0,L|363:119,1,60
324,113,4680,2,0,L|318:45,1,60
284,33,4917,2,0,P|238:29|185:49,2,90
256,149,5549,5,0,0:0:0:0:
310,205,5707,2,0,L|378:194,1,60
381,233,5944,2,0,L|444:243,1,60
469,268,6180,2,0,P|482:317|473:367,2,90
360,319,6812,5,0,0:0:0:0:
310,258,6970,2,0,L|240:271,1,60
232,233,7207,2,0,L|172:233,1,60
140,208,7444,2,0,P|128:156|146:109,1,90
147,110,7759,1,0,0:0:0:0:
211,65,7917,1,0,0:0:0:0:
225,67,7996,1,0,0:0:0:0:
239,69,8074,1,8,0:0:0:0:
254,71,8549,6,0,L|320:71,1,60,4|0,0:0|0:0,0:0:0:0:
404,316,9022,1,0,0:0:0:0:
394,304,9101,1,0,0:0:0:0:
385,292,9180,1,0,0:0:0:0:
374,281,9259,1,0,0:0:0:0:
363,272,9338,2,0,L|293:282,1,60
179,317,9654,2,0,L|239:325,1,60
363,272,9970,6,0,L|293:262,1,60
179,317,10286,2,0,L|249:307,1,60
249,298,10523,1,0,0:0:0:0:
256,285,10601,6,0,P|271:231|256:176,1,90
258,184,10917,1,0,0:0:0:0:
186,152,11075,2,0,L|186:86,1,60
331,153,11549,2,0,L|331:93,1,60
280,33,11865,5,0,0:0:0:0:
218,167,12101,1,0,0:0:0:0:
93,73,12338,1,0,0:0:0:0:
112,149,12496,5,0,0:0:0:0:
180,15,12733,1,0,0:0:0:0:
297,99,12969,1,0,0:0:0:0:
312,99,13048,1,0,0:0:0:0:
327,99,13127,5,0,0:0:0:0:
395,136,13286,2,0,L|386:208,1,60
402,232,13523,2,0,L|415:295,1,60
390,321,13759,2,0,P|342:336|284:318,2,90
482,243,14391,5,0,0:0:0:0:
456,169,14549,2,0,L|392:148,1,60
360,160,14786,2,0,L|292:172,1,60
270,145,15023,2,0,P|260:104|274:47,2,90
333,247,15654,5,0,0:0:0:0:
257,266,15812,2,0,L|192:280,1,60
173,321,16049,2,0,L|108:321,1,60
73,318,16286,2,0,P|55:280|64:220,2,90
221,203,16917,5,0,0:0:0:0:
294,176,17075,2,0,L|357:152,1,60
386,139,17312,2,0,L|455:159,1,60
470,184,17549,2,0,P|483:226|470:281,1,90
467,283,17865,1,0,0:0:0:0:
391,266,18023,1,0,0:0:0:0:
377,272,18101,1,0,0:0:0:0:
363,279,18180,1,8,0:0:0:0:
187,136,18496,2,0,L|177:207,1,60,0|4,0:0|0:0,0:0:0:0:
178,195,19128,6,0,L|187:136,1,60,0|0,0:0|0:0,0:0:0:0:
203,65,19444,1,0,0:0:0:0:
203,65,19759,5,0,0:0:0:0:
381,41,19917,1,0,0:0:0:0:
381,41,20233,5,0,0:0:0:0:
203,65,20391,1,0,0:0:0:0:
203,65,20707,6,0,L|192:144,1,60,0|0,0:0|0:0,0:0:0:0:
136,179,21023,1,0,0:0:0:0:
143,192,21101,1,0,0:0:0:0:
149,205,21180,2,0,L|286:229,1,120
221,293,21654,2,0,L|103:273,1,120
74,200,22128,5,0,0:0:0:0:
72,185,22206,1,0,0:0:0:0:
70,170,22285,1,0,0:0:0:0:
68,155,22364,1,0,0:0:0:0:
66,140,22443,1,0,0:0:0:0:
130,95,22601,2,0,L|145:26,2,60
155,232,23233,6,0,L|143:159,1,60,6|0,0:0|0:0,0:0:0:0:
207,121,23550,1,8,0:0:0:0:
211,106,23628,1,0,0:0:0:0:
216,91,23707,1,0,0:0:0:0:
221,78,23786,1,0,0:0:0:0:
227,63,23865,2,0,L|303:63,1,60,2|2,0:0|0:0,0:0:0:0:
406,122,24180,2,0,L|327:122,1,60,8|0,0:0|0:0,0:0:0:0:
316,255,24496,6,0,L|329:197,1,60,2|0,0:0|0:0,0:0:0:0:
253,303,24812,1,8,0:0:0:0:
238,303,24891,1,0,0:0:0:0:
223,303,24970,1,0,0:0:0:0:
208,303,25049,1,0,0:0:0:0:
193,303,25128,2,0,L|212:238,1,60,2|0,0:0|0:0,0:0:0:0:
117,184,25444,2,0,L|135:250,1,60,8|8,0:0|0:0,0:0:0:0:
202,98,25759,6,0,L|144:112,1,60,2|0,0:0|0:0,0:0:0:0:
267,144,26076,1,8,0:0:0:0:
281,142,26154,1,0,0:0:0:0:
296,142,26233,1,0,0:0:0:0:
311,142,26312,1,0,0:0:0:0:
326,142,26391,2,0,L|392:153,1,60,2|2,0:0|0:0,0:0:0:0:
495,208,26707,2,0,L|436:217,1,60,8|0,0:0|0:0,0:0:0:0:
246,300,27023,6,0,L|180:288,1,60,2|0,0:0|0:0,0:0:0:0:
137,229,27337,1,8,0:0:0:0:
144,215,27416,1,0,0:0:0:0:
150,202,27495,1,0,0:0:0:0:
156,188,27574,1,0,0:0:0:0:
163,175,27654,2,0,L|101:152,1,60,2|0,0:0|0:0,0:0:0:0:
292,126,27970,2,0,L|223:139,1,60,8|8,0:0|0:0,0:0:0:0:
330,57,28286,6,0,L|397:44,1,60,2|0,0:0|0:0,0:0:0:0:
449,96,28601,1,8,0:0:0:0:
445,110,28680,1,0,0:0:0:0:
441,124,28759,1,0,0:0:0:0:
437,138,28838,1,0,0:0:0:0:
434,152,28917,2,0,L|428:214,1,60,2|2,0:0|0:0,0:0:0:0:
471,334,29233,2,0,L|476:274,1,60,8|0,0:0|0:0,0:0:0:0:
354,229,29549,6,0,L|294:229,1,60,2|0,0:0|0:0,0:0:0:0:
172,192,29865,1,8,0:0:0:0:
187,189,29943,1,0,0:0:0:0:
202,186,30022,1,0,0:0:0:0:
217,183,30101,1,0,0:0:0:0:
231,181,30180,2,0,L|280:132,1,60,2|0,0:0|0:0,0:0:0:0:
226,267,30496,2,0,L|177:316,1,60,8|8,0:0|0:0,0:0:0:0:
61,293,30812,6,0,L|103:335,1,60,2|0,0:0|0:0,0:0:0:0:
14,234,31128,1,8,0:0:0:0:
12,219,31206,1,0,0:0:0:0:
11,204,31285,1,0,0:0:0:0:
10,189,31364,1,0,0:0:0:0:
9,174,31444,2,0,L|5:115,1,60,2|2,0:0|0:0,0:0:0:0:
84,18,31759,2,0,L|72:82,1,60,8|0,0:0|0:0,0:0:0:0:
230,170,32075,5,4,0:0:0:0:
405,137,32233,1,0,0:0:0:0:
405,137,32549,1,0,0:0:0:0:
405,137,32865,1,0,0:0:0:0:
432,210,33023,1,0,0:0:0:0:
428,224,33101,1,0,0:0:0:0:
425,239,33180,1,8,0:0:0:0:
422,254,33259,1,0,0:0:0:0:
419,268,33338,1,6,0:0:0:0:
364,324,33496,5,0,0:0:0:0:
292,293,33654,1,8,0:0:0:0:
221,260,33812,1,0,0:0:0:0:
207,253,33891,1,0,0:0:0:0:
193,245,33970,2,0,L|116:251,2,60,2|2|8,0:0|0:0|0:0,0:0:0:0:
229,175,34443,1,0,0:0:0:0:
243,171,34522,1,0,0:0:0:0:
258,167,34601,1,2,0:0:0:0:
331,77,34759,5,0,0:0:0:0:
251,89,34917,1,8,0:0:0:0:
339,157,35075,1,0,0:0:0:0:
347,169,35154,1,0,0:0:0:0:
356,183,35233,2,0,L|347:249,1,60,2|0,0:0|0:0,0:0:0:0:
278,347,35549,2,0,L|287:265,2,60,8|8|2,0:0|0:0|0:0,0:0:0:0:
414,320,36023,5,2,0:0:0:0:
353,370,36180,1,10,0:0:0:0:
404,243,36338,1,0,0:0:0:0:
403,229,36417,1,0,0:0:0:0:
402,215,36496,2,0,L|394:154,2,60,2|2|8,0:0|0:0|0:0,0:0:0:0:
327,116,36969,1,0,0:0:0:0:
329,101,37048,1,0,0:0:0:0:
331,86,37127,1,2,0:0:0:0:
187,113,37286,5,0,0:0:0:0:
251,74,37444,1,8,0:0:0:0:
116,83,37601,1,0,0:0:0:0:
104,89,37680,1,0,0:0:0:0:
94,94,37759,2,0,L|24:101,1,60,2|0,0:0|0:0,0:0:0:0:
107,166,38075,1,8,0:0:0:0:
109,180,38153,1,0,0:0:0:0:
111,195,38232,1,8,0:0:0:0:
114,210,38311,1,0,0:0:0:0:
116,225,38390,1,2,0:0:0:0:
144,330,38549,5,0,0:0:0:0:
80,291,38707,1,8,0:0:0:0:
182,264,38865,1,0,0:0:0:0:
195,268,38944,1,0,0:0:0:0:
209,273,39023,2,0,L|278:265,2,60,2|2|8,0:0|0:0|0:0,0:0:0:0:
374,247,39496,1,0,0:0:0:0:
359,243,39575,1,0,0:0:0:0:
344,238,39654,1,2,0:0:0:0:
327,130,39812,5,0,0:0:0:0:
388,176,39970,1,8,0:0:0:0:
283,192,40128,1,0,0:0:0:0:
268,196,40207,1,0,0:0:0:0:
253,200,40286,2,0,L|193:199,2,60,2|0|8,0:0|0:0|0:0,0:0:0:0:
229,123,40758,1,8,0:0:0:0:
223,109,40837,1,0,0:0:0:0:
217,95,40916,1,2,0:0:0:0:
346,52,41075,5,0,0:0:0:0:
270,40,41233,1,8,0:0:0:0:
379,120,41391,1,0,0:0:0:0:
383,134,41470,1,0,0:0:0:0:
387,148,41549,2,0,L|374:218,2,60,2|0|0,0:0|0:0|0:0,0:0:0:0:
384,296,42022,1,0,0:0:0:0:
372,288,42101,1,0,0:0:0:0:
359,280,42180,6,0,L|257:272,1,90,4|0,0:0|0:0,0:0:0:0:
255,271,42496,1,0,0:0:0:0:
86,237,42654,2,0,L|178:229,1,90,4|0,0:0|0:0,0:0:0:0:
191,227,42970,1,0,0:0:0:0:
242,169,43128,1,4,0:0:0:0:
244,154,43206,1,0,0:0:0:0:
247,139,43285,1,0,0:0:0:0:
250,124,43364,1,0,0:0:0:0:
252,109,43443,5,0,0:0:0:0:
393,78,43601,1,0,0:0:0:0:
328,118,43759,1,0,0:0:0:0:
328,118,44075,2,0,L|339:200,1,60
374,170,44312,2,0,L|367:262,1,90
366,274,44628,1,0,0:0:0:0:
254,119,44865,5,0,0:0:0:0:
194,176,45023,2,0,L|175:174,6,15,0|0|0|0|0|0|0,0:0|0:0|0:0|0:0|0:0|0:0|0:0,0:0:0:0:
194,176,45338,2,0,L|200:242,1,60,0|0,0:0|0:0,0:0:0:0:
240,352,45654,2,0,L|253:281,1,60
335,111,45970,5,0,0:0:0:0:
294,230,46128,1,0,0:0:0:0:
276,159,46286,1,0,0:0:0:0:
276,159,46601,2,0,L|210:159,1,60,0|0,0:0|0:0,0:0:0:0:
223,198,46838,2,0,L|129:208,1,90
57,300,47233,5,0,0:0:0:0:
165,331,47391,1,0,0:0:0:0:
133,207,47549,1,0,0:0:0:0:
50,321,47707,1,0,0:0:0:0:
185,343,47865,2,0,L|257:336,1,60
275,312,48101,1,0,0:0:0:0:
290,314,48180,2,0,L|324:318,4,30
384,130,48654,5,0,0:0:0:0:
427,195,48812,1,0,0:0:0:0:
413,201,48891,1,0,0:0:0:0:
399,206,48970,1,0,0:0:0:0:
385,212,49049,1,0,0:0:0:0:
371,218,49128,2,0,L|311:217,1,60
275,234,49365,2,0,L|185:234,1,90
112,205,49759,6,0,P|96:161|108:90,1,120
157,29,50233,1,0,0:0:0:0:
171,31,50312,1,0,0:0:0:0:
185,33,50391,2,0,L|185:99,1,60
194,105,50628,1,0,0:0:0:0:
203,117,50707,2,0,L|211:187,1,60
221,255,51023,5,0,0:0:0:0:
373,272,51180,1,0,0:0:0:0:
314,208,51338,1,0,0:0:0:0:
314,208,51654,2,0,L|302:279,1,60
386,302,51891,2,0,L|386:242,1,60
303,267,52128,2,0,L|303:136,1,120,0|0,0:0|0:0,0:0:0:0:
271,92,52601,5,0,0:0:0:0:
271,92,52917,1,0,0:0:0:0:
271,92,53233,1,0,0:0:0:0:
271,92,53549,5,4,3:0:0:0:
339,129,53707,1,0,0:0:0:0:
416,138,53865,1,0,0:0:0:0:
490,115,54023,1,0,0:0:0:0:
490,115,54338,5,0,0:0:0:0:
441,176,54496,1,0,0:0:0:0:
439,252,54654,1,0,0:0:0:0:
443,266,54733,1,0,0:0:0:0:
451,279,54812,2,0,B|399:272|338:313|267:292,1,180
273,293,55601,1,0,0:0:0:0:
273,293,55917,1,0,0:0:0:0:
214,247,56075,5,2,0:0:0:0:
203,171,56233,1,0,0:0:0:0:
239,102,56391,1,0,0:0:0:0:
312,70,56549,1,0,0:0:0:0:
312,70,56865,5,0,0:0:0:0:
239,102,57023,1,0,0:0:0:0:
161,102,57180,1,0,0:0:0:0:
88,71,57338,2,0,B|78:134|109:191|87:258,1,180,0|0,0:0|0:0,0:0:0:0:
89,249,58128,1,0,0:0:0:0:
163,287,58286,1,0,0:0:0:0:
241,286,58444,1,0,0:0:0:0:
310,250,58601,5,2,0:0:0:0:
356,186,58759,2,0,P|361:145|350:118,1,60
313,62,59075,1,0,0:0:0:0:
254,114,59233,2,0,P|243:148|246:184,1,60
276,243,59549,1,0,0:0:0:0:
335,293,59707,2,0,P|365:304|403:302,1,60
467,280,60023,1,0,0:0:0:0:
440,206,60180,6,0,L|374:206,1,60
314,249,60496,2,0,P|267:264|215:254,2,90
330,172,61128,6,0,L|337:109,1,60,2|0,0:3|0:0,0:0:0:0:
240,88,61444,2,0,L|253:153,1,60
184,189,61759,2,0,P|144:199|66:177,1,120,0|0,0:0|0:0,0:0:0:0:
47,94,62233,1,0,0:0:0:0:
134,54,62391,6,0,L|131:124,1,60,2|0,0:3|0:0,0:0:0:0:
225,160,62707,2,0,L|222:90,1,60,0|0,0:0|0:0,0:0:0:0:
288,225,63023,2,0,P|339:237|415:195,1,120,0|0,0:0|0:0,0:0:0:0:
432,131,63496,1,0,0:0:0:0:
337,109,63654,6,0,L|268:120,1,60,2|0,0:3|0:0,0:0:0:0:
146,151,63970,2,0,L|215:162,1,60,0|0,0:0|0:0,0:0:0:0:
271,221,64286,2,0,P|292:273|272:338,1,120,0|0,0:0|0:0,0:0:0:0:
208,279,64759,1,0,0:0:0:0:
144,224,64917,5,2,0:3:0:0:
152,343,65233,1,0,0:0:0:0:
275,335,65549,1,0,0:0:0:0:
271,221,65865,1,0,0:0:0:0:
405,77,66180,6,0,L|415:149,1,60,2|0,0:0|0:0,0:0:0:0:
378,221,66496,1,0,0:0:0:0:
293,169,66654,2,0,L|213:169,1,60,0|2,0:0|0:0,0:0:0:0:
152,218,66970,1,0,0:0:0:0:
84,291,67128,2,0,L|86:353,1,60,0|0,0:0|0:0,0:0:0:0:
25,218,67444,6,0,L|23:156,1,60,2|0,0:0|0:0,0:0:0:0:
86,90,67759,1,0,0:0:0:0:
172,148,67917,2,0,L|248:146,1,60,0|2,0:0|0:0,0:0:0:0:
316,209,68233,1,0,0:0:0:0:
408,248,68391,2,0,L|410:323,1,60,0|0,0:0|0:0,0:0:0:0:
430,165,68707,5,2,0:0:0:0:
384,13,68865,1,2,0:0:0:0:
334,159,69023,1,0,0:0:0:0:
462,75,69181,1,0,0:0:0:0:
305,78,69338,5,2,0:0:0:0:
290,80,69416,1,0,0:0:0:0:
275,83,69495,1,0,0:0:0:0:
260,86,69574,1,0,0:0:0:0:
244,90,69654,2,0,L|123:90,1,120,2|4,0:0|0:0,0:0:0:0:
57,40,70128,1,0,0:0:0:0:
4,102,70286,5,0,0:0:0:0:
74,163,70601,1,4,0:0:0:0:
74,163,70917,1,0,0:0:0:0:
74,163,71233,5,0,0:0:0:0:
90,249,71391,1,0,0:0:0:0:
86,260,71470,1,0,0:0:0:0:
80,272,71549,1,0,0:0:0:0:
44,345,71707,1,0,0:0:0:0:
142,327,71865,1,0,0:0:0:0:
245,307,72023,1,0,0:0:0:0:
260,303,72101,1,0,0:0:0:0:
274,299,72180,1,0,0:0:0:0:
183,86,72496,6,0,L|116:86,2,60,6|0|0,0:0|0:0|0:0,0:0:0:0:
277,225,72970,2,0,P|286:170|255:108,1,120,2|0,0:0|0:0,0:0:0:0:
183,86,73444,1,8,0:0:0:0:
115,115,73601,1,0,0:0:0:0:
107,123,73680,1,0,0:0:0:0:
98,132,73759,2,0,L|85:202,1,60,2|0,0:0|0:0,0:0:0:0:
192,301,74075,2,0,L|178:239,1,60,0|0,0:0|0:0,0:0:0:0:
185,153,74391,2,0,P|240:133|286:140,1,90,2|0,0:0|0:0,0:0:0:0:
302,157,74707,2,0,L|364:157,1,60
238,219,75023,6,0,L|174:219,2,60,2|0|0,0:0|0:0|0:0,0:0:0:0:
414,135,75496,2,0,P|350:131|293:168,1,120,2|0,0:0|0:0,0:0:0:0:
238,219,75970,1,8,0:0:0:0:
297,278,76128,1,0,0:0:0:0:
309,286,76207,1,0,0:0:0:0:
321,294,76286,2,0,L|330:362,2,60,2|0|0,0:0|0:0|0:0,0:0:0:0:
372,225,76759,1,0,0:0:0:0:
372,225,77075,1,0,0:0:0:0:
372,225,77391,1,0,0:0:0:0:
336,142,77549,6,0,L|392:119,2,60,2|0|0,0:0|0:0|0:0,0:0:0:0:
148,189,78023,2,0,P|202:204|250:191,1,90,2|0,0:0|0:0,0:0:0:0:
255,190,78338,2,0,L|328:190,1,60,0|8,0:0|0:0,0:0:0:0:
445,167,78654,1,0,0:0:0:0:
392,244,78812,2,0,L|380:305,1,60,2|0,0:0|0:0,0:0:0:0:
315,190,79128,2,0,L|300:126,1,60
246,60,79444,2,0,P|207:47|156:55,1,90,2|0,0:0|0:0,0:0:0:0:
140,64,79759,2,0,L|74:64,1,60
36,195,80075,6,0,L|24:135,2,60,2|0|0,0:0|0:0|0:0,0:0:0:0:
226,278,80549,2,0,P|188:294|136:290,1,90,2|0,0:0|0:0,0:0:0:0:
118,282,80865,2,0,L|54:282,1,60,0|8,0:0|0:0,0:0:0:0:
274,161,81180,1,0,0:0:0:0:
307,244,81338,2,0,L|382:244,1,60,2|0,0:0|0:0,0:0:0:0:
195,192,81654,2,0,L|120:192,1,60,0|0,0:0|0:0,0:0:0:0:
42,147,81970,1,2,0:0:0:0:
98,281,82207,1,0,0:0:0:0:
238,225,82444,1,0,0:0:0:0:
160,141,82601,6,0,L|183:86,2,60,2|0|0,0:0|0:0|0:0,0:0:0:0:
339,173,83075,2,0,P|285:198|227:189,1,120,2|0,0:0|0:0,0:0:0:0:
160,141,83549,1,8,0:0:0:0:
90,176,83707,1,0,0:0:0:0:
78,185,83786,1,0,0:0:0:0:
66,194,83865,2,0,L|78:254,1,60,2|0,0:0|0:0,0:0:0:0:
171,332,84180,2,0,L|157:270,1,60
221,223,84496,2,0,P|276:203|322:210,1,90,2|0,0:0|0:0,0:0:0:0:
338,221,84812,2,0,L|400:221,1,60,0|0,0:0|0:0,0:0:0:0:
191,146,85128,6,0,L|127:146,2,60,2|0|0,0:0|0:0|0:0,0:0:0:0:
377,139,85601,2,0,P|324:111|265:116,1,120,2|0,0:0|0:0,0:0:0:0:
221,223,86075,1,8,0:0:0:0:
182,333,86233,1,0,0:0:0:0:
256,301,86391,2,0,L|316:301,1,60,2|0,0:0|0:0,0:0:0:0:
142,259,86707,2,0,L|70:259,1,60
227,228,87023,5,2,0:0:0:0:
227,228,87259,1,0,0:0:0:0:
227,228,87496,1,0,0:0:0:0:
343,181,87654,6,0,L|399:158,2,60,2|0|0,0:0|0:0|0:0,0:0:0:0:
227,228,88128,1,2,0:0:0:0:
302,262,88286,2,0,L|302:333,1,60
259,149,88601,1,8,0:0:0:0:
231,74,88759,1,0,0:0:0:0:
225,61,88838,1,0,0:0:0:0:
220,46,88917,2,0,L|160:46,1,60
312,85,89233,2,0,L|372:85,1,60
343,181,89549,2,0,P|309:162|220:168,1,120,2|0,0:0|0:0,0:0:0:0:
161,209,90023,1,0,0:0:0:0:
165,223,90101,1,0,0:0:0:0:
170,237,90180,6,0,L|167:287,3,30,0|6|0|0,0:0|0:0|0:0|0:0,0:0:0:0:
258,249,90496,2,0,L|264:295,3,30
344,246,90812,2,0,L|361:287,3,30
421,206,91128,2,0,L|450:233,3,30
428,126,91444,6,0,L|434:91,3,30,0|0|0|0,0:0|0:0|0:0|0:0,0:0:0:0:
338,75,91759,2,0,L|336:34,3,30,0|0|0|0,0:0|0:0|0:0|0:0,0:0:0:0:
231,60,92075,2,0,L|223:29,3,30,0|0|0|0,0:0|0:0|0:0|0:0,0:0:0:0:
130,63,92391,2,0,L|108:36,3,30,0|0|0|0,0:0|0:0|0:0|0:0,0:0:0:0:
63,125,92707,6,0,L|0:113,1,60,6|0,0:0|0:0,0:0:0:0:
162,98,93023,2,0,L|147:221,1,120,0|2,0:0|0:0,0:0:0:0:
281,250,93496,1,2,0:0:0:0:
205,286,93654,1,0,0:0:0:0:
357,286,93812,5,0,0:0:0:0:
361,269,93891,1,0,0:0:0:0:
365,251,93970,2,0,L|380:180,1,60,2|0,0:0|0:0,0:0:0:0:
304,149,94286,1,8,0:0:0:0:
416,111,94444,1,0,0:0:0:0:
340,75,94601,2,0,L|267:68,1,60,2|0,0:0|0:0,0:0:0:0:
268,26,94838,2,0,L|193:40,1,60
200,49,95075,1,0,0:0:0:0:
190,60,95154,1,0,0:0:0:0:
179,71,95233,1,2,0:0:0:0:
169,82,95312,6,0,L|178:162,1,60
139,169,95549,2,0,L|118:232,2,60,8|2|2,0:0|0:0|0:0,0:0:0:0:
256,94,96023,1,2,0:0:0:0:
267,232,96180,5,8,0:0:0:0:
281,228,96259,1,0,0:0:0:0:
295,223,96338,1,0,0:0:0:0:
309,220,96417,1,0,0:0:0:0:
323,217,96496,2,0,L|380:234,2,60,2|0|8,0:0|0:0|0:0,0:0:0:0:
378,145,96970,1,0,0:0:0:0:
314,80,97128,2,0,L|256:94,1,60,2|0,0:0|0:0,0:0:0:0:
285,179,97444,5,8,0:0:0:0:
290,192,97523,1,0,0:0:0:0:
294,205,97601,1,0,0:0:0:0:
298,219,97680,1,0,0:0:0:0:
302,233,97759,2,0,L|293:299,1,60,2|0,0:0|0:0,0:0:0:0:
395,346,98075,2,0,L|387:279,1,60,8|2,0:0|0:0,0:0:0:0:
430,204,98391,2,0,P|436:142|415:106,1,90,2|0,0:0|0:0,0:0:0:0:
414,107,98707,1,8,0:0:0:0:
269,229,98865,5,0,0:0:0:0:
254,233,98944,1,0,0:0:0:0:
239,236,99023,2,0,L|172:220,1,60,2|0,0:0|0:0,0:0:0:0:
47,201,99338,2,0,L|125:178,1,60,8|0,0:0|0:0,0:0:0:0:
173,138,99654,2,0,P|194:90|175:37,1,90,2|0,0:0|0:0,0:0:0:0:
178,43,99970,5,8,0:0:0:0:
281,190,100128,1,0,0:0:0:0:
219,260,100286,2,0,L|143:271,1,60,2|0,0:0|0:0,0:0:0:0:
302,288,100601,2,0,L|368:299,1,60,8|2,0:0|0:0,0:0:0:0:
280,195,100917,2,0,P|274:152|293:98,1,90,2|0,0:0|0:0,0:0:0:0:
299,98,101233,2,0,L|353:98,2,40,8|0|0,0:0|0:0|0:0,0:0:0:0:
258,25,101549,6,0,L|198:25,1,60,2|0,0:0|0:0,0:0:0:0:
337,26,101865,1,0,0:0:0:0:
379,98,102023,2,0,P|397:139|381:218,1,120,2|0,0:0|0:0,0:0:0:0:
326,270,102496,5,8,0:0:0:0:
316,258,102575,1,0,0:0:0:0:
306,246,102654,1,0,0:0:0:0:
296,234,102733,1,0,0:0:0:0:
285,223,102812,2,0,L|308:157,2,60,6|0|0,0:0|0:0|0:0,0:0:0:0:
224,131,103286,1,0,0:0:0:0:
199,270,103444,2,0,L|185:211,1,60,2|2,0:0|0:0,0:0:0:0:
224,131,103759,1,8,0:0:0:0:
279,59,103917,5,0,0:0:0:0:
292,65,103996,1,0,0:0:0:0:
305,71,104075,2,0,L|370:69,1,60,2|0,0:0|0:0,0:0:0:0:
445,139,104391,1,8,0:0:0:0:
449,290,104549,2,0,L|425:217,1,60,0|2,0:0|0:0,0:0:0:0:
353,177,104865,5,2,0:0:0:0:
339,183,104944,1,0,0:0:0:0:
325,188,105023,1,8,0:0:0:0:
194,231,105180,5,2,0:0:0:0:
209,235,105259,1,0,0:0:0:0:
224,238,105338,1,0,0:0:0:0:
50,148,105496,5,0,0:0:0:0:
115,202,105654,1,0,0:0:0:0:
194,231,105812,2,0,P|238:234|293:229,1,90,2|0,0:0|0:0,0:0:0:0:
316,206,106128,2,0,L|398:206,1,60,0|8,0:0|0:0,0:0:0:0:
443,153,106444,5,0,0:0:0:0:
454,144,106523,1,0,0:0:0:0:
466,134,106601,1,2,0:0:0:0:
374,60,106759,1,0,0:0:0:0:
240,117,106917,2,0,L|299:116,1,60
206,207,107233,5,2,0:0:0:0:
206,207,107470,1,0,0:0:0:0:
206,207,107707,1,0,0:0:0:0:
116,204,107865,6,0,L|95:91,1,90,2|0,0:0|0:0,0:0:0:0:
97,100,108180,1,8,0:0:0:0:
336,116,108338,1,0,0:0:0:0:
334,131,108654,5,0,0:0:0:0:
99,115,108812,1,8,0:0:0:0:
190,323,108970,5,0,0:0:0:0:
180,334,109049,1,0,0:0:0:0:
171,346,109128,2,0,L|193:243,1,90,2|0,0:0|0:0,0:0:0:0:
195,245,109444,1,8,0:0:0:0:
237,48,109601,1,0,0:0:0:0:
118,144,109759,2,0,L|191:144,1,60,2|0,0:0|0:0,0:0:0:0:
316,157,110075,1,8,0:0:0:0:
387,271,110233,1,0,0:0:0:0:
407,182,110391,6,0,L|472:183,1,60,2|0,0:0|0:0,0:0:0:0:
296,244,110707,2,0,L|231:243,1,60,8|0,0:0|0:0,0:0:0:0:
69,177,111023,2,0,L|91:104,1,60,2|0,0:0|0:0,0:0:0:0:
119,289,111338,2,0,L|97:362,1,60,8|0,0:0|0:0,0:0:0:0:
226,234,111654,5,2,0:0:0:0:
201,133,111812,1,2,0:0:0:0:
294,76,111970,1,8,0:0:0:0:
375,155,112128,1,2,0:0:0:0:
323,250,112286,1,2,0:0:0:0:
243,178,112444,5,0,0:0:0:0:
228,179,112522,1,0,0:0:0:0:
213,181,112601,1,0,0:0:0:0:
198,183,112680,1,0,0:0:0:0:
183,184,112759,1,0,0:0:0:0:
168,186,112838,1,0,0:0:0:0:
153,188,112917,1,0,0:0:0:0:
181,86,113075,6,0,L|241:86,1,60
274,64,113312,2,0,L|334:64,1,60
367,86,113549,2,0,P|382:126|377:174,2,90
256,145,114180,5,0,0:0:0:0:
210,207,114338,2,0,L|211:274,1,60
177,286,114575,2,0,L|178:359,1,60
146,369,114812,2,0,P|108:374|54:367,2,90
106,249,115444,5,0,0:0:0:0:
159,191,115601,2,0,L|224:191,1,60
247,162,115838,2,0,L|306:162,1,60
338,187,116075,2,0,P|348:224|339:279,2,90
293,110,116707,6,0,L|278:81,3,30,0|0|0|0,2:0|2:0|2:0|2:0,2:0:0:0:
211,129,117023,2,0,L|173:112,3,30,0|0|0|0,2:0|2:0|2:0|2:0,2:0:0:0:
167,196,117338,2,0,L|123:203,3,30,0|0|0|0,2:0|2:0|2:0|2:0,2:0:0:0:
171,275,117654,2,0,L|150:308,3,30,0|0|0|0,2:0|2:0|2:0|2:0,2:0:0:0:
