osu file format v14

[General]
AudioFilename: Redshift.mp3
AudioLeadIn: 0
PreviewTime: 72418
Countdown: 0
SampleSet: Drum
StackLeniency: 0.7
Mode: 0
LetterboxInBreaks: 0
WidescreenStoryboard: 0

[Editor]
DistanceSpacing: 1.3
BeatDivisor: 4
GridSize: 8
TimelineZoom: 2

[Metadata]
Title:Redshift
TitleUnicode:Redshift
Artist:technoplanet
ArtistUnicode:technoplanet
Creator:cmn_891127
Version:Hard
Source:MÚSECA
Tags:-kevincela-, セツコン
BeatmapID:1071123
BeatmapSetID:500717

[Difficulty]
HPDrainRate:5
CircleSize:3.7
OverallDifficulty:6
ApproachRate:7.2
SliderMultiplier:1.2
SliderTickRate:1

[Events]
//Background and Video events
0,0,"Redshift.jpg",0,0
//Break Periods
//Storyboard Layer 0 (Background)
//Storyboard Layer 1 (Fail)
//Storyboard Layer 2 (Pass)
//Storyboard Layer 3 (Foreground)
//Storyboard Layer 4 (Overlay)
//Storyboard Sound Samples

[TimingPoints]
3023,315.789473684211,4,3,1,50,1,0
53549,-100,4,2,1,40,0,0
66180,-100,4,3,1,50,0,0
72496,-100,4,3,1,50,0,1
112917,-100,4,3,1,50,0,0

[Colours]
Combo1 : 223,207,159
Combo2 : 159,223,159
Combo3 : 159,188,223
Combo4 : 223,159,169

[HitObjects]
140,235,3023,5,0,0:0:0:0:
140,235,3180,2,0,L|107:321,1,90,0|0,0:0|0:0,0:0:0:0:
214,266,3654,2,0,L|181:352,2,90,0|0|0,0:0|0:0|0:0,0:0:0:0:
295,299,4286,5,0,0:0:0:0:
295,299,4443,2,0,L|381:332,1,90,0|0,0:0|0:0,0:0:0:0:
326,225,4917,2,0,L|412:258,2,90,0|0|0,0:0|0:0|0:0,0:0:0:0:
357,151,5549,5,0,0:0:0:0:
357,151,5707,2,0,L|390:65,1,90,0|0,0:0|0:0,0:0:0:0:
283,120,6180,2,0,L|316:34,2,90,0|0|0,0:0|0:0|0:0,0:0:0:0:
209,97,6812,5,0,0:0:0:0:
209,97,6970,2,0,L|123:64,1,90,0|0,0:0|0:0,0:0:0:0:
178,171,7443,2,0,L|92:138,1,90,0|0,0:0|0:0,0:0:0:0:
258,210,7917,5,0,0:0:0:0:
258,210,7996,1,0,0:0:0:0:
258,210,8075,2,0,P|333:206|378:115,2,180,8|4|0,0:0|0:0|0:0,0:0:0:0:
189,172,9180,1,0,0:0:0:0:
122,130,9338,6,0,L|57:130,1,60,0|0,0:0|0:0,0:0:0:0:
188,79,9654,2,0,L|248:79,1,60,0|0,0:0|0:0,0:0:0:0:
210,202,9970,2,0,L|150:202,1,60,0|0,0:0|0:0,0:0:0:0:
276,151,10286,2,0,L|336:151,1,60,0|0,0:0|0:0,0:0:0:0:
397,103,10601,6,0,P|452:80|511:86,1,120,0|0,0:0|0:0,0:0:0:0:
496,163,11075,2,0,P|439:145|397:102,1,120,0|0,0:0|0:0,0:0:0:0:
346,43,11549,2,0,L|270:44,1,60,0|0,0:0|0:0,0:0:0:0:
253,115,11865,6,0,L|158:92,2,90,0|0|0,0:0|0:0|0:0,0:0:0:0:
223,187,12496,2,0,L|136:210,2,90,0|0|0,0:0|0:0|0:0,0:0:0:0:
295,230,13128,5,0,0:0:0:0:
295,230,13286,2,0,L|385:230,1,90,0|0,0:0|0:0,0:0:0:0:
466,140,13759,2,0,L|465:229,2,90,0|0|0,0:0|0:0|0:0,0:0:0:0:
464,59,14391,5,0,0:0:0:0:
458,62,14549,2,0,L|360:62,1,90,0|0,0:0|0:0,0:0:0:0:
289,156,15023,2,0,L|289:60,2,90,0|0|0,0:0|0:0|0:0,0:0:0:0:
291,235,15654,5,0,0:0:0:0:
288,241,15812,2,0,L|190:241,1,90,0|0,0:0|0:0,0:0:0:0:
119,150,16286,2,0,L|119:240,2,90,0|0|0,0:0|0:0|0:0,0:0:0:0:
119,70,16917,5,0,0:0:0:0:
126,73,17075,2,0,L|226:73,1,90,0|0,0:0|0:0,0:0:0:0:
299,163,17549,2,0,L|299:73,1,90,0|0,0:0|0:0,0:0:0:0:
376,146,18023,5,0,0:0:0:0:
378,154,18101,1,0,0:0:0:0:
377,160,18180,2,0,P|356:215|304:240,1,120,8|0,0:0|0:0,0:0:0:0:
233,205,18654,1,4,0:0:0:0:
301,102,19128,6,0,L|301:162,1,60,0|0,0:0|0:0,0:0:0:0:
233,205,19444,2,0,P|177:227|118:221,1,120
134,145,19918,2,0,P|190:162|232:205,1,120,0|0,0:0|0:0,0:0:0:0:
260,277,20391,1,0,0:0:0:0:
346,147,20707,6,0,P|402:125|461:131,1,120,0|0,0:0|0:0,0:0:0:0:
445,207,21180,2,0,P|389:190|347:147,1,120,0|0,0:0|0:0,0:0:0:0:
326,71,21654,2,0,L|326:8,2,60,0|0|0,0:0|0:0|0:0,0:0:0:0:
270,126,22128,5,0,0:0:0:0:
270,126,22207,1,0,0:0:0:0:
270,126,22286,2,0,L|271:197,1,60,0|0,0:0|0:0,0:0:0:0:
228,251,22601,1,0,0:0:0:0:
293,293,22759,2,0,L|353:293,1,60,0|0,0:0|0:0,0:0:0:0:
138,204,23233,6,0,L|124:132,1,60,6|0,0:0|0:0,0:0:0:0:
184,91,23549,1,8,0:0:0:0:
184,91,23628,1,0,0:0:0:0:
184,91,23707,1,0,0:0:0:0:
260,106,23865,2,0,L|330:105,2,60,2|2|8,0:0|0:0|0:0,0:0:0:0:
228,177,24338,1,0,0:0:0:0:
202,250,24496,6,0,L|182:315,1,60,2|0,0:0|0:0,0:0:0:0:
262,350,24812,1,8,0:0:0:0:
262,350,24891,1,0,0:0:0:0:
262,350,24970,1,0,0:0:0:0:
324,306,25128,2,0,L|301:235,2,60,2|0|8,0:0|0:0|0:0,0:0:0:0:
397,332,25601,1,8,0:0:0:0:
445,271,25759,6,0,L|461:184,1,60,2|0,0:0|0:0,0:0:0:0:
419,142,26075,1,8,0:0:0:0:
419,142,26154,1,0,0:0:0:0:
419,142,26233,1,0,0:0:0:0:
348,91,26391,2,0,L|332:29,2,60,2|2|8,0:0|0:0|0:0,0:0:0:0:
294,148,26865,1,0,0:0:0:0:
226,186,27023,6,0,L|152:187,1,60,2|0,0:0|0:0,0:0:0:0:
96,222,27338,1,8,0:0:0:0:
96,222,27417,1,0,0:0:0:0:
96,222,27496,1,0,0:0:0:0:
53,287,27654,2,0,L|20:345,2,60,2|0|8,0:0|0:0|0:0,0:0:0:0:
131,287,28128,1,8,0:0:0:0:
209,287,28286,6,0,L|242:229,1,60,2|0,0:0|0:0,0:0:0:0:
275,166,28601,1,8,0:0:0:0:
275,166,28680,1,0,0:0:0:0:
275,166,28759,1,0,0:0:0:0:
353,166,28917,2,0,L|420:166,2,60,2|2|8,0:0|0:0|0:0,0:0:0:0:
275,166,29391,1,0,0:0:0:0:
214,117,29549,6,0,L|138:117,1,60,2|0,0:0|0:0,0:0:0:0:
100,174,29865,1,8,0:0:0:0:
100,174,29944,1,0,0:0:0:0:
100,174,30023,1,0,0:0:0:0:
163,219,30180,2,0,L|164:288,2,60,2|0|8,0:0|0:0|0:0,0:0:0:0:
228,175,30654,1,8,0:0:0:0:
285,122,30812,6,0,L|285:51,1,60,2|0,0:0|0:0,0:0:0:0:
355,26,31128,1,8,0:0:0:0:
355,26,31207,1,0,0:0:0:0:
355,26,31286,1,0,0:0:0:0:
411,79,31444,2,0,L|474:79,2,60,2|2|8,0:0|0:0|0:0,0:0:0:0:
342,117,31917,1,0,0:0:0:0:
264,133,32075,5,4,0:0:0:0:
193,102,32233,1,0,0:0:0:0:
316,191,32549,5,0,0:0:0:0:
227,306,32865,5,0,0:0:0:0:
105,223,33180,5,8,0:0:0:0:
144,292,33338,6,0,L|150:366,2,60,6|0|8,0:0|0:0|0:0,0:0:0:0:
192,231,33812,1,8,0:0:0:0:
192,231,33891,1,0,0:0:0:0:
192,231,33970,2,0,L|203:172,1,60,2|2,0:0|0:0,0:0:0:0:
269,222,34286,2,0,L|280:163,1,60,8|0,0:0|0:0,0:0:0:0:
351,132,34601,6,0,L|340:71,2,60,2|0|8,0:0|0:0|0:0,0:0:0:0:
386,213,35075,1,8,0:0:0:0:
386,213,35154,1,0,0:0:0:0:
386,213,35233,2,0,L|374:295,1,60,2|0,0:0|0:0,0:0:0:0:
303,232,35549,2,0,L|291:314,1,60,8|8,0:0|0:0,0:0:0:0:
240,353,35865,6,0,L|204:285,2,60,2|0|8,0:0|0:0|0:0,0:0:0:0:
325,371,36338,1,8,0:0:0:0:
325,371,36417,1,0,0:0:0:0:
325,371,36496,2,0,L|371:321,1,60,2|2,0:0|0:0,0:0:0:0:
294,291,36812,2,0,L|340:241,1,60,8|0,0:0|0:0,0:0:0:0:
387,188,37128,6,0,L|454:187,2,60,2|0|8,0:0|0:0|0:0,0:0:0:0:
318,151,37601,1,8,0:0:0:0:
318,151,37680,1,0,0:0:0:0:
318,151,37759,2,0,L|240:151,1,60,2|0,0:0|0:0,0:0:0:0:
278,75,38075,2,0,L|200:75,1,60,8|8,0:0|0:0,0:0:0:0:
144,102,38391,6,0,L|123:22,2,60,2|0|8,0:0|0:0|0:0,0:0:0:0:
114,174,38865,1,8,0:0:0:0:
114,174,38944,1,0,0:0:0:0:
114,174,39023,2,0,L|135:254,2,60,2|2|8,0:0|0:0|0:0,0:0:0:0:
42,204,39496,2,0,L|21:285,1,60,0|2,0:0|0:0,0:0:0:0:
75,323,39812,6,0,L|144:307,1,60,0|8,0:0|0:0,0:0:0:0:
207,274,40128,1,8,0:0:0:0:
207,274,40207,1,0,0:0:0:0:
207,274,40286,2,0,L|276:289,1,60,2|0,0:0|0:0,0:0:0:0:
249,206,40601,2,0,L|318:221,1,60,8|8,0:0|0:0,0:0:0:0:
383,197,40917,6,0,L|383:118,2,60,2|0|8,0:0|0:0|0:0,0:0:0:0:
457,244,41391,1,8,0:0:0:0:
457,244,41470,1,0,0:0:0:0:
457,244,41549,2,0,L|457:325,2,60,2|0|8,0:0|0:0|0:0,0:0:0:0:
457,165,42023,1,8,0:0:0:0:
383,137,42180,6,0,P|350:86|346:27,1,120,4|0,0:0|0:0,0:0:0:0:
425,29,42654,2,0,P|417:88|382:137,1,120,4|0,0:0|0:0,0:0:0:0:
312,171,43128,2,0,L|250:171,1,60,4|0,0:0|0:0,0:0:0:0:
209,105,43444,5,0,0:0:0:0:
144,147,43601,2,0,L|82:147,1,60,0|0,0:0|0:0,0:0:0:0:
165,305,44075,2,0,L|183:216,1,90,0|0,0:0|0:0,0:0:0:0:
229,359,44549,1,0,0:0:0:0:
229,359,44628,2,0,P|273:363|316:348,1,90,0|0,0:0|0:0,0:0:0:0:
361,284,45023,6,0,L|386:293,4,15
289,252,45338,2,0,L|289:179,1,60,0|0,0:0|0:0,0:0:0:0:
227,82,45654,2,0,L|227:155,1,60,0|0,0:0|0:0,0:0:0:0:
163,188,45970,5,0,0:0:0:0:
96,228,46128,2,0,L|29:229,1,60,0|0,0:0|0:0,0:0:0:0:
201,255,46601,2,0,L|201:363,2,90,0|0|0,0:0|0:0|0:0,0:0:0:0:
249,192,47233,5,0,0:0:0:0:
320,222,47391,1,0,0:0:0:0:
323,299,47549,1,0,0:0:0:0:
247,319,47707,1,0,0:0:0:0:
201,255,47865,2,0,L|85:256,1,90,0|0,0:0|0:0,0:0:0:0:
78,234,48180,2,0,L|46:234,4,30,0|0|0|0|0,0:0|0:0|0:0|0:0|0:0,0:0:0:0:
76,155,48654,6,0,L|77:81,1,60,0|0,0:0|0:0,0:0:0:0:
144,55,48970,1,0,0:0:0:0:
144,55,49049,1,0,0:0:0:0:
144,55,49128,2,0,L|253:55,2,90,0|0|0,0:0|0:0|0:0,0:0:0:0:
76,95,49759,6,0,P|54:142|60:209,1,120,0|0,0:0|0:0,0:0:0:0:
127,269,50233,1,0,0:0:0:0:
127,269,50312,1,0,0:0:0:0:
127,269,50391,2,0,L|197:269,1,60,0|0,0:0|0:0,0:0:0:0:
313,317,50707,2,0,L|253:317,1,60,0|0,0:0|0:0,0:0:0:0:
187,269,51023,5,0,0:0:0:0:
232,206,51180,2,0,L|232:120,1,60,0|0,0:0|0:0,0:0:0:0:
385,114,51654,2,0,L|385:215,2,90,0|0|0,0:0|0:0|0:0,0:0:0:0:
180,228,52601,5,0,0:0:0:0:
180,228,52917,1,0,0:0:0:0:
180,228,53233,1,0,0:0:0:0:
180,228,53549,6,0,B|232:228|282:275|356:247,1,180,4|0,3:0|0:0,0:0:0:0:
375,93,54338,2,0,P|404:94|434:87,2,60,0|0|0,0:0|0:0|0:0,0:0:0:0:
298,75,54812,2,0,B|246:75|196:122|121:94,1,180,0|0,0:0|0:0,0:0:0:0:
332,228,56075,6,0,B|280:228|230:275|155:247,1,180,2|0,0:0|0:0,0:0:0:0:
137,93,56865,2,0,P|107:94|77:87,2,60
214,75,57338,2,0,B|266:75|316:122|390:94,1,180,0|0,0:0|0:0,0:0:0:0:
161,296,58601,6,0,L|228:277,2,60,2|0|0,0:0|0:0|0:0,0:0:0:0:
97,251,59075,2,0,L|79:318,2,60,0|0|0,0:0|0:0|0:0,0:0:0:0:
168,217,59549,2,0,L|118:168,2,60,0|0|0,0:0|0:0|0:0,0:0:0:0:
246,218,60023,5,0,0:0:0:0:
323,220,60180,2,0,L|409:220,1,60,0|0,0:0|0:0,0:0:0:0:
439,165,60496,2,0,P|450:110|439:73,2,90,0|0|0,0:0|0:0|0:0,0:0:0:0:
366,135,61128,6,0,P|311:112|252:118,1,120,2|0,0:3|0:0,0:0:0:0:
267,195,61602,2,0,P|324:177|366:134,1,120,0|0,0:0|0:0,0:0:0:0:
379,58,62075,1,0,0:0:0:0:
379,58,62233,1,0,0:0:0:0:
303,85,62391,6,0,P|270:135|266:194,1,120,2|0,0:3|0:0,0:0:0:0:
345,193,62865,2,0,P|337:133|302:84,1,120,0|0,0:0|0:0,0:0:0:0:
230,62,63338,1,0,0:0:0:0:
230,62,63496,1,0,0:0:0:0:
243,138,63654,6,0,P|286:178|344:192,1,120,2|0,0:3|0:0,0:0:0:0:
355,114,64128,2,0,P|295:111|241:137,1,120,0|0,0:0|0:0,0:0:0:0:
194,198,64601,1,0,0:0:0:0:
194,198,64759,1,0,0:0:0:0:
256,244,64917,6,0,L|256:373,1,120,2|0,0:3|0:0,0:0:0:0:
256,166,65549,2,0,L|256:37,1,120,0|0,0:0|0:0,0:0:0:0:
381,139,66180,6,0,L|396:213,1,60,2|0,0:0|0:0,0:0:0:0:
364,271,66496,1,0,0:0:0:0:
293,237,66654,2,0,L|219:252,1,60,0|2,0:0|0:0,0:0:0:0:
174,299,66970,1,0,0:0:0:0:
123,239,67128,2,0,L|108:165,1,60,0|0,0:0|0:0,0:0:0:0:
189,185,67444,6,0,L|174:111,1,60,2|0,0:0|0:0,0:0:0:0:
206,53,67760,1,0,0:0:0:0:
277,87,67918,2,0,L|351:72,1,60,0|2,0:0|0:0,0:0:0:0:
396,25,68234,1,0,0:0:0:0:
447,85,68392,2,0,L|462:159,1,60,0|0,0:0|0:0,0:0:0:0:
512,199,68707,5,2,0:0:0:0:
480,270,68865,1,0,0:0:0:0:
403,257,69023,1,2,0:0:0:0:
389,180,69180,1,0,0:0:0:0:
458,143,69338,2,0,L|466:74,1,60,2|0,0:0|0:0,0:0:0:0:
389,180,69654,6,0,L|262:180,1,120,2|4,0:0|0:0,0:0:0:0:
196,149,70128,1,0,0:0:0:0:
167,221,70286,2,0,L|167:360,2,120,0|4|0,0:0|0:0|0:0,0:0:0:0:
258,84,71233,6,0,P|305:68|328:48,1,60,0|0,0:0|0:0,0:0:0:0:
354,131,71549,2,0,P|387:93|397:65,1,60,0|0,0:0|0:0,0:0:0:0:
460,127,71865,2,0,P|470:77|465:48,2,60,0|0|0,0:0|0:0|0:0,0:0:0:0:
311,173,72496,6,0,P|314:113|297:56,1,120,6|0,0:0|0:0,0:0:0:0:
226,90,72970,2,0,P|261:138|310:172,1,120,2|0,0:0|0:0,0:0:0:0:
392,180,73444,1,8,0:0:0:0:
475,167,73602,5,0,0:0:0:0:
475,167,73681,1,0,0:0:0:0:
475,167,73759,2,0,L|490:242,1,60,2|0,0:0|0:0,0:0:0:0:
405,203,74075,2,0,L|420:278,1,60,0|0,0:0|0:0,0:0:0:0:
380,331,74391,2,0,P|338:347|293:347,2,90,2|0|0,0:0|0:0|0:0,0:0:0:0:
359,255,75023,6,0,P|347:213|354:138,1,120,2|0,0:0|0:0,0:0:0:0:
430,162,75496,2,0,P|412:201|358:254,1,120,2|0,0:0|0:0,0:0:0:0:
286,288,75970,1,8,0:0:0:0:
207,285,76128,5,0,0:0:0:0:
207,285,76207,1,0,0:0:0:0:
207,285,76286,2,0,L|170:235,1,60
124,173,76601,1,0,0:0:0:0:
243,202,76760,2,0,P|302:211|361:203,1,120,0|0,0:0|0:0,0:0:0:0:
432,171,77233,2,0,L|432:111,1,60,0|0,0:0|0:0,0:0:0:0:
362,73,77549,6,0,P|302:64|243:74,1,120,2|0,0:0|0:0,0:0:0:0:
183,118,78023,2,0,L|117:164,1,60,2|0,0:0|0:0,0:0:0:0:
219,188,78338,2,0,L|168:221,1,60,0|8,0:0|0:0,0:0:0:0:
209,285,78654,1,0,0:0:0:0:
286,287,78812,6,0,P|310:234|297:165,1,120,2|0,0:0|0:0,0:0:0:0:
255,113,79286,1,0,0:0:0:0:
314,62,79444,2,0,L|423:63,2,90,2|0|0,0:0|0:0|0:0,0:0:0:0:
255,113,80075,6,0,P|197:134|137:127,1,120,2|0,0:0|0:0,0:0:0:0:
86,75,80549,2,0,L|22:75,1,60,2|0,0:0|0:0,0:0:0:0:
65,149,80865,2,0,L|1:149,1,60,0|8,0:0|0:0,0:0:0:0:
26,226,81181,1,0,0:0:0:0:
85,276,81338,6,0,P|142:288|202:271,1,120,2|0,0:0|0:0,0:0:0:0:
266,229,81812,1,0,0:0:0:0:
267,150,81970,2,0,L|267:52,2,90,2|0|0,0:0|0:0|0:0,0:0:0:0:
333,190,82601,6,0,P|373:205|449:205,1,120,2|0,0:0|0:0,0:0:0:0:
433,129,83075,2,0,P|377:150|332:189,1,120,2|0,0:0|0:0,0:0:0:0:
296,259,83549,1,8,0:0:0:0:
302,343,83707,5,0,0:0:0:0:
302,343,83786,1,0,0:0:0:0:
302,343,83865,2,0,L|227:343,1,60,2|0,0:0|0:0,0:0:0:0:
164,344,84180,1,0,0:0:0:0:
139,270,84338,2,0,P|135:210|153:153,1,120,0|0,0:0|0:0,0:0:0:0:
231,149,84812,2,0,L|293:149,1,60,0|0,0:0|0:0,0:0:0:0:
351,198,85128,6,0,P|366:238|366:314,1,120,2|0,0:0|0:0,0:0:0:0:
287,296,85601,2,0,P|301:255|350:198,1,120,2|0,0:0|0:0,0:0:0:0:
406,141,86075,1,8,0:0:0:0:
462,195,86233,1,0,0:0:0:0:
409,252,86391,6,0,L|289:252,1,120,2|0,0:0|0:0,0:0:0:0:
132,252,87023,5,2,0:0:0:0:
212,335,87259,1,0,0:0:0:0:
289,252,87496,1,0,0:0:0:0:
239,191,87654,6,0,P|220:133|248:60,1,120,2|0,0:0|0:0,0:0:0:0:
302,38,88128,1,2,0:0:0:0:
358,91,88286,2,0,L|434:85,2,60,0|0|8,0:0|0:0|0:0,0:0:0:0:
348,172,88759,5,0,0:0:0:0:
348,172,88838,1,0,0:0:0:0:
348,172,88917,2,0,L|221:161,1,120,2|0,0:0|0:0,0:0:0:0:
156,191,89391,1,0,0:0:0:0:
100,136,89549,2,0,L|38:146,2,60,2|0|0,0:0|0:0|0:0,0:0:0:0:
176,106,90023,5,0,0:0:0:0:
176,106,90101,1,0,0:0:0:0:
176,106,90180,1,0,0:0:0:0:
256,192,90259,12,6,92707,0:0:0:0:
196,123,93023,6,0,L|172:257,1,120,8|2,0:0|0:0,0:0:0:0:
244,277,93496,1,2,0:0:0:0:
315,245,93654,2,0,L|383:245,1,60,8|0,0:0|0:0,0:0:0:0:
291,171,93970,6,0,L|355:171,2,60,2|0|8,0:0|0:0|0:0,0:0:0:0:
218,196,94444,1,0,0:0:0:0:
144,219,94601,2,0,L|62:219,2,60,2|0|8,0:0|0:0|0:0,0:0:0:0:
158,141,95075,6,0,L|129:113,2,30,0|0|2,0:0|0:0|0:0,0:0:0:0:
195,154,95312,2,0,P|245:159|293:142,1,90,0|8,0:0|0:0,0:0:0:0:
350,109,95707,2,0,L|418:109,1,60
465,54,96023,2,0,P|487:108|464:162,1,120
390,185,96496,2,0,L|321:185,1,60,2|0,0:0|0:0,0:0:0:0:
252,186,96812,2,0,L|252:253,1,60,8|0,0:0|0:0,0:0:0:0:
293,314,97128,1,2,0:0:0:0:
214,314,97286,2,0,L|137:314,1,60,0|8,0:0|0:0,0:0:0:0:
125,242,97601,5,0,0:0:0:0:
125,242,97680,1,0,0:0:0:0:
125,242,97759,2,0,L|147:161,1,60,2|0,0:0|0:0,0:0:0:0:
217,205,98075,2,0,L|240:129,1,60,8|2,0:0|0:0,0:0:0:0:
310,166,98391,2,0,P|303:108|257:72,1,120,2|8,0:0|0:0,0:0:0:0:
181,77,98865,5,0,0:0:0:0:
181,77,98944,1,0,0:0:0:0:
181,77,99023,2,0,L|101:77,1,60,2|0,0:0|0:0,0:0:0:0:
118,154,99338,2,0,L|38:154,1,60,8|0,0:0|0:0,0:0:0:0:
9,215,99654,2,0,P|54:243|120:233,1,120,2|8,0:0|0:0,0:0:0:0:
185,195,100128,1,0,0:0:0:0:
233,253,100286,6,0,L|272:206,1,60,2|0,0:0|0:0,0:0:0:0:
288,305,100601,2,0,L|327:258,1,60,2|0,0:0|0:0,0:0:0:0:
346,358,100917,2,0,L|385:311,1,60,2|0,0:0|0:0,0:0:0:0:
431,237,101233,2,0,L|393:237,2,30
503,213,101549,2,0,P|522:158|500:104,1,120
445,161,102023,1,0,0:0:0:0:
445,161,102496,6,0,L|421:105,1,60,8|0,0:0|0:0,0:0:0:0:
352,138,102812,2,0,L|376:195,1,60,6|0,0:0|0:0,0:0:0:0:
311,240,103128,1,8,0:0:0:0:
278,170,103286,2,0,L|215:170,1,60,2|2,0:0|0:0,0:0:0:0:
186,94,103601,2,0,L|246:94,1,60,2|8,0:0|0:0,0:0:0:0:
327,72,103917,5,0,0:0:0:0:
327,72,103996,1,0,0:0:0:0:
327,72,104075,2,0,L|395:72,1,60,2|0,0:0|0:0,0:0:0:0:
448,121,104391,1,8,0:0:0:0:
398,181,104549,2,0,L|386:251,1,60,0|2,0:0|0:0,0:0:0:0:
367,315,104865,2,0,P|310:337|251:330,1,120
191,281,105338,6,0,L|173:221,1,60,2|0,0:0|0:0,0:0:0:0:
102,190,105654,1,8,0:0:0:0:
133,118,105812,2,0,L|206:118,1,60,2|2,0:0|0:0,0:0:0:0:
261,78,106128,2,0,P|310:55|378:63,1,120,2|0,0:0|0:0,0:0:0:0:
426,120,106601,6,0,L|406:241,1,120,2|0,0:0|0:0,0:0:0:0:
249,235,107233,5,2,0:0:0:0:
326,322,107470,1,0,0:0:0:0:
407,238,107707,1,0,0:0:0:0:
331,235,107865,5,2,0:0:0:0:
331,235,108180,2,0,L|342:171,1,60,8|0,0:0|0:0,0:0:0:0:
176,107,108654,2,0,L|162:45,1,60,0|8,0:0|0:0,0:0:0:0:
86,55,108970,5,0,0:0:0:0:
86,55,109049,1,0,0:0:0:0:
86,55,109128,2,0,L|67:181,1,120,2|8,0:0|0:0,0:0:0:0:
96,248,109601,1,0,0:0:0:0:
167,210,109759,2,0,L|286:210,1,120,2|8,0:0|0:0,0:0:0:0:
199,284,110391,6,0,P|196:323|208:359,1,60,2|0,0:0|0:0,0:0:0:0:
275,312,110707,2,0,P|314:315|350:303,1,60,8|0,0:0|0:0,0:0:0:0:
301,238,111023,2,0,P|304:199|292:163,1,60,2|0,0:0|0:0,0:0:0:0:
227,209,111338,2,0,P|188:206|152:218,1,60,8|0,0:0|0:0,0:0:0:0:
94,239,111654,5,2,0:0:0:0:
43,179,111812,1,2,0:0:0:0:
86,113,111970,1,8,0:0:0:0:
161,134,112128,1,2,0:0:0:0:
168,211,112286,2,0,L|174:345,2,120,2|0|0,0:0|0:0|0:0,0:0:0:0:
161,134,113075,6,0,L|111:35,1,90,0|0,0:0|0:0,0:0:0:0:
229,100,113549,2,0,L|179:1,2,90,0|0|0,0:0|0:0|0:0,0:0:0:0:
300,67,114180,5,0,0:0:0:0:
300,67,114338,2,0,L|399:17,1,90,0|0,0:0|0:0,0:0:0:0:
334,135,114812,2,0,L|433:85,2,90,0|0|0,0:0|0:0|0:0,0:0:0:0:
366,208,115444,5,0,0:0:0:0:
366,208,115602,2,0,L|416:307,1,90,0|0,0:0|0:0,0:0:0:0:
298,242,116076,2,0,L|348:341,2,90,0|0|0,0:0|0:0|0:0,0:0:0:0:
256,192,116707,12,0,117891,2:0:0:0:
