osu file format v14

[General]
AudioFilename: audio.mp3
AudioLeadIn: 0
PreviewTime: 72496
Countdown: 0
SampleSet: Soft
StackLeniency: 0.7
Mode: 0
LetterboxInBreaks: 0
WidescreenStoryboard: 0

[Editor]
Bookmarks: 23233,33338,43444,53549,66180,72496,82601,92707,102812,112917,117970
DistanceSpacing: 3.6
BeatDivisor: 4
GridSize: 4
TimelineZoom: 2.200001

[Metadata]
Title:Redshift
TitleUnicode:Redshift
Artist:technoplanet
ArtistUnicode:technoplanet
Creator:-Unlimit-
Version:Extraterristrial
Source:MUSECA
Tags:
BeatmapID:1988606
BeatmapSetID:952329

[Difficulty]
HPDrainRate:5
CircleSize:4.3
OverallDifficulty:8.3
ApproachRate:9.7
SliderMultiplier:1.8
SliderTickRate:1

[Events]
//Background and Video events
0,0,"65523930_p0.jpg",0,0
//Break Periods
//Storyboard Layer 0 (Background)
//Storyboard Layer 1 (Fail)
//Storyboard Layer 2 (Pass)
//Storyboard Layer 3 (Foreground)
//Storyboard Sound Samples

[TimingPoints]
3023,315.789473684211,4,2,2,70,1,0
3023,-100,4,2,2,70,0,0
11865,-66.6666666666667,4,2,2,70,0,0
13128,-100,4,2,2,70,0,0
19444,-66.6666666666667,4,2,2,70,0,0
20707,-200,4,2,2,70,0,0
21023,-100,4,2,2,70,0,0
32075,-66.6666666666667,4,2,2,70,0,0
33338,-100,4,2,2,70,0,0
48180,-66.6666666666667,4,2,2,70,0,0
48496,-100,4,2,2,70,0,0
49759,-66.6666666666667,4,2,2,70,0,0
50075,-100,4,2,2,70,0,0
53549,-200,4,2,2,50,0,0
61128,-133.333333333333,4,2,2,50,0,0
64917,-166.666666666667,4,2,2,40,0,0
65233,-142.857142857143,4,2,2,50,0,0
65549,-125,4,2,2,60,0,0
65865,-111.111111111111,4,2,2,70,0,0
66180,-100,4,2,2,70,0,0
70286,-80,4,2,2,70,0,0
70601,-66.6666666666667,4,2,2,70,0,0
70917,-80,4,2,2,70,0,0
71233,-100,4,2,2,40,0,0
72180,-66.6666666666667,4,2,2,70,0,0
72496,-83.3333333333333,4,2,2,70,0,1
87023,-62.5,4,2,2,70,0,1
87970,-83.3333333333333,4,2,2,70,0,1
92707,-83.3333333333333,4,2,2,70,0,0
93023,-83.3333333333333,4,2,2,70,0,1
95312,-66.6666666666667,4,2,2,70,0,1
95865,-83.3333333333333,4,2,2,70,0,1
96496,-66.6666666666667,4,2,2,70,0,1
97759,-83.3333333333333,4,2,2,70,0,1
107233,-66.6666666666667,4,2,2,70,0,1
107865,-83.3333333333333,4,2,2,70,0,1
112917,-100,4,2,2,70,0,0

[Colours]
Combo1 : 0,0,128
Combo2 : 170,0,0
Combo3 : 128,64,0
Combo4 : 0,0,0

[HitObjects]
417,104,3023,5,6,0:0:0:0:
381,370,3180,1,0,0:0:0:0:
437,299,3338,1,8,0:0:0:0:
437,299,3417,2,0,P|394:278|348:288,1,90
294,351,3654,5,2,0:0:0:0:
491,128,3891,1,2,0:0:0:0:
200,69,4128,2,0,L|223:138,1,45,8|0,0:0|0:0,0:0:0:0:
328,182,4286,5,2,0:0:0:0:
60,218,4444,1,0,0:0:0:0:
144,248,4601,1,10,0:0:0:0:
144,248,4680,2,0,P|149:197|123:153,1,90
49,129,4917,5,2,0:0:0:0:
215,375,5154,1,2,0:0:0:0:
346,109,5391,1,8,0:0:0:0:
204,205,5549,5,2,0:0:0:0:
446,323,5707,1,0,0:0:0:0:
373,376,5865,1,8,0:0:0:0:
373,376,5944,2,0,P|357:339|373:271,1,90
431,233,6180,5,2,0:0:0:0:
162,359,6417,1,2,0:0:0:0:
187,62,6654,2,0,L|232:93,1,45,8|0,0:0|0:0,0:0:0:0:
260,218,6812,5,2,0:0:0:0:
0,293,6970,1,0,0:0:0:0:
55,221,7128,1,8,0:0:0:0:
55,221,7207,2,0,P|84:254|89:299,1,90
34,376,7444,5,2,0:0:0:0:
133,98,7680,1,2,0:0:0:0:
324,322,7917,2,0,L|256:335,1,45,8|0,0:0|0:0,0:0:0:0:
163,265,8075,5,2,0:0:0:0:
164,264,8549,6,0,B|208:237|269:264|269:264|332:296|378:263,1,225,6|0,0:0|0:0,0:0:0:0:
406,243,9023,1,0,0:0:0:0:
429,219,9101,1,0,0:0:0:0:
440,187,9180,1,0,0:0:0:0:
438,154,9259,1,0,0:0:0:0:
424,124,9338,5,2,0:0:0:0:
405,111,9417,2,0,L|400:62,2,45
271,80,9654,5,8,0:0:0:0:
290,67,9733,2,0,L|295:18,2,45
190,139,9970,5,2,0:0:0:0:
171,126,10049,2,0,L|166:77,2,45
61,93,10286,5,8,0:0:0:0:
80,80,10365,2,0,L|85:31,2,45
25,251,10601,5,2,0:0:0:0:
209,207,10759,1,2,0:0:0:0:
25,166,10917,1,2,0:0:0:0:
19,373,11075,2,0,B|111:371|111:371|150:350|150:350|261:347,1,225,12|0,0:0|0:0,0:0:0:0:
318,303,11549,1,0,0:0:0:0:
360,289,11627,1,0,0:0:0:0:
405,293,11706,1,0,0:0:0:0:
444,314,11785,1,0,0:0:0:0:
472,349,11865,6,0,P|455:284|478:222,1,135.000005149842,6|0,0:0|0:0,0:0:0:0:
510,91,12101,2,0,P|463:138|397:149,1,135.000005149842,6|0,0:0|0:0,0:0:0:0:
267,188,12338,2,0,P|310:195|335:208,1,67.5000025749208,6|0,0:0|0:0,0:0:0:0:
217,376,12496,6,0,L|205:234,1,135.000005149842,10|0,0:0|0:0,0:0:0:0:
147,80,12733,2,0,L|135:214,1,135.000005149842,10|0,0:0|0:0,0:0:0:0:
79,376,12970,1,10,0:0:0:0:
78,363,13048,1,8,0:0:0:0:
77,349,13127,5,6,0:0:0:0:
53,78,13286,1,0,0:0:0:0:
151,300,13444,1,8,0:0:0:0:
151,300,13523,2,0,P|197:305|256:275,1,90
273,90,13759,6,0,L|281:202,1,90,6|0,0:0|0:0,0:0:0:0:
346,360,13996,2,0,L|352:270,1,90,6|0,0:0|0:0,0:0:0:0:
390,113,14233,2,0,L|394:158,1,45,6|0,0:0|0:0,0:0:0:0:
466,248,14391,5,2,0:0:0:0:
351,0,14549,1,0,0:0:0:0:
233,192,14707,1,8,0:0:0:0:
233,192,14786,2,0,P|186:189|136:147,1,90
394,158,15023,6,0,B|436:145|436:145|504:155,1,90,6|0,0:0|0:0,0:0:0:0:
283,258,15259,2,0,B|237:264|237:264|195:251,1,90,6|0,0:0|0:0,0:0:0:0:
0,133,15496,2,0,L|44:126,1,45,6|0,0:0|0:0,0:0:0:0:
237,94,15654,5,2,0:0:0:0:
30,268,15812,1,0,0:0:0:0:
22,33,15970,1,8,0:0:0:0:
22,33,16049,2,0,P|70:33|123:68,1,90
108,233,16286,6,0,L|116:351,1,90,6|0,0:0|0:0,0:0:0:0:
168,101,16523,2,0,L|160:219,1,90,6|0,0:0|0:0,0:0:0:0:
217,13,16759,2,0,L|221:72,1,45,6|0,0:0|0:0,0:0:0:0:
214,234,16917,5,2,0:0:0:0:
484,242,17075,1,0,0:0:0:0:
356,5,17233,1,8,0:0:0:0:
356,5,17312,2,0,P|341:52|346:106,1,90
507,170,17549,6,0,L|400:160,1,90,6|0,0:0|0:0,0:0:0:0:
190,142,17786,1,8,0:0:0:0:
225,146,17865,1,8,0:0:0:0:
266,162,17944,1,8,0:0:0:0:
310,199,18023,1,8,0:0:0:0:
343,261,18101,1,8,0:0:0:0:
343,346,18180,5,8,0:0:0:0:
343,346,18654,6,0,L|78:340,1,225,6|0,0:0|0:0,0:0:0:0:
38,295,19128,2,0,L|-4:295,1,22.5
21,254,19207,2,0,L|-20:246,1,22.5
25,207,19286,2,0,L|-14:192,1,22.5
40,167,19365,2,0,L|3:146,1,22.5
101,101,19444,6,0,P|197:121|302:74,1,202.500007724762,6|0,0:0|0:0,0:0:0:0:
507,178,19759,6,0,P|474:164|442:138,1,67.5000025749208,6|0,0:0|0:0,0:0:0:0:
357,8,19917,2,0,L|362:216,1,202.500007724762,12|0,0:0|0:0,0:0:0:0:
498,183,20233,6,0,P|465:169|433:143,1,67.5000025749208,6|0,0:0|0:0,0:0:0:0:
366,3,20391,2,0,L|371:211,1,202.500007724762,12|0,0:0|0:0,0:0:0:0:
358,376,20707,6,0,L|437:369,1,67.5,6|0,0:0|0:0,0:0:0:0:
506,329,21023,5,0,0:0:0:0:
448,294,21101,1,0,0:0:0:0:
374,271,21180,1,0,0:0:0:0:
288,277,21259,1,0,0:0:0:0:
201,315,21338,5,0,0:0:0:0:
135,330,21417,1,0,0:0:0:0:
86,289,21496,1,0,0:0:0:0:
83,235,21575,1,0,0:0:0:0:
108,197,21654,1,0,0:0:0:0:
139,179,21733,1,0,0:0:0:0:
165,177,21812,1,0,0:0:0:0:
182,180,21891,1,0,0:0:0:0:
194,185,21970,6,0,P|234:201|288:190,1,90,2|0,0:0|0:0,0:0:0:0:
315,110,22167,2,0,L|309:73,2,22.5
369,182,22286,1,8,0:0:0:0:
365,226,22364,1,8,0:0:0:0:
362,271,22443,1,8,0:0:0:0:
359,316,22522,1,8,0:0:0:0:
355,361,22601,6,0,L|284:351,1,45,2|0,0:0|0:0,0:0:0:0:
54,266,22759,2,0,L|125:255,1,45
206,29,22917,1,8,0:0:0:0:
223,44,22995,1,0,0:0:0:0:
235,63,23074,1,0,0:0:0:0:
243,84,23153,1,0,0:0:0:0:
245,106,23232,5,2,0:0:0:0:
245,106,23549,5,8,0:0:0:0:
273,71,23627,1,0,0:0:0:0:
314,54,23706,1,0,0:0:0:0:
358,58,23785,1,0,0:0:0:0:
395,83,23865,5,2,0:0:0:0:
415,92,23943,1,0,0:0:0:0:
437,95,24022,1,0,0:0:0:0:
459,91,24101,1,0,0:0:0:0:
478,80,24180,5,8,0:0:0:0:
475,133,24259,1,0,0:0:0:0:
472,191,24338,1,0,0:0:0:0:
470,254,24417,1,0,0:0:0:0:
466,321,24496,5,2,0:0:0:0:
466,321,24812,5,8,0:0:0:0:
421,324,24890,1,0,0:0:0:0:
376,328,24969,1,0,0:0:0:0:
331,332,25048,1,0,0:0:0:0:
286,335,25128,5,2,0:0:0:0:
264,334,25206,1,0,0:0:0:0:
242,327,25285,1,0,0:0:0:0:
223,316,25364,1,0,0:0:0:0:
207,301,25444,5,8,0:0:0:0:
159,326,25523,1,0,0:0:0:0:
101,318,25601,1,0,0:0:0:0:
54,274,25680,1,0,0:0:0:0:
49,206,25759,5,2,0:0:0:0:
49,206,26075,5,8,0:0:0:0:
93,198,26153,1,0,0:0:0:0:
137,190,26232,1,0,0:0:0:0:
182,183,26311,1,0,0:0:0:0:
226,175,26391,5,2,0:0:0:0:
207,164,26469,1,0,0:0:0:0:
187,152,26548,1,0,0:0:0:0:
168,140,26627,1,0,0:0:0:0:
149,129,26707,5,8,0:0:0:0:
202,121,26786,1,0,0:0:0:0:
259,110,26865,1,0,0:0:0:0:
321,100,26944,1,0,0:0:0:0:
387,88,27023,5,2,0:0:0:0:
387,88,27338,5,8,0:0:0:0:
362,51,27416,1,0,0:0:0:0:
319,40,27495,1,0,0:0:0:0:
280,60,27574,1,0,0:0:0:0:
264,101,27654,5,2,0:0:0:0:
264,123,27732,1,0,0:0:0:0:
265,145,27811,1,0,0:0:0:0:
266,168,27890,1,0,0:0:0:0:
268,191,27970,5,8,0:0:0:0:
238,145,28049,1,0,0:0:0:0:
189,112,28128,1,0,0:0:0:0:
127,98,28207,1,0,0:0:0:0:
61,114,28286,5,2,0:0:0:0:
61,114,28601,5,8,0:0:0:0:
64,158,28679,1,0,0:0:0:0:
67,203,28758,1,0,0:0:0:0:
70,248,28837,1,0,0:0:0:0:
112,265,28917,5,2,0:0:0:0:
110,287,28995,1,0,0:0:0:0:
109,309,29074,1,0,0:0:0:0:
107,332,29153,1,0,0:0:0:0:
106,354,29233,5,8,0:0:0:0:
151,324,29312,1,0,0:0:0:0:
206,306,29391,1,0,0:0:0:0:
269,307,29470,1,0,0:0:0:0:
332,328,29549,5,2,0:0:0:0:
332,328,29865,5,8,0:0:0:0:
318,285,29943,1,0,0:0:0:0:
327,241,30022,1,0,0:0:0:0:
357,208,30101,1,0,0:0:0:0:
398,193,30180,5,2,0:0:0:0:
421,194,30258,1,0,0:0:0:0:
442,201,30337,1,0,0:0:0:0:
461,213,30416,1,0,0:0:0:0:
476,230,30495,5,8,0:0:0:0:
425,250,30575,1,0,0:0:0:0:
366,244,30654,1,0,0:0:0:0:
313,209,30733,1,0,0:0:0:0:
284,147,30812,5,2,0:0:0:0:
284,147,31128,5,8,0:0:0:0:
291,103,31206,1,0,0:0:0:0:
275,61,31285,1,0,0:0:0:0:
240,33,31364,1,0,0:0:0:0:
196,27,31444,5,2,0:0:0:0:
173,28,31522,1,0,0:0:0:0:
151,29,31601,1,0,0:0:0:0:
128,30,31680,1,0,0:0:0:0:
106,32,31759,5,8,0:0:0:0:
143,70,31838,1,0,0:0:0:0:
161,125,31917,1,0,0:0:0:0:
148,186,31996,1,0,0:0:0:0:
102,236,32075,6,0,L|92:155,1,67.5000025749208,2|0,0:0|0:0,0:0:0:0:
264,170,32233,6,0,L|239:370,1,202.500007724762,6|0,0:0|0:0,0:0:0:0:
125,64,32549,6,0,B|194:56|194:56|254:89|254:89|361:78,1,202.500007724762,4|0,0:0|0:0,0:0:0:0:
498,18,32865,6,0,P|423:69|439:186,1,202.500007724762,4|0,0:0|0:0,0:0:0:0:
496,362,33180,6,0,P|466:349|413:344,1,67.5000025749208,4|0,0:0|0:0,0:0:0:0:
193,360,33338,5,6,0:0:0:0:
193,360,33654,6,0,L|272:351,1,45,8|0,0:0|0:0,0:0:0:0:
68,239,33812,1,0,0:0:0:0:
68,239,33891,1,0,0:0:0:0:
68,239,33970,2,0,L|60:350,1,90,2|2,0:0|0:0,0:0:0:0:
264,192,34286,2,0,L|260:147,1,45,8|0,0:0|0:0,0:0:0:0:
85,26,34444,1,0,0:0:0:0:
90,93,34523,1,0,0:0:0:0:
96,168,34601,6,0,P|144:174|195:150,1,90,2|0,0:0|0:0,0:0:0:0:
376,11,34917,6,0,L|373:81,1,45,8|0,0:0|0:0,0:0:0:0:
448,222,35075,1,0,0:0:0:0:
448,222,35154,1,0,0:0:0:0:
448,222,35233,2,0,L|444:132,1,90,2|2,0:0|0:0,0:0:0:0:
361,352,35549,1,8,0:0:0:0:
211,169,35707,1,0,0:0:0:0:
151,137,35786,1,0,0:0:0:0:
79,164,35865,6,0,P|37:166|-10:149,1,90,2|0,0:0|0:0,0:0:0:0:
228,18,36180,6,0,L|295:14,1,45,8|0,0:0|0:0,0:0:0:0:
496,172,36338,1,0,0:0:0:0:
496,172,36417,1,0,0:0:0:0:
496,172,36496,2,0,P|448:159|389:162,1,90,2|2,0:0|0:0,0:0:0:0:
194,244,36812,2,0,L|187:178,1,45,8|0,0:0|0:0,0:0:0:0:
98,15,36970,1,0,0:0:0:0:
65,74,37049,1,0,0:0:0:0:
93,145,37128,6,0,L|102:234,1,90,2|0,0:0|0:0,0:0:0:0:
332,288,37444,6,0,P|312:275|290:269,1,45,8|0,0:0|0:0,0:0:0:0:
78,344,37601,1,0,0:0:0:0:
78,344,37680,1,0,0:0:0:0:
78,344,37759,2,0,L|200:336,1,90,2|2,0:0|0:0,0:0:0:0:
267,349,37996,1,0,0:0:0:0:
319,363,38075,1,8,0:0:0:0:
377,357,38154,1,0,0:0:0:0:
431,324,38233,1,2,0:0:0:0:
470,269,38312,1,0,0:0:0:0:
481,197,38391,6,0,B|479:158|479:158|483:145|483:145|480:88,1,90,6|0,0:0|0:0,0:0:0:0:
246,176,38707,6,0,L|247:220,1,45,8|0,0:0|0:0,0:0:0:0:
414,33,38865,1,0,0:0:0:0:
414,33,38944,1,0,0:0:0:0:
414,33,39023,2,0,P|363:21|312:31,1,90,2|2,0:0|0:0,0:0:0:0:
130,93,39338,2,0,L|174:91,1,45,8|0,0:0|0:0,0:0:0:0:
95,245,39496,1,0,0:0:0:0:
95,245,39575,1,0,0:0:0:0:
95,245,39654,6,0,L|5:241,1,90,2|0,0:0|0:0,0:0:0:0:
204,349,39970,6,0,P|208:328|209:298,1,45,8|0,0:0|0:0,0:0:0:0:
100,200,40128,1,0,0:0:0:0:
100,200,40207,1,0,0:0:0:0:
100,200,40286,2,0,P|96:221|95:251,1,45,2|0,0:0|0:0,0:0:0:0:
286,302,40444,1,2,0:0:0:0:
304,246,40523,1,0,0:0:0:0:
298,184,40601,1,8,0:0:0:0:
264,125,40680,1,0,0:0:0:0:
204,85,40759,1,0,0:0:0:0:
127,76,40838,1,0,0:0:0:0:
53,110,40917,6,0,P|101:123|165:114,1,90,2|0,0:0|0:0,0:0:0:0:
373,46,41233,1,8,0:0:0:0:
414,63,41312,1,0,0:0:0:0:
372,126,41390,1,0,0:0:0:0:
441,183,41469,1,0,0:0:0:0:
403,265,41549,6,0,L|408:363,1,90,2|2,0:0|0:0,0:0:0:0:
506,151,41865,1,8,0:0:0:0:
281,137,42023,1,0,0:0:0:0:
278,203,42101,1,0,0:0:0:0:
274,279,42180,6,0,L|271:328,1,45
284,71,42338,2,0,L|286:26,1,45
170,254,42496,6,0,L|145:291,1,45
388,96,42654,2,0,L|412:58,1,45
102,171,42812,6,0,L|61:191,1,45
456,179,42970,2,0,L|496:158,1,45
210,43,43129,5,0,0:0:0:0:
145,24,43207,1,0,0:0:0:0:
80,39,43286,1,0,0:0:0:0:
31,84,43365,1,0,0:0:0:0:
10,147,43444,5,6,0:0:0:0:
188,334,43601,1,2,0:0:0:0:
262,86,43759,1,8,0:0:0:0:
261,85,44075,6,0,P|271:129|260:173,1,90,8|0,0:0|0:0,0:0:0:0:
87,173,44312,2,0,P|78:123|96:73,1,90,8|0,0:0|0:0,0:0:0:0:
173,222,44549,1,0,0:3:0:0:
173,222,44628,1,0,0:3:0:0:
173,222,44707,6,0,P|173:248|180:280,1,45,2|0,0:0|0:0,0:0:0:0:
377,307,44865,2,0,P|380:284|380:262,1,45
311,62,45023,2,0,L|311:91,3,22.5,8|0|0|0,0:0|0:0|0:0|0:0,0:0:0:0:
238,94,45180,1,0,0:0:0:0:
171,56,45259,1,0,0:0:0:0:
127,118,45338,5,2,0:0:0:0:
510,108,45654,1,8,0:0:0:0:
19,220,45970,5,6,0:0:0:0:
238,94,46128,1,2,0:0:0:0:
237,346,46286,1,8,0:0:0:0:
237,346,46601,6,0,L|230:236,1,90,8|0,0:0|0:0,0:0:0:0:
304,79,46838,2,0,L|298:168,1,90,8|0,0:0|0:0,0:0:0:0:
312,332,47075,1,0,0:3:0:0:
333,354,47154,1,0,0:3:0:0:
359,371,47233,6,0,P|383:374|417:363,1,45,2|0,0:0|0:0,0:0:0:0:
494,217,47391,2,0,P|497:193|486:159,1,45
334,9,47549,2,0,L|224:7,1,90,8|0,0:0|0:0,0:0:0:0:
223,17,47786,1,0,0:0:0:0:
223,17,47865,5,2,0:0:0:0:
492,36,48023,1,0,0:0:0:0:
223,17,48180,6,0,L|303:18,1,67.5000025749208,8|0,0:0|0:0,0:0:0:0:
492,36,48338,2,0,L|411:37,1,67.5000025749208
152,10,48496,5,6,0:0:0:0:
389,95,48654,1,2,0:0:0:0:
196,257,48812,1,8,0:0:0:0:
131,272,48890,1,8,0:0:0:0:
70,245,48969,1,8,0:0:0:0:
39,187,49048,1,8,0:0:0:0:
49,122,49128,6,0,L|167:130,1,90,12|0,0:0|0:0,0:0:0:0:
362,177,49365,2,0,L|244:184,1,90,8|0,0:0|0:0,0:0:0:0:
94,44,49601,1,0,0:3:0:0:
94,44,49680,1,0,0:3:0:0:
94,44,49759,6,0,P|92:26|97:6,7,33.7500012874604,2|0|0|0|0|0|0|0,0:0|0:0|0:0|0:0|0:0|0:0|0:0|0:0,0:0:0:0:
171,34,50075,2,0,L|233:31,1,45,8|0,0:0|0:0,0:0:0:0:
316,85,50233,2,0,L|378:88,1,45
459,29,50391,5,2,0:0:0:0:
459,29,50470,1,2,0:0:0:0:
481,280,50628,1,2,0:0:0:0:
481,280,50707,1,2,0:0:0:0:
252,173,50865,1,2,0:0:0:0:
510,207,51023,5,6,0:0:0:0:
234,314,51180,1,2,0:0:0:0:
280,21,51338,1,8,0:0:0:0:
280,21,51654,6,0,B|233:17|233:17|166:33,1,90,8|0,0:0|0:0,0:0:0:0:
416,63,51891,2,0,B|463:67|463:67|530:51,1,90,8|0,0:0|0:0,0:0:0:0:
311,159,52128,1,8,0:0:0:0:
506,189,52286,5,2,0:0:0:0:
235,183,52444,1,0,0:0:0:0:
416,63,52601,5,8,0:0:0:0:
410,334,52759,1,0,0:0:0:0:
207,80,52917,5,2,0:0:0:0:
246,347,53075,2,0,L|250:378,4,22.5,0|0|0|0|8,0:0|0:0|0:0|0:0|0:0,0:0:0:0:
458,180,53391,2,0,L|456:198,7,11.25
458,180,53549,5,6,0:0:0:0:
383,78,53707,1,0,0:0:0:0:
333,194,53865,1,0,0:0:0:0:
399,223,54023,1,0,0:0:0:0:
399,223,54338,5,0,0:0:0:0:
324,121,54496,1,0,0:0:0:0:
274,237,54654,2,0,L|245:246,1,22.5
189,194,54812,2,0,L|61:189,1,112.5
54,187,55286,1,0,0:0:0:0:
139,346,55601,1,0,0:0:0:0:
318,326,55917,1,0,0:0:0:0:
212,181,56075,5,0,0:0:0:0:
317,251,56233,1,0,0:0:0:0:
324,125,56391,1,0,0:0:0:0:
252,120,56549,1,0,0:0:0:0:
252,120,56865,5,0,0:0:0:0:
423,175,57023,1,0,0:0:0:0:
471,36,57180,1,0,0:0:0:0:
252,120,57338,1,0,0:0:0:0:
252,120,57812,1,0,0:0:0:0:
252,120,58128,1,0,0:0:0:0:
161,120,58286,1,0,0:0:0:0:
116,42,58444,1,0,0:0:0:0:
71,120,58601,6,0,P|59:151|58:182,1,45
146,229,58917,1,0,0:0:0:0:
276,195,59075,2,0,P|305:194|334:197,1,45
441,217,59391,2,0,P|425:192|413:165,2,45
511,305,59865,5,0,0:0:0:0:
494,148,60023,1,0,0:0:0:0:
428,314,60180,1,0,0:0:0:0:
428,314,60496,2,0,P|395:327|361:328,2,67.5
441,217,61128,6,0,P|372:211|308:253,1,135.000005149842
267,326,61601,2,0,P|198:332|134:290,1,135.000005149842
220,241,62075,1,0,0:0:0:0:
220,240,62391,6,0,P|239:177|219:114,1,135.000005149842
121,114,62865,2,0,P|100:177|120:240,1,135.000005149842
171,329,63338,1,0,0:0:0:0:
171,329,63654,6,0,P|234:309|297:329,1,135.000005149842
374,269,64128,2,0,P|437:288|500:268,1,135.000005149842
437,194,64601,1,0,0:0:0:0:
437,194,64917,6,0,P|382:179|340:193,1,80.9999975280763,4|0,0:0|0:0,0:0:0:0:
437,194,65233,6,0,P|385:155|333:144,1,94.499997116089,4|0,0:0|0:0,0:0:0:0:
437,194,65549,6,0,P|406:132|358:89,1,108,4|0,0:0|0:0,0:0:0:0:
437,194,65865,6,0,P|442:131|422:72,1,121.499996292114,4|0,0:0|0:0,0:0:0:0:
324,26,66180,6,0,L|138:26,1,180,6|8,0:0|0:0,0:0:0:0:
181,165,66654,2,0,P|222:152|254:104,1,90
43,128,66970,1,2,0:0:0:0:
80,267,67128,2,0,B|122:276|122:276|173:250,1,90,8|0,0:0|0:0,0:0:0:0:
250,116,67444,6,0,L|253:306,1,180,2|8,0:0|0:0,0:0:0:0:
344,184,67917,2,0,L|342:94,1,90
395,320,68233,1,2,0:0:0:0:
487,209,68391,2,0,B|496:162|496:162|481:106,1,90,8|0,0:0|0:0,0:0:0:0:
424,51,68707,5,8,0:0:0:0:
395,320,68865,1,8,0:0:0:0:
224,79,69023,5,8,0:0:0:0:
253,347,69181,1,8,0:0:0:0:
424,176,69338,5,10,0:0:0:0:
369,137,69416,1,10,0:0:0:0:
303,136,69495,1,10,0:0:0:0:
247,172,69574,1,10,0:0:0:0:
220,233,69654,6,0,L|250:240,1,22.5,8|0,0:0|0:0,0:0:0:0:
193,294,69733,2,0,L|215:314,1,22.5,8|0,0:0|0:0,0:0:0:0:
137,329,69812,2,0,L|145:357,1,22.5,8|0,0:0|0:0,0:0:0:0:
71,328,69891,2,0,L|64:357,1,22.5,8|0,0:0|0:0,0:0:0:0:
16,289,69970,6,0,L|2:136,1,135,6|0,0:0|0:0,0:0:0:0:
31,120,70286,6,0,L|15:294,1,168.75,4|0,0:0|0:0,0:0:0:0:
54,325,70601,6,0,L|34:110,1,202.500007724762,4|0,0:0|0:0,0:0:0:0:
69,156,70917,6,0,L|53:330,1,168.75,4|0,0:0|0:0,0:0:0:0:
74,350,71233,5,2,0:3:0:0:
103,368,71312,1,2,0:3:0:0:
135,377,71391,1,2,0:3:0:0:
169,375,71470,1,2,0:3:0:0:
200,363,71549,2,0,P|231:328|238:284,1,90,2|2,0:3|0:3,0:0:0:0:
219,258,71785,1,2,0:3:0:0:
208,226,71864,1,2,0:3:0:0:
206,193,71943,1,2,0:3:0:0:
213,160,72023,2,0,L|226:127,3,22.5,2|0|0|0,0:3|0:0|0:0|0:3,0:0:0:0:
277,198,72180,6,0,B|361:195|361:195|391:176|391:176|474:175,1,202.500007724762,8|0,0:0|0:0,0:0:0:0:
329,12,72496,6,0,P|322:62|336:121,1,107.999996704102,6|0,0:0|0:0,0:0:0:0:
451,58,72812,1,0,0:0:0:0:
214,34,72970,2,0,P|114:19|49:114,1,215.999993408203,8|0,0:0|0:0,0:0:0:0:
122,329,73444,1,0,0:0:0:0:
177,109,73601,5,0,0:0:0:0:
177,109,73680,1,0,0:0:0:0:
177,109,73759,1,2,0:0:0:0:
261,319,73917,1,0,0:0:0:0:
171,131,74075,1,8,0:0:0:0:
127,307,74233,1,0,0:0:0:0:
31,211,74391,2,0,P|108:195|189:248,1,161.999995056153,2|0,0:0|0:0,0:0:0:0:
240,179,74707,2,0,P|283:210|345:217,1,107.999996704102,8|0,0:0|0:0,0:0:0:0:
487,111,75023,6,0,P|492:58|467:1,1,107.999996704102,2|0,0:0|0:0,0:0:0:0:
363,77,75338,1,0,0:0:0:0:
141,26,75496,2,0,P|244:29|280:133,1,215.999993408203,8|0,0:0|0:0,0:0:0:0:
153,362,75970,1,0,0:0:0:0:
98,142,76127,5,0,0:0:0:0:
98,142,76206,1,0,0:0:0:0:
98,142,76285,1,2,0:0:0:0:
14,352,76443,1,0,0:0:0:0:
104,164,76601,1,8,0:0:0:0:
148,340,76759,5,8,0:0:0:0:
274,221,77075,5,8,0:0:0:0:
477,344,77391,5,8,0:0:0:0:
346,132,77549,6,0,P|340:76|361:18,1,107.999996704102,6|0,0:0|0:0,0:0:0:0:
469,89,77865,1,0,0:0:0:0:
228,27,78023,2,0,B|175:19|175:19|121:26,1,107.999996704102,8|0,0:0|0:0,0:0:0:0:
14,188,78338,2,0,B|67:196|67:196|121:189,1,107.999996704102
279,152,78654,1,0,0:0:0:0:
185,370,78812,6,0,L|190:248,1,107.999996704102,2|0,0:0|0:0,0:0:0:0:
279,152,79128,2,0,L|283:259,1,107.999996704102,8|0,0:0|0:0,0:0:0:0:
38,119,79444,2,0,P|101:75|210:114,1,161.999995056153,2|0,0:0|0:0,0:0:0:0:
240,32,79759,2,0,P|291:47|343:35,1,107.999996704102,8|0,0:0|0:0,0:0:0:0:
409,231,80075,6,0,L|404:120,1,107.999996704102,2|0,0:0|0:0,0:0:0:0:
510,198,80391,1,0,0:0:0:0:
321,342,80549,2,0,P|260:270|141:282,1,215.999993408203,8|0,0:0|0:0,0:0:0:0:
209,379,81023,1,0,0:0:0:0:
281,188,81180,1,0,0:0:0:0:
121,60,81338,6,0,P|107:112|123:165,1,107.999996704102,2|0,0:0|0:0,0:0:0:0:
272,101,81654,1,8,0:0:0:0:
27,279,81812,1,0,0:0:0:0:
88,235,81890,1,0,0:0:0:0:
162,230,81970,2,0,P|226:262|268:357,1,161.999995056153,2|0,0:0|0:0,0:0:0:0:
169,327,82286,1,8,0:0:0:0:
500,279,82444,1,8,0:0:0:0:
293,17,82601,6,0,L|161:13,1,107.999996704102,6|0,0:0|0:0,0:0:0:0:
127,130,82917,1,0,0:0:0:0:
361,48,83075,2,0,P|450:37|501:157,1,215.999993408203,8|0,0:0|0:0,0:0:0:0:
351,371,83549,1,0,0:0:0:0:
412,129,83707,5,0,0:0:0:0:
412,129,83785,1,0,0:0:0:0:
412,129,83865,1,2,0:0:0:0:
504,360,84022,1,0,0:0:0:0:
418,107,84180,1,8,0:0:0:0:
357,347,84338,2,0,P|303:362|234:353,1,107.999996704102,0|2,0:0|0:0,0:0:0:0:
42,241,84654,1,0,0:0:0:0:
310,213,84812,1,8,0:0:0:0:
134,339,84970,1,0,0:0:0:0:
37,133,85128,6,0,L|40:21,1,107.999996704102,2|0,0:0|0:0,0:0:0:0:
161,72,85444,1,0,0:0:0:0:
347,22,85601,2,0,P|403:14|469:31,1,107.999996704102,8|0,0:0|0:0,0:0:0:0:
335,219,85917,2,0,P|300:174|281:108,1,107.999996704102
512,131,86233,1,0,0:0:0:0:
444,347,86391,6,0,L|310:351,1,107.999996704102,2|0,0:0|0:0,0:0:0:0:
118,358,86707,2,0,L|252:354,1,107.999996704102,8|0,0:0|0:0,0:0:0:0:
292,132,87023,6,0,P|229:99|163:122,1,144,6|0,0:0|0:0,0:0:0:0:
56,291,87259,6,0,P|114:253|129:184,1,144,6|0,0:0|0:0,0:0:0:0:
36,12,87496,6,0,P|39:82|91:128,1,144,6|0,0:0|0:0,0:0:0:0:
91,128,87970,6,0,B|171:128|171:128|214:94|214:94|321:94,1,215.999993408203,6|0,0:0|0:0,0:0:0:0:
471,179,88444,1,0,0:0:0:0:
411,52,88601,1,6,0:0:0:0:
355,371,88759,1,0,0:0:0:0:
355,371,88838,1,0,0:0:0:0:
355,371,88917,6,0,L|348:147,1,215.999993408203,12|0,0:0|0:0,0:0:0:0:
456,245,89391,1,0,0:0:0:0:
277,366,89549,2,0,L|273:254,1,107.999996704102
269,149,89865,1,8,0:0:0:0:
199,361,90023,1,0,0:0:0:0:
199,361,90101,1,0,0:0:0:0:
199,361,90180,5,2,0:0:0:0:
189,365,90259,1,0,0:0:0:0:
174,371,90338,1,0,0:0:0:0:
152,375,90417,1,0,0:0:0:0:
125,367,90496,1,2,0:0:0:0:
98,348,90575,1,0,0:0:0:0:
82,313,90654,1,0,0:0:0:0:
87,270,90733,1,0,0:0:0:0:
120,235,90812,5,2,0:0:0:0:
172,223,90891,1,0,0:0:0:0:
223,194,90970,1,0,0:0:0:0:
250,135,91049,1,0,0:0:0:0:
234,66,91128,1,2,0:0:0:0:
173,25,91207,1,0,0:0:0:0:
98,37,91286,1,0,0:0:0:0:
50,102,91365,1,0,0:0:0:0:
70,185,91444,5,8,0:0:0:0:
80,221,91523,2,0,L|74:281,2,53.9999983520508
179,263,91759,5,8,0:0:0:0:
169,299,91838,2,0,L|175:359,2,53.9999983520508
242,121,92075,5,8,0:0:0:0:
259,56,92154,2,0,L|253:-4,2,53.9999983520508
426,149,92391,5,8,0:0:0:0:
409,84,92470,2,0,L|415:24,2,53.9999983520508
464,352,92707,6,0,L|468:312,7,26.9999991760254
476,254,93023,5,6,0:0:0:0:
411,234,93101,1,0,0:0:0:0:
346,246,93180,1,0,0:0:0:0:
292,286,93259,1,0,0:0:0:0:
262,345,93338,5,2,0:0:0:0:
235,314,93416,1,0,0:0:0:0:
199,297,93495,1,0,0:0:0:0:
158,295,93574,1,0,0:0:0:0:
121,309,93654,1,8,0:0:0:0:
93,320,93732,1,0,0:0:0:0:
64,319,93811,1,0,0:0:0:0:
37,306,93890,1,0,0:0:0:0:
18,283,93970,5,2,0:0:0:0:
21,246,94048,1,0,0:0:0:0:
23,208,94127,1,0,0:0:0:0:
25,170,94206,1,0,0:0:0:0:
27,132,94286,1,8,0:0:0:0:
30,89,94364,1,0,0:0:0:0:
54,53,94443,1,0,0:0:0:0:
92,34,94522,1,0,0:0:0:0:
135,37,94601,5,2,0:0:0:0:
177,61,94679,1,0,0:0:0:0:
224,72,94758,1,0,0:0:0:0:
272,70,94837,1,0,0:0:0:0:
318,54,94917,2,0,P|345:40|372:18,1,53.9999983520508,8|0,0:0|0:0,0:0:0:0:
509,209,95075,1,8,0:0:0:0:
451,198,95153,1,0,0:0:0:0:
397,222,95233,1,6,0:0:0:0:
366,271,95312,6,0,L|357:125,1,135.000005149842
278,373,95549,6,0,L|263:333,2,33.7500012874604,8|0|0,0:0|0:0|0:0,0:0:0:0:
479,345,95707,6,0,L|486:300,2,33.7500012874604,8|0|0,0:0|0:0|0:0,0:0:0:0:
280,253,95865,6,0,P|229:234|168:255,1,107.999996704102,2|0,0:0|0:0,0:0:0:0:
156,262,96101,1,0,0:0:0:0:
124,267,96180,1,8,0:0:0:0:
86,261,96259,1,0,0:0:0:0:
48,230,96338,1,0,0:0:0:0:
31,173,96417,1,0,0:0:0:0:
60,109,96496,5,2,0:0:0:0:
100,166,96575,2,0,P|112:201|106:249,1,67.5000025749208
136,62,96733,5,0,0:0:0:0:
185,110,96812,2,0,P|202:142|205:190,1,67.5000025749208,8|0,0:0|0:0,0:0:0:0:
202,2,96970,5,0,0:0:0:0:
259,41,97049,1,0,0:0:0:0:
290,103,97128,5,2,0:0:0:0:
329,46,97207,2,0,P|393:24|466:35,1,135.000005149842
461,99,97444,5,8,0:0:0:0:
464,167,97523,1,8,0:0:0:0:
467,234,97602,1,8,0:0:0:0:
470,301,97681,1,8,0:0:0:0:
473,369,97759,6,0,L|353:368,1,107.999996704102,6|0,0:0|0:0,0:0:0:0:
28,244,98075,1,8,0:0:0:0:
80,234,98153,1,0,0:0:0:0:
128,256,98232,1,0,0:0:0:0:
156,301,98311,1,0,0:0:0:0:
153,354,98391,5,2,0:0:0:0:
124,327,98469,1,0,0:0:0:0:
113,288,98548,1,0,0:0:0:0:
124,250,98627,1,0,0:0:0:0:
153,223,98707,1,8,0:0:0:0:
195,171,98785,1,0,0:0:0:0:
197,105,98864,1,0,0:0:0:0:
159,51,98943,1,0,0:0:0:0:
95,31,99023,6,0,P|82:89|110:145,1,107.999996704102,6|0,0:0|0:0,0:0:0:0:
508,50,99338,1,8,0:0:0:0:
445,25,99416,1,0,0:0:0:0:
378,29,99495,1,0,0:0:0:0:
319,59,99574,1,0,0:0:0:0:
278,113,99654,5,2,0:0:0:0:
331,108,99732,1,0,0:0:0:0:
382,124,99811,1,0,0:0:0:0:
423,159,99890,1,0,0:0:0:0:
447,207,99970,1,8,0:0:0:0:
446,277,100049,1,0,0:0:0:0:
401,344,100128,1,0,0:0:0:0:
320,375,100207,1,0,0:0:0:0:
233,344,100286,6,0,L|242:224,1,107.999996704102,6|0,0:0|0:0,0:0:0:0:
256,20,100601,1,8,0:0:0:0:
224,37,100707,2,0,P|183:45|142:34,1,71.9999978027344
390,34,100917,2,0,P|424:26|460:31,2,71.9999978027344,2|0|0,0:0|0:0|0:0,0:0:0:0:
280,90,101233,5,8,0:0:0:0:
442,117,101338,5,8,0:0:0:0:
231,170,101444,5,8,0:0:0:0:
356,210,101549,6,0,P|375:261|361:329,1,107.999996704102,6|0,0:0|0:0,0:0:0:0:
348,332,101786,1,0,0:0:0:0:
314,348,101865,1,0,0:0:0:0:
271,355,101944,1,0,0:0:0:0:
223,346,102023,1,0,0:0:0:0:
177,317,102101,1,0,0:0:0:0:
143,267,102180,6,0,L|101:281,1,26.9999991760254
136,197,102259,2,0,L|91:195,1,26.9999991760254
168,128,102338,2,0,L|126:111,1,26.9999991760254
237,85,102417,2,0,L|215:46,1,26.9999991760254
323,90,102496,5,8,0:0:0:0:
260,158,102574,1,8,0:0:0:0:
169,177,102653,1,8,0:0:0:0:
84,138,102732,1,8,0:0:0:0:
38,57,102812,6,0,L|154:50,1,107.999996704102,6|0,0:0|0:0,0:0:0:0:
417,33,103128,1,0,0:0:0:0:
293,248,103286,2,0,L|288:19,1,215.999993408203,8|0,0:0|0:0,0:0:0:0:
401,148,103759,1,0,0:0:0:0:
262,319,103917,5,0,0:0:0:0:
262,319,103995,1,0,0:0:0:0:
262,319,104074,1,2,0:0:0:0:
505,368,104232,1,0,0:0:0:0:
241,328,104390,1,8,0:0:0:0:
467,226,104549,2,0,P|485:171|464:102,1,107.999996704102,0|2,0:0|0:0,0:0:0:0:
204,109,104865,2,0,L|136:107,1,53.9999983520508
292,258,105023,1,8,0:0:0:0:
341,213,105101,1,0,0:0:0:0:
360,149,105180,1,0,0:0:0:0:
344,85,105259,1,0,0:0:0:0:
296,38,105338,6,0,L|188:34,1,107.999996704102,2|0,0:0|0:0,0:0:0:0:
432,106,105654,1,0,0:0:0:0:
124,47,105812,2,0,P|26:57|6:168,1,215.999993408203,8|0,0:0|0:0,0:0:0:0:
280,112,106286,1,0,0:0:0:0:
80,121,106444,1,0,0:0:0:0:
80,121,106523,1,0,0:0:0:0:
80,121,106601,6,0,L|83:257,1,107.999996704102,2|0,0:0|0:0,0:0:0:0:
183,370,106917,2,0,L|185:262,1,107.999996704102,8|0,0:0|0:0,0:0:0:0:
234,16,107233,6,0,P|293:35|323:107,1,135.000005149842,6|0,0:0|0:0,0:0:0:0:
277,305,107470,6,0,P|263:244|311:182,1,135.000005149842,6|0,0:0|0:0,0:0:0:0:
506,123,107707,6,0,P|476:156|436:170,1,67.5000025749208,6|0,0:0|0:0,0:0:0:0:
233,130,107865,5,6,0:0:0:0:
233,130,108180,5,8,0:0:0:0:
233,130,108338,2,0,L|10:128,1,215.999993408203,2|0,0:0|0:0,0:0:0:0:
83,241,108812,1,8,0:0:0:0:
269,30,108970,1,0,0:0:0:0:
269,30,109049,1,0,0:0:0:0:
269,30,109128,6,0,L|492:28,1,215.999993408203,12|0,0:0|0:0,0:0:0:0:
298,239,109601,2,0,L|75:241,1,215.999993408203,8|0,0:0|0:0,0:0:0:0:
355,133,110075,2,0,P|410:137|461:189,1,107.999996704102,8|0,0:0|0:0,0:0:0:0:
157,352,110391,5,2,0:0:0:0:
106,336,110469,1,0,0:0:0:0:
76,292,110548,1,0,0:0:0:0:
82,240,110627,1,0,0:0:0:0:
120,203,110707,5,8,0:0:0:0:
175,184,110785,1,0,0:0:0:0:
232,198,110864,1,0,0:0:0:0:
273,240,110943,1,0,0:0:0:0:
289,298,111023,5,2,0:0:0:0:
324,351,111101,1,0,0:0:0:0:
383,374,111180,1,0,0:0:0:0:
445,360,111259,1,0,0:0:0:0:
488,313,111338,5,8,0:0:0:0:
512,249,111416,1,0,0:0:0:0:
512,179,111495,1,0,0:0:0:0:
482,117,111574,1,0,0:0:0:0:
426,75,111654,6,0,L|421:155,1,53.9999983520508,10|0,0:0|0:0,0:0:0:0:
324,351,111812,2,0,L|320:297,1,53.9999983520508,8|0,0:0|0:0,0:0:0:0:
268,28,111970,6,0,L|262:107,1,53.9999983520508,10|0,0:0|0:0,0:0:0:0:
149,360,112128,2,0,L|145:306,1,53.9999983520508,8|0,0:0|0:0,0:0:0:0:
88,10,112286,6,0,L|82:89,1,53.9999983520508,10|0,0:0|0:0,0:0:0:0:
4,382,112444,2,0,L|0:341,3,26.9999991760254,8|0|0|0,0:0|0:0|0:0|0:0,0:0:0:0:
6,285,112601,5,10,0:0:0:0:
60,227,112679,1,10,0:0:0:0:
139,215,112758,1,10,0:0:0:0:
209,254,112837,1,10,0:0:0:0:
240,327,112918,5,10,0:0:0:0:
231,58,113075,1,0,0:0:0:0:
196,141,113233,1,8,0:0:0:0:
196,141,113312,2,0,P|239:149|301:114,1,90
323,53,113549,5,2,0:0:0:0:
165,305,113786,1,2,0:0:0:0:
464,313,114023,2,0,L|431:253,1,45,8|0,0:0|0:0,0:0:0:0:
317,224,114180,5,2,0:0:0:0:
47,199,114338,1,0,0:0:0:0:
127,245,114496,1,8,0:0:0:0:
127,245,114575,2,0,P|138:193|111:135,1,90
54,109,114812,5,2,0:0:0:0:
202,366,115049,1,2,0:0:0:0:
351,110,115286,2,0,L|270:111,1,45,8|0,0:0|0:0,0:0:0:0:
203,195,115444,5,6,0:0:0:0:
504,237,115601,1,0,0:0:0:0:
391,180,115759,1,8,0:0:0:0:
391,180,115838,2,0,P|376:225|389:289,1,90,0|0,0:0|0:0,0:0:0:0:
469,361,116075,5,2,0:0:0:0:
278,49,116312,1,2,0:0:0:0:
104,370,116549,2,0,L|170:369,1,45,8|0,0:0|0:0,0:0:0:0:
284,261,116707,5,2,0:0:0:0:
258,239,116785,1,0,0:0:0:0:
226,227,116864,1,0,0:0:0:0:
193,226,116943,1,0,0:0:0:0:
161,236,117023,5,0,0:0:0:0:
118,250,117101,1,0,0:0:0:0:
74,244,117180,1,0,0:0:0:0:
36,220,117259,1,0,0:0:0:0:
12,182,117338,5,0,0:0:0:0:
7,121,117416,1,0,0:0:0:0:
39,67,117495,1,0,0:0:0:0:
96,43,117574,1,0,0:0:0:0:
157,55,117654,5,0,0:0:0:0:
230,88,117732,1,0,0:0:0:0:
309,78,117811,1,0,0:0:0:0:
373,29,117890,1,0,0:0:0:0:
