osu file format v14

[General]
AudioFilename: audio.mp3
AudioLeadIn: 0
PreviewTime: 99988
Countdown: 0
SampleSet: Soft
StackLeniency: 0.7
Mode: 3
LetterboxInBreaks: 0
SpecialStyle: 0
WidescreenStoryboard: 0

[Editor]
DistanceSpacing: 0.6
BeatDivisor: 4
GridSize: 4
TimelineZoom: 1.6

[Metadata]
Title:Juvenile
TitleUnicode:Juvenile
Artist:technoplanet
ArtistUnicode:technoplanet
Creator:Wonki
Version:Good old memories
Source:Lanota
Tags:electronic instrumental video game Noxy Games Inc. noxy_lanota artcore piano Multidimensional Cosmology 多次元宇宙論 Tajigen Uchuu-ron
BeatmapID:2475158
BeatmapSetID:1187701

[Difficulty]
HPDrainRate:8
CircleSize:7
OverallDifficulty:8
ApproachRate:5
SliderMultiplier:1.4
SliderTickRate:1

[Events]
//Background and Video events
0,0,"BG.jpg",0,0
//Break Periods
//Storyboard Layer 0 (Background)
//Storyboard Layer 1 (Fail)
//Storyboard Layer 2 (Pass)
//Storyboard Layer 3 (Foreground)
//Storyboard Layer 4 (Overlay)
//Storyboard Sound Samples

[TimingPoints]
2634,516.129032258065,4,2,1,10,1,0
2634,-59.8802395209581,5,2,1,10,0,0
24569,309.278350515464,4,2,1,10,1,0
99994,297.029702970297,4,2,1,10,1,0
99994,-104.166666666667,4,2,1,10,0,0

[HitObjects]
329,192,311,128,0,1021:0:0:0:0:
109,192,1021,128,0,1343:0:0:0:0:
256,192,1343,128,0,1795:0:0:0:0:
402,192,1795,128,0,2634:0:0:0:0:
182,192,2634,5,0,0:0:0:0:
36,192,2634,1,0,0:0:0:0:
475,192,2634,1,0,0:0:0:0:
329,192,2634,1,0,0:0:0:0:
256,192,2763,1,0,0:0:0:0:
329,192,2892,1,0,0:0:0:0:
256,192,3021,1,0,0:0:0:0:
182,192,3150,1,0,0:0:0:0:
109,192,3279,5,0,0:0:0:0:
402,192,3279,1,0,0:0:0:0:
36,192,3279,1,0,0:0:0:0:
329,192,3408,1,0,0:0:0:0:
256,192,3537,1,0,0:0:0:0:
329,192,3666,1,0,0:0:0:0:
402,192,3795,1,0,0:0:0:0:
109,192,3924,5,0,0:0:0:0:
36,192,3924,1,0,0:0:0:0:
475,192,3924,1,0,0:0:0:0:
182,192,4053,1,0,0:0:0:0:
256,192,4182,1,0,0:0:0:0:
182,192,4311,1,0,0:0:0:0:
109,192,4440,1,0,0:0:0:0:
475,192,4569,5,0,0:0:0:0:
329,192,4569,1,0,0:0:0:0:
36,192,4569,1,0,0:0:0:0:
256,192,4698,1,0,0:0:0:0:
182,192,4827,1,0,0:0:0:0:
256,192,4956,1,0,0:0:0:0:
329,192,5085,1,0,0:0:0:0:
182,192,5214,5,0,0:0:0:0:
109,192,5214,1,0,0:0:0:0:
402,192,5214,1,0,0:0:0:0:
256,192,5343,1,0,0:0:0:0:
329,192,5472,1,0,0:0:0:0:
256,192,5601,1,0,0:0:0:0:
182,192,5730,1,0,0:0:0:0:
109,192,5859,5,0,0:0:0:0:
475,192,5859,1,0,0:0:0:0:
36,192,5859,1,0,0:0:0:0:
329,192,5988,1,0,0:0:0:0:
182,192,6117,1,0,0:0:0:0:
329,192,6246,1,0,0:0:0:0:
475,192,6375,1,0,0:0:0:0:
256,192,6504,5,0,0:0:0:0:
402,192,6504,1,0,0:0:0:0:
36,192,6504,1,0,0:0:0:0:
182,192,6634,1,0,0:0:0:0:
329,192,6763,1,0,0:0:0:0:
182,192,6892,1,0,0:0:0:0:
36,192,7021,1,0,0:0:0:0:
182,192,7150,5,0,0:0:0:0:
109,192,7150,1,0,0:0:0:0:
402,192,7150,1,0,0:0:0:0:
329,192,7279,1,0,0:0:0:0:
256,192,7408,1,0,0:0:0:0:
329,192,7537,1,0,0:0:0:0:
109,192,7666,1,0,0:0:0:0:
402,192,7666,1,0,0:0:0:0:
182,192,7795,5,0,0:0:0:0:
36,192,7795,1,0,0:0:0:0:
475,192,7795,1,0,0:0:0:0:
256,192,7924,1,0,0:0:0:0:
109,192,8053,1,0,0:0:0:0:
182,192,8182,1,0,0:0:0:0:
256,192,8311,1,0,0:0:0:0:
182,192,8440,5,0,0:0:0:0:
402,192,8440,1,0,0:0:0:0:
36,192,8440,1,0,0:0:0:0:
329,192,8569,1,0,0:0:0:0:
475,192,8698,1,0,0:0:0:0:
402,192,8827,1,0,0:0:0:0:
329,192,8956,1,0,0:0:0:0:
475,192,9085,5,0,0:0:0:0:
402,192,9085,1,0,0:0:0:0:
109,192,9085,1,0,0:0:0:0:
182,192,9214,1,0,0:0:0:0:
36,192,9343,1,0,0:0:0:0:
109,192,9472,1,0,0:0:0:0:
182,192,9601,1,0,0:0:0:0:
329,192,9730,5,0,0:0:0:0:
36,192,9730,1,0,0:0:0:0:
475,192,9730,1,0,0:0:0:0:
256,192,9859,1,0,0:0:0:0:
402,192,9988,1,0,0:0:0:0:
329,192,10117,1,0,0:0:0:0:
256,192,10246,1,0,0:0:0:0:
182,192,10375,5,0,0:0:0:0:
36,192,10375,1,0,0:0:0:0:
402,192,10375,1,0,0:0:0:0:
329,192,10504,1,0,0:0:0:0:
109,192,10634,1,0,0:0:0:0:
256,192,10763,1,0,0:0:0:0:
182,192,10892,1,0,0:0:0:0:
329,192,11021,5,0,0:0:0:0:
475,192,11021,1,0,0:0:0:0:
36,192,11021,1,0,0:0:0:0:
182,192,11150,1,0,0:0:0:0:
402,192,11279,1,0,0:0:0:0:
256,192,11408,1,0,0:0:0:0:
329,192,11537,1,0,0:0:0:0:
182,192,11666,5,0,0:0:0:0:
402,192,11666,1,0,0:0:0:0:
36,192,11666,1,0,0:0:0:0:
256,192,11795,1,0,0:0:0:0:
109,192,11924,1,0,0:0:0:0:
329,192,12053,1,0,0:0:0:0:
182,192,12182,1,0,0:0:0:0:
256,192,12311,5,0,0:0:0:0:
36,192,12311,1,0,0:0:0:0:
475,192,12311,1,0,0:0:0:0:
402,192,12440,1,0,0:0:0:0:
182,192,12569,1,0,0:0:0:0:
329,192,12698,1,0,0:0:0:0:
109,192,12827,1,0,0:0:0:0:
182,192,12956,5,0,0:0:0:0:
475,192,12956,128,0,15537:0:0:0:0:
36,192,12956,1,0,0:0:0:0:
402,192,12956,1,0,0:0:0:0:
256,192,13085,1,0,0:0:0:0:
329,192,13214,1,0,0:0:0:0:
256,192,13343,1,0,0:0:0:0:
182,192,13472,1,0,0:0:0:0:
109,192,13601,5,0,0:0:0:0:
402,192,13601,1,0,0:0:0:0:
36,192,13601,1,0,0:0:0:0:
182,192,13730,1,0,0:0:0:0:
329,192,13859,1,0,0:0:0:0:
182,192,13988,1,0,0:0:0:0:
36,192,14117,1,0,0:0:0:0:
182,192,14246,5,0,0:0:0:0:
402,192,14246,1,0,0:0:0:0:
329,192,14246,1,0,0:0:0:0:
109,192,14375,1,0,0:0:0:0:
256,192,14504,1,0,0:0:0:0:
329,192,14634,1,0,0:0:0:0:
182,192,14763,1,0,0:0:0:0:
256,192,14892,5,0,0:0:0:0:
36,192,14892,1,0,0:0:0:0:
402,192,14892,1,0,0:0:0:0:
109,192,15021,1,0,0:0:0:0:
329,192,15150,1,0,0:0:0:0:
256,192,15279,1,0,0:0:0:0:
182,192,15408,1,0,0:0:0:0:
109,192,15537,5,0,0:0:0:0:
36,192,15537,1,0,0:0:0:0:
256,192,15537,128,0,16827:0:0:0:0:
402,192,15537,1,0,0:0:0:0:
329,192,15666,1,0,0:0:0:0:
402,192,15795,1,0,0:0:0:0:
475,192,15924,1,0,0:0:0:0:
402,192,16053,1,0,0:0:0:0:
109,192,16182,5,0,0:0:0:0:
36,192,16182,1,0,0:0:0:0:
182,192,16182,1,0,0:0:0:0:
475,192,16311,1,0,0:0:0:0:
402,192,16440,1,0,0:0:0:0:
329,192,16569,1,0,0:0:0:0:
402,192,16698,1,0,0:0:0:0:
109,192,16827,5,0,0:0:0:0:
475,192,16827,1,0,0:0:0:0:
36,192,16827,128,0,18117:0:0:0:0:
182,192,16827,1,0,0:0:0:0:
329,192,16956,1,0,0:0:0:0:
182,192,17085,1,0,0:0:0:0:
329,192,17214,1,0,0:0:0:0:
475,192,17343,1,0,0:0:0:0:
182,192,17472,5,0,0:0:0:0:
109,192,17472,1,0,0:0:0:0:
402,192,17472,1,0,0:0:0:0:
256,192,17601,1,0,0:0:0:0:
329,192,17730,1,0,0:0:0:0:
256,192,17859,1,0,0:0:0:0:
182,192,17988,1,0,0:0:0:0:
475,192,18117,1,0,0:0:0:0:
402,192,18117,1,0,0:0:0:0:
256,192,18117,128,0,20698:0:0:0:0:
329,192,18117,1,0,0:0:0:0:
182,192,18246,1,0,0:0:0:0:
109,192,18375,1,0,0:0:0:0:
36,192,18504,1,0,0:0:0:0:
109,192,18634,1,0,0:0:0:0:
475,192,18763,5,0,0:0:0:0:
402,192,18763,1,0,0:0:0:0:
182,192,18763,1,0,0:0:0:0:
36,192,18892,1,0,0:0:0:0:
109,192,19021,1,0,0:0:0:0:
182,192,19150,1,0,0:0:0:0:
109,192,19279,1,0,0:0:0:0:
475,192,19408,5,0,0:0:0:0:
402,192,19408,1,0,0:0:0:0:
329,192,19408,1,0,0:0:0:0:
182,192,19537,1,0,0:0:0:0:
109,192,19666,1,0,0:0:0:0:
36,192,19795,1,0,0:0:0:0:
182,192,19924,1,0,0:0:0:0:
475,192,20053,1,0,0:0:0:0:
402,192,20053,1,0,0:0:0:0:
109,192,20053,1,0,0:0:0:0:
36,192,20182,1,0,0:0:0:0:
109,192,20311,1,0,0:0:0:0:
182,192,20440,1,0,0:0:0:0:
109,192,20569,1,0,0:0:0:0:
182,192,20698,1,0,0:0:0:0:
402,192,20698,1,0,0:0:0:0:
475,192,20698,128,0,23279:0:0:0:0:
36,192,20698,128,0,23279:0:0:0:0:
256,192,20827,1,0,0:0:0:0:
329,192,20956,1,0,0:0:0:0:
256,192,21085,1,0,0:0:0:0:
182,192,21214,1,0,0:0:0:0:
109,192,21343,5,0,0:0:0:0:
402,192,21343,1,0,0:0:0:0:
329,192,21472,1,0,0:0:0:0:
256,192,21601,1,0,0:0:0:0:
329,192,21730,1,0,0:0:0:0:
402,192,21859,1,0,0:0:0:0:
182,192,21988,5,0,0:0:0:0:
109,192,21988,1,0,0:0:0:0:
256,192,22117,1,0,0:0:0:0:
329,192,22246,1,0,0:0:0:0:
256,192,22375,1,0,0:0:0:0:
182,192,22504,1,0,0:0:0:0:
329,192,22634,5,0,0:0:0:0:
402,192,22634,1,0,0:0:0:0:
256,192,22763,1,0,0:0:0:0:
182,192,22892,1,0,0:0:0:0:
256,192,23021,1,0,0:0:0:0:
329,192,23150,1,0,0:0:0:0:
182,192,23279,1,0,0:0:0:0:
109,192,23279,1,0,0:0:0:0:
256,192,23279,1,0,0:0:0:0:
402,192,23408,1,0,0:0:0:0:
475,192,23408,1,0,0:0:0:0:
402,192,23494,1,0,0:0:0:0:
475,192,23494,1,0,0:0:0:0:
182,192,25187,1,0,0:0:0:0:
36,192,25187,1,0,0:0:0:0:
256,192,25239,1,0,0:0:0:0:
329,192,25290,1,0,0:0:0:0:
402,192,25342,1,0,0:0:0:0:
475,192,25393,1,0,0:0:0:0:
109,192,25445,1,0,0:0:0:0:
182,192,25496,1,0,0:0:0:0:
256,192,25548,1,0,0:0:0:0:
329,192,25599,1,0,0:0:0:0:
402,192,25651,1,0,0:0:0:0:
36,192,25703,1,0,0:0:0:0:
109,192,25754,1,0,0:0:0:0:
402,192,25806,1,0,0:0:0:0:
475,192,25806,1,0,0:0:0:0:
182,192,25806,1,0,0:0:0:0:
329,192,25806,1,0,0:0:0:0:
256,192,25883,1,0,0:0:0:0:
36,192,25960,1,0,0:0:0:0:
109,192,25960,1,0,0:0:0:0:
329,192,26038,1,0,0:0:0:0:
182,192,26115,1,0,0:0:0:0:
475,192,26115,1,0,0:0:0:0:
402,192,26115,1,0,0:0:0:0:
256,192,26115,1,0,0:0:0:0:
36,192,26192,1,0,0:0:0:0:
109,192,26270,1,0,0:0:0:0:
329,192,26270,1,0,0:0:0:0:
402,192,26347,1,0,0:0:0:0:
182,192,26424,1,0,0:0:0:0:
475,192,26424,1,0,0:0:0:0:
109,192,26501,1,0,0:0:0:0:
36,192,26579,1,0,0:0:0:0:
329,192,26579,1,0,0:0:0:0:
402,192,26579,1,0,0:0:0:0:
256,192,26656,1,0,0:0:0:0:
182,192,26733,1,0,0:0:0:0:
475,192,26733,1,0,0:0:0:0:
109,192,26733,1,0,0:0:0:0:
402,192,26733,1,0,0:0:0:0:
329,192,26811,1,0,0:0:0:0:
36,192,26888,1,0,0:0:0:0:
256,192,26888,1,0,0:0:0:0:
182,192,26965,1,0,0:0:0:0:
402,192,27043,1,0,0:0:0:0:
329,192,27043,1,0,0:0:0:0:
109,192,27043,1,0,0:0:0:0:
256,192,27120,1,0,0:0:0:0:
182,192,27197,1,0,0:0:0:0:
36,192,27197,1,0,0:0:0:0:
402,192,27275,1,0,0:0:0:0:
329,192,27352,1,0,0:0:0:0:
475,192,27352,1,0,0:0:0:0:
109,192,27352,1,0,0:0:0:0:
36,192,27352,1,0,0:0:0:0:
182,192,27429,1,0,0:0:0:0:
402,192,27507,1,0,0:0:0:0:
475,192,27507,1,0,0:0:0:0:
182,192,27584,1,0,0:0:0:0:
109,192,27584,1,0,0:0:0:0:
402,192,27661,1,0,0:0:0:0:
329,192,27661,1,0,0:0:0:0:
109,192,27739,1,0,0:0:0:0:
36,192,27739,1,0,0:0:0:0:
182,192,27816,1,0,0:0:0:0:
402,192,27816,1,0,0:0:0:0:
475,192,27816,1,0,0:0:0:0:
329,192,27893,1,0,0:0:0:0:
402,192,27971,1,0,0:0:0:0:
475,192,27971,1,0,0:0:0:0:
182,192,27971,1,0,0:0:0:0:
109,192,27971,1,0,0:0:0:0:
256,192,28048,1,0,0:0:0:0:
36,192,28125,1,0,0:0:0:0:
329,192,28125,128,0,28280:0:0:0:0:
402,192,28125,128,0,28280:0:0:0:0:
182,192,28203,1,0,0:0:0:0:
256,192,28280,1,0,0:0:0:0:
475,192,28280,1,0,0:0:0:0:
109,192,28280,128,0,28434:0:0:0:0:
36,192,28280,128,0,28434:0:0:0:0:
402,192,28357,1,0,0:0:0:0:
329,192,28434,1,0,0:0:0:0:
182,192,28434,1,0,0:0:0:0:
109,192,28512,1,0,0:0:0:0:
36,192,28589,1,0,0:0:0:0:
256,192,28589,1,0,0:0:0:0:
402,192,28589,1,0,0:0:0:0:
475,192,28589,1,0,0:0:0:0:
182,192,28666,1,0,0:0:0:0:
109,192,28744,1,0,0:0:0:0:
329,192,28744,1,0,0:0:0:0:
402,192,28821,1,0,0:0:0:0:
475,192,28898,1,0,0:0:0:0:
182,192,28898,1,0,0:0:0:0:
256,192,28976,1,0,0:0:0:0:
329,192,29053,1,0,0:0:0:0:
109,192,29053,1,0,0:0:0:0:
402,192,29053,1,0,0:0:0:0:
182,192,29130,1,0,0:0:0:0:
109,192,29208,1,0,0:0:0:0:
475,192,29208,1,0,0:0:0:0:
36,192,29208,1,0,0:0:0:0:
402,192,29208,1,0,0:0:0:0:
256,192,29285,1,0,0:0:0:0:
36,192,29362,1,0,0:0:0:0:
182,192,29362,128,0,29517:0:0:0:0:
329,192,29362,128,0,29517:0:0:0:0:
402,192,29440,1,0,0:0:0:0:
475,192,29517,1,0,0:0:0:0:
256,192,29517,1,0,0:0:0:0:
109,192,29517,128,0,29672:0:0:0:0:
36,192,29517,128,0,29672:0:0:0:0:
329,192,29594,1,0,0:0:0:0:
182,192,29672,1,0,0:0:0:0:
402,192,29672,1,0,0:0:0:0:
109,192,29749,1,0,0:0:0:0:
36,192,29826,1,0,0:0:0:0:
256,192,29826,1,0,0:0:0:0:
329,192,29826,1,0,0:0:0:0:
475,192,29826,1,0,0:0:0:0:
182,192,29904,1,0,0:0:0:0:
109,192,29981,1,0,0:0:0:0:
36,192,29981,1,0,0:0:0:0:
475,192,29981,1,0,0:0:0:0:
329,192,30058,1,0,0:0:0:0:
402,192,30058,1,0,0:0:0:0:
182,192,30136,1,0,0:0:0:0:
109,192,30136,1,0,0:0:0:0:
402,192,30213,1,0,0:0:0:0:
475,192,30213,1,0,0:0:0:0:
182,192,30290,1,0,0:0:0:0:
256,192,30290,1,0,0:0:0:0:
36,192,30290,1,0,0:0:0:0:
329,192,30367,1,0,0:0:0:0:
402,192,30445,1,0,0:0:0:0:
475,192,30445,1,0,0:0:0:0:
109,192,30445,1,0,0:0:0:0:
36,192,30445,1,0,0:0:0:0:
256,192,30522,1,0,0:0:0:0:
475,192,30599,1,0,0:0:0:0:
182,192,30599,128,0,30754:0:0:0:0:
329,192,30599,128,0,30754:0:0:0:0:
109,192,30677,1,0,0:0:0:0:
36,192,30754,1,0,0:0:0:0:
256,192,30754,1,0,0:0:0:0:
402,192,30754,128,0,30909:0:0:0:0:
475,192,30754,128,0,30909:0:0:0:0:
182,192,30831,1,0,0:0:0:0:
109,192,30909,1,0,0:0:0:0:
36,192,30909,1,0,0:0:0:0:
256,192,30986,1,0,0:0:0:0:
182,192,31063,1,0,0:0:0:0:
475,192,31063,1,0,0:0:0:0:
329,192,31063,1,0,0:0:0:0:
402,192,31063,1,0,0:0:0:0:
109,192,31141,1,0,0:0:0:0:
256,192,31218,1,0,0:0:0:0:
36,192,31218,1,0,0:0:0:0:
329,192,31295,1,0,0:0:0:0:
402,192,31373,1,0,0:0:0:0:
475,192,31373,1,0,0:0:0:0:
182,192,31450,1,0,0:0:0:0:
256,192,31527,1,0,0:0:0:0:
36,192,31527,1,0,0:0:0:0:
109,192,31527,1,0,0:0:0:0:
329,192,31605,1,0,0:0:0:0:
36,192,31682,1,0,0:0:0:0:
475,192,31682,1,0,0:0:0:0:
402,192,31682,1,0,0:0:0:0:
256,192,31682,1,0,0:0:0:0:
182,192,31759,1,0,0:0:0:0:
109,192,31837,1,0,0:0:0:0:
329,192,31837,1,0,0:0:0:0:
256,192,31914,1,0,0:0:0:0:
182,192,31991,1,0,0:0:0:0:
36,192,31991,1,0,0:0:0:0:
402,192,31991,1,0,0:0:0:0:
329,192,32069,1,0,0:0:0:0:
256,192,32146,1,0,0:0:0:0:
109,192,32146,1,0,0:0:0:0:
475,192,32223,1,0,0:0:0:0:
402,192,32300,1,0,0:0:0:0:
329,192,32300,1,0,0:0:0:0:
182,192,32300,1,0,0:0:0:0:
36,192,32300,1,0,0:0:0:0:
109,192,32378,1,0,0:0:0:0:
256,192,32455,1,0,0:0:0:0:
329,192,32455,1,0,0:0:0:0:
36,192,32532,1,0,0:0:0:0:
109,192,32532,1,0,0:0:0:0:
329,192,32610,1,0,0:0:0:0:
402,192,32610,1,0,0:0:0:0:
109,192,32687,1,0,0:0:0:0:
182,192,32687,1,0,0:0:0:0:
329,192,32764,1,0,0:0:0:0:
475,192,32764,1,0,0:0:0:0:
402,192,32764,1,0,0:0:0:0:
256,192,32842,1,0,0:0:0:0:
109,192,32919,1,0,0:0:0:0:
36,192,32919,1,0,0:0:0:0:
182,192,32919,1,0,0:0:0:0:
475,192,32919,1,0,0:0:0:0:
402,192,32996,1,0,0:0:0:0:
36,192,33074,1,0,0:0:0:0:
182,192,33074,128,0,33228:0:0:0:0:
329,192,33074,128,0,33228:0:0:0:0:
402,192,33151,1,0,0:0:0:0:
256,192,33228,1,0,0:0:0:0:
109,192,33228,1,0,0:0:0:0:
36,192,33228,128,0,33383:0:0:0:0:
475,192,33228,128,0,33383:0:0:0:0:
329,192,33306,1,0,0:0:0:0:
182,192,33383,1,0,0:0:0:0:
402,192,33383,1,0,0:0:0:0:
256,192,33460,1,0,0:0:0:0:
329,192,33538,1,0,0:0:0:0:
109,192,33538,1,0,0:0:0:0:
475,192,33538,1,0,0:0:0:0:
36,192,33538,1,0,0:0:0:0:
182,192,33615,1,0,0:0:0:0:
402,192,33692,128,0,33847:0:0:0:0:
256,192,33692,1,0,0:0:0:0:
109,192,33770,1,0,0:0:0:0:
329,192,33847,128,0,34001:0:0:0:0:
182,192,33847,1,0,0:0:0:0:
256,192,33924,1,0,0:0:0:0:
402,192,34001,1,0,0:0:0:0:
109,192,34001,1,0,0:0:0:0:
36,192,34001,1,0,0:0:0:0:
182,192,34156,1,0,0:0:0:0:
256,192,34156,1,0,0:0:0:0:
475,192,34156,1,0,0:0:0:0:
402,192,34156,1,0,0:0:0:0:
109,192,34233,1,0,0:0:0:0:
329,192,34311,1,0,0:0:0:0:
36,192,34311,128,0,34465:0:0:0:0:
475,192,34311,128,0,34465:0:0:0:0:
109,192,34388,1,0,0:0:0:0:
402,192,34465,1,0,0:0:0:0:
256,192,34465,1,0,0:0:0:0:
182,192,34465,128,0,34620:0:0:0:0:
329,192,34465,128,0,34620:0:0:0:0:
36,192,34543,1,0,0:0:0:0:
475,192,34620,1,0,0:0:0:0:
109,192,34620,1,0,0:0:0:0:
256,192,34697,1,0,0:0:0:0:
475,192,34775,1,0,0:0:0:0:
402,192,34775,1,0,0:0:0:0:
36,192,34775,1,0,0:0:0:0:
182,192,34775,1,0,0:0:0:0:
329,192,34852,1,0,0:0:0:0:
256,192,34929,1,0,0:0:0:0:
109,192,34929,128,0,35084:0:0:0:0:
36,192,34929,1,0,0:0:0:0:
402,192,35007,1,0,0:0:0:0:
182,192,35084,128,0,35239:0:0:0:0:
329,192,35084,1,0,0:0:0:0:
256,192,35161,1,0,0:0:0:0:
475,192,35239,1,0,0:0:0:0:
402,192,35239,1,0,0:0:0:0:
109,192,35239,1,0,0:0:0:0:
36,192,35393,1,0,0:0:0:0:
182,192,35393,1,0,0:0:0:0:
475,192,35393,1,0,0:0:0:0:
402,192,35393,1,0,0:0:0:0:
329,192,35471,1,0,0:0:0:0:
109,192,35548,1,0,0:0:0:0:
36,192,35548,128,0,35703:0:0:0:0:
256,192,35548,128,0,35703:0:0:0:0:
329,192,35625,1,0,0:0:0:0:
475,192,35703,1,0,0:0:0:0:
402,192,35703,128,0,35857:0:0:0:0:
109,192,35703,1,0,0:0:0:0:
182,192,35703,128,0,35857:0:0:0:0:
256,192,35780,1,0,0:0:0:0:
36,192,35857,1,0,0:0:0:0:
329,192,35857,1,0,0:0:0:0:
182,192,35934,1,0,0:0:0:0:
109,192,36012,1,0,0:0:0:0:
402,192,36012,1,0,0:0:0:0:
256,192,36012,1,0,0:0:0:0:
36,192,36012,1,0,0:0:0:0:
329,192,36089,1,0,0:0:0:0:
475,192,36166,128,0,36321:0:0:0:0:
182,192,36166,1,0,0:0:0:0:
256,192,36244,1,0,0:0:0:0:
329,192,36321,128,0,36476:0:0:0:0:
109,192,36321,1,0,0:0:0:0:
182,192,36398,1,0,0:0:0:0:
256,192,36476,1,0,0:0:0:0:
36,192,36476,1,0,0:0:0:0:
402,192,36476,1,0,0:0:0:0:
182,192,36553,1,0,0:0:0:0:
109,192,36630,1,0,0:0:0:0:
329,192,36630,1,0,0:0:0:0:
475,192,36630,1,0,0:0:0:0:
402,192,36630,1,0,0:0:0:0:
256,192,36708,1,0,0:0:0:0:
182,192,36785,1,0,0:0:0:0:
36,192,36785,1,0,0:0:0:0:
329,192,36862,1,0,0:0:0:0:
475,192,36940,1,0,0:0:0:0:
402,192,36940,1,0,0:0:0:0:
109,192,36940,1,0,0:0:0:0:
182,192,37017,1,0,0:0:0:0:
36,192,37094,1,0,0:0:0:0:
256,192,37094,1,0,0:0:0:0:
329,192,37172,1,0,0:0:0:0:
402,192,37249,1,0,0:0:0:0:
475,192,37249,1,0,0:0:0:0:
182,192,37249,1,0,0:0:0:0:
109,192,37249,1,0,0:0:0:0:
256,192,37326,1,0,0:0:0:0:
329,192,37404,1,0,0:0:0:0:
402,192,37404,1,0,0:0:0:0:
109,192,37481,1,0,0:0:0:0:
36,192,37481,1,0,0:0:0:0:
329,192,37558,1,0,0:0:0:0:
256,192,37558,1,0,0:0:0:0:
182,192,37636,1,0,0:0:0:0:
109,192,37636,1,0,0:0:0:0:
329,192,37713,1,0,0:0:0:0:
402,192,37713,1,0,0:0:0:0:
256,192,37790,1,0,0:0:0:0:
475,192,37867,1,0,0:0:0:0:
36,192,37867,1,0,0:0:0:0:
329,192,37867,1,0,0:0:0:0:
109,192,37867,1,0,0:0:0:0:
182,192,37945,1,0,0:0:0:0:
402,192,38022,1,0,0:0:0:0:
256,192,38022,128,0,38177:0:0:0:0:
475,192,38022,128,0,38177:0:0:0:0:
182,192,38099,1,0,0:0:0:0:
402,192,38177,1,0,0:0:0:0:
36,192,38177,1,0,0:0:0:0:
109,192,38177,128,0,38331:0:0:0:0:
329,192,38177,128,0,38331:0:0:0:0:
256,192,38254,1,0,0:0:0:0:
182,192,38331,1,0,0:0:0:0:
475,192,38331,1,0,0:0:0:0:
329,192,38409,1,0,0:0:0:0:
256,192,38486,1,0,0:0:0:0:
475,192,38486,1,0,0:0:0:0:
402,192,38486,1,0,0:0:0:0:
109,192,38486,1,0,0:0:0:0:
182,192,38563,1,0,0:0:0:0:
329,192,38641,1,0,0:0:0:0:
36,192,38641,128,0,38795:0:0:0:0:
256,192,38718,1,0,0:0:0:0:
402,192,38795,1,0,0:0:0:0:
182,192,38795,128,0,38950:0:0:0:0:
329,192,38873,1,0,0:0:0:0:
109,192,38950,1,0,0:0:0:0:
475,192,38950,1,0,0:0:0:0:
256,192,38950,1,0,0:0:0:0:
329,192,39027,1,0,0:0:0:0:
36,192,39105,1,0,0:0:0:0:
109,192,39105,1,0,0:0:0:0:
402,192,39105,1,0,0:0:0:0:
182,192,39105,1,0,0:0:0:0:
256,192,39182,1,0,0:0:0:0:
329,192,39259,1,0,0:0:0:0:
402,192,39259,128,0,39414:0:0:0:0:
109,192,39259,128,0,39414:0:0:0:0:
182,192,39337,1,0,0:0:0:0:
256,192,39414,1,0,0:0:0:0:
329,192,39414,1,0,0:0:0:0:
36,192,39414,128,0,39569:0:0:0:0:
475,192,39414,128,0,39569:0:0:0:0:
402,192,39491,1,0,0:0:0:0:
109,192,39569,1,0,0:0:0:0:
329,192,39569,1,0,0:0:0:0:
182,192,39646,1,0,0:0:0:0:
256,192,39723,1,0,0:0:0:0:
36,192,39723,1,0,0:0:0:0:
402,192,39723,1,0,0:0:0:0:
109,192,39723,1,0,0:0:0:0:
475,192,39878,128,0,40032:0:0:0:0:
182,192,39878,1,0,0:0:0:0:
36,192,39878,1,0,0:0:0:0:
256,192,39955,1,0,0:0:0:0:
402,192,40032,128,0,40187:0:0:0:0:
329,192,40032,1,0,0:0:0:0:
109,192,40032,1,0,0:0:0:0:
182,192,40110,1,0,0:0:0:0:
256,192,40187,1,0,0:0:0:0:
36,192,40187,1,0,0:0:0:0:
109,192,40187,1,0,0:0:0:0:
402,192,40264,1,0,0:0:0:0:
182,192,40342,1,0,0:0:0:0:
329,192,40342,1,0,0:0:0:0:
475,192,40342,1,0,0:0:0:0:
36,192,40342,1,0,0:0:0:0:
256,192,40419,1,0,0:0:0:0:
109,192,40496,1,0,0:0:0:0:
36,192,40496,128,0,40651:0:0:0:0:
475,192,40496,128,0,40651:0:0:0:0:
329,192,40574,1,0,0:0:0:0:
256,192,40651,1,0,0:0:0:0:
182,192,40651,1,0,0:0:0:0:
402,192,40651,128,0,40806:0:0:0:0:
109,192,40651,128,0,40806:0:0:0:0:
329,192,40728,1,0,0:0:0:0:
182,192,40806,1,0,0:0:0:0:
36,192,40806,1,0,0:0:0:0:
402,192,40883,1,0,0:0:0:0:
475,192,40960,1,0,0:0:0:0:
256,192,40960,1,0,0:0:0:0:
109,192,40960,1,0,0:0:0:0:
36,192,40960,1,0,0:0:0:0:
36,192,41115,128,0,41270:0:0:0:0:
329,192,41115,1,0,0:0:0:0:
256,192,41192,1,0,0:0:0:0:
109,192,41270,128,0,41424:0:0:0:0:
182,192,41270,1,0,0:0:0:0:
475,192,41270,1,0,0:0:0:0:
402,192,41347,1,0,0:0:0:0:
329,192,41424,1,0,0:0:0:0:
256,192,41424,1,0,0:0:0:0:
36,192,41424,1,0,0:0:0:0:
182,192,41501,1,0,0:0:0:0:
109,192,41579,1,0,0:0:0:0:
402,192,41579,1,0,0:0:0:0:
475,192,41579,1,0,0:0:0:0:
36,192,41579,1,0,0:0:0:0:
329,192,41656,1,0,0:0:0:0:
256,192,41733,1,0,0:0:0:0:
182,192,41733,1,0,0:0:0:0:
109,192,41811,1,0,0:0:0:0:
36,192,41888,1,0,0:0:0:0:
329,192,41888,1,0,0:0:0:0:
475,192,41888,1,0,0:0:0:0:
256,192,41888,1,0,0:0:0:0:
182,192,41965,1,0,0:0:0:0:
402,192,41965,1,0,0:0:0:0:
109,192,42043,1,0,0:0:0:0:
329,192,42043,1,0,0:0:0:0:
182,192,42120,1,0,0:0:0:0:
402,192,42120,1,0,0:0:0:0:
256,192,42197,1,0,0:0:0:0:
475,192,42197,1,0,0:0:0:0:
36,192,42197,1,0,0:0:0:0:
109,192,42275,1,0,0:0:0:0:
329,192,42275,1,0,0:0:0:0:
182,192,42352,1,0,0:0:0:0:
402,192,42352,1,0,0:0:0:0:
329,192,42429,1,0,0:0:0:0:
109,192,42429,1,0,0:0:0:0:
36,192,42507,1,0,0:0:0:0:
256,192,42507,1,0,0:0:0:0:
182,192,42584,1,0,0:0:0:0:
402,192,42584,1,0,0:0:0:0:
329,192,42661,1,0,0:0:0:0:
109,192,42661,1,0,0:0:0:0:
36,192,42661,1,0,0:0:0:0:
182,192,42739,1,0,0:0:0:0:
402,192,42739,1,0,0:0:0:0:
256,192,42816,1,0,0:0:0:0:
475,192,42816,1,0,0:0:0:0:
109,192,42816,1,0,0:0:0:0:
36,192,42816,1,0,0:0:0:0:
182,192,42893,1,0,0:0:0:0:
402,192,42893,1,0,0:0:0:0:
329,192,42971,1,0,0:0:0:0:
109,192,42971,1,0,0:0:0:0:
36,192,43048,1,0,0:0:0:0:
256,192,43048,1,0,0:0:0:0:
182,192,43125,1,0,0:0:0:0:
109,192,43125,1,0,0:0:0:0:
402,192,43125,1,0,0:0:0:0:
475,192,43125,1,0,0:0:0:0:
329,192,43203,1,0,0:0:0:0:
36,192,43280,1,0,0:0:0:0:
109,192,43357,1,0,0:0:0:0:
182,192,43434,1,0,0:0:0:0:
402,192,43434,1,0,0:0:0:0:
475,192,43434,1,0,0:0:0:0:
256,192,43434,1,0,0:0:0:0:
109,192,43512,1,0,0:0:0:0:
329,192,43512,1,0,0:0:0:0:
36,192,43589,1,0,0:0:0:0:
256,192,43589,1,0,0:0:0:0:
182,192,43666,1,0,0:0:0:0:
402,192,43666,1,0,0:0:0:0:
329,192,43744,1,0,0:0:0:0:
109,192,43744,1,0,0:0:0:0:
36,192,43821,1,0,0:0:0:0:
256,192,43821,1,0,0:0:0:0:
182,192,43898,1,0,0:0:0:0:
402,192,43898,1,0,0:0:0:0:
475,192,43898,1,0,0:0:0:0:
109,192,43976,1,0,0:0:0:0:
329,192,43976,1,0,0:0:0:0:
36,192,44053,1,0,0:0:0:0:
256,192,44053,1,0,0:0:0:0:
182,192,44053,1,0,0:0:0:0:
475,192,44053,1,0,0:0:0:0:
109,192,44130,1,0,0:0:0:0:
329,192,44130,1,0,0:0:0:0:
402,192,44208,1,0,0:0:0:0:
182,192,44208,1,0,0:0:0:0:
256,192,44285,1,0,0:0:0:0:
475,192,44285,1,0,0:0:0:0:
402,192,44362,1,0,0:0:0:0:
36,192,44362,1,0,0:0:0:0:
109,192,44362,1,0,0:0:0:0:
329,192,44362,1,0,0:0:0:0:
182,192,44517,1,0,0:0:0:0:
475,192,44517,1,0,0:0:0:0:
402,192,44517,1,0,0:0:0:0:
36,192,44594,1,0,0:0:0:0:
109,192,44594,1,0,0:0:0:0:
182,192,44672,1,0,0:0:0:0:
475,192,44672,1,0,0:0:0:0:
329,192,44672,1,0,0:0:0:0:
36,192,44749,1,0,0:0:0:0:
256,192,44749,1,0,0:0:0:0:
402,192,44826,1,0,0:0:0:0:
109,192,44826,1,0,0:0:0:0:
182,192,44904,1,0,0:0:0:0:
329,192,44904,1,0,0:0:0:0:
36,192,44981,1,0,0:0:0:0:
256,192,44981,1,0,0:0:0:0:
475,192,44981,1,0,0:0:0:0:
109,192,45058,1,0,0:0:0:0:
402,192,45058,1,0,0:0:0:0:
182,192,45136,1,0,0:0:0:0:
329,192,45136,1,0,0:0:0:0:
109,192,45213,1,0,0:0:0:0:
402,192,45213,1,0,0:0:0:0:
36,192,45290,1,0,0:0:0:0:
256,192,45290,1,0,0:0:0:0:
475,192,45290,1,0,0:0:0:0:
109,192,45367,1,0,0:0:0:0:
329,192,45367,1,0,0:0:0:0:
182,192,45445,1,0,0:0:0:0:
402,192,45445,1,0,0:0:0:0:
475,192,45445,1,0,0:0:0:0:
329,192,45522,1,0,0:0:0:0:
109,192,45522,1,0,0:0:0:0:
36,192,45599,1,0,0:0:0:0:
402,192,45599,1,0,0:0:0:0:
256,192,45599,1,0,0:0:0:0:
475,192,45599,1,0,0:0:0:0:
182,192,45677,1,0,0:0:0:0:
329,192,45754,1,0,0:0:0:0:
402,192,45754,1,0,0:0:0:0:
182,192,45831,1,0,0:0:0:0:
36,192,45909,1,0,0:0:0:0:
109,192,45909,1,0,0:0:0:0:
256,192,45909,1,0,0:0:0:0:
475,192,45909,1,0,0:0:0:0:
402,192,45986,1,0,0:0:0:0:
109,192,46063,1,0,0:0:0:0:
182,192,46063,1,0,0:0:0:0:
402,192,46141,1,0,0:0:0:0:
329,192,46218,1,0,0:0:0:0:
256,192,46218,1,0,0:0:0:0:
109,192,46295,1,0,0:0:0:0:
402,192,46373,1,0,0:0:0:0:
329,192,46373,1,0,0:0:0:0:
36,192,46373,1,0,0:0:0:0:
109,192,46450,1,0,0:0:0:0:
182,192,46527,1,0,0:0:0:0:
402,192,46527,1,0,0:0:0:0:
475,192,46527,1,0,0:0:0:0:
256,192,46527,1,0,0:0:0:0:
36,192,46579,1,0,0:0:0:0:
109,192,46630,1,0,0:0:0:0:
182,192,46682,1,0,0:0:0:0:
329,192,46682,1,0,0:0:0:0:
402,192,46733,1,0,0:0:0:0:
475,192,46785,1,0,0:0:0:0:
329,192,46837,1,0,0:0:0:0:
256,192,46837,1,0,0:0:0:0:
36,192,46837,1,0,0:0:0:0:
109,192,46837,1,0,0:0:0:0:
182,192,46914,1,0,0:0:0:0:
329,192,46991,1,0,0:0:0:0:
402,192,46991,1,0,0:0:0:0:
182,192,47069,1,0,0:0:0:0:
109,192,47146,1,0,0:0:0:0:
36,192,47146,1,0,0:0:0:0:
256,192,47146,1,0,0:0:0:0:
475,192,47146,1,0,0:0:0:0:
402,192,47223,1,0,0:0:0:0:
182,192,47300,1,0,0:0:0:0:
109,192,47300,1,0,0:0:0:0:
402,192,47378,1,0,0:0:0:0:
475,192,47378,1,0,0:0:0:0:
182,192,47455,1,0,0:0:0:0:
256,192,47455,1,0,0:0:0:0:
109,192,47532,1,0,0:0:0:0:
36,192,47532,1,0,0:0:0:0:
329,192,47610,1,0,0:0:0:0:
402,192,47610,1,0,0:0:0:0:
475,192,47610,1,0,0:0:0:0:
182,192,47687,1,0,0:0:0:0:
109,192,47764,1,0,0:0:0:0:
36,192,47764,1,0,0:0:0:0:
256,192,47764,1,0,0:0:0:0:
329,192,47764,1,0,0:0:0:0:
402,192,47842,1,0,0:0:0:0:
475,192,47919,1,0,0:0:0:0:
182,192,47919,1,0,0:0:0:0:
109,192,47919,1,0,0:0:0:0:
36,192,47919,1,0,0:0:0:0:
402,192,47996,1,0,0:0:0:0:
329,192,48074,1,0,0:0:0:0:
256,192,48074,1,0,0:0:0:0:
182,192,48074,1,0,0:0:0:0:
109,192,48074,1,0,0:0:0:0:
475,192,48151,1,0,0:0:0:0:
329,192,48228,1,0,0:0:0:0:
256,192,48228,1,0,0:0:0:0:
475,192,48306,1,0,0:0:0:0:
109,192,48383,1,0,0:0:0:0:
36,192,48383,1,0,0:0:0:0:
182,192,48383,1,0,0:0:0:0:
402,192,48383,1,0,0:0:0:0:
329,192,48460,1,0,0:0:0:0:
182,192,48538,1,0,0:0:0:0:
109,192,48538,1,0,0:0:0:0:
329,192,48615,1,0,0:0:0:0:
256,192,48692,1,0,0:0:0:0:
36,192,48692,1,0,0:0:0:0:
475,192,48692,1,0,0:0:0:0:
182,192,48770,1,0,0:0:0:0:
329,192,48847,1,0,0:0:0:0:
402,192,48847,1,0,0:0:0:0:
475,192,48847,1,0,0:0:0:0:
182,192,48924,1,0,0:0:0:0:
109,192,49001,1,0,0:0:0:0:
36,192,49001,1,0,0:0:0:0:
256,192,49001,1,0,0:0:0:0:
329,192,49001,1,0,0:0:0:0:
182,192,49079,1,0,0:0:0:0:
36,192,49156,1,0,0:0:0:0:
329,192,49156,1,0,0:0:0:0:
402,192,49156,1,0,0:0:0:0:
475,192,49156,1,0,0:0:0:0:
182,192,49233,1,0,0:0:0:0:
256,192,49311,1,0,0:0:0:0:
329,192,49311,1,0,0:0:0:0:
402,192,49311,1,0,0:0:0:0:
475,192,49311,1,0,0:0:0:0:
109,192,49388,1,0,0:0:0:0:
256,192,49465,1,0,0:0:0:0:
329,192,49465,1,0,0:0:0:0:
109,192,49543,1,0,0:0:0:0:
182,192,49620,1,0,0:0:0:0:
36,192,49620,1,0,0:0:0:0:
402,192,49620,1,0,0:0:0:0:
475,192,49620,1,0,0:0:0:0:
329,192,49697,1,0,0:0:0:0:
182,192,49775,1,0,0:0:0:0:
109,192,49775,1,0,0:0:0:0:
36,192,49775,1,0,0:0:0:0:
329,192,49852,1,0,0:0:0:0:
402,192,49929,1,0,0:0:0:0:
475,192,49929,1,0,0:0:0:0:
109,192,49929,1,0,0:0:0:0:
256,192,50007,1,0,0:0:0:0:
402,192,50084,1,0,0:0:0:0:
475,192,50084,1,0,0:0:0:0:
36,192,50084,1,0,0:0:0:0:
256,192,50161,1,0,0:0:0:0:
36,192,50239,1,0,0:0:0:0:
109,192,50239,1,0,0:0:0:0:
182,192,50239,1,0,0:0:0:0:
329,192,50239,1,0,0:0:0:0:
402,192,50290,1,0,0:0:0:0:
475,192,50342,1,0,0:0:0:0:
36,192,50393,1,0,0:0:0:0:
256,192,50393,1,0,0:0:0:0:
109,192,50445,1,0,0:0:0:0:
329,192,50445,1,0,0:0:0:0:
182,192,50496,1,0,0:0:0:0:
402,192,50496,1,0,0:0:0:0:
256,192,50548,1,0,0:0:0:0:
475,192,50548,1,0,0:0:0:0:
36,192,50548,1,0,0:0:0:0:
329,192,50625,1,0,0:0:0:0:
182,192,50703,1,0,0:0:0:0:
329,192,50780,1,0,0:0:0:0:
36,192,50857,1,0,0:0:0:0:
256,192,50857,1,0,0:0:0:0:
402,192,50857,1,0,0:0:0:0:
475,192,50857,1,0,0:0:0:0:
109,192,50934,1,0,0:0:0:0:
329,192,50934,1,0,0:0:0:0:
182,192,51012,1,0,0:0:0:0:
402,192,51012,1,0,0:0:0:0:
329,192,51089,1,0,0:0:0:0:
109,192,51089,1,0,0:0:0:0:
36,192,51166,1,0,0:0:0:0:
256,192,51166,1,0,0:0:0:0:
182,192,51244,1,0,0:0:0:0:
402,192,51244,1,0,0:0:0:0:
475,192,51321,1,0,0:0:0:0:
329,192,51321,1,0,0:0:0:0:
109,192,51321,1,0,0:0:0:0:
256,192,51398,1,0,0:0:0:0:
36,192,51398,1,0,0:0:0:0:
182,192,51476,1,0,0:0:0:0:
402,192,51476,1,0,0:0:0:0:
475,192,51476,1,0,0:0:0:0:
109,192,51476,1,0,0:0:0:0:
36,192,51553,1,0,0:0:0:0:
329,192,51553,1,0,0:0:0:0:
109,192,51630,1,0,0:0:0:0:
402,192,51630,1,0,0:0:0:0:
182,192,51708,1,0,0:0:0:0:
475,192,51708,1,0,0:0:0:0:
256,192,51785,1,0,0:0:0:0:
329,192,51785,1,0,0:0:0:0:
36,192,51785,1,0,0:0:0:0:
182,192,51862,1,0,0:0:0:0:
402,192,51862,1,0,0:0:0:0:
329,192,51940,1,0,0:0:0:0:
109,192,51940,1,0,0:0:0:0:
36,192,52017,1,0,0:0:0:0:
256,192,52017,1,0,0:0:0:0:
182,192,52094,1,0,0:0:0:0:
402,192,52094,1,0,0:0:0:0:
475,192,52094,1,0,0:0:0:0:
109,192,52172,1,0,0:0:0:0:
329,192,52172,1,0,0:0:0:0:
182,192,52249,1,0,0:0:0:0:
402,192,52249,1,0,0:0:0:0:
256,192,52326,1,0,0:0:0:0:
475,192,52326,1,0,0:0:0:0:
36,192,52404,1,0,0:0:0:0:
329,192,52404,1,0,0:0:0:0:
109,192,52481,1,0,0:0:0:0:
402,192,52481,1,0,0:0:0:0:
182,192,52558,1,0,0:0:0:0:
475,192,52558,1,0,0:0:0:0:
256,192,52558,1,0,0:0:0:0:
109,192,52636,1,0,0:0:0:0:
329,192,52636,1,0,0:0:0:0:
36,192,52713,1,0,0:0:0:0:
256,192,52713,1,0,0:0:0:0:
402,192,52713,1,0,0:0:0:0:
475,192,52713,1,0,0:0:0:0:
182,192,52790,1,0,0:0:0:0:
329,192,52790,1,0,0:0:0:0:
109,192,52867,1,0,0:0:0:0:
402,192,52867,1,0,0:0:0:0:
475,192,52867,1,0,0:0:0:0:
36,192,52945,1,0,0:0:0:0:
256,192,52945,1,0,0:0:0:0:
182,192,53022,1,0,0:0:0:0:
475,192,53022,1,0,0:0:0:0:
109,192,53022,1,0,0:0:0:0:
402,192,53022,1,0,0:0:0:0:
329,192,53099,1,0,0:0:0:0:
36,192,53177,1,0,0:0:0:0:
182,192,53177,1,0,0:0:0:0:
329,192,53254,1,0,0:0:0:0:
109,192,53331,1,0,0:0:0:0:
256,192,53331,1,0,0:0:0:0:
402,192,53331,1,0,0:0:0:0:
475,192,53331,1,0,0:0:0:0:
36,192,53409,1,0,0:0:0:0:
329,192,53486,1,0,0:0:0:0:
182,192,53486,1,0,0:0:0:0:
36,192,53563,1,0,0:0:0:0:
329,192,53641,1,0,0:0:0:0:
109,192,53641,1,0,0:0:0:0:
402,192,53718,1,0,0:0:0:0:
182,192,53795,1,0,0:0:0:0:
109,192,53795,1,0,0:0:0:0:
256,192,53795,1,0,0:0:0:0:
402,192,53873,1,0,0:0:0:0:
329,192,53950,1,0,0:0:0:0:
475,192,53950,1,0,0:0:0:0:
36,192,53950,1,0,0:0:0:0:
182,192,53950,1,0,0:0:0:0:
109,192,54027,1,0,0:0:0:0:
256,192,54105,1,0,0:0:0:0:
329,192,54105,1,0,0:0:0:0:
402,192,54105,1,0,0:0:0:0:
475,192,54105,1,0,0:0:0:0:
182,192,54182,1,0,0:0:0:0:
109,192,54259,1,0,0:0:0:0:
36,192,54259,1,0,0:0:0:0:
256,192,54259,1,0,0:0:0:0:
402,192,54259,1,0,0:0:0:0:
475,192,54337,1,0,0:0:0:0:
256,192,54414,1,0,0:0:0:0:
109,192,54414,1,0,0:0:0:0:
475,192,54491,1,0,0:0:0:0:
329,192,54569,1,0,0:0:0:0:
402,192,54569,1,0,0:0:0:0:
182,192,54569,1,0,0:0:0:0:
36,192,54569,1,0,0:0:0:0:
109,192,54646,1,0,0:0:0:0:
329,192,54723,1,0,0:0:0:0:
402,192,54723,1,0,0:0:0:0:
182,192,54723,1,0,0:0:0:0:
109,192,54800,1,0,0:0:0:0:
36,192,54878,1,0,0:0:0:0:
256,192,54878,1,0,0:0:0:0:
402,192,54955,1,0,0:0:0:0:
182,192,55032,1,0,0:0:0:0:
109,192,55032,1,0,0:0:0:0:
329,192,55032,1,0,0:0:0:0:
402,192,55110,1,0,0:0:0:0:
256,192,55187,1,0,0:0:0:0:
109,192,55187,1,0,0:0:0:0:
36,192,55187,1,0,0:0:0:0:
475,192,55187,1,0,0:0:0:0:
329,192,55264,1,0,0:0:0:0:
402,192,55342,1,0,0:0:0:0:
475,192,55342,1,0,0:0:0:0:
109,192,55342,1,0,0:0:0:0:
36,192,55342,1,0,0:0:0:0:
256,192,55419,1,0,0:0:0:0:
182,192,55496,1,0,0:0:0:0:
109,192,55496,1,0,0:0:0:0:
329,192,55496,1,0,0:0:0:0:
402,192,55496,1,0,0:0:0:0:
36,192,55574,1,0,0:0:0:0:
256,192,55651,1,0,0:0:0:0:
329,192,55651,1,0,0:0:0:0:
36,192,55728,1,0,0:0:0:0:
109,192,55806,1,0,0:0:0:0:
182,192,55806,1,0,0:0:0:0:
402,192,55806,1,0,0:0:0:0:
475,192,55806,1,0,0:0:0:0:
329,192,55883,1,0,0:0:0:0:
182,192,55960,1,0,0:0:0:0:
109,192,55960,1,0,0:0:0:0:
329,192,56038,1,0,0:0:0:0:
182,192,56115,1,0,0:0:0:0:
402,192,56115,1,0,0:0:0:0:
36,192,56166,1,0,0:0:0:0:
109,192,56218,1,0,0:0:0:0:
182,192,56270,1,0,0:0:0:0:
402,192,56270,1,0,0:0:0:0:
475,192,56270,1,0,0:0:0:0:
329,192,56321,1,0,0:0:0:0:
256,192,56373,1,0,0:0:0:0:
109,192,56424,1,0,0:0:0:0:
36,192,56424,1,0,0:0:0:0:
475,192,56476,1,0,0:0:0:0:
402,192,56527,1,0,0:0:0:0:
329,192,56579,1,0,0:0:0:0:
182,192,56579,1,0,0:0:0:0:
109,192,56630,1,0,0:0:0:0:
36,192,56682,1,0,0:0:0:0:
182,192,56733,1,0,0:0:0:0:
256,192,56733,1,0,0:0:0:0:
402,192,56733,1,0,0:0:0:0:
475,192,56733,1,0,0:0:0:0:
329,192,56811,1,0,0:0:0:0:
109,192,56888,1,0,0:0:0:0:
36,192,56888,1,0,0:0:0:0:
329,192,56965,1,0,0:0:0:0:
36,192,57043,1,0,0:0:0:0:
182,192,57043,1,0,0:0:0:0:
256,192,57043,1,0,0:0:0:0:
402,192,57043,1,0,0:0:0:0:
109,192,57120,1,0,0:0:0:0:
329,192,57197,1,0,0:0:0:0:
475,192,57197,1,0,0:0:0:0:
109,192,57275,1,0,0:0:0:0:
402,192,57352,1,0,0:0:0:0:
256,192,57352,1,0,0:0:0:0:
36,192,57429,1,0,0:0:0:0:
182,192,57429,1,0,0:0:0:0:
109,192,57507,1,0,0:0:0:0:
329,192,57507,1,0,0:0:0:0:
475,192,57507,1,0,0:0:0:0:
256,192,57584,1,0,0:0:0:0:
475,192,57661,1,0,0:0:0:0:
36,192,57661,1,0,0:0:0:0:
109,192,57661,1,0,0:0:0:0:
402,192,57661,1,0,0:0:0:0:
182,192,57739,1,0,0:0:0:0:
256,192,57816,1,0,0:0:0:0:
329,192,57816,1,0,0:0:0:0:
402,192,57816,1,0,0:0:0:0:
475,192,57816,1,0,0:0:0:0:
109,192,57893,1,0,0:0:0:0:
182,192,57971,1,0,0:0:0:0:
256,192,57971,1,0,0:0:0:0:
329,192,57971,1,0,0:0:0:0:
402,192,57971,1,0,0:0:0:0:
36,192,58048,1,0,0:0:0:0:
329,192,58125,1,0,0:0:0:0:
109,192,58125,1,0,0:0:0:0:
36,192,58203,1,0,0:0:0:0:
402,192,58280,1,0,0:0:0:0:
475,192,58280,1,0,0:0:0:0:
182,192,58280,1,0,0:0:0:0:
256,192,58280,1,0,0:0:0:0:
109,192,58331,1,0,0:0:0:0:
36,192,58383,1,0,0:0:0:0:
475,192,58434,1,0,0:0:0:0:
329,192,58434,1,0,0:0:0:0:
256,192,58486,1,0,0:0:0:0:
182,192,58538,1,0,0:0:0:0:
109,192,58589,1,0,0:0:0:0:
36,192,58589,1,0,0:0:0:0:
402,192,58589,1,0,0:0:0:0:
256,192,58666,1,0,0:0:0:0:
182,192,58744,1,0,0:0:0:0:
329,192,58744,1,0,0:0:0:0:
475,192,58744,1,0,0:0:0:0:
256,192,58821,1,0,0:0:0:0:
36,192,58898,1,0,0:0:0:0:
109,192,58898,1,0,0:0:0:0:
402,192,58898,1,0,0:0:0:0:
475,192,58898,1,0,0:0:0:0:
182,192,58976,1,0,0:0:0:0:
36,192,59053,1,0,0:0:0:0:
329,192,59053,1,0,0:0:0:0:
109,192,59053,1,0,0:0:0:0:
402,192,59053,1,0,0:0:0:0:
256,192,59130,1,0,0:0:0:0:
182,192,59208,1,0,0:0:0:0:
109,192,59208,1,0,0:0:0:0:
402,192,59208,1,0,0:0:0:0:
475,192,59208,1,0,0:0:0:0:
329,192,59285,1,0,0:0:0:0:
256,192,59362,1,0,0:0:0:0:
36,192,59362,1,0,0:0:0:0:
329,192,59440,1,0,0:0:0:0:
109,192,59517,1,0,0:0:0:0:
182,192,59517,1,0,0:0:0:0:
475,192,59517,1,0,0:0:0:0:
402,192,59517,1,0,0:0:0:0:
36,192,59594,1,0,0:0:0:0:
475,192,59672,1,0,0:0:0:0:
256,192,59672,1,0,0:0:0:0:
329,192,59672,1,0,0:0:0:0:
36,192,59749,1,0,0:0:0:0:
109,192,59826,1,0,0:0:0:0:
402,192,59826,1,0,0:0:0:0:
475,192,59904,1,0,0:0:0:0:
256,192,59981,1,0,0:0:0:0:
182,192,59981,1,0,0:0:0:0:
36,192,59981,1,0,0:0:0:0:
475,192,60058,1,0,0:0:0:0:
182,192,60136,1,0,0:0:0:0:
109,192,60136,1,0,0:0:0:0:
329,192,60136,1,0,0:0:0:0:
402,192,60136,1,0,0:0:0:0:
256,192,60213,1,0,0:0:0:0:
36,192,60290,1,0,0:0:0:0:
109,192,60290,1,0,0:0:0:0:
402,192,60290,1,0,0:0:0:0:
475,192,60290,1,0,0:0:0:0:
256,192,60367,1,0,0:0:0:0:
109,192,60445,1,0,0:0:0:0:
182,192,60445,1,0,0:0:0:0:
329,192,60445,1,0,0:0:0:0:
402,192,60445,1,0,0:0:0:0:
36,192,60522,1,0,0:0:0:0:
256,192,60599,1,0,0:0:0:0:
475,192,60599,1,0,0:0:0:0:
182,192,60677,1,0,0:0:0:0:
109,192,60754,1,0,0:0:0:0:
329,192,60754,1,0,0:0:0:0:
36,192,60754,1,0,0:0:0:0:
402,192,60754,1,0,0:0:0:0:
182,192,60831,1,0,0:0:0:0:
475,192,60831,1,0,0:0:0:0:
109,192,60909,1,0,0:0:0:0:
402,192,60909,1,0,0:0:0:0:
36,192,60986,1,0,0:0:0:0:
329,192,60986,1,0,0:0:0:0:
182,192,61063,1,0,0:0:0:0:
402,192,61063,1,0,0:0:0:0:
109,192,61141,1,0,0:0:0:0:
475,192,61141,1,0,0:0:0:0:
256,192,61218,1,0,0:0:0:0:
36,192,61218,1,0,0:0:0:0:
329,192,61218,1,0,0:0:0:0:
182,192,61295,1,0,0:0:0:0:
402,192,61295,1,0,0:0:0:0:
329,192,61373,1,0,0:0:0:0:
109,192,61373,1,0,0:0:0:0:
36,192,61373,1,0,0:0:0:0:
475,192,61373,1,0,0:0:0:0:
256,192,61450,1,0,0:0:0:0:
402,192,61450,1,0,0:0:0:0:
329,192,61527,1,0,0:0:0:0:
182,192,61527,1,0,0:0:0:0:
109,192,61605,1,0,0:0:0:0:
256,192,61605,1,0,0:0:0:0:
182,192,61682,1,0,0:0:0:0:
36,192,61682,1,0,0:0:0:0:
402,192,61682,1,0,0:0:0:0:
475,192,61682,1,0,0:0:0:0:
256,192,61759,1,0,0:0:0:0:
329,192,61759,1,0,0:0:0:0:
402,192,61837,1,0,0:0:0:0:
475,192,61837,1,0,0:0:0:0:
109,192,61914,1,0,0:0:0:0:
182,192,61914,1,0,0:0:0:0:
329,192,61991,1,0,0:0:0:0:
402,192,61991,1,0,0:0:0:0:
256,192,62069,1,0,0:0:0:0:
182,192,62069,1,0,0:0:0:0:
329,192,62146,1,0,0:0:0:0:
402,192,62146,1,0,0:0:0:0:
109,192,62223,1,0,0:0:0:0:
36,192,62223,1,0,0:0:0:0:
256,192,62300,1,0,0:0:0:0:
329,192,62300,1,0,0:0:0:0:
182,192,62378,1,0,0:0:0:0:
109,192,62378,1,0,0:0:0:0:
256,192,62455,1,0,0:0:0:0:
329,192,62455,1,0,0:0:0:0:
402,192,62532,1,0,0:0:0:0:
475,192,62532,1,0,0:0:0:0:
109,192,62610,1,0,0:0:0:0:
182,192,62610,1,0,0:0:0:0:
256,192,62687,1,0,0:0:0:0:
329,192,62687,1,0,0:0:0:0:
182,192,62764,1,0,0:0:0:0:
109,192,62764,1,0,0:0:0:0:
329,192,62842,1,0,0:0:0:0:
402,192,62842,1,0,0:0:0:0:
36,192,62919,1,0,0:0:0:0:
182,192,62919,1,0,0:0:0:0:
256,192,62919,1,0,0:0:0:0:
475,192,62919,1,0,0:0:0:0:
109,192,62996,1,0,0:0:0:0:
329,192,62996,1,0,0:0:0:0:
182,192,63074,1,0,0:0:0:0:
402,192,63074,1,0,0:0:0:0:
256,192,63151,1,0,0:0:0:0:
475,192,63151,1,0,0:0:0:0:
36,192,63228,1,0,0:0:0:0:
109,192,63228,1,0,0:0:0:0:
182,192,63228,1,0,0:0:0:0:
402,192,63228,1,0,0:0:0:0:
256,192,63306,1,0,0:0:0:0:
475,192,63306,1,0,0:0:0:0:
329,192,63383,1,0,0:0:0:0:
182,192,63383,1,0,0:0:0:0:
109,192,63460,1,0,0:0:0:0:
402,192,63460,1,0,0:0:0:0:
36,192,63538,1,0,0:0:0:0:
256,192,63538,1,0,0:0:0:0:
329,192,63538,1,0,0:0:0:0:
475,192,63538,1,0,0:0:0:0:
182,192,63615,1,0,0:0:0:0:
402,192,63615,1,0,0:0:0:0:
329,192,63692,1,0,0:0:0:0:
109,192,63692,1,0,0:0:0:0:
36,192,63770,1,0,0:0:0:0:
256,192,63770,1,0,0:0:0:0:
402,192,63847,1,0,0:0:0:0:
475,192,63847,1,0,0:0:0:0:
109,192,63847,1,0,0:0:0:0:
36,192,63924,1,0,0:0:0:0:
256,192,63924,1,0,0:0:0:0:
182,192,64001,1,0,0:0:0:0:
329,192,64001,1,0,0:0:0:0:
402,192,64079,1,0,0:0:0:0:
109,192,64079,1,0,0:0:0:0:
256,192,64156,1,0,0:0:0:0:
182,192,64156,1,0,0:0:0:0:
36,192,64156,1,0,0:0:0:0:
475,192,64156,1,0,0:0:0:0:
329,192,64233,1,0,0:0:0:0:
402,192,64233,1,0,0:0:0:0:
182,192,64311,1,0,0:0:0:0:
256,192,64311,1,0,0:0:0:0:
36,192,64311,1,0,0:0:0:0:
329,192,64388,1,0,0:0:0:0:
402,192,64388,1,0,0:0:0:0:
109,192,64465,1,0,0:0:0:0:
182,192,64465,1,0,0:0:0:0:
36,192,64465,1,0,0:0:0:0:
475,192,64465,1,0,0:0:0:0:
256,192,64543,1,0,0:0:0:0:
329,192,64543,1,0,0:0:0:0:
109,192,64620,1,0,0:0:0:0:
36,192,64620,1,0,0:0:0:0:
182,192,64620,1,0,0:0:0:0:
256,192,64697,1,0,0:0:0:0:
329,192,64697,1,0,0:0:0:0:
402,192,64775,1,0,0:0:0:0:
475,192,64775,1,0,0:0:0:0:
182,192,64775,1,0,0:0:0:0:
109,192,64775,1,0,0:0:0:0:
36,192,64852,1,0,0:0:0:0:
329,192,64852,1,0,0:0:0:0:
182,192,64929,1,0,0:0:0:0:
475,192,64929,1,0,0:0:0:0:
402,192,64929,1,0,0:0:0:0:
329,192,65007,1,0,0:0:0:0:
36,192,65007,1,0,0:0:0:0:
109,192,65084,1,0,0:0:0:0:
182,192,65084,1,0,0:0:0:0:
256,192,65084,1,0,0:0:0:0:
329,192,65123,1,0,0:0:0:0:
402,192,65161,1,0,0:0:0:0:
475,192,65200,1,0,0:0:0:0:
36,192,65239,1,0,0:0:0:0:
109,192,65277,1,0,0:0:0:0:
182,192,65316,1,0,0:0:0:0:
256,192,65355,1,0,0:0:0:0:
109,192,65393,1,0,0:0:0:0:
36,192,65393,1,0,0:0:0:0:
402,192,65393,1,0,0:0:0:0:
475,192,65393,1,0,0:0:0:0:
329,192,65393,1,0,0:0:0:0:
256,192,65857,1,0,0:0:0:0:
109,192,65857,1,0,0:0:0:0:
402,192,65857,1,0,0:0:0:0:
36,192,65857,1,0,0:0:0:0:
329,192,65857,1,0,0:0:0:0:
36,192,66321,1,0,0:0:0:0:
182,192,66321,1,0,0:0:0:0:
402,192,66321,1,0,0:0:0:0:
475,192,66321,1,0,0:0:0:0:
329,192,66321,1,0,0:0:0:0:
109,192,66476,1,0,0:0:0:0:
329,192,66527,1,0,0:0:0:0:
182,192,66579,1,0,0:0:0:0:
402,192,66630,1,0,0:0:0:0:
109,192,66682,1,0,0:0:0:0:
182,192,66733,1,0,0:0:0:0:
256,192,66785,1,0,0:0:0:0:
329,192,66837,1,0,0:0:0:0:
402,192,66888,1,0,0:0:0:0:
36,192,66940,1,0,0:0:0:0:
182,192,66940,1,0,0:0:0:0:
109,192,67017,1,0,0:0:0:0:
256,192,67017,1,0,0:0:0:0:
182,192,67094,1,0,0:0:0:0:
329,192,67094,1,0,0:0:0:0:
256,192,67172,1,0,0:0:0:0:
402,192,67172,1,0,0:0:0:0:
329,192,67249,1,0,0:0:0:0:
475,192,67249,1,0,0:0:0:0:
109,192,67249,1,0,0:0:0:0:
182,192,67558,1,0,0:0:0:0:
256,192,67558,1,0,0:0:0:0:
36,192,67867,1,0,0:0:0:0:
402,192,67867,1,0,0:0:0:0:
475,192,67867,1,0,0:0:0:0:
109,192,67867,128,0,68177:0:0:0:0:
182,192,68177,128,0,68486:0:0:0:0:
329,192,68177,1,0,0:0:0:0:
402,192,68177,1,0,0:0:0:0:
475,192,68177,1,0,0:0:0:0:
109,192,68486,128,0,68641:0:0:0:0:
329,192,68486,1,0,0:0:0:0:
36,192,68641,128,0,68950:0:0:0:0:
256,192,68641,1,0,0:0:0:0:
475,192,68641,1,0,0:0:0:0:
329,192,68795,1,0,0:0:0:0:
402,192,68873,1,0,0:0:0:0:
475,192,68950,128,0,69414:0:0:0:0:
182,192,68950,1,0,0:0:0:0:
109,192,69027,1,0,0:0:0:0:
36,192,69105,1,0,0:0:0:0:
256,192,69105,1,0,0:0:0:0:
329,192,69105,1,0,0:0:0:0:
182,192,69259,1,0,0:0:0:0:
402,192,69259,1,0,0:0:0:0:
109,192,69414,1,0,0:0:0:0:
36,192,69414,1,0,0:0:0:0:
256,192,69414,1,0,0:0:0:0:
329,192,69414,128,0,69723:0:0:0:0:
475,192,69569,1,0,0:0:0:0:
256,192,69646,1,0,0:0:0:0:
402,192,69723,128,0,70032:0:0:0:0:
36,192,69723,1,0,0:0:0:0:
109,192,69723,1,0,0:0:0:0:
182,192,69878,1,0,0:0:0:0:
256,192,69955,1,0,0:0:0:0:
109,192,70032,128,0,70342:0:0:0:0:
182,192,70032,1,0,0:0:0:0:
256,192,70110,1,0,0:0:0:0:
402,192,70187,1,0,0:0:0:0:
329,192,70187,1,0,0:0:0:0:
256,192,70342,1,0,0:0:0:0:
36,192,70342,1,0,0:0:0:0:
475,192,70342,1,0,0:0:0:0:
182,192,70342,1,0,0:0:0:0:
329,192,70496,1,0,0:0:0:0:
402,192,70496,1,0,0:0:0:0:
256,192,70806,1,0,0:0:0:0:
329,192,70806,1,0,0:0:0:0:
109,192,70806,1,0,0:0:0:0:
475,192,70806,1,0,0:0:0:0:
182,192,71115,1,0,0:0:0:0:
402,192,71115,1,0,0:0:0:0:
109,192,71270,1,0,0:0:0:0:
36,192,71270,1,0,0:0:0:0:
329,192,71270,1,0,0:0:0:0:
256,192,71270,1,0,0:0:0:0:
182,192,71579,1,0,0:0:0:0:
109,192,71733,1,0,0:0:0:0:
36,192,71733,1,0,0:0:0:0:
256,192,71733,1,0,0:0:0:0:
329,192,71733,1,0,0:0:0:0:
402,192,71888,1,0,0:0:0:0:
182,192,72043,1,0,0:0:0:0:
256,192,72197,1,0,0:0:0:0:
109,192,72197,1,0,0:0:0:0:
475,192,72197,1,0,0:0:0:0:
329,192,72352,1,0,0:0:0:0:
402,192,72507,1,0,0:0:0:0:
475,192,72507,1,0,0:0:0:0:
36,192,72507,128,0,72816:0:0:0:0:
182,192,72661,128,0,72816:0:0:0:0:
109,192,72816,1,0,0:0:0:0:
329,192,72816,1,0,0:0:0:0:
475,192,72816,1,0,0:0:0:0:
402,192,72816,1,0,0:0:0:0:
36,192,72971,1,0,0:0:0:0:
256,192,72971,1,0,0:0:0:0:
109,192,73280,1,0,0:0:0:0:
475,192,73280,1,0,0:0:0:0:
182,192,73434,1,0,0:0:0:0:
402,192,73434,1,0,0:0:0:0:
36,192,73434,1,0,0:0:0:0:
109,192,73589,1,0,0:0:0:0:
256,192,73589,1,0,0:0:0:0:
182,192,73744,1,0,0:0:0:0:
329,192,73744,1,0,0:0:0:0:
256,192,73898,1,0,0:0:0:0:
402,192,73898,1,0,0:0:0:0:
36,192,73898,1,0,0:0:0:0:
329,192,74053,1,0,0:0:0:0:
475,192,74053,1,0,0:0:0:0:
36,192,74208,1,0,0:0:0:0:
109,192,74208,1,0,0:0:0:0:
182,192,74208,1,0,0:0:0:0:
109,192,74672,1,0,0:0:0:0:
256,192,74672,1,0,0:0:0:0:
402,192,74672,1,0,0:0:0:0:
36,192,75290,1,0,0:0:0:0:
182,192,75290,1,0,0:0:0:0:
329,192,75290,1,0,0:0:0:0:
109,192,75599,1,0,0:0:0:0:
402,192,75599,1,0,0:0:0:0:
182,192,75754,1,0,0:0:0:0:
475,192,75754,1,0,0:0:0:0:
256,192,75909,1,0,0:0:0:0:
329,192,75909,1,0,0:0:0:0:
36,192,75909,1,0,0:0:0:0:
256,192,76373,1,0,0:0:0:0:
182,192,76373,1,0,0:0:0:0:
109,192,76373,1,0,0:0:0:0:
402,192,76527,1,0,0:0:0:0:
475,192,76527,128,0,77764:0:0:0:0:
36,192,76682,1,0,0:0:0:0:
182,192,76682,1,0,0:0:0:0:
256,192,76682,1,0,0:0:0:0:
109,192,76837,1,0,0:0:0:0:
329,192,76837,1,0,0:0:0:0:
36,192,77146,128,0,77764:0:0:0:0:
256,192,77146,128,0,77764:0:0:0:0:
109,192,77146,128,0,77764:0:0:0:0:
402,192,77146,128,0,77764:0:0:0:0:
329,192,77764,1,0,0:0:0:0:
182,192,77764,1,0,0:0:0:0:
256,192,79001,1,0,0:0:0:0:
109,192,79001,1,0,0:0:0:0:
36,192,80239,1,0,0:0:0:0:
256,192,80239,1,0,0:0:0:0:
402,192,80239,1,0,0:0:0:0:
109,192,81476,1,0,0:0:0:0:
329,192,81476,1,0,0:0:0:0:
109,192,82713,1,0,0:0:0:0:
402,192,82713,1,0,0:0:0:0:
182,192,83950,1,0,0:0:0:0:
402,192,83950,1,0,0:0:0:0:
36,192,85187,1,0,0:0:0:0:
475,192,85187,1,0,0:0:0:0:
109,192,86424,1,0,0:0:0:0:
256,192,86424,1,0,0:0:0:0:
402,192,86424,1,0,0:0:0:0:
182,192,87661,1,0,0:0:0:0:
329,192,87661,1,0,0:0:0:0:
475,192,87661,1,0,0:0:0:0:
36,192,87661,128,0,88898:0:0:0:0:
256,192,87816,1,0,0:0:0:0:
402,192,87816,1,0,0:0:0:0:
109,192,87971,1,0,0:0:0:0:
182,192,87971,1,0,0:0:0:0:
475,192,87971,1,0,0:0:0:0:
329,192,88125,1,0,0:0:0:0:
182,192,88203,1,0,0:0:0:0:
402,192,88280,1,0,0:0:0:0:
182,192,88357,1,0,0:0:0:0:
329,192,88434,1,0,0:0:0:0:
475,192,88434,1,0,0:0:0:0:
402,192,88589,1,0,0:0:0:0:
256,192,88666,1,0,0:0:0:0:
402,192,88744,1,0,0:0:0:0:
182,192,88821,1,0,0:0:0:0:
256,192,88898,1,0,0:0:0:0:
109,192,88898,1,0,0:0:0:0:
475,192,88898,128,0,90136:0:0:0:0:
329,192,89053,1,0,0:0:0:0:
182,192,89130,1,0,0:0:0:0:
402,192,89208,1,0,0:0:0:0:
329,192,89208,1,0,0:0:0:0:
109,192,89285,1,0,0:0:0:0:
256,192,89362,1,0,0:0:0:0:
36,192,89440,1,0,0:0:0:0:
109,192,89517,1,0,0:0:0:0:
182,192,89517,1,0,0:0:0:0:
329,192,89594,1,0,0:0:0:0:
182,192,89672,1,0,0:0:0:0:
402,192,89672,1,0,0:0:0:0:
109,192,89826,1,0,0:0:0:0:
256,192,89826,1,0,0:0:0:0:
329,192,89904,1,0,0:0:0:0:
402,192,89981,1,0,0:0:0:0:
329,192,90058,1,0,0:0:0:0:
36,192,90136,1,0,0:0:0:0:
402,192,90136,1,0,0:0:0:0:
182,192,90136,128,0,91373:0:0:0:0:
109,192,90290,1,0,0:0:0:0:
329,192,90290,1,0,0:0:0:0:
256,192,90445,1,0,0:0:0:0:
475,192,90445,1,0,0:0:0:0:
36,192,90445,1,0,0:0:0:0:
329,192,90599,1,0,0:0:0:0:
109,192,90677,1,0,0:0:0:0:
402,192,90754,1,0,0:0:0:0:
109,192,90831,1,0,0:0:0:0:
329,192,90909,1,0,0:0:0:0:
475,192,90909,1,0,0:0:0:0:
256,192,91063,1,0,0:0:0:0:
402,192,91141,1,0,0:0:0:0:
109,192,91218,1,0,0:0:0:0:
329,192,91295,1,0,0:0:0:0:
475,192,91373,1,0,0:0:0:0:
36,192,91373,1,0,0:0:0:0:
402,192,91373,128,0,92610:0:0:0:0:
182,192,91527,1,0,0:0:0:0:
109,192,91605,1,0,0:0:0:0:
182,192,91682,1,0,0:0:0:0:
329,192,91682,1,0,0:0:0:0:
329,192,91837,1,0,0:0:0:0:
475,192,91914,1,0,0:0:0:0:
329,192,91991,1,0,0:0:0:0:
182,192,91991,1,0,0:0:0:0:
36,192,92146,1,0,0:0:0:0:
256,192,92146,1,0,0:0:0:0:
109,192,92300,1,0,0:0:0:0:
182,192,92378,1,0,0:0:0:0:
256,192,92455,1,0,0:0:0:0:
329,192,92532,1,0,0:0:0:0:
475,192,92610,1,0,0:0:0:0:
182,192,92610,1,0,0:0:0:0:
109,192,92610,128,0,93847:0:0:0:0:
256,192,92764,1,0,0:0:0:0:
36,192,92764,1,0,0:0:0:0:
182,192,92919,1,0,0:0:0:0:
402,192,92919,1,0,0:0:0:0:
475,192,92919,1,0,0:0:0:0:
329,192,93074,1,0,0:0:0:0:
36,192,93151,1,0,0:0:0:0:
402,192,93228,1,0,0:0:0:0:
182,192,93306,1,0,0:0:0:0:
329,192,93383,1,0,0:0:0:0:
475,192,93383,1,0,0:0:0:0:
256,192,93538,1,0,0:0:0:0:
402,192,93615,1,0,0:0:0:0:
182,192,93692,1,0,0:0:0:0:
329,192,93770,1,0,0:0:0:0:
182,192,93847,1,0,0:0:0:0:
36,192,93847,1,0,0:0:0:0:
475,192,93847,128,0,95084:0:0:0:0:
329,192,94001,1,0,0:0:0:0:
182,192,94079,1,0,0:0:0:0:
109,192,94156,1,0,0:0:0:0:
36,192,94156,1,0,0:0:0:0:
182,192,94233,1,0,0:0:0:0:
329,192,94311,1,0,0:0:0:0:
182,192,94388,1,0,0:0:0:0:
109,192,94465,1,0,0:0:0:0:
36,192,94465,1,0,0:0:0:0:
256,192,94543,1,0,0:0:0:0:
329,192,94620,1,0,0:0:0:0:
402,192,94620,1,0,0:0:0:0:
109,192,94775,1,0,0:0:0:0:
182,192,94775,1,0,0:0:0:0:
329,192,94852,1,0,0:0:0:0:
256,192,94929,1,0,0:0:0:0:
182,192,95007,1,0,0:0:0:0:
36,192,95084,128,0,96321:0:0:0:0:
109,192,95084,1,0,0:0:0:0:
402,192,95084,1,0,0:0:0:0:
182,192,95239,1,0,0:0:0:0:
475,192,95239,1,0,0:0:0:0:
256,192,95393,1,0,0:0:0:0:
402,192,95393,1,0,0:0:0:0:
109,192,95393,1,0,0:0:0:0:
182,192,95548,1,0,0:0:0:0:
329,192,95625,1,0,0:0:0:0:
182,192,95703,1,0,0:0:0:0:
329,192,95780,1,0,0:0:0:0:
109,192,95857,1,0,0:0:0:0:
402,192,95857,1,0,0:0:0:0:
329,192,96012,1,0,0:0:0:0:
475,192,96089,1,0,0:0:0:0:
329,192,96166,1,0,0:0:0:0:
475,192,96244,1,0,0:0:0:0:
256,192,96321,128,0,97558:0:0:0:0:
402,192,96321,1,0,0:0:0:0:
109,192,96321,1,0,0:0:0:0:
182,192,96476,1,0,0:0:0:0:
329,192,96476,1,0,0:0:0:0:
109,192,96630,1,0,0:0:0:0:
36,192,96630,1,0,0:0:0:0:
182,192,96708,1,0,0:0:0:0:
329,192,96785,1,0,0:0:0:0:
475,192,96785,1,0,0:0:0:0:
402,192,96940,1,0,0:0:0:0:
475,192,96940,1,0,0:0:0:0:
329,192,97017,1,0,0:0:0:0:
182,192,97094,1,0,0:0:0:0:
36,192,97094,1,0,0:0:0:0:
109,192,97249,1,0,0:0:0:0:
182,192,97326,1,0,0:0:0:0:
329,192,97404,1,0,0:0:0:0:
402,192,97481,1,0,0:0:0:0:
36,192,97558,1,0,0:0:0:0:
475,192,97558,128,0,98177:0:0:0:0:
329,192,98177,128,0,98795:0:0:0:0:
182,192,98795,128,0,99414:0:0:0:0:
109,192,99414,1,0,0:0:0:0:
329,192,99491,1,0,0:0:0:0:
109,192,99569,1,0,0:0:0:0:
329,192,99646,1,0,0:0:0:0:
36,192,99723,1,0,0:0:0:0:
182,192,99723,1,0,0:0:0:0:
402,192,99723,1,0,0:0:0:0:
329,192,99839,1,0,0:0:0:0:
256,192,99878,1,0,0:0:0:0:
182,192,99916,1,0,0:0:0:0:
109,192,99955,1,0,0:0:0:0:
256,192,99994,1,0,0:0:0:0:
36,192,99994,1,0,0:0:0:0:
402,192,99994,1,0,0:0:0:0:
475,192,99994,1,0,0:0:0:0:
109,192,100068,1,0,0:0:0:0:
329,192,100068,1,0,0:0:0:0:
182,192,100142,1,0,0:0:0:0:
402,192,100142,1,0,0:0:0:0:
329,192,100216,1,0,0:0:0:0:
109,192,100216,1,0,0:0:0:0:
36,192,100291,1,0,0:0:0:0:
256,192,100291,1,0,0:0:0:0:
475,192,100291,1,0,0:0:0:0:
182,192,100365,1,0,0:0:0:0:
402,192,100365,1,0,0:0:0:0:
109,192,100439,1,0,0:0:0:0:
329,192,100439,1,0,0:0:0:0:
182,192,100513,1,0,0:0:0:0:
402,192,100513,1,0,0:0:0:0:
256,192,100588,1,0,0:0:0:0:
475,192,100588,1,0,0:0:0:0:
36,192,100588,1,0,0:0:0:0:
109,192,100662,1,0,0:0:0:0:
329,192,100662,1,0,0:0:0:0:
182,192,100736,1,0,0:0:0:0:
402,192,100736,1,0,0:0:0:0:
109,192,100810,1,0,0:0:0:0:
329,192,100810,1,0,0:0:0:0:
256,192,100885,1,0,0:0:0:0:
36,192,100885,1,0,0:0:0:0:
475,192,100885,1,0,0:0:0:0:
402,192,100959,1,0,0:0:0:0:
182,192,100959,1,0,0:0:0:0:
109,192,101033,1,0,0:0:0:0:
329,192,101033,1,0,0:0:0:0:
182,192,101107,1,0,0:0:0:0:
402,192,101107,1,0,0:0:0:0:
109,192,101182,1,0,0:0:0:0:
36,192,101182,1,0,0:0:0:0:
256,192,101182,1,0,0:0:0:0:
475,192,101182,1,0,0:0:0:0:
329,192,101256,1,0,0:0:0:0:
256,192,101330,1,0,0:0:0:0:
475,192,101330,1,0,0:0:0:0:
182,192,101404,1,0,0:0:0:0:
402,192,101404,1,0,0:0:0:0:
109,192,101479,1,0,0:0:0:0:
36,192,101479,1,0,0:0:0:0:
329,192,101479,1,0,0:0:0:0:
256,192,101553,1,0,0:0:0:0:
475,192,101553,1,0,0:0:0:0:
402,192,101627,1,0,0:0:0:0:
182,192,101627,1,0,0:0:0:0:
109,192,101701,1,0,0:0:0:0:
329,192,101701,1,0,0:0:0:0:
36,192,101776,1,0,0:0:0:0:
256,192,101776,1,0,0:0:0:0:
182,192,101850,1,0,0:0:0:0:
329,192,101850,1,0,0:0:0:0:
109,192,101924,1,0,0:0:0:0:
402,192,101924,1,0,0:0:0:0:
475,192,101924,1,0,0:0:0:0:
256,192,101998,1,0,0:0:0:0:
36,192,101998,1,0,0:0:0:0:
109,192,102073,1,0,0:0:0:0:
329,192,102073,1,0,0:0:0:0:
402,192,102073,1,0,0:0:0:0:
182,192,102147,1,0,0:0:0:0:
475,192,102147,1,0,0:0:0:0:
256,192,102221,1,0,0:0:0:0:
329,192,102221,1,0,0:0:0:0:
109,192,102295,1,0,0:0:0:0:
402,192,102295,1,0,0:0:0:0:
182,192,102370,1,0,0:0:0:0:
256,192,102370,1,0,0:0:0:0:
36,192,102370,1,0,0:0:0:0:
475,192,102370,1,0,0:0:0:0:
329,192,102444,1,0,0:0:0:0:
402,192,102444,1,0,0:0:0:0:
109,192,102518,1,0,0:0:0:0:
36,192,102518,1,0,0:0:0:0:
256,192,102593,1,0,0:0:0:0:
329,192,102593,1,0,0:0:0:0:
182,192,102667,1,0,0:0:0:0:
109,192,102667,1,0,0:0:0:0:
402,192,102667,1,0,0:0:0:0:
475,192,102667,1,0,0:0:0:0:
36,192,102766,1,0,0:0:0:0:
256,192,102766,1,0,0:0:0:0:
329,192,102766,1,0,0:0:0:0:
182,192,102865,1,0,0:0:0:0:
402,192,102865,1,0,0:0:0:0:
475,192,102865,1,0,0:0:0:0:
109,192,102964,1,0,0:0:0:0:
36,192,102964,1,0,0:0:0:0:
329,192,102964,1,0,0:0:0:0:
182,192,103063,1,0,0:0:0:0:
475,192,103063,1,0,0:0:0:0:
256,192,103063,1,0,0:0:0:0:
109,192,103162,1,0,0:0:0:0:
36,192,103162,1,0,0:0:0:0:
329,192,103162,1,0,0:0:0:0:
182,192,103261,1,0,0:0:0:0:
402,192,103261,1,0,0:0:0:0:
475,192,103261,1,0,0:0:0:0:
109,192,103360,1,0,0:0:0:0:
36,192,103360,1,0,0:0:0:0:
329,192,103360,1,0,0:0:0:0:
182,192,103459,1,0,0:0:0:0:
402,192,103459,1,0,0:0:0:0:
475,192,103459,1,0,0:0:0:0:
109,192,103558,1,0,0:0:0:0:
36,192,103558,1,0,0:0:0:0:
329,192,103558,1,0,0:0:0:0:
256,192,103558,1,0,0:0:0:0:
109,192,103657,1,0,0:0:0:0:
36,192,103657,1,0,0:0:0:0:
402,192,103657,1,0,0:0:0:0:
36,192,103756,1,0,0:0:0:0:
109,192,103756,1,0,0:0:0:0:
475,192,103756,1,0,0:0:0:0:
329,192,103855,1,0,0:0:0:0:
402,192,103855,1,0,0:0:0:0:
182,192,103855,1,0,0:0:0:0:
109,192,103954,1,0,0:0:0:0:
329,192,103954,1,0,0:0:0:0:
402,192,103954,1,0,0:0:0:0:
36,192,104053,1,0,0:0:0:0:
329,192,104053,1,0,0:0:0:0:
402,192,104053,1,0,0:0:0:0:
109,192,104152,1,0,0:0:0:0:
256,192,104152,1,0,0:0:0:0:
182,192,104152,1,0,0:0:0:0:
475,192,104226,1,0,0:0:0:0:
402,192,104300,1,0,0:0:0:0:
182,192,104300,1,0,0:0:0:0:
329,192,104375,1,0,0:0:0:0:
109,192,104449,1,0,0:0:0:0:
36,192,104449,1,0,0:0:0:0:
182,192,104449,1,0,0:0:0:0:
402,192,104523,1,0,0:0:0:0:
329,192,104597,1,0,0:0:0:0:
36,192,104597,1,0,0:0:0:0:
256,192,104672,1,0,0:0:0:0:
182,192,104746,1,0,0:0:0:0:
36,192,104746,1,0,0:0:0:0:
402,192,104746,1,0,0:0:0:0:
475,192,104746,1,0,0:0:0:0:
329,192,104820,1,0,0:0:0:0:
109,192,104894,1,0,0:0:0:0:
36,192,104894,1,0,0:0:0:0:
329,192,104969,1,0,0:0:0:0:
109,192,105043,1,0,0:0:0:0:
402,192,105043,1,0,0:0:0:0:
475,192,105043,1,0,0:0:0:0:
182,192,105043,1,0,0:0:0:0:
256,192,105117,1,0,0:0:0:0:
36,192,105192,1,0,0:0:0:0:
329,192,105192,1,0,0:0:0:0:
402,192,105192,1,0,0:0:0:0:
109,192,105192,1,0,0:0:0:0:
182,192,105266,1,0,0:0:0:0:
256,192,105340,1,0,0:0:0:0:
475,192,105340,1,0,0:0:0:0:
182,192,105414,1,0,0:0:0:0:
109,192,105489,1,0,0:0:0:0:
329,192,105489,1,0,0:0:0:0:
402,192,105489,1,0,0:0:0:0:
256,192,105563,1,0,0:0:0:0:
36,192,105637,1,0,0:0:0:0:
109,192,105637,1,0,0:0:0:0:
402,192,105637,1,0,0:0:0:0:
475,192,105637,1,0,0:0:0:0:
256,192,105711,1,0,0:0:0:0:
329,192,105786,1,0,0:0:0:0:
402,192,105786,1,0,0:0:0:0:
182,192,105786,1,0,0:0:0:0:
109,192,105786,1,0,0:0:0:0:
256,192,105860,1,0,0:0:0:0:
36,192,105934,1,0,0:0:0:0:
182,192,105934,1,0,0:0:0:0:
329,192,105934,1,0,0:0:0:0:
475,192,105934,1,0,0:0:0:0:
109,192,106008,1,0,0:0:0:0:
256,192,106083,1,0,0:0:0:0:
402,192,106083,1,0,0:0:0:0:
109,192,106157,1,0,0:0:0:0:
329,192,106231,1,0,0:0:0:0:
475,192,106231,1,0,0:0:0:0:
182,192,106231,1,0,0:0:0:0:
36,192,106231,1,0,0:0:0:0:
402,192,106305,1,0,0:0:0:0:
109,192,106380,1,0,0:0:0:0:
256,192,106380,1,0,0:0:0:0:
402,192,106454,1,0,0:0:0:0:
36,192,106528,1,0,0:0:0:0:
182,192,106528,1,0,0:0:0:0:
329,192,106602,1,0,0:0:0:0:
109,192,106677,1,0,0:0:0:0:
256,192,106677,1,0,0:0:0:0:
475,192,106677,1,0,0:0:0:0:
402,192,106751,1,0,0:0:0:0:
36,192,106825,1,0,0:0:0:0:
109,192,106825,1,0,0:0:0:0:
182,192,106825,1,0,0:0:0:0:
329,192,106825,1,0,0:0:0:0:
475,192,106899,1,0,0:0:0:0:
402,192,106974,1,0,0:0:0:0:
182,192,106974,1,0,0:0:0:0:
256,192,106974,1,0,0:0:0:0:
109,192,106974,1,0,0:0:0:0:
329,192,107048,1,0,0:0:0:0:
402,192,107122,1,0,0:0:0:0:
475,192,107122,1,0,0:0:0:0:
36,192,107122,1,0,0:0:0:0:
182,192,107122,1,0,0:0:0:0:
256,192,107196,1,0,0:0:0:0:
109,192,107271,1,0,0:0:0:0:
329,192,107271,1,0,0:0:0:0:
256,192,107345,1,0,0:0:0:0:
182,192,107419,1,0,0:0:0:0:
402,192,107419,1,0,0:0:0:0:
475,192,107419,1,0,0:0:0:0:
36,192,107419,1,0,0:0:0:0:
329,192,107494,1,0,0:0:0:0:
256,192,107568,1,0,0:0:0:0:
109,192,107568,1,0,0:0:0:0:
329,192,107642,1,0,0:0:0:0:
182,192,107716,1,0,0:0:0:0:
402,192,107716,1,0,0:0:0:0:
109,192,107791,1,0,0:0:0:0:
329,192,107791,1,0,0:0:0:0:
36,192,107865,1,0,0:0:0:0:
256,192,107865,1,0,0:0:0:0:
182,192,107865,1,0,0:0:0:0:
475,192,107865,1,0,0:0:0:0:
402,192,107939,1,0,0:0:0:0:
256,192,108013,1,0,0:0:0:0:
329,192,108013,1,0,0:0:0:0:
109,192,108013,1,0,0:0:0:0:
36,192,108013,1,0,0:0:0:0:
475,192,108088,1,0,0:0:0:0:
109,192,108162,1,0,0:0:0:0:
182,192,108162,1,0,0:0:0:0:
329,192,108162,1,0,0:0:0:0:
402,192,108162,1,0,0:0:0:0:
475,192,108236,1,0,0:0:0:0:
256,192,108310,1,0,0:0:0:0:
402,192,108310,1,0,0:0:0:0:
36,192,108310,1,0,0:0:0:0:
109,192,108310,1,0,0:0:0:0:
256,192,108459,1,0,0:0:0:0:
36,192,108607,1,0,0:0:0:0:
182,192,108607,1,0,0:0:0:0:
329,192,108607,1,0,0:0:0:0:
475,192,108607,1,0,0:0:0:0:
109,192,108756,1,0,0:0:0:0:
36,192,108756,1,0,0:0:0:0:
256,192,108756,1,0,0:0:0:0:
402,192,108756,1,0,0:0:0:0:
329,192,108904,1,0,0:0:0:0:
182,192,108904,1,0,0:0:0:0:
109,192,108904,1,0,0:0:0:0:
475,192,108904,1,0,0:0:0:0:
182,192,109053,1,0,0:0:0:0:
256,192,109053,1,0,0:0:0:0:
402,192,109053,1,0,0:0:0:0:
475,192,109053,1,0,0:0:0:0:
256,192,109201,1,0,0:0:0:0:
329,192,109201,1,0,0:0:0:0:
109,192,109201,1,0,0:0:0:0:
36,192,109201,1,0,0:0:0:0:
109,192,109350,1,0,0:0:0:0:
182,192,109350,1,0,0:0:0:0:
329,192,109350,1,0,0:0:0:0:
402,192,109350,1,0,0:0:0:0:
182,192,109498,1,0,0:0:0:0:
256,192,109498,1,0,0:0:0:0:
402,192,109498,1,0,0:0:0:0:
475,192,109498,1,0,0:0:0:0:
36,192,109498,128,0,109944:0:0:0:0:
109,192,109573,1,0,0:0:0:0:
329,192,109647,1,0,0:0:0:0:
475,192,109647,1,0,0:0:0:0:
109,192,109721,1,0,0:0:0:0:
182,192,109795,1,0,0:0:0:0:
256,192,109795,1,0,0:0:0:0:
402,192,109795,1,0,0:0:0:0:
475,192,109870,1,0,0:0:0:0:
329,192,109944,128,0,110464:0:0:0:0:
109,192,109944,1,0,0:0:0:0:
182,192,109944,1,0,0:0:0:0:
402,192,109944,1,0,0:0:0:0:
256,192,110018,1,0,0:0:0:0:
36,192,110093,1,0,0:0:0:0:
475,192,110093,1,0,0:0:0:0:
109,192,110167,1,0,0:0:0:0:
182,192,110241,1,0,0:0:0:0:
402,192,110241,1,0,0:0:0:0:
109,192,110315,1,0,0:0:0:0:
256,192,110390,128,0,110538:0:0:0:0:
36,192,110390,1,0,0:0:0:0:
475,192,110390,1,0,0:0:0:0:
182,192,110464,128,0,110612:0:0:0:0:
402,192,110464,1,0,0:0:0:0:
109,192,110538,128,0,110687:0:0:0:0:
329,192,110538,1,0,0:0:0:0:
36,192,110612,128,0,110761:0:0:0:0:
256,192,110612,1,0,0:0:0:0:
402,192,110687,128,0,110761:0:0:0:0:
475,192,110687,128,0,110761:0:0:0:0:
182,192,110687,128,0,111132:0:0:0:0:
329,192,110761,1,0,0:0:0:0:
109,192,110835,1,0,0:0:0:0:
36,192,110835,1,0,0:0:0:0:
329,192,110909,1,0,0:0:0:0:
256,192,110984,1,0,0:0:0:0:
402,192,110984,1,0,0:0:0:0:
475,192,110984,1,0,0:0:0:0:
109,192,111058,1,0,0:0:0:0:
475,192,111132,128,0,111652:0:0:0:0:
36,192,111132,1,0,0:0:0:0:
329,192,111132,1,0,0:0:0:0:
402,192,111132,1,0,0:0:0:0:
182,192,111206,1,0,0:0:0:0:
109,192,111281,1,0,0:0:0:0:
256,192,111281,1,0,0:0:0:0:
329,192,111355,1,0,0:0:0:0:
256,192,111429,1,0,0:0:0:0:
36,192,111429,1,0,0:0:0:0:
182,192,111503,1,0,0:0:0:0:
402,192,111578,128,0,111726:0:0:0:0:
109,192,111578,1,0,0:0:0:0:
329,192,111652,128,0,111800:0:0:0:0:
182,192,111652,1,0,0:0:0:0:
256,192,111726,128,0,111875:0:0:0:0:
36,192,111726,1,0,0:0:0:0:
182,192,111800,128,0,111949:0:0:0:0:
109,192,111800,1,0,0:0:0:0:
36,192,111875,128,0,111949:0:0:0:0:
402,192,111875,128,0,111949:0:0:0:0:
475,192,111875,128,0,112320:0:0:0:0:
329,192,111949,1,0,0:0:0:0:
109,192,112023,1,0,0:0:0:0:
256,192,112023,1,0,0:0:0:0:
329,192,112097,1,0,0:0:0:0:
36,192,112172,1,0,0:0:0:0:
182,192,112172,1,0,0:0:0:0:
402,192,112172,1,0,0:0:0:0:
256,192,112246,1,0,0:0:0:0:
182,192,112320,128,0,112766:0:0:0:0:
329,192,112320,1,0,0:0:0:0:
402,192,112320,1,0,0:0:0:0:
109,192,112320,1,0,0:0:0:0:
36,192,112394,1,0,0:0:0:0:
256,192,112469,1,0,0:0:0:0:
475,192,112469,1,0,0:0:0:0:
329,192,112543,1,0,0:0:0:0:
402,192,112617,1,0,0:0:0:0:
475,192,112617,1,0,0:0:0:0:
109,192,112617,1,0,0:0:0:0:
256,192,112692,1,0,0:0:0:0:
329,192,112766,1,0,0:0:0:0:
402,192,112766,1,0,0:0:0:0:
109,192,112766,1,0,0:0:0:0:
36,192,112766,128,0,113063:0:0:0:0:
182,192,112840,1,0,0:0:0:0:
256,192,112914,1,0,0:0:0:0:
475,192,112914,1,0,0:0:0:0:
182,192,112989,1,0,0:0:0:0:
109,192,113063,1,0,0:0:0:0:
329,192,113063,1,0,0:0:0:0:
402,192,113063,1,0,0:0:0:0:
256,192,113137,1,0,0:0:0:0:
36,192,113137,1,0,0:0:0:0:
182,192,113211,1,0,0:0:0:0:
402,192,113211,1,0,0:0:0:0:
475,192,113286,1,0,0:0:0:0:
256,192,113286,1,0,0:0:0:0:
329,192,113360,1,0,0:0:0:0:
109,192,113360,1,0,0:0:0:0:
36,192,113360,1,0,0:0:0:0:
182,192,113434,1,0,0:0:0:0:
402,192,113434,1,0,0:0:0:0:
256,192,113508,1,0,0:0:0:0:
475,192,113508,1,0,0:0:0:0:
36,192,113508,1,0,0:0:0:0:
182,192,113583,1,0,0:0:0:0:
402,192,113583,1,0,0:0:0:0:
109,192,113657,1,0,0:0:0:0:
329,192,113657,1,0,0:0:0:0:
182,192,113731,1,0,0:0:0:0:
402,192,113731,1,0,0:0:0:0:
329,192,113805,1,0,0:0:0:0:
109,192,113805,1,0,0:0:0:0:
475,192,113805,1,0,0:0:0:0:
36,192,113880,1,0,0:0:0:0:
256,192,113880,1,0,0:0:0:0:
109,192,113954,1,0,0:0:0:0:
329,192,113954,1,0,0:0:0:0:
402,192,113954,1,0,0:0:0:0:
182,192,113954,1,0,0:0:0:0:
36,192,114028,1,0,0:0:0:0:
475,192,114028,1,0,0:0:0:0:
182,192,114102,1,0,0:0:0:0:
329,192,114102,1,0,0:0:0:0:
109,192,114177,1,0,0:0:0:0:
402,192,114177,1,0,0:0:0:0:
36,192,114251,1,0,0:0:0:0:
256,192,114251,1,0,0:0:0:0:
475,192,114251,1,0,0:0:0:0:
182,192,114251,1,0,0:0:0:0:
329,192,114325,1,0,0:0:0:0:
109,192,114399,1,0,0:0:0:0:
402,192,114399,1,0,0:0:0:0:
256,192,114474,1,0,0:0:0:0:
182,192,114548,1,0,0:0:0:0:
36,192,114548,1,0,0:0:0:0:
329,192,114548,1,0,0:0:0:0:
475,192,114548,1,0,0:0:0:0:
256,192,114622,1,0,0:0:0:0:
109,192,114696,1,0,0:0:0:0:
36,192,114696,1,0,0:0:0:0:
402,192,114696,1,0,0:0:0:0:
475,192,114696,1,0,0:0:0:0:
329,192,114771,1,0,0:0:0:0:
182,192,114845,1,0,0:0:0:0:
256,192,114845,1,0,0:0:0:0:
402,192,114919,1,0,0:0:0:0:
329,192,114994,1,0,0:0:0:0:
109,192,114994,1,0,0:0:0:0:
36,192,114994,1,0,0:0:0:0:
182,192,115068,1,0,0:0:0:0:
256,192,115142,1,0,0:0:0:0:
402,192,115142,1,0,0:0:0:0:
475,192,115142,1,0,0:0:0:0:
36,192,115142,1,0,0:0:0:0:
182,192,115216,1,0,0:0:0:0:
329,192,115291,1,0,0:0:0:0:
182,192,115365,1,0,0:0:0:0:
329,192,115439,1,0,0:0:0:0:
402,192,115439,1,0,0:0:0:0:
182,192,115513,1,0,0:0:0:0:
109,192,115513,1,0,0:0:0:0:
329,192,115588,1,0,0:0:0:0:
402,192,115588,1,0,0:0:0:0:
182,192,115662,1,0,0:0:0:0:
109,192,115662,1,0,0:0:0:0:
329,192,115736,1,0,0:0:0:0:
402,192,115736,1,0,0:0:0:0:
475,192,115736,1,0,0:0:0:0:
109,192,115810,1,0,0:0:0:0:
182,192,115810,1,0,0:0:0:0:
36,192,115810,1,0,0:0:0:0:
329,192,115885,1,0,0:0:0:0:
402,192,115885,1,0,0:0:0:0:
475,192,115885,1,0,0:0:0:0:
182,192,115959,1,0,0:0:0:0:
109,192,115959,1,0,0:0:0:0:
36,192,115959,1,0,0:0:0:0:
256,192,116033,1,0,0:0:0:0:
329,192,116033,1,0,0:0:0:0:
402,192,116033,1,0,0:0:0:0:
475,192,116033,1,0,0:0:0:0:
36,192,116107,1,0,0:0:0:0:
109,192,116107,1,0,0:0:0:0:
256,192,116182,1,0,0:0:0:0:
329,192,116182,1,0,0:0:0:0:
402,192,116182,1,0,0:0:0:0:
109,192,116256,1,0,0:0:0:0:
36,192,116256,1,0,0:0:0:0:
182,192,116330,1,0,0:0:0:0:
256,192,116330,1,0,0:0:0:0:
475,192,116330,1,0,0:0:0:0:
109,192,116404,1,0,0:0:0:0:
36,192,116404,1,0,0:0:0:0:
329,192,116404,1,0,0:0:0:0:
182,192,116479,1,0,0:0:0:0:
256,192,116479,1,0,0:0:0:0:
475,192,116479,1,0,0:0:0:0:
329,192,116553,1,0,0:0:0:0:
109,192,116553,1,0,0:0:0:0:
36,192,116553,1,0,0:0:0:0:
182,192,116627,1,0,0:0:0:0:
256,192,116627,1,0,0:0:0:0:
402,192,116627,1,0,0:0:0:0:
475,192,116627,1,0,0:0:0:0:
109,192,116701,1,0,0:0:0:0:
329,192,116701,1,0,0:0:0:0:
256,192,116776,1,0,0:0:0:0:
36,192,116776,1,0,0:0:0:0:
402,192,116776,1,0,0:0:0:0:
182,192,116850,1,0,0:0:0:0:
475,192,116850,1,0,0:0:0:0:
329,192,116924,1,0,0:0:0:0:
109,192,116924,1,0,0:0:0:0:
36,192,116924,1,0,0:0:0:0:
402,192,116924,1,0,0:0:0:0:
256,192,116998,1,0,0:0:0:0:
182,192,116998,1,0,0:0:0:0:
402,192,117073,1,0,0:0:0:0:
475,192,117073,1,0,0:0:0:0:
36,192,117073,1,0,0:0:0:0:
329,192,117147,1,0,0:0:0:0:
256,192,117147,1,0,0:0:0:0:
182,192,117221,1,0,0:0:0:0:
109,192,117221,1,0,0:0:0:0:
36,192,117221,1,0,0:0:0:0:
402,192,117221,1,0,0:0:0:0:
256,192,117295,1,0,0:0:0:0:
475,192,117295,1,0,0:0:0:0:
329,192,117370,1,0,0:0:0:0:
109,192,117370,1,0,0:0:0:0:
182,192,117370,1,0,0:0:0:0:
256,192,117444,1,0,0:0:0:0:
402,192,117444,1,0,0:0:0:0:
329,192,117518,1,0,0:0:0:0:
475,192,117518,1,0,0:0:0:0:
36,192,117518,1,0,0:0:0:0:
109,192,117518,1,0,0:0:0:0:
182,192,117593,1,0,0:0:0:0:
402,192,117593,1,0,0:0:0:0:
109,192,117667,1,0,0:0:0:0:
329,192,117667,1,0,0:0:0:0:
475,192,117667,1,0,0:0:0:0:
36,192,117741,1,0,0:0:0:0:
256,192,117741,1,0,0:0:0:0:
182,192,117815,1,0,0:0:0:0:
402,192,117815,1,0,0:0:0:0:
475,192,117815,1,0,0:0:0:0:
109,192,117815,1,0,0:0:0:0:
329,192,117852,1,0,0:0:0:0:
256,192,117890,1,0,0:0:0:0:
182,192,117927,1,0,0:0:0:0:
109,192,117964,1,0,0:0:0:0:
36,192,118001,1,0,0:0:0:0:
329,192,118038,1,0,0:0:0:0:
402,192,118075,1,0,0:0:0:0:
475,192,118112,1,0,0:0:0:0:
109,192,118149,1,0,0:0:0:0:
182,192,118187,1,0,0:0:0:0:
256,192,118224,1,0,0:0:0:0:
329,192,118261,1,0,0:0:0:0:
402,192,118298,1,0,0:0:0:0:
475,192,118335,1,0,0:0:0:0:
182,192,118372,1,0,0:0:0:0:
109,192,118409,1,0,0:0:0:0:
36,192,118446,1,0,0:0:0:0:
402,192,118484,1,0,0:0:0:0:
329,192,118521,1,0,0:0:0:0:
256,192,118558,1,0,0:0:0:0:
182,192,118595,1,0,0:0:0:0:
109,192,118632,1,0,0:0:0:0:
36,192,118669,1,0,0:0:0:0:
329,192,118706,1,0,0:0:0:0:
402,192,118744,1,0,0:0:0:0:
475,192,118781,1,0,0:0:0:0:
109,192,118818,1,0,0:0:0:0:
182,192,118855,1,0,0:0:0:0:
256,192,118892,1,0,0:0:0:0:
329,192,118929,1,0,0:0:0:0:
402,192,118966,1,0,0:0:0:0:
475,192,119003,1,0,0:0:0:0:
182,192,119003,1,0,0:0:0:0:
109,192,119003,1,0,0:0:0:0:
36,192,119003,1,0,0:0:0:0:
256,192,119078,1,0,0:0:0:0:
329,192,119152,1,0,0:0:0:0:
402,192,119152,1,0,0:0:0:0:
109,192,119152,1,0,0:0:0:0:
182,192,119226,1,0,0:0:0:0:
256,192,119300,1,0,0:0:0:0:
402,192,119300,1,0,0:0:0:0:
475,192,119300,1,0,0:0:0:0:
36,192,119300,1,0,0:0:0:0:
182,192,119375,1,0,0:0:0:0:
109,192,119449,1,0,0:0:0:0:
329,192,119449,1,0,0:0:0:0:
402,192,119449,1,0,0:0:0:0:
256,192,119523,1,0,0:0:0:0:
182,192,119597,1,0,0:0:0:0:
36,192,119597,1,0,0:0:0:0:
475,192,119597,1,0,0:0:0:0:
329,192,119597,1,0,0:0:0:0:
256,192,119672,1,0,0:0:0:0:
109,192,119746,1,0,0:0:0:0:
36,192,119746,1,0,0:0:0:0:
402,192,119746,1,0,0:0:0:0:
329,192,119820,1,0,0:0:0:0:
182,192,119894,1,0,0:0:0:0:
256,192,119894,1,0,0:0:0:0:
475,192,119894,1,0,0:0:0:0:
109,192,119894,1,0,0:0:0:0:
402,192,119944,1,0,0:0:0:0:
329,192,119994,1,0,0:0:0:0:
36,192,120043,1,0,0:0:0:0:
109,192,120093,1,0,0:0:0:0:
182,192,120142,1,0,0:0:0:0:
256,192,120192,1,0,0:0:0:0:
329,192,120192,1,0,0:0:0:0:
402,192,120192,1,0,0:0:0:0:
475,192,120192,1,0,0:0:0:0:
36,192,120266,1,0,0:0:0:0:
109,192,120340,1,0,0:0:0:0:
182,192,120340,1,0,0:0:0:0:
402,192,120340,1,0,0:0:0:0:
329,192,120414,1,0,0:0:0:0:
256,192,120489,1,0,0:0:0:0:
109,192,120489,1,0,0:0:0:0:
36,192,120489,1,0,0:0:0:0:
475,192,120489,1,0,0:0:0:0:
329,192,120563,1,0,0:0:0:0:
402,192,120637,1,0,0:0:0:0:
475,192,120637,1,0,0:0:0:0:
182,192,120637,1,0,0:0:0:0:
256,192,120711,1,0,0:0:0:0:
329,192,120786,1,0,0:0:0:0:
109,192,120786,1,0,0:0:0:0:
36,192,120786,1,0,0:0:0:0:
402,192,120786,1,0,0:0:0:0:
256,192,120860,1,0,0:0:0:0:
182,192,120934,1,0,0:0:0:0:
109,192,120934,1,0,0:0:0:0:
475,192,120934,1,0,0:0:0:0:
329,192,121008,1,0,0:0:0:0:
256,192,121083,1,0,0:0:0:0:
402,192,121083,1,0,0:0:0:0:
36,192,121083,1,0,0:0:0:0:
182,192,121083,1,0,0:0:0:0:
329,192,121157,1,0,0:0:0:0:
36,192,121231,1,0,0:0:0:0:
109,192,121231,1,0,0:0:0:0:
475,192,121231,128,0,121380:0:0:0:0:
402,192,121231,128,0,121380:0:0:0:0:
182,192,121305,1,0,0:0:0:0:
109,192,121380,1,0,0:0:0:0:
36,192,121380,1,0,0:0:0:0:
256,192,121380,1,0,0:0:0:0:
329,192,121380,128,0,121677:0:0:0:0:
402,192,121454,1,0,0:0:0:0:
475,192,121528,1,0,0:0:0:0:
182,192,121528,1,0,0:0:0:0:
256,192,121528,1,0,0:0:0:0:
109,192,121602,1,0,0:0:0:0:
36,192,121677,1,0,0:0:0:0:
182,192,121677,1,0,0:0:0:0:
402,192,121677,1,0,0:0:0:0:
475,192,121677,1,0,0:0:0:0:
329,192,121751,1,0,0:0:0:0:
256,192,121825,1,0,0:0:0:0:
109,192,121825,1,0,0:0:0:0:
475,192,121825,1,0,0:0:0:0:
329,192,121899,1,0,0:0:0:0:
402,192,121974,1,0,0:0:0:0:
182,192,121974,1,0,0:0:0:0:
36,192,121974,1,0,0:0:0:0:
109,192,121974,1,0,0:0:0:0:
256,192,122048,1,0,0:0:0:0:
182,192,122122,1,0,0:0:0:0:
329,192,122122,1,0,0:0:0:0:
475,192,122122,1,0,0:0:0:0:
109,192,122196,1,0,0:0:0:0:
329,192,122271,1,0,0:0:0:0:
402,192,122271,1,0,0:0:0:0:
475,192,122271,1,0,0:0:0:0:
36,192,122271,1,0,0:0:0:0:
182,192,122345,1,0,0:0:0:0:
475,192,122419,1,0,0:0:0:0:
402,192,122419,1,0,0:0:0:0:
109,192,122419,128,0,122568:0:0:0:0:
36,192,122419,128,0,122568:0:0:0:0:
329,192,122494,1,0,0:0:0:0:
402,192,122568,1,0,0:0:0:0:
475,192,122568,1,0,0:0:0:0:
256,192,122568,1,0,0:0:0:0:
182,192,122568,128,0,122865:0:0:0:0:
109,192,122642,1,0,0:0:0:0:
36,192,122716,1,0,0:0:0:0:
329,192,122716,1,0,0:0:0:0:
402,192,122716,1,0,0:0:0:0:
256,192,122791,1,0,0:0:0:0:
109,192,122865,1,0,0:0:0:0:
402,192,122865,1,0,0:0:0:0:
475,192,122865,1,0,0:0:0:0:
36,192,122865,1,0,0:0:0:0:
329,192,122939,1,0,0:0:0:0:
182,192,123013,1,0,0:0:0:0:
109,192,123013,1,0,0:0:0:0:
256,192,123013,1,0,0:0:0:0:
329,192,123088,1,0,0:0:0:0:
402,192,123162,1,0,0:0:0:0:
475,192,123162,1,0,0:0:0:0:
36,192,123162,1,0,0:0:0:0:
109,192,123162,1,0,0:0:0:0:
182,192,123162,1,0,0:0:0:0:
256,192,123236,1,0,0:0:0:0:
475,192,123310,1,0,0:0:0:0:
36,192,123310,1,0,0:0:0:0:
329,192,123310,1,0,0:0:0:0:
109,192,123385,1,0,0:0:0:0:
182,192,123459,1,0,0:0:0:0:
329,192,123459,1,0,0:0:0:0:
402,192,123459,1,0,0:0:0:0:
475,192,123459,1,0,0:0:0:0:
109,192,123533,1,0,0:0:0:0:
36,192,123607,1,0,0:0:0:0:
256,192,123607,1,0,0:0:0:0:
402,192,123607,1,0,0:0:0:0:
182,192,123657,1,0,0:0:0:0:
109,192,123706,1,0,0:0:0:0:
36,192,123756,1,0,0:0:0:0:
329,192,123756,1,0,0:0:0:0:
475,192,123756,1,0,0:0:0:0:
256,192,123756,1,0,0:0:0:0:
182,192,123830,1,0,0:0:0:0:
402,192,123904,1,0,0:0:0:0:
329,192,123904,1,0,0:0:0:0:
182,192,123979,1,0,0:0:0:0:
36,192,124053,1,0,0:0:0:0:
109,192,124053,1,0,0:0:0:0:
256,192,124053,1,0,0:0:0:0:
475,192,124053,1,0,0:0:0:0:
182,192,124127,1,0,0:0:0:0:
402,192,124127,1,0,0:0:0:0:
109,192,124201,1,0,0:0:0:0:
329,192,124201,1,0,0:0:0:0:
182,192,124276,1,0,0:0:0:0:
402,192,124276,1,0,0:0:0:0:
256,192,124350,1,0,0:0:0:0:
475,192,124350,1,0,0:0:0:0:
36,192,124350,1,0,0:0:0:0:
329,192,124350,1,0,0:0:0:0:
182,192,124424,1,0,0:0:0:0:
402,192,124424,1,0,0:0:0:0:
329,192,124498,1,0,0:0:0:0:
109,192,124498,1,0,0:0:0:0:
36,192,124573,1,0,0:0:0:0:
256,192,124573,1,0,0:0:0:0:
182,192,124647,1,0,0:0:0:0:
402,192,124647,1,0,0:0:0:0:
475,192,124647,1,0,0:0:0:0:
109,192,124647,1,0,0:0:0:0:
36,192,124721,1,0,0:0:0:0:
256,192,124721,1,0,0:0:0:0:
109,192,124795,1,0,0:0:0:0:
329,192,124795,1,0,0:0:0:0:
182,192,124870,1,0,0:0:0:0:
402,192,124870,1,0,0:0:0:0:
256,192,124944,1,0,0:0:0:0:
329,192,124944,1,0,0:0:0:0:
475,192,124944,1,0,0:0:0:0:
36,192,124944,1,0,0:0:0:0:
182,192,125018,1,0,0:0:0:0:
402,192,125018,1,0,0:0:0:0:
329,192,125093,1,0,0:0:0:0:
109,192,125093,1,0,0:0:0:0:
36,192,125167,1,0,0:0:0:0:
256,192,125167,1,0,0:0:0:0:
182,192,125241,1,0,0:0:0:0:
329,192,125241,1,0,0:0:0:0:
475,192,125241,1,0,0:0:0:0:
109,192,125241,1,0,0:0:0:0:
256,192,125315,1,0,0:0:0:0:
402,192,125315,1,0,0:0:0:0:
182,192,125390,1,0,0:0:0:0:
329,192,125390,1,0,0:0:0:0:
109,192,125464,1,0,0:0:0:0:
402,192,125464,1,0,0:0:0:0:
36,192,125538,1,0,0:0:0:0:
182,192,125538,1,0,0:0:0:0:
256,192,125538,1,0,0:0:0:0:
475,192,125538,1,0,0:0:0:0:
109,192,125612,1,0,0:0:0:0:
329,192,125612,1,0,0:0:0:0:
182,192,125687,1,0,0:0:0:0:
402,192,125687,1,0,0:0:0:0:
256,192,125761,1,0,0:0:0:0:
475,192,125761,1,0,0:0:0:0:
329,192,125835,1,0,0:0:0:0:
402,192,125835,1,0,0:0:0:0:
109,192,125835,1,0,0:0:0:0:
36,192,125835,1,0,0:0:0:0:
182,192,125909,1,0,0:0:0:0:
256,192,125909,1,0,0:0:0:0:
402,192,125984,1,0,0:0:0:0:
475,192,125984,1,0,0:0:0:0:
109,192,125984,1,0,0:0:0:0:
329,192,126058,1,0,0:0:0:0:
256,192,126058,1,0,0:0:0:0:
36,192,126132,1,0,0:0:0:0:
182,192,126132,1,0,0:0:0:0:
402,192,126132,1,0,0:0:0:0:
475,192,126132,1,0,0:0:0:0:
256,192,126206,1,0,0:0:0:0:
329,192,126281,1,0,0:0:0:0:
109,192,126281,1,0,0:0:0:0:
256,192,126355,1,0,0:0:0:0:
182,192,126429,1,0,0:0:0:0:
36,192,126429,1,0,0:0:0:0:
402,192,126429,1,0,0:0:0:0:
329,192,126429,1,0,0:0:0:0:
109,192,126503,1,0,0:0:0:0:
256,192,126578,1,0,0:0:0:0:
475,192,126578,1,0,0:0:0:0:
329,192,126652,1,0,0:0:0:0:
36,192,126726,1,0,0:0:0:0:
402,192,126726,1,0,0:0:0:0:
109,192,126800,1,0,0:0:0:0:
329,192,126800,1,0,0:0:0:0:
182,192,126875,1,0,0:0:0:0:
256,192,126875,1,0,0:0:0:0:
475,192,126875,1,0,0:0:0:0:
109,192,126949,1,0,0:0:0:0:
402,192,126949,1,0,0:0:0:0:
329,192,127023,1,0,0:0:0:0:
256,192,127023,1,0,0:0:0:0:
36,192,127023,1,0,0:0:0:0:
475,192,127023,1,0,0:0:0:0:
182,192,127097,1,0,0:0:0:0:
402,192,127097,1,0,0:0:0:0:
329,192,127172,1,0,0:0:0:0:
109,192,127172,1,0,0:0:0:0:
36,192,127172,1,0,0:0:0:0:
182,192,127246,1,0,0:0:0:0:
402,192,127246,1,0,0:0:0:0:
256,192,127320,1,0,0:0:0:0:
329,192,127320,1,0,0:0:0:0:
475,192,127320,1,0,0:0:0:0:
109,192,127320,1,0,0:0:0:0:
36,192,127394,1,0,0:0:0:0:
182,192,127469,1,0,0:0:0:0:
402,192,127469,1,0,0:0:0:0:
329,192,127543,1,0,0:0:0:0:
256,192,127617,1,0,0:0:0:0:
109,192,127617,1,0,0:0:0:0:
36,192,127617,1,0,0:0:0:0:
475,192,127617,1,0,0:0:0:0:
329,192,127692,1,0,0:0:0:0:
402,192,127766,1,0,0:0:0:0:
182,192,127766,1,0,0:0:0:0:
475,192,127766,1,0,0:0:0:0:
256,192,127840,1,0,0:0:0:0:
329,192,127914,1,0,0:0:0:0:
109,192,127914,1,0,0:0:0:0:
182,192,127989,1,0,0:0:0:0:
402,192,127989,1,0,0:0:0:0:
329,192,128063,1,0,0:0:0:0:
109,192,128063,1,0,0:0:0:0:
475,192,128063,1,0,0:0:0:0:
36,192,128137,1,0,0:0:0:0:
256,192,128137,1,0,0:0:0:0:
182,192,128211,1,0,0:0:0:0:
402,192,128211,1,0,0:0:0:0:
329,192,128211,1,0,0:0:0:0:
109,192,128211,1,0,0:0:0:0:
256,192,128286,1,0,0:0:0:0:
475,192,128286,1,0,0:0:0:0:
36,192,128360,1,0,0:0:0:0:
182,192,128360,1,0,0:0:0:0:
402,192,128360,1,0,0:0:0:0:
329,192,128434,1,0,0:0:0:0:
109,192,128434,1,0,0:0:0:0:
36,192,128508,1,0,0:0:0:0:
256,192,128508,1,0,0:0:0:0:
402,192,128508,1,0,0:0:0:0:
475,192,128508,1,0,0:0:0:0:
182,192,128583,1,0,0:0:0:0:
109,192,128657,1,0,0:0:0:0:
402,192,128657,1,0,0:0:0:0:
329,192,128657,1,0,0:0:0:0:
256,192,128731,1,0,0:0:0:0:
182,192,128805,1,0,0:0:0:0:
36,192,128805,1,0,0:0:0:0:
475,192,128805,1,0,0:0:0:0:
329,192,128805,1,0,0:0:0:0:
402,192,128880,1,0,0:0:0:0:
109,192,128954,1,0,0:0:0:0:
36,192,128954,1,0,0:0:0:0:
256,192,128954,1,0,0:0:0:0:
329,192,129028,1,0,0:0:0:0:
402,192,129102,1,0,0:0:0:0:
475,192,129102,1,0,0:0:0:0:
109,192,129102,1,0,0:0:0:0:
182,192,129102,1,0,0:0:0:0:
256,192,129152,1,0,0:0:0:0:
329,192,129201,1,0,0:0:0:0:
402,192,129251,1,0,0:0:0:0:
36,192,129251,1,0,0:0:0:0:
475,192,129251,1,0,0:0:0:0:
109,192,129300,1,0,0:0:0:0:
182,192,129350,1,0,0:0:0:0:
256,192,129399,1,0,0:0:0:0:
475,192,129399,1,0,0:0:0:0:
402,192,129399,1,0,0:0:0:0:
329,192,129449,1,0,0:0:0:0:
182,192,129498,1,0,0:0:0:0:
109,192,129548,1,0,0:0:0:0:
36,192,129548,1,0,0:0:0:0:
256,192,129597,1,0,0:0:0:0:
329,192,129647,1,0,0:0:0:0:
475,192,129696,1,0,0:0:0:0:
182,192,129696,1,0,0:0:0:0:
109,192,129696,1,0,0:0:0:0:
402,192,129696,1,0,0:0:0:0:
256,192,129771,1,0,0:0:0:0:
329,192,129845,1,0,0:0:0:0:
109,192,129845,1,0,0:0:0:0:
36,192,129845,1,0,0:0:0:0:
182,192,129919,1,0,0:0:0:0:
256,192,129994,1,0,0:0:0:0:
402,192,129994,1,0,0:0:0:0:
475,192,129994,1,0,0:0:0:0:
36,192,129994,1,0,0:0:0:0:
182,192,130068,1,0,0:0:0:0:
109,192,130142,1,0,0:0:0:0:
402,192,130142,1,0,0:0:0:0:
329,192,130142,1,0,0:0:0:0:
256,192,130216,1,0,0:0:0:0:
182,192,130291,1,0,0:0:0:0:
36,192,130291,1,0,0:0:0:0:
402,192,130291,1,0,0:0:0:0:
475,192,130291,1,0,0:0:0:0:
109,192,130365,1,0,0:0:0:0:
329,192,130365,1,0,0:0:0:0:
182,192,130439,1,0,0:0:0:0:
402,192,130439,1,0,0:0:0:0:
36,192,130439,1,0,0:0:0:0:
475,192,130513,1,0,0:0:0:0:
256,192,130513,1,0,0:0:0:0:
109,192,130588,1,0,0:0:0:0:
36,192,130588,1,0,0:0:0:0:
329,192,130588,1,0,0:0:0:0:
402,192,130588,1,0,0:0:0:0:
182,192,130662,1,0,0:0:0:0:
402,192,130736,1,0,0:0:0:0:
475,192,130736,1,0,0:0:0:0:
36,192,130736,1,0,0:0:0:0:
109,192,130810,1,0,0:0:0:0:
182,192,130810,1,0,0:0:0:0:
329,192,130810,1,0,0:0:0:0:
36,192,130885,1,0,0:0:0:0:
256,192,130885,1,0,0:0:0:0:
402,192,130885,1,0,0:0:0:0:
475,192,130885,1,0,0:0:0:0:
182,192,130959,1,0,0:0:0:0:
109,192,131033,1,0,0:0:0:0:
256,192,131033,1,0,0:0:0:0:
329,192,131033,1,0,0:0:0:0:
402,192,131107,1,0,0:0:0:0:
475,192,131182,1,0,0:0:0:0:
182,192,131182,1,0,0:0:0:0:
329,192,131182,1,0,0:0:0:0:
36,192,131182,1,0,0:0:0:0:
256,192,131256,1,0,0:0:0:0:
109,192,131330,1,0,0:0:0:0:
402,192,131330,1,0,0:0:0:0:
475,192,131330,1,0,0:0:0:0:
182,192,131404,1,0,0:0:0:0:
256,192,131479,1,0,0:0:0:0:
329,192,131479,1,0,0:0:0:0:
36,192,131479,1,0,0:0:0:0:
402,192,131479,1,0,0:0:0:0:
109,192,131553,1,0,0:0:0:0:
182,192,131627,1,0,0:0:0:0:
475,192,131627,1,0,0:0:0:0:
329,192,131627,1,0,0:0:0:0:
256,192,131701,1,0,0:0:0:0:
402,192,131776,1,0,0:0:0:0:
475,192,131776,1,0,0:0:0:0:
109,192,131776,1,0,0:0:0:0:
36,192,131776,1,0,0:0:0:0:
182,192,131850,1,0,0:0:0:0:
256,192,131850,1,0,0:0:0:0:
329,192,131924,1,0,0:0:0:0:
402,192,131924,1,0,0:0:0:0:
182,192,131998,1,0,0:0:0:0:
109,192,132073,1,0,0:0:0:0:
36,192,132073,1,0,0:0:0:0:
256,192,132073,1,0,0:0:0:0:
475,192,132073,1,0,0:0:0:0:
402,192,132147,1,0,0:0:0:0:
329,192,132221,1,0,0:0:0:0:
182,192,132221,1,0,0:0:0:0:
36,192,132221,1,0,0:0:0:0:
402,192,132295,1,0,0:0:0:0:
475,192,132370,1,0,0:0:0:0:
109,192,132370,1,0,0:0:0:0:
256,192,132370,1,0,0:0:0:0:
36,192,132370,1,0,0:0:0:0:
182,192,132444,1,0,0:0:0:0:
256,192,132518,1,0,0:0:0:0:
402,192,132518,1,0,0:0:0:0:
475,192,132518,1,0,0:0:0:0:
182,192,132593,1,0,0:0:0:0:
109,192,132667,1,0,0:0:0:0:
36,192,132667,1,0,0:0:0:0:
329,192,132667,1,0,0:0:0:0:
402,192,132667,1,0,0:0:0:0:
256,192,132741,1,0,0:0:0:0:
182,192,132815,1,0,0:0:0:0:
329,192,132815,1,0,0:0:0:0:
475,192,132815,1,0,0:0:0:0:
109,192,132890,1,0,0:0:0:0:
36,192,132964,1,0,0:0:0:0:
256,192,132964,1,0,0:0:0:0:
402,192,132964,1,0,0:0:0:0:
475,192,132964,1,0,0:0:0:0:
182,192,133038,1,0,0:0:0:0:
329,192,133038,1,0,0:0:0:0:
109,192,133112,1,0,0:0:0:0:
256,192,133112,1,0,0:0:0:0:
402,192,133187,1,0,0:0:0:0:
109,192,133261,1,0,0:0:0:0:
36,192,133261,1,0,0:0:0:0:
329,192,133261,1,0,0:0:0:0:
475,192,133261,1,0,0:0:0:0:
182,192,133335,1,0,0:0:0:0:
256,192,133409,1,0,0:0:0:0:
402,192,133409,1,0,0:0:0:0:
475,192,133409,1,0,0:0:0:0:
36,192,133409,1,0,0:0:0:0:
182,192,133484,1,0,0:0:0:0:
109,192,133558,1,0,0:0:0:0:
36,192,133558,1,0,0:0:0:0:
329,192,133558,1,0,0:0:0:0:
402,192,133558,1,0,0:0:0:0:
256,192,133632,1,0,0:0:0:0:
182,192,133706,1,0,0:0:0:0:
109,192,133706,1,0,0:0:0:0:
402,192,133706,1,0,0:0:0:0:
475,192,133706,1,0,0:0:0:0:
329,192,133781,1,0,0:0:0:0:
256,192,133855,1,0,0:0:0:0:
182,192,133855,1,0,0:0:0:0:
36,192,133855,1,0,0:0:0:0:
475,192,133855,1,0,0:0:0:0:
402,192,133929,1,0,0:0:0:0:
109,192,134003,1,0,0:0:0:0:
36,192,134003,1,0,0:0:0:0:
182,192,134003,1,0,0:0:0:0:
329,192,134003,1,0,0:0:0:0:
402,192,134078,1,0,0:0:0:0:
256,192,134152,1,0,0:0:0:0:
36,192,134152,1,0,0:0:0:0:
475,192,134152,1,0,0:0:0:0:
329,192,134226,1,0,0:0:0:0:
109,192,134226,1,0,0:0:0:0:
402,192,134300,1,0,0:0:0:0:
182,192,134300,1,0,0:0:0:0:
475,192,134300,1,0,0:0:0:0:
256,192,134375,1,0,0:0:0:0:
329,192,134449,1,0,0:0:0:0:
109,192,134449,1,0,0:0:0:0:
36,192,134449,1,0,0:0:0:0:
475,192,134449,1,0,0:0:0:0:
182,192,134523,1,0,0:0:0:0:
256,192,134523,1,0,0:0:0:0:
109,192,134597,1,0,0:0:0:0:
36,192,134597,1,0,0:0:0:0:
402,192,134597,1,0,0:0:0:0:
329,192,134672,1,0,0:0:0:0:
182,192,134672,1,0,0:0:0:0:
256,192,134746,1,0,0:0:0:0:
402,192,134746,1,0,0:0:0:0:
475,192,134746,1,0,0:0:0:0:
36,192,134746,1,0,0:0:0:0:
109,192,134820,1,0,0:0:0:0:
182,192,134820,1,0,0:0:0:0:
329,192,134894,1,0,0:0:0:0:
36,192,134894,1,0,0:0:0:0:
402,192,134894,1,0,0:0:0:0:
256,192,134969,1,0,0:0:0:0:
182,192,134969,1,0,0:0:0:0:
109,192,135043,1,0,0:0:0:0:
36,192,135043,1,0,0:0:0:0:
402,192,135043,1,0,0:0:0:0:
475,192,135043,1,0,0:0:0:0:
329,192,135117,1,0,0:0:0:0:
182,192,135117,1,0,0:0:0:0:
256,192,135192,1,0,0:0:0:0:
475,192,135192,1,0,0:0:0:0:
109,192,135192,1,0,0:0:0:0:
329,192,135266,1,0,0:0:0:0:
402,192,135266,1,0,0:0:0:0:
182,192,135340,1,0,0:0:0:0:
36,192,135340,1,0,0:0:0:0:
256,192,135340,1,0,0:0:0:0:
475,192,135340,1,0,0:0:0:0:
109,192,135414,1,0,0:0:0:0:
329,192,135414,1,0,0:0:0:0:
182,192,135489,1,0,0:0:0:0:
402,192,135489,1,0,0:0:0:0:
475,192,135489,1,0,0:0:0:0:
329,192,135563,1,0,0:0:0:0:
109,192,135563,1,0,0:0:0:0:
36,192,135637,1,0,0:0:0:0:
256,192,135637,1,0,0:0:0:0:
182,192,135637,1,0,0:0:0:0:
475,192,135637,1,0,0:0:0:0:
109,192,135711,1,0,0:0:0:0:
329,192,135711,1,0,0:0:0:0:
182,192,135786,1,0,0:0:0:0:
402,192,135786,1,0,0:0:0:0:
475,192,135786,1,0,0:0:0:0:
329,192,135860,1,0,0:0:0:0:
109,192,135860,1,0,0:0:0:0:
36,192,135934,1,0,0:0:0:0:
182,192,135934,1,0,0:0:0:0:
256,192,135934,1,0,0:0:0:0:
475,192,135934,1,0,0:0:0:0:
109,192,136008,1,0,0:0:0:0:
329,192,136008,1,0,0:0:0:0:
182,192,136083,1,0,0:0:0:0:
402,192,136083,1,0,0:0:0:0:
475,192,136083,1,0,0:0:0:0:
329,192,136157,1,0,0:0:0:0:
109,192,136157,1,0,0:0:0:0:
36,192,136231,1,0,0:0:0:0:
256,192,136231,1,0,0:0:0:0:
182,192,136231,1,0,0:0:0:0:
402,192,136231,1,0,0:0:0:0:
109,192,136305,1,0,0:0:0:0:
329,192,136305,1,0,0:0:0:0:
182,192,136380,1,0,0:0:0:0:
402,192,136380,1,0,0:0:0:0:
256,192,136380,1,0,0:0:0:0:
475,192,136454,1,0,0:0:0:0:
109,192,136454,1,0,0:0:0:0:
36,192,136528,1,0,0:0:0:0:
329,192,136528,1,0,0:0:0:0:
402,192,136528,1,0,0:0:0:0:
256,192,136528,1,0,0:0:0:0:
182,192,136602,1,0,0:0:0:0:
109,192,136602,1,0,0:0:0:0:
402,192,136677,1,0,0:0:0:0:
475,192,136677,1,0,0:0:0:0:
329,192,136677,1,0,0:0:0:0:
256,192,136751,1,0,0:0:0:0:
182,192,136751,1,0,0:0:0:0:
109,192,136825,1,0,0:0:0:0:
36,192,136825,1,0,0:0:0:0:
402,192,136825,1,0,0:0:0:0:
475,192,136825,1,0,0:0:0:0:
329,192,136899,1,0,0:0:0:0:
182,192,136899,1,0,0:0:0:0:
109,192,136974,1,0,0:0:0:0:
36,192,136974,1,0,0:0:0:0:
402,192,136974,1,0,0:0:0:0:
475,192,136974,1,0,0:0:0:0:
182,192,137048,1,0,0:0:0:0:
329,192,137048,1,0,0:0:0:0:
109,192,137122,1,0,0:0:0:0:
36,192,137122,1,0,0:0:0:0:
475,192,137122,1,0,0:0:0:0:
402,192,137122,1,0,0:0:0:0:
329,192,137196,1,0,0:0:0:0:
256,192,137196,1,0,0:0:0:0:
36,192,137271,1,0,0:0:0:0:
109,192,137271,1,0,0:0:0:0:
402,192,137271,1,0,0:0:0:0:
475,192,137271,1,0,0:0:0:0:
182,192,137345,1,0,0:0:0:0:
256,192,137345,1,0,0:0:0:0:
329,192,137419,1,0,0:0:0:0:
402,192,137419,1,0,0:0:0:0:
475,192,137419,1,0,0:0:0:0:
36,192,137469,1,0,0:0:0:0:
109,192,137518,1,0,0:0:0:0:
256,192,137518,1,0,0:0:0:0:
329,192,137568,1,0,0:0:0:0:
402,192,137568,1,0,0:0:0:0:
475,192,137568,1,0,0:0:0:0:
182,192,137617,1,0,0:0:0:0:
109,192,137667,1,0,0:0:0:0:
36,192,137716,1,0,0:0:0:0:
329,192,137716,1,0,0:0:0:0:
402,192,137716,1,0,0:0:0:0:
256,192,137766,1,0,0:0:0:0:
182,192,137815,1,0,0:0:0:0:
475,192,137815,1,0,0:0:0:0:
402,192,137865,1,0,0:0:0:0:
329,192,137914,1,0,0:0:0:0:
182,192,137914,1,0,0:0:0:0:
109,192,137964,1,0,0:0:0:0:
256,192,138013,1,0,0:0:0:0:
402,192,138013,1,0,0:0:0:0:
475,192,138013,1,0,0:0:0:0:
36,192,138013,128,0,140390:0:0:0:0:
256,192,138162,1,0,0:0:0:0:
475,192,138162,1,0,0:0:0:0:
182,192,138310,1,0,0:0:0:0:
402,192,138310,1,0,0:0:0:0:
402,192,138459,1,0,0:0:0:0:
182,192,138459,1,0,0:0:0:0:
329,192,138607,1,0,0:0:0:0:
109,192,138607,1,0,0:0:0:0:
329,192,138756,1,0,0:0:0:0:
109,192,138756,1,0,0:0:0:0:
402,192,138904,1,0,0:0:0:0:
182,192,138904,1,0,0:0:0:0:
182,192,139053,1,0,0:0:0:0:
402,192,139053,1,0,0:0:0:0:
256,192,139201,1,0,0:0:0:0:
475,192,139201,1,0,0:0:0:0:
256,192,139350,1,0,0:0:0:0:
475,192,139350,1,0,0:0:0:0:
402,192,139498,1,0,0:0:0:0:
182,192,139498,1,0,0:0:0:0:
402,192,139647,1,0,0:0:0:0:
182,192,139647,1,0,0:0:0:0:
329,192,139795,1,0,0:0:0:0:
109,192,139795,1,0,0:0:0:0:
109,192,139944,1,0,0:0:0:0:
329,192,139944,1,0,0:0:0:0:
402,192,140093,1,0,0:0:0:0:
475,192,140093,1,0,0:0:0:0:
402,192,140241,1,0,0:0:0:0:
182,192,140241,128,0,140390:0:0:0:0:
475,192,140241,1,0,0:0:0:0:
109,192,140390,128,0,141578:0:0:0:0:
256,192,140390,1,0,0:0:0:0:
329,192,140390,1,0,0:0:0:0:
329,192,140538,1,0,0:0:0:0:
256,192,140538,1,0,0:0:0:0:
402,192,140687,1,0,0:0:0:0:
475,192,140687,1,0,0:0:0:0:
402,192,140835,1,0,0:0:0:0:
475,192,140835,1,0,0:0:0:0:
182,192,140984,1,0,0:0:0:0:
36,192,140984,1,0,0:0:0:0:
36,192,141132,1,0,0:0:0:0:
182,192,141132,1,0,0:0:0:0:
256,192,141281,1,0,0:0:0:0:
329,192,141281,1,0,0:0:0:0:
36,192,141429,128,0,141578:0:0:0:0:
256,192,141429,1,0,0:0:0:0:
329,192,141429,1,0,0:0:0:0:
182,192,141578,128,0,142766:0:0:0:0:
402,192,141578,1,0,0:0:0:0:
475,192,141578,1,0,0:0:0:0:
402,192,141726,1,0,0:0:0:0:
475,192,141726,1,0,0:0:0:0:
329,192,141875,1,0,0:0:0:0:
109,192,141875,1,0,0:0:0:0:
109,192,142023,1,0,0:0:0:0:
329,192,142023,1,0,0:0:0:0:
256,192,142172,1,0,0:0:0:0:
36,192,142172,1,0,0:0:0:0:
256,192,142320,1,0,0:0:0:0:
36,192,142320,1,0,0:0:0:0:
402,192,142469,1,0,0:0:0:0:
475,192,142469,1,0,0:0:0:0:
402,192,142617,1,0,0:0:0:0:
475,192,142617,1,0,0:0:0:0:
329,192,142617,128,0,142766:0:0:0:0:
256,192,142766,128,0,145142:0:0:0:0:
109,192,142766,1,0,0:0:0:0:
36,192,142766,1,0,0:0:0:0:
36,192,142914,1,0,0:0:0:0:
109,192,142914,1,0,0:0:0:0:
182,192,143063,1,0,0:0:0:0:
329,192,143063,1,0,0:0:0:0:
182,192,143211,1,0,0:0:0:0:
329,192,143211,1,0,0:0:0:0:
402,192,143360,1,0,0:0:0:0:
475,192,143360,1,0,0:0:0:0:
402,192,143508,1,0,0:0:0:0:
475,192,143508,1,0,0:0:0:0:
182,192,143657,1,0,0:0:0:0:
329,192,143657,1,0,0:0:0:0:
182,192,143805,1,0,0:0:0:0:
329,192,143805,1,0,0:0:0:0:
109,192,143954,1,0,0:0:0:0:
36,192,143954,1,0,0:0:0:0:
36,192,144102,1,0,0:0:0:0:
109,192,144102,1,0,0:0:0:0:
182,192,144251,1,0,0:0:0:0:
329,192,144251,1,0,0:0:0:0:
182,192,144399,1,0,0:0:0:0:
329,192,144399,1,0,0:0:0:0:
402,192,144548,1,0,0:0:0:0:
475,192,144548,1,0,0:0:0:0:
402,192,144696,1,0,0:0:0:0:
475,192,144696,1,0,0:0:0:0:
329,192,144845,1,0,0:0:0:0:
182,192,144845,1,0,0:0:0:0:
182,192,144994,1,0,0:0:0:0:
329,192,144994,1,0,0:0:0:0:
475,192,144994,128,0,145142:0:0:0:0:
402,192,145142,128,0,146330:0:0:0:0:
109,192,145142,1,0,0:0:0:0:
36,192,145142,1,0,0:0:0:0:
36,192,145291,1,0,0:0:0:0:
109,192,145291,1,0,0:0:0:0:
182,192,145439,1,0,0:0:0:0:
256,192,145439,1,0,0:0:0:0:
256,192,145588,1,0,0:0:0:0:
182,192,145588,1,0,0:0:0:0:
329,192,145736,1,0,0:0:0:0:
475,192,145736,1,0,0:0:0:0:
329,192,145885,1,0,0:0:0:0:
475,192,145885,1,0,0:0:0:0:
109,192,146033,1,0,0:0:0:0:
36,192,146033,1,0,0:0:0:0:
182,192,146182,128,0,146330:0:0:0:0:
36,192,146182,1,0,0:0:0:0:
109,192,146182,1,0,0:0:0:0:
329,192,146330,128,0,147518:0:0:0:0:
256,192,146330,1,0,0:0:0:0:
475,192,146330,1,0,0:0:0:0:
256,192,146479,1,0,0:0:0:0:
475,192,146479,1,0,0:0:0:0:
402,192,146627,1,0,0:0:0:0:
182,192,146627,1,0,0:0:0:0:
402,192,146776,1,0,0:0:0:0:
182,192,146776,1,0,0:0:0:0:
109,192,146924,1,0,0:0:0:0:
36,192,146924,1,0,0:0:0:0:
36,192,147073,1,0,0:0:0:0:
109,192,147073,1,0,0:0:0:0:
182,192,147221,1,0,0:0:0:0:
256,192,147221,1,0,0:0:0:0:
475,192,147370,128,0,147518:0:0:0:0:
182,192,147370,1,0,0:0:0:0:
256,192,147370,1,0,0:0:0:0:
402,192,147518,128,0,149894:0:0:0:0:
109,192,147518,1,0,0:0:0:0:
36,192,147518,1,0,0:0:0:0:
36,192,147667,1,0,0:0:0:0:
109,192,147667,1,0,0:0:0:0:
256,192,147815,1,0,0:0:0:0:
329,192,147815,1,0,0:0:0:0:
329,192,147964,1,0,0:0:0:0:
256,192,147964,1,0,0:0:0:0:
182,192,148112,1,0,0:0:0:0:
475,192,148112,1,0,0:0:0:0:
182,192,148261,1,0,0:0:0:0:
475,192,148261,1,0,0:0:0:0:
109,192,148409,1,0,0:0:0:0:
36,192,148409,1,0,0:0:0:0:
36,192,148558,1,0,0:0:0:0:
109,192,148558,1,0,0:0:0:0:
256,192,148706,1,0,0:0:0:0:
329,192,148706,1,0,0:0:0:0:
256,192,148855,1,0,0:0:0:0:
329,192,148855,1,0,0:0:0:0:
182,192,149003,1,0,0:0:0:0:
475,192,149003,1,0,0:0:0:0:
182,192,149152,1,0,0:0:0:0:
475,192,149152,1,0,0:0:0:0:
109,192,149300,1,0,0:0:0:0:
36,192,149300,1,0,0:0:0:0:
36,192,149449,1,0,0:0:0:0:
109,192,149449,1,0,0:0:0:0:
182,192,149597,1,0,0:0:0:0:
329,192,149597,1,0,0:0:0:0:
475,192,149746,128,0,149894:0:0:0:0:
182,192,149746,1,0,0:0:0:0:
329,192,149746,1,0,0:0:0:0:
256,192,149894,128,0,151083:0:0:0:0:
109,192,149894,1,0,0:0:0:0:
36,192,149894,1,0,0:0:0:0:
36,192,150043,1,0,0:0:0:0:
109,192,150043,1,0,0:0:0:0:
329,192,150192,1,0,0:0:0:0:
475,192,150192,1,0,0:0:0:0:
329,192,150340,1,0,0:0:0:0:
475,192,150340,1,0,0:0:0:0:
109,192,150489,1,0,0:0:0:0:
182,192,150489,1,0,0:0:0:0:
182,192,150637,1,0,0:0:0:0:
109,192,150637,1,0,0:0:0:0:
402,192,150786,1,0,0:0:0:0:
475,192,150786,1,0,0:0:0:0:
329,192,150934,128,0,151083:0:0:0:0:
475,192,150934,1,0,0:0:0:0:
402,192,150934,1,0,0:0:0:0:
109,192,151083,128,0,152271:0:0:0:0:
182,192,151083,1,0,0:0:0:0:
36,192,151083,1,0,0:0:0:0:
36,192,151231,1,0,0:0:0:0:
182,192,151231,1,0,0:0:0:0:
256,192,151380,1,0,0:0:0:0:
402,192,151380,1,0,0:0:0:0:
256,192,151528,1,0,0:0:0:0:
402,192,151528,1,0,0:0:0:0:
329,192,151677,1,0,0:0:0:0:
182,192,151677,1,0,0:0:0:0:
329,192,151825,1,0,0:0:0:0:
182,192,151825,1,0,0:0:0:0:
256,192,151974,1,0,0:0:0:0:
475,192,151974,1,0,0:0:0:0:
36,192,152122,128,0,152271:0:0:0:0:
256,192,152122,1,0,0:0:0:0:
475,192,152122,1,0,0:0:0:0:
402,192,152271,128,0,153459:0:0:0:0:
182,192,152271,1,0,0:0:0:0:
329,192,152271,1,0,0:0:0:0:
182,192,152419,1,0,0:0:0:0:
329,192,152419,1,0,0:0:0:0:
109,192,152568,1,0,0:0:0:0:
36,192,152568,1,0,0:0:0:0:
36,192,152716,1,0,0:0:0:0:
109,192,152716,1,0,0:0:0:0:
182,192,152865,1,0,0:0:0:0:
329,192,152865,1,0,0:0:0:0:
182,192,153013,1,0,0:0:0:0:
329,192,153013,1,0,0:0:0:0:
109,192,153162,1,0,0:0:0:0:
475,192,153162,1,0,0:0:0:0:
329,192,153310,128,0,153459:0:0:0:0:
109,192,153310,1,0,0:0:0:0:
475,192,153310,1,0,0:0:0:0:
256,192,153459,1,0,0:0:0:0:
36,192,153459,1,0,0:0:0:0:
182,192,153459,128,0,154647:0:0:0:0:
36,192,153607,1,0,0:0:0:0:
256,192,153607,1,0,0:0:0:0:
109,192,153756,1,0,0:0:0:0:
329,192,153756,1,0,0:0:0:0:
109,192,153904,1,0,0:0:0:0:
329,192,153904,1,0,0:0:0:0:
402,192,154053,1,0,0:0:0:0:
475,192,154053,1,0,0:0:0:0:
402,192,154201,1,0,0:0:0:0:
475,192,154201,1,0,0:0:0:0:
256,192,154350,1,0,0:0:0:0:
36,192,154350,1,0,0:0:0:0:
109,192,154498,128,0,154647:0:0:0:0:
256,192,154498,1,0,0:0:0:0:
36,192,154498,1,0,0:0:0:0:
402,192,154647,1,0,0:0:0:0:
475,192,154647,1,0,0:0:0:0:
329,192,154647,128,0,157023:0:0:0:0:
402,192,154795,1,0,0:0:0:0:
475,192,154795,1,0,0:0:0:0:
256,192,154944,1,0,0:0:0:0:
182,192,154944,1,0,0:0:0:0:
182,192,155093,1,0,0:0:0:0:
256,192,155093,1,0,0:0:0:0:
109,192,155241,1,0,0:0:0:0:
36,192,155241,1,0,0:0:0:0:
36,192,155390,1,0,0:0:0:0:
109,192,155390,1,0,0:0:0:0:
402,192,155538,1,0,0:0:0:0:
256,192,155538,1,0,0:0:0:0:
402,192,155687,1,0,0:0:0:0:
256,192,155687,1,0,0:0:0:0:
475,192,155835,128,0,157023:0:0:0:0:
182,192,155835,1,0,0:0:0:0:
36,192,155835,1,0,0:0:0:0:
182,192,155984,1,0,0:0:0:0:
36,192,155984,1,0,0:0:0:0:
109,192,156132,1,0,0:0:0:0:
256,192,156132,1,0,0:0:0:0:
109,192,156281,1,0,0:0:0:0:
256,192,156281,1,0,0:0:0:0:
182,192,156429,1,0,0:0:0:0:
402,192,156429,1,0,0:0:0:0:
182,192,156578,1,0,0:0:0:0:
402,192,156578,1,0,0:0:0:0:
256,192,156726,1,0,0:0:0:0:
402,192,156726,1,0,0:0:0:0:
256,192,156875,1,0,0:0:0:0:
402,192,156875,1,0,0:0:0:0:
182,192,157023,5,0,0:0:0:0:
36,192,157023,1,0,0:0:0:0:
109,192,157023,1,0,0:0:0:0:
402,192,157122,1,0,0:0:0:0:
475,192,157122,1,0,0:0:0:0:
402,192,157221,1,0,0:0:0:0:
475,192,157221,1,0,0:0:0:0:
