osu file format v14

[General]
AudioFilename: audio.mp3
AudioLeadIn: 0
PreviewTime: 25822
Countdown: 0
SampleSet: Soft
StackLeniency: 0.3
Mode: 0
LetterboxInBreaks: 0
WidescreenStoryboard: 1

[Editor]
Bookmarks: 2645,25817,66641,99994,138013,159399
DistanceSpacing: 1
BeatDivisor: 4
GridSize: 8
TimelineZoom: 2.100001

[Metadata]
Title:Juvenile
TitleUnicode:Juvenile
Artist:technoplanet
ArtistUnicode:technoplanet
Creator:Astronic
Version:Insane
Source:Lanota
Tags:owc 2020 qualifier nm2 streams electronic piano artcore instrumental badgraph badgraph_
BeatmapID:2659371
BeatmapSetID:1280204

[Difficulty]
HPDrainRate:4.5
CircleSize:3.6
OverallDifficulty:8.2
ApproachRate:9
SliderMultiplier:1.45
SliderTickRate:1

[Events]
//Background and Video events
0,0,"bg.jpg",0,0
//Break Periods
//Storyboard Layer 0 (Background)
//Storyboard Layer 1 (Fail)
//Storyboard Layer 2 (Pass)
//Storyboard Layer 3 (Foreground)
//Storyboard Layer 4 (Overlay)
//Storyboard Sound Samples

[TimingPoints]
2645,645.161290322581,4,2,33,50,1,0
2645,-333.333333333333,4,2,33,50,0,0
23290,-133.333333333333,4,2,33,50,0,0
25199,309.278350515464,4,2,1,65,1,0
25250,-100,4,2,2,65,0,0
25302,-100,4,2,3,65,0,0
25353,-100,4,2,4,65,0,0
25405,-100,4,2,5,65,0,0
25456,-100,4,2,6,65,0,0
25508,-100,4,2,7,65,0,0
25559,-100,4,2,8,65,0,0
25611,-100,4,2,9,65,0,0
25662,-100,4,2,10,65,0,0
25817,309.278350515464,4,2,13,85,1,1
26744,-90.9090909090909,4,2,13,85,0,1
28136,-90.9090909090909,4,2,10,85,0,1
28291,-90.9090909090909,4,2,6,85,0,1
28600,-90.9090909090909,4,2,3,85,0,1
29528,-90.9090909090909,4,2,6,85,0,1
29837,-90.9090909090909,4,2,1,85,0,1
30610,-90.9090909090909,4,2,5,85,0,1
30765,-90.9090909090909,4,2,3,85,0,1
33085,-90.9090909090909,4,2,10,85,0,1
33239,-90.9090909090909,4,2,6,85,0,1
33548,-90.9090909090909,4,2,1,85,0,1
34322,-90.9090909090909,4,2,11,85,0,1
34476,-90.9090909090909,4,2,6,85,0,1
34786,-90.9090909090909,4,2,13,85,0,1
35713,-90.9090909090909,4,2,10,85,0,1
38033,-90.9090909090909,4,2,14,85,0,1
38188,-90.9090909090909,4,2,10,85,0,1
39270,-90.9090909090909,4,2,15,85,0,1
39425,-90.9090909090909,4,2,13,85,0,1
40507,-90.9090909090909,4,2,16,85,0,1
40662,-90.9090909090909,4,2,13,85,0,1
41899,-90.9090909090909,4,2,17,85,0,1
41976,-90.9090909090909,4,2,18,85,0,1
42054,-90.9090909090909,4,2,19,85,0,1
42131,-90.9090909090909,4,2,3,85,0,1
42208,-90.9090909090909,4,2,19,85,0,1
42285,-90.9090909090909,4,2,3,85,0,1
42362,-90.9090909090909,4,2,5,85,0,1
42439,-90.9090909090909,4,2,6,85,0,1
42518,-90.9090909090909,4,2,5,85,0,1
42595,-90.9090909090909,4,2,6,85,0,1
42672,-90.9090909090909,4,2,7,85,0,1
42749,-90.9090909090909,4,2,10,85,0,1
42827,-90.9090909090909,4,2,7,85,0,1
42904,-90.9090909090909,4,2,10,85,0,1
42981,-90.9090909090909,4,2,12,85,0,1
43058,-90.9090909090909,4,2,13,85,0,1
43136,-90.9090909090909,4,2,14,85,0,1
43445,-90.9090909090909,4,2,15,85,0,1
43523,-90.9090909090909,4,2,14,85,0,1
43600,-90.9090909090909,4,2,13,85,0,1
43677,-90.9090909090909,4,2,10,85,0,1
43755,-90.9090909090909,4,2,8,85,0,1
43832,-90.9090909090909,4,2,7,85,0,1
43909,-90.9090909090909,4,2,6,85,0,1
43986,-90.9090909090909,4,2,3,85,0,1
44064,-90.9090909090909,4,2,1,85,0,1
44141,-90.9090909090909,4,2,19,85,0,1
44218,-90.9090909090909,4,2,18,85,0,1
44295,-90.9090909090909,4,2,20,85,0,1
44373,-90.9090909090909,4,2,21,85,0,1
44528,-90.9090909090909,4,2,17,85,0,1
44682,-90.9090909090909,4,2,20,85,0,1
44837,-90.9090909090909,4,2,19,85,0,1
45069,-90.9090909090909,4,2,3,85,0,1
45146,-90.9090909090909,4,2,1,85,0,1
45301,-90.9090909090909,4,2,6,85,0,1
45378,-90.9090909090909,4,2,7,85,0,1
45456,-90.9090909090909,4,2,8,85,0,1
45533,-90.9090909090909,4,2,10,85,0,1
45610,-90.9090909090909,4,2,13,85,0,1
46538,-90.9090909090909,4,2,5,85,0,1
46615,-90.9090909090909,4,2,6,85,0,1
46693,-90.9090909090909,4,2,8,85,0,1
46770,-90.9090909090909,4,2,15,85,0,1
46847,-90.9090909090909,4,2,16,85,0,1
47930,-90.9090909090909,4,2,10,85,0,1
48085,-90.9090909090909,4,2,12,85,0,1
48394,-90.9090909090909,4,2,13,85,0,1
49167,-90.9090909090909,4,2,3,85,0,1
49322,-90.9090909090909,4,2,6,85,0,1
49631,-90.9090909090909,4,2,7,85,0,1
50249,-90.9090909090909,4,2,5,85,0,1
50326,-90.9090909090909,4,2,6,85,0,1
50403,-90.9090909090909,4,2,13,85,0,1
50480,-90.9090909090909,4,2,15,85,0,1
50559,-90.9090909090909,4,2,16,85,0,1
50868,-90.9090909090909,4,2,15,85,0,1
50945,-90.9090909090909,4,2,14,85,0,1
51023,-90.9090909090909,4,2,13,85,0,1
51100,-90.9090909090909,4,2,12,85,0,1
51177,-90.9090909090909,4,2,14,85,0,1
51254,-90.9090909090909,4,2,13,85,0,1
51408,-90.9090909090909,4,2,11,85,0,1
51487,-90.9090909090909,4,2,13,85,0,1
51564,-90.9090909090909,4,2,12,85,0,1
51641,-90.9090909090909,4,2,11,85,0,1
51718,-90.9090909090909,4,2,10,85,0,1
51796,-90.9090909090909,4,2,12,85,0,1
51873,-90.9090909090909,4,2,11,85,0,1
51950,-90.9090909090909,4,2,10,85,0,1
52027,-90.9090909090909,4,2,11,85,0,1
52105,-90.9090909090909,4,2,10,85,0,1
52182,-90.9090909090909,4,2,9,85,0,1
52259,-90.9090909090909,4,2,10,85,0,1
52336,-90.9090909090909,4,2,9,85,0,1
52414,-90.9090909090909,4,2,8,85,0,1
52491,-90.9090909090909,4,2,9,85,0,1
52568,-90.9090909090909,4,2,10,85,0,1
52724,-90.9090909090909,4,2,8,85,0,1
52801,-90.9090909090909,4,2,9,85,0,1
52878,-90.9090909090909,4,2,10,85,0,1
53033,-90.9090909090909,4,2,6,85,0,1
53342,-90.9090909090909,4,2,1,85,0,1
54115,-90.9090909090909,4,2,11,85,0,1
54270,-90.9090909090909,4,2,6,85,0,1
54579,-90.9090909090909,4,2,13,85,0,1
55507,-90.9090909090909,4,2,10,85,0,1
56126,-90.9090909090909,4,2,3,85,0,1
56203,-90.9090909090909,4,2,6,85,0,1
56280,-90.9090909090909,4,2,8,85,0,1
56357,-90.9090909090909,4,2,14,85,0,1
56435,-90.9090909090909,4,2,13,85,0,1
56512,-90.9090909090909,4,2,10,85,0,1
56590,-90.9090909090909,4,2,13,85,0,1
56667,-90.9090909090909,4,2,15,85,0,1
56744,-90.9090909090909,4,2,16,85,0,1
57827,-90.9090909090909,4,2,14,85,0,1
57981,-90.9090909090909,4,2,10,85,0,1
59064,-90.9090909090909,4,2,15,85,0,1
59219,-90.9090909090909,4,2,13,85,0,1
59837,-90.9090909090909,4,2,15,85,0,1
60301,-90.9090909090909,4,2,16,85,0,1
60456,-90.9090909090909,4,2,13,85,0,1
60997,-90.9090909090909,4,2,3,85,0,1
61074,-90.9090909090909,4,2,1,85,0,1
61151,-90.9090909090909,4,2,19,85,0,1
61228,-90.9090909090909,4,2,18,85,0,1
61305,-90.9090909090909,4,2,19,85,0,1
61384,-90.9090909090909,4,2,1,85,0,1
61461,-90.9090909090909,4,2,3,85,0,1
61538,-90.9090909090909,4,2,4,85,0,1
61615,-90.9090909090909,4,2,5,85,0,1
61693,-90.9090909090909,4,2,6,85,0,1
61770,-90.9090909090909,4,2,3,85,0,1
61847,-90.9090909090909,4,2,6,85,0,1
61924,-90.9090909090909,4,2,7,85,0,1
62002,-90.9090909090909,4,2,8,85,0,1
62079,-90.9090909090909,4,2,7,85,0,1
62156,-90.9090909090909,4,2,8,85,0,1
62233,-90.9090909090909,4,2,9,85,0,1
62311,-90.9090909090909,4,2,10,85,0,1
62388,-90.9090909090909,4,2,7,85,0,1
62465,-90.9090909090909,4,2,8,85,0,1
62621,-90.9090909090909,4,2,13,85,0,1
62853,-90.9090909090909,4,2,14,85,0,1
62930,-90.9090909090909,4,2,15,85,0,1
63239,-90.9090909090909,4,2,13,85,0,1
63548,-90.9090909090909,4,2,9,85,0,1
64012,-90.9090909090909,4,2,8,85,0,1
64167,-90.9090909090909,4,2,10,85,0,1
64786,-90.9090909090909,4,2,16,85,0,1
65095,-90.9090909090909,4,2,14,85,0,1
65404,-100,4,2,13,85,0,1
65867,-100,4,2,12,85,0,1
66331,-100,4,2,10,85,0,1
66641,-125,4,2,10,60,0,0
67878,-125,4,2,1,60,0,0
68033,-125,4,2,2,60,0,0
68187,-125,4,2,3,60,0,0
68497,-125,4,2,1,60,0,0
68652,-125,4,2,4,60,0,0
68806,-125,4,2,2,60,0,0
68961,-125,4,2,5,60,0,0
69038,-125,4,2,2,60,0,0
69425,-125,4,2,6,60,0,0
69579,-125,4,2,2,60,0,0
69734,-125,4,2,4,60,0,0
69889,-125,4,2,2,60,0,0
70043,-125,4,2,7,60,0,0
70120,-125,4,2,2,60,0,0
70353,-125,4,2,6,60,0,0
70507,-125,4,2,1,60,0,0
70662,-125,4,2,3,60,0,0
70817,-125,4,2,7,60,0,0
71126,-125,4,2,9,60,0,0
71280,-125,4,2,8,60,0,0
71898,-125,4,2,6,60,0,0
72053,-125,4,2,3,60,0,0
72208,-125,4,2,13,60,0,0
72518,-125,4,2,14,60,0,0
72827,-222.222222222222,4,2,8,60,0,0
72981,-222.222222222222,4,2,3,60,0,0
73600,-222.222222222222,4,2,9,60,0,0
73755,-222.222222222222,4,2,5,60,0,0
73909,-222.222222222222,4,2,10,60,0,0
74064,-222.222222222222,4,2,1,60,0,0
74219,-222.222222222222,4,2,2,60,0,0
74682,-222.222222222222,4,2,3,60,0,0
75301,-222.222222222222,4,2,10,60,0,0
75920,-222.222222222222,4,2,2,60,0,0
76538,-222.222222222222,4,2,7,60,0,0
76693,-222.222222222222,4,2,2,60,0,0
77157,-222.222222222222,4,2,11,60,0,0
77775,-222.222222222222,4,2,5,60,0,0
79012,-222.222222222222,4,2,33,60,0,0
87672,-153.846153846154,4,2,2,60,0,0
92621,-133.333333333334,4,2,2,60,0,0
99994,297.029702970297,4,2,23,85,1,1
99994,-90.9090909090909,4,2,23,85,0,1
100068,-90.9090909090909,4,2,24,85,0,1
100142,-90.9090909090909,4,2,9,85,0,1
100216,-90.9090909090909,4,2,25,85,0,1
100291,-90.9090909090909,4,2,3,85,0,1
100365,-90.9090909090909,4,2,24,85,0,1
100439,-90.9090909090909,4,2,9,85,0,1
100513,-90.9090909090909,4,2,25,85,0,1
100588,-90.9090909090909,4,2,2,85,0,1
100662,-90.9090909090909,4,2,24,85,0,1
100736,-90.9090909090909,4,2,9,85,0,1
100810,-90.9090909090909,4,2,25,85,0,1
100885,-90.9090909090909,4,2,3,85,0,1
100959,-90.9090909090909,4,2,24,85,0,1
101033,-90.9090909090909,4,2,10,85,0,1
101107,-90.9090909090909,4,2,25,85,0,1
101182,-90.9090909090909,4,2,23,85,0,1
101256,-90.9090909090909,4,2,26,85,0,1
101330,-90.9090909090909,4,2,27,85,0,1
101404,-90.9090909090909,4,2,14,85,0,1
101479,-90.9090909090909,4,2,25,85,0,1
101553,-90.9090909090909,4,2,10,85,0,1
101627,-90.9090909090909,4,2,9,85,0,1
101701,-90.9090909090909,4,2,24,85,0,1
101776,-90.9090909090909,4,2,7,85,0,1
101849,-90.9090909090909,4,2,10,85,0,1
101924,-90.9090909090909,4,2,9,85,0,1
102073,-90.9090909090909,4,2,25,85,0,1
102146,-90.9090909090909,4,2,10,85,0,1
102221,-90.9090909090909,4,2,27,85,0,1
102370,-90.9090909090909,4,2,16,85,0,1
102444,-90.9090909090909,4,2,28,85,0,1
102518,-90.9090909090909,4,2,27,85,0,1
102593,-90.9090909090909,4,2,28,85,0,1
102667,-90.9090909090909,4,2,25,85,0,1
102741,-90.9090909090909,4,2,10,85,0,1
102815,-90.9090909090909,4,2,24,85,0,1
102889,-90.9090909090909,4,2,9,85,0,1
102964,-90.9090909090909,4,2,24,85,0,1
103063,-90.9090909090909,4,2,16,85,0,1
103162,-90.9090909090909,4,2,28,85,0,1
103261,-90.9090909090909,4,2,27,85,0,1
103360,-90.9090909090909,4,2,25,85,0,1
103459,-90.9090909090909,4,2,29,85,0,1
103558,-90.9090909090909,4,2,10,85,0,1
103657,-90.9090909090909,4,2,29,85,0,1
103756,-90.9090909090909,4,2,25,85,0,1
103855,-90.9090909090909,4,2,27,85,0,1
103954,-90.9090909090909,4,2,14,85,0,1
104053,-90.9090909090909,4,2,28,85,0,1
104152,-90.9090909090909,4,2,16,85,0,1
104449,-90.9090909090909,4,2,30,85,0,1
104746,-90.9090909090909,4,2,31,85,0,1
105043,-90.9090909090909,4,2,23,85,0,1
105192,-90.9090909090909,4,2,25,85,0,1
105340,-90.9090909090909,4,2,10,85,0,1
105488,-90.9090909090909,4,2,9,85,0,1
105637,-90.9090909090909,4,2,24,85,0,1
105934,-90.9090909090909,4,2,25,85,0,1
108013,-90.9090909090909,4,2,13,85,0,1
108310,-90.9090909090909,4,2,12,85,0,1
108607,-90.9090909090909,4,2,11,85,0,1
108756,-90.9090909090909,4,2,2,85,0,1
108904,-90.9090909090909,4,2,9,85,0,1
109052,-90.9090909090909,4,2,2,85,0,1
109498,-90.9090909090909,4,2,24,85,0,1
109944,-90.9090909090909,4,2,23,85,0,1
110464,-90.9090909090909,4,2,24,85,0,1
110538,-90.9090909090909,4,2,10,85,0,1
110612,-90.9090909090909,4,2,25,85,0,1
110687,-90.9090909090909,4,2,9,85,0,1
111132,-90.9090909090909,4,2,24,85,0,1
111652,-90.9090909090909,4,2,10,85,0,1
111726,-90.9090909090909,4,2,25,85,0,1
111800,-90.9090909090909,4,2,27,85,0,1
111875,-90.9090909090909,4,2,25,85,0,1
111948,-90.9090909090909,4,2,10,85,0,1
112023,-90.9090909090909,4,2,25,85,0,1
112097,-90.9090909090909,4,2,27,85,0,1
112172,-90.9090909090909,4,2,25,85,0,1
112320,-90.9090909090909,4,2,27,85,0,1
112766,-90.9090909090909,4,2,28,85,0,1
113063,-90.9090909090909,4,2,16,85,0,1
113137,-90.9090909090909,4,2,30,85,0,1
113211,-90.9090909090909,4,2,16,85,0,1
113286,-90.9090909090909,4,2,28,85,0,1
113360,-90.9090909090909,4,2,16,85,0,1
113434,-90.9090909090909,4,2,28,85,0,1
113508,-90.9090909090909,4,2,27,85,0,1
113582,-90.9090909090909,4,2,12,85,0,1
113657,-90.9090909090909,4,2,27,85,0,1
113731,-90.9090909090909,4,2,12,85,0,1
113805,-90.9090909090909,4,2,25,85,0,1
113880,-90.9090909090909,4,2,29,85,0,1
113954,-90.9090909090909,4,2,10,85,0,1
114028,-90.9090909090909,4,2,29,85,0,1
114102,-90.9090909090909,4,2,10,85,0,1
114176,-90.9090909090909,4,2,9,85,0,1
114251,-90.9090909090909,4,2,24,85,0,1
114696,-90.9090909090909,4,2,25,85,0,1
115142,-90.9090909090909,4,2,27,85,0,1
116033,-90.9090909090909,4,2,28,85,0,1
116627,-90.9090909090909,4,2,16,85,0,1
117221,-90.9090909090909,4,2,27,85,0,1
117815,-90.9090909090909,4,2,28,85,0,1
117889,-90.9090909090909,4,2,16,85,0,1
117963,-90.9090909090909,4,2,28,85,0,1
118037,-90.9090909090909,4,2,16,85,0,1
118112,-90.9090909090909,4,2,28,85,0,1
118186,-90.9090909090909,4,2,27,85,0,1
118260,-90.9090909090909,4,2,28,85,0,1
118334,-90.9090909090909,4,2,27,85,0,1
118409,-90.9090909090909,4,2,29,85,0,1
118483,-90.9090909090909,4,2,27,85,0,1
118557,-90.9090909090909,4,2,28,85,0,1
118631,-90.9090909090909,4,2,25,85,0,1
118706,-90.9090909090909,4,2,14,85,0,1
118781,-90.9090909090909,4,2,25,85,0,1
118855,-90.9090909090909,4,2,10,85,0,1
118929,-90.9090909090909,4,2,25,85,0,1
119003,-90.9090909090909,4,2,24,85,0,1
119969,-90.9090909090909,4,2,9,85,0,1
120043,-90.9090909090909,4,2,25,85,0,1
120117,-90.9090909090909,4,2,27,85,0,1
120192,-90.9090909090909,4,2,31,85,0,1
121231,-90.9090909090909,4,2,25,85,0,1
121380,-90.9090909090909,4,2,24,85,0,1
121974,-90.9090909090909,4,2,27,85,0,1
122419,-90.9090909090909,4,2,23,85,0,1
122568,-90.9090909090909,4,2,24,85,0,1
122716,-90.9090909090909,4,2,23,85,0,1
122865,-90.9090909090909,4,2,24,85,0,1
123013,-90.9090909090909,4,2,23,85,0,1
123162,-90.9090909090909,4,2,9,85,0,1
123459,-90.9090909090909,4,2,25,85,0,1
123533,-90.9090909090909,4,2,14,85,0,1
123607,-90.9090909090909,4,2,27,85,0,1
123682,-90.9090909090909,4,2,16,85,0,1
123756,-90.9090909090909,4,2,31,85,0,1
124053,-90.9090909090909,4,2,16,85,0,1
124127,-90.9090909090909,4,2,28,85,0,1
124201,-90.9090909090909,4,2,27,85,0,1
124276,-90.9090909090909,4,2,14,85,0,1
124350,-90.9090909090909,4,2,28,85,0,1
124424,-90.9090909090909,4,2,27,85,0,1
124498,-90.9090909090909,4,2,14,85,0,1
124572,-90.9090909090909,4,2,13,85,0,1
124647,-90.9090909090909,4,2,27,85,0,1
124721,-90.9090909090909,4,2,14,85,0,1
124795,-90.9090909090909,4,2,13,85,0,1
124869,-90.9090909090909,4,2,25,85,0,1
124944,-90.9090909090909,4,2,14,85,0,1
125018,-90.9090909090909,4,2,13,85,0,1
125092,-90.9090909090909,4,2,25,85,0,1
125166,-90.9090909090909,4,2,13,85,0,1
125241,-90.9090909090909,4,2,25,85,0,1
125315,-90.9090909090909,4,2,29,85,0,1
125389,-90.9090909090909,4,2,10,85,0,1
125612,-90.9090909090909,4,2,29,85,0,1
125686,-90.9090909090909,4,2,10,85,0,1
125984,-90.9090909090909,4,2,25,85,0,1
126132,-90.9090909090909,4,2,24,85,0,1
126206,-90.9090909090909,4,2,23,85,0,1
126280,-90.9090909090909,4,2,25,85,0,1
126354,-90.9090909090909,4,2,27,85,0,1
126429,-90.9090909090909,4,2,24,85,0,1
126578,-90.9090909090909,4,2,25,85,0,1
126726,-90.9090909090909,4,2,2,85,0,1
126800,-90.9090909090909,4,2,3,85,0,1
126875,-90.9090909090909,4,2,23,85,0,1
127023,-90.9090909090909,4,2,3,85,0,1
127097,-90.9090909090909,4,2,2,85,0,1
127171,-90.9090909090909,4,2,13,85,0,1
127320,-90.9090909090909,4,2,27,85,0,1
127914,-90.9090909090909,4,2,3,85,0,1
127989,-90.9090909090909,4,2,32,85,0,1
128063,-90.9090909090909,4,2,23,85,0,1
128211,-90.9090909090909,4,2,3,85,0,1
128285,-90.9090909090909,4,2,32,85,0,1
128359,-90.9090909090909,4,2,23,85,0,1
128508,-90.9090909090909,4,2,27,85,0,1
128582,-90.9090909090909,4,2,23,85,0,1
128656,-90.9090909090909,4,2,25,85,0,1
128731,-90.9090909090909,4,2,27,85,0,1
128805,-90.9090909090909,4,2,23,85,0,1
128954,-90.9090909090909,4,2,24,85,0,1
129102,-90.9090909090909,4,2,23,85,0,1
129177,-90.9090909090909,4,2,9,85,0,1
129251,-90.9090909090909,4,2,24,85,0,1
129399,-90.9090909090909,4,2,26,85,0,1
129473,-90.9090909090909,4,2,2,85,0,1
129547,-90.9090909090909,4,2,26,85,0,1
129621,-90.9090909090909,4,2,2,85,0,1
129696,-90.9090909090909,4,2,26,85,0,1
129770,-90.9090909090909,4,2,2,85,0,1
129845,-90.9090909090909,4,2,26,85,0,1
129919,-90.9090909090909,4,2,2,85,0,1
129993,-90.9090909090909,4,2,26,85,0,1
130291,-90.9090909090909,4,2,3,85,0,1
130365,-90.9090909090909,4,2,32,85,0,1
130439,-90.9090909090909,4,2,23,85,0,1
130588,-90.9090909090909,4,2,3,85,0,1
130662,-90.9090909090909,4,2,32,85,0,1
130736,-90.9090909090909,4,2,23,85,0,1
130885,-90.9090909090909,4,2,25,85,0,1
130958,-90.9090909090909,4,2,27,85,0,1
131033,-90.9090909090909,4,2,28,85,0,1
131182,-90.9090909090909,4,2,25,85,0,1
131330,-90.9090909090909,4,2,28,85,0,1
131479,-90.9090909090909,4,2,16,85,0,1
131776,-90.9090909090909,4,2,14,85,0,1
131924,-90.9090909090909,4,2,31,85,0,1
132073,-90.9090909090909,4,2,27,85,0,1
132370,-90.9090909090909,4,2,10,85,0,1
132518,-90.9090909090909,4,2,24,85,0,1
132667,-90.9090909090909,4,2,3,85,0,1
132741,-90.9090909090909,4,2,2,85,0,1
132815,-90.9090909090909,4,2,26,85,0,1
132964,-90.9090909090909,4,2,3,85,0,1
133038,-90.9090909090909,4,2,32,85,0,1
133112,-90.9090909090909,4,2,23,85,0,1
133187,-90.9090909090909,4,2,7,85,0,1
133261,-90.9090909090909,4,2,24,85,0,1
133335,-90.9090909090909,4,2,23,85,0,1
133409,-90.9090909090909,4,2,24,85,0,1
133483,-90.9090909090909,4,2,9,85,0,1
133558,-90.9090909090909,4,2,10,85,0,1
133855,-90.9090909090909,4,2,25,85,0,1
133929,-90.9090909090909,4,2,23,85,0,1
134003,-90.9090909090909,4,2,10,85,0,1
134078,-90.9090909090909,4,2,25,85,0,1
134152,-90.9090909090909,4,2,27,85,0,1
134226,-90.9090909090909,4,2,25,85,0,1
134300,-90.9090909090909,4,2,27,85,0,1
134374,-90.9090909090909,4,2,28,85,0,1
134449,-90.9090909090909,4,2,16,85,0,1
134597,-90.9090909090909,4,2,27,85,0,1
134746,-90.9090909090909,4,2,31,85,0,1
134894,-90.9090909090909,4,2,28,85,0,1
135043,-90.9090909090909,4,2,30,85,0,1
135192,-90.9090909090909,4,2,27,85,0,1
135340,-90.9090909090909,4,2,30,85,0,1
135489,-90.9090909090909,4,2,27,85,0,1
135637,-90.9090909090909,4,2,28,85,0,1
135785,-90.9090909090909,4,2,9,85,0,1
135859,-90.9090909090909,4,2,29,85,0,1
135934,-90.9090909090909,4,2,25,85,0,1
136082,-90.9090909090909,4,2,9,85,0,1
136156,-90.9090909090909,4,2,16,85,0,1
136231,-90.9090909090909,4,2,31,85,0,1
136305,-90.9090909090909,4,2,24,85,0,1
136380,-90.9090909090909,4,2,9,85,0,1
136454,-90.9090909090909,4,2,10,85,0,1
136528,-90.9090909090909,4,2,29,85,0,1
136602,-90.9090909090909,4,2,25,85,0,1
136677,-90.9090909090909,4,2,13,85,0,1
136751,-90.9090909090909,4,2,14,85,0,1
136825,-90.9090909090909,4,2,27,85,0,1
137122,-90.9090909090909,4,2,25,85,0,1
137419,-90.9090909090909,4,2,2,85,0,1
137494,-90.9090909090909,4,2,3,85,0,1
137567,-90.9090909090909,4,2,32,85,0,1
137716,-90.9090909090909,4,2,25,85,0,1
138013,-500,4,2,27,60,0,0
139052,-500,4,2,25,60,0,0
139201,-500,4,2,24,60,0,0
140240,-500,4,2,23,60,0,0
140390,-500,4,2,24,60,0,0
141429,-500,4,2,7,60,0,0
141578,-500,4,2,24,60,0,0
142617,-500,4,2,7,60,0,0
142766,-500,4,2,24,60,0,0
143805,-500,4,2,25,60,0,0
143953,-500,4,2,24,60,0,0
144993,-500,4,2,13,60,0,0
145142,-500,4,2,24,60,0,0
146181,-500,4,2,27,60,0,0
146330,-500,4,2,25,60,0,0
147369,-500,4,2,27,60,0,0
147518,-500,4,2,25,60,0,0
148557,-500,4,2,28,60,0,0
148706,-500,4,2,25,60,0,0
149745,-500,4,2,16,60,0,0
149894,-500,4,2,27,60,0,0
150933,-500,4,2,31,60,0,0
151083,-500,4,2,27,60,0,0
152122,-500,4,2,31,60,0,0
152271,-500,4,2,27,60,0,0
153310,-500,4,2,31,60,0,0
153459,-500,4,2,27,60,0,0
154498,-500,4,2,31,60,0,0
154647,-500,4,2,27,60,0,0
155687,-500,4,2,31,60,0,0
155835,-500,4,2,27,60,0,0
157023,-125,4,2,33,60,0,0

[Colours]
Combo1 : 65,218,250
Combo2 : 32,155,255

[HitObjects]
48,40,2645,6,0,L|184:56,1,130.5,6|2,2:0|2:0,2:0:0:0:
240,160,5225,2,0,L|376:144,1,130.5,2|2,2:0|2:0,2:0:0:0:
464,272,7806,2,0,P|424:248|336:256,1,130.5,2|2,2:0|2:0,2:0:0:0:
224,328,10386,2,0,P|176:344|104:312,1,130.5,2|2,2:0|2:0,2:0:0:0:
96,192,12967,6,0,L|48:184,3,43.5,6|2|2|2,2:0|2:0|2:0|2:0,2:0:0:0:
104,104,15548,2,0,L|56:96,3,43.5,2|2|2|2,2:0|2:0|2:0|2:0,2:0:0:0:
184,152,18128,2,0,L|232:144,3,43.5,2|2|2|2,2:0|2:0|2:0|2:0,2:0:0:0:
176,64,20709,2,0,L|224:56,3,43.5,2|2|2|2,2:0|2:0|2:0|2:0,2:0:0:0:
192,168,23290,6,0,L|199:199,2,18.125,2|2|2,2:0|2:0|2:0,2:0:0:0:
197,191,25199,6,0,L|192:168,9,24.1666666666667,2|2|2|2|2|2|2|2|2|2,2:0|2:0|2:0|2:0|2:0|2:0|2:0|2:0|2:0|2:0,2:0:0:0:
120,336,25817,6,0,B|232:352|232:352|264:320,1,145,6|8,3:2|2:0,2:0:0:0:
320,248,26280,1,0,2:0:0:0:
320,248,26358,1,0,2:0:0:0:
320,248,26435,1,0,2:0:0:0:
360,336,26590,1,0,3:2:0:0:
424,224,26744,2,0,L|416:144,1,79.75,8|0,2:0|2:0,2:0:0:0:
472,8,27054,6,0,P|408:56|336:24,1,159.5,0|8,3:2|2:0,2:0:0:0:
232,128,27518,1,0,2:0:0:0:
232,128,27595,1,0,2:0:0:0:
232,128,27672,2,0,L|320:136,1,79.75,0|0,2:0|3:2,2:0:0:0:
416,144,27981,1,8,2:0:0:0:
248,32,28136,1,2,2:0:0:0:
216,216,28291,6,0,L|392:232,1,159.5,2|8,3:2|2:0,2:0:0:0:
248,312,28755,1,0,2:0:0:0:
256,319,28832,1,0,2:0:0:0:
256,319,28909,2,0,L|160:308,1,79.75,0|0,2:0|3:2,2:0:0:0:
16,296,29219,1,8,2:0:0:0:
104,232,29373,1,2,2:0:0:0:
8,112,29528,6,0,P|88:136|144:72,1,159.5,2|8,3:2|2:0,2:0:0:0:
192,16,29992,1,0,3:2:0:0:
192,16,30069,1,0,2:0:0:0:
192,16,30146,2,0,L|184:96,1,79.75,0|0,2:0|3:2,2:0:0:0:
280,194,30456,1,8,2:0:0:0:
204,114,30610,1,2,2:0:0:0:
352,24,30765,6,0,L|360:104,1,79.75,2|0,3:2|2:0,2:0:0:0:
440,168,31074,1,8,2:0:0:0:
437,191,31152,1,0,2:0:0:0:
435,215,31229,1,0,2:0:0:0:
432,239,31306,1,0,2:0:0:0:
430,263,31384,2,0,L|422:343,1,79.75,0|0,2:0|3:2,2:0:0:0:
312,192,31693,2,0,L|304:272,1,79.75,8|0,2:0|2:0,2:0:0:0:
160,368,32002,6,0,L|152:288,1,79.75,0|0,3:2|2:0,2:0:0:0:
72,240,32311,1,8,2:0:0:0:
75,217,32389,1,0,2:0:0:0:
77,193,32466,1,0,2:0:0:0:
80,169,32543,1,0,2:0:0:0:
82,145,32621,2,0,L|90:65,1,79.75,0|0,2:0|3:2,2:0:0:0:
192,16,32930,1,8,2:0:0:0:
256,112,33085,1,2,2:0:0:0:
368,24,33239,6,0,B|344:136|344:136|384:192,1,159.5,2|8,3:2|2:0,2:0:0:0:
464,256,33703,1,0,2:0:0:0:
464,256,33780,1,0,2:0:0:0:
464,256,33858,2,0,L|456:176,1,79.75,0|0,2:0|3:2,2:0:0:0:
496,48,34167,1,8,2:0:0:0:
463,155,34322,1,2,2:0:0:0:
368,24,34476,6,0,L|288:16,1,79.75,2|0,3:2|2:0,2:0:0:0:
224,80,34786,1,8,2:0:0:0:
200,78,34863,1,0,2:0:0:0:
176,77,34940,1,0,3:2:0:0:
152,76,35018,1,0,2:0:0:0:
128,75,35095,2,0,L|40:67,1,79.75,0|0,2:0|3:2,2:0:0:0:
176,160,35404,1,8,2:0:0:0:
80,248,35559,1,2,2:0:0:0:
192,336,35713,6,0,L|208:176,1,159.5,2|8,3:2|2:0,2:0:0:0:
224,80,36177,1,0,2:0:0:0:
224,80,36255,1,0,2:0:0:0:
224,80,36332,2,0,P|272:104|328:96,1,79.75,0|0,2:0|3:2,2:0:0:0:
400,40,36641,2,0,P|440:32|488:56,1,79.75,8|0,2:0|2:0,2:0:0:0:
448,184,36951,6,0,B|328:168|328:168|310:133,1,159.5,0|8,3:2|2:0,2:0:0:0:
352,272,37414,1,0,2:0:0:0:
352,272,37492,1,0,2:0:0:0:
352,272,37569,2,0,L|344:360,1,79.75,0|0,2:0|3:2,2:0:0:0:
448,184,37878,1,8,2:0:0:0:
440,280,38033,1,2,2:0:0:0:
272,160,38188,6,0,L|256:320,1,159.5,2|8,3:2|2:0,2:0:0:0:
176,216,38652,1,0,2:0:0:0:
176,216,38729,1,0,2:0:0:0:
176,216,38806,2,0,P|136:200|80:208,1,79.75,0|0,2:0|3:2,2:0:0:0:
16,328,39115,1,8,2:0:0:0:
120,284,39270,1,2,2:0:0:0:
56,120,39425,6,0,P|118:107|232:144,1,159.5,2|8,3:2|2:0,2:0:0:0:
304,208,39889,1,0,3:2:0:0:
304,208,39966,1,0,2:0:0:0:
304,208,40043,2,0,P|296:160|312:112,1,79.75,0|0,2:0|3:2,2:0:0:0:
424,56,40353,1,8,2:0:0:0:
392,168,40507,1,2,2:0:0:0:
328,40,40662,6,0,L|240:32,1,79.75,2|0,3:2|2:0,2:0:0:0:
80,64,40971,2,0,L|159:56,1,79.75,8|0,2:0|2:0,2:0:0:0:
302,130,41280,2,0,L|214:122,1,79.75,0|0,2:0|3:2,2:0:0:0:
64,160,41590,2,0,L|143:152,1,79.75,8|0,2:0|2:0,2:0:0:0:
52,260,41899,5,2,3:2:0:0:
75,257,41976,1,2,2:0:0:0:
99,254,42054,1,2,2:0:0:0:
123,252,42131,1,2,2:0:0:0:
144,248,42208,2,0,L|136:296,3,39.875,10|2|2|2,2:0|2:0|2:0|2:0,2:0:0:0:
224,304,42518,5,2,2:0:0:0:
247,307,42595,1,2,2:0:0:0:
271,310,42672,1,2,3:2:0:0:
295,312,42749,1,2,2:0:0:0:
316,316,42827,2,0,L|309:276,3,39.875,10|2|2|2,2:0|2:0|2:0|2:0,2:0:0:0:
408,328,43136,6,0,L|392:240,1,79.75,2|0,3:2|2:0,2:0:0:0:
408,128,43445,1,10,2:0:0:0:
386,118,43523,1,2,2:0:0:0:
362,119,43600,1,2,2:0:0:0:
340,128,43677,1,2,2:0:0:0:
320,144,43755,2,0,L|328:184,3,39.875,2|2|2|2,2:0|2:0|3:2|2:0,2:0:0:0:
248,88,44064,2,0,L|256:48,3,39.875,10|2|2|2,2:0|2:0|2:0|2:0,2:0:0:0:
168,104,44373,5,2,3:2:0:0:
288,216,44528,1,2,2:0:0:0:
120,176,44682,1,2,2:0:0:0:
280,128,44837,1,2,3:2:0:0:
232,292,44992,2,0,L|152:283,1,79.75,2|2,2:0|3:2,2:0:0:0:
300,348,45301,1,2,2:0:0:0:
323,351,45378,1,2,2:0:0:0:
346,355,45456,1,10,2:0:0:0:
370,360,45533,1,10,2:0:0:0:
396,364,45610,6,0,B|364:332|364:332|388:188,1,159.5,6|8,3:2|2:0,2:0:0:0:
472,120,46074,1,0,2:0:0:0:
472,120,46152,1,0,2:0:0:0:
472,120,46229,2,0,L|480:200,1,79.75,0|0,2:0|3:2,2:0:0:0:
384,136,46538,1,10,2:0:0:0:
381,112,46615,1,2,2:0:0:0:
379,88,46693,1,2,2:0:0:0:
376,64,46770,1,2,2:0:0:0:
372,44,46847,6,0,B|332:28|292:44|292:44|252:60|212:44,1,159.5,2|8,3:2|2:0,2:0:0:0:
88,136,47311,1,0,2:0:0:0:
88,136,47389,1,0,2:0:0:0:
88,136,47466,2,0,P|128:144|184:120,1,79.75,0|0,2:0|3:2,2:0:0:0:
264,80,47775,1,8,2:0:0:0:
119,47,47930,1,2,2:0:0:0:
48,220,48085,6,0,P|120:236|216:212,1,159.5,2|8,3:2|2:0,2:0:0:0:
312,160,48548,1,0,2:0:0:0:
376,336,48703,2,0,P|320:352|224:288,1,159.5,2|8,2:0|2:0,2:0:0:0:
320,184,49167,1,2,2:0:0:0:
164,133,49322,6,0,L|148:293,1,159.5,2|8,3:2|2:0,2:0:0:0:
48,336,49786,1,0,3:2:0:0:
48,336,49863,1,0,2:0:0:0:
48,336,49940,2,0,P|56:296|48:248,1,79.75,2|0,2:0|3:2,2:0:0:0:
72,168,50249,2,0,L|24:176,3,39.875,10|2|2|2,2:0|2:0|2:0|2:0,2:0:0:0:
80,128,50559,6,0,L|184:120,1,79.75,2|0,3:2|2:0,2:0:0:0:
224,56,50868,1,10,2:0:0:0:
247,58,50945,1,2,2:0:0:0:
271,60,51023,1,2,2:0:0:0:
295,62,51100,1,2,2:0:0:0:
320,64,51177,2,0,L|312:16,3,39.875,2|2|0|2,2:0|2:0|2:0|3:2,2:0:0:0:
408,64,51487,2,0,L|400:16,3,39.875,10|2|2|2,2:0|2:0|2:0|2:0,2:0:0:0:
456,136,51796,6,0,L|504:128,3,39.875,2|2|2|2,3:2|2:0|2:0|2:0,2:0:0:0:
464,224,52105,2,0,L|512:216,3,39.875,10|2|2|2,2:0|2:0|2:0|2:0,2:0:0:0:
458,314,52414,2,0,P|410:298|386:266,1,79.75,2|2,2:0|3:2,2:0:0:0:
296,216,52724,2,0,L|304:304,1,79.75,10|2,2:0|2:0,2:0:0:0:
348,142,53033,6,0,P|307:125|211:211,1,159.5,2|8,3:2|2:0,2:0:0:0:
136,272,53497,1,0,2:0:0:0:
136,272,53574,1,0,2:0:0:0:
136,272,53652,2,0,P|176:264|232:280,1,79.75,0|0,2:0|3:2,2:0:0:0:
312,384,53961,1,8,2:0:0:0:
176,352,54115,1,2,2:0:0:0:
344,288,54270,6,0,B|384:264|384:264|392:144,1,159.5,2|8,3:2|2:0,2:0:0:0:
440,48,54734,1,0,3:2:0:0:
440,48,54811,1,0,2:0:0:0:
440,48,54889,2,0,L|352:56,1,79.75,0|0,2:0|3:2,2:0:0:0:
200,24,55198,1,8,2:0:0:0:
304,124,55353,1,2,2:0:0:0:
144,88,55507,6,0,P|64:96|17:170,1,159.5,2|8,3:2|2:0,2:0:0:0:
113,179,55971,1,0,2:0:0:0:
8,256,56126,2,0,L|48:248,3,39.875,2|2|2|2,2:0|2:0|3:2|2:0,2:0:0:0:
0,352,56435,1,10,2:0:0:0:
23,347,56512,1,2,2:0:0:0:
46,343,56590,1,2,2:0:0:0:
70,340,56667,1,2,2:0:0:0:
88,337,56744,6,0,B|208:323|208:323|239:355,1,159.5,2|8,3:2|2:0,2:0:0:0:
360,376,57208,1,0,2:0:0:0:
360,376,57286,1,0,2:0:0:0:
360,376,57363,2,0,L|304:304,1,79.75,0|0,2:0|3:2,2:0:0:0:
192,240,57672,1,8,2:0:0:0:
328,216,57827,1,2,2:0:0:0:
144,160,57981,6,0,L|316:128,1,159.5,2|8,3:2|2:0,2:0:0:0:
392,40,58445,1,0,2:0:0:0:
392,40,58523,1,0,2:0:0:0:
392,40,58600,2,0,P|376:80|392:128,1,79.75,0|0,2:0|3:2,2:0:0:0:
488,184,58909,1,8,2:0:0:0:
472,80,59064,1,2,2:0:0:0:
368,216,59219,6,0,P|448:216|496:288,1,159.5,2|8,3:2|2:0,2:0:0:0:
512,360,59682,1,0,3:2:0:0:
412,293,59837,2,0,L|332:301,1,79.75,2|0,2:0|3:2,2:0:0:0:
176,320,60146,1,8,2:0:0:0:
304,384,60301,1,2,2:0:0:0:
150,306,60456,6,0,P|102:250|119:164,1,159.5,2|8,3:2|2:0,2:0:0:0:
233,215,60920,1,0,2:0:0:0:
233,215,60997,1,2,2:0:0:0:
233,215,61074,2,0,L|194:222,3,39.875,2|2|2|2,2:0|2:0|3:2|2:0,2:0:0:0:
280,136,61384,2,0,L|319:142,3,39.875,10|2|2|2,2:0|2:0|2:0|2:0,2:0:0:0:
232,64,61693,6,0,L|224:16,3,39.875,2|2|2|2,3:2|2:0|2:0|2:0,2:0:0:0:
144,72,62002,2,0,L|136:24,3,39.875,10|2|2|2,2:0|2:0|2:0|2:0,2:0:0:0:
80,136,62311,2,0,L|96:232,1,79.75,2|2,2:0|3:2,2:0:0:0:
48,304,62621,1,10,2:0:0:0:
160,376,62775,1,2,2:0:0:0:
160,376,62853,1,2,2:0:0:0:
160,376,62930,6,0,P|200:352|248:352,1,79.75,2|0,3:2|3:0,2:0:0:0:
384,368,63239,2,0,P|343:345|319:303,1,79.75,2|0,3:2|3:0,2:0:0:0:
432,200,63548,2,0,P|432:246|408:288,1,79.75,2|0,3:2|3:0,2:0:0:0:
448,104,63858,1,2,3:2:0:0:
340,221,64012,1,2,3:2:0:0:
368,56,64167,6,0,L|352:144,1,79.75,10|0,3:2|3:0,2:0:0:0:
275,17,64476,2,0,L|261:96,1,79.75,10|0,2:0|3:2,2:0:0:0:
204,187,64786,2,0,L|244:179,3,39.875,10|8|0|8,2:0|2:0|3:2|2:0,2:0:0:0:
120,192,65095,1,10,2:0:0:0:
124,215,65172,1,8,2:0:0:0:
128,239,65249,1,8,2:0:0:0:
133,262,65327,1,8,2:0:0:0:
136,288,65404,6,0,B|184:320|240:288|240:288|288:256|351:293,2,217.5,6|6|6,3:2|3:2|3:2,2:0:0:0:
200,192,66641,6,0,L|192:224,9,19.3333333333333,0|0|0|0|0|0|0|0|0|0,2:0|2:0|2:0|2:0|2:0|2:0|2:0|2:0|2:0|2:0,2:0:0:0:
280,144,67260,2,0,L|344:136,1,58,0|0,2:0|2:0,2:0:0:0:
384,232,67569,2,0,L|326:239,1,58,0|0,2:0|2:0,2:0:0:0:
240,128,67878,6,0,B|208:104|208:104|128:112,1,116,2|10,2:3|2:3,2:0:0:0:
64,272,68497,1,2,2:3:0:0:
144,248,68652,2,0,L|136:184,1,58,10|2,2:3|2:3,2:0:0:0:
120,80,68961,1,2,2:3:0:0:
120,80,69038,1,8,2:3:0:0:
120,80,69115,6,0,L|184:72,1,58,2|0,2:3|2:0,2:0:0:0:
304,16,69425,2,0,L|312:80,1,58,10|10,2:3|2:3,2:0:0:0:
328,200,69734,1,10,2:3:0:0:
328,200,69811,1,0,2:0:0:0:
328,200,69889,1,2,2:3:0:0:
392,128,70043,2,0,L|400:88,2,29,2|2|8,2:3|2:3|2:3,2:0:0:0:
376,272,70353,6,0,L|448:264,1,58,2|2,2:0|2:0,2:0:0:0:
296,304,70662,1,2,2:0:0:0:
296,304,70817,2,0,P|320:336|352:352,1,58,2|0,2:0|2:0,2:0:0:0:
232,248,71126,1,2,2:0:0:0:
232,248,71280,6,0,P|208:304|240:368,1,116,2|0,2:0|2:0,2:0:0:0:
128,296,71744,2,0,L|64:304,2,58,2|2|2,2:0|2:0|2:0,2:0:0:0:
64,224,72208,2,0,P|48:192|56:152,1,58,2|0,2:0|2:0,2:0:0:0:
170,143,72518,2,0,P|156:168|132:184,1,58,2|0,2:0|2:0,2:0:0:0:
112,48,72827,6,0,B|176:16|224:48|224:48|272:88|336:48,1,228.375,2|2,2:3|2:3,2:0:0:0:
456,72,74064,2,0,P|408:48|360:64,1,97.8750000000001,2|0,2:3|2:0,2:0:0:0:
392,228,74682,2,0,P|399:180|407:132,1,97.8750000000001,10|0,2:3|2:0,2:0:0:0:
304,192,75301,6,0,B|280:256|328:304|328:304|264:280|216:312,1,228.375,2|2,2:3|2:3,2:0:0:0:
160,368,76538,2,0,P|168:320|176:272,1,97.8750000000001,2|0,2:0|2:0,2:0:0:0:
64,200,77157,2,0,P|72:248|80:296,1,97.8750000000001,10|0,2:3|2:0,2:0:0:0:
160,192,77775,5,6,2:0:0:0:
168,168,79012,1,2,2:0:0:0:
176,144,80249,1,2,2:0:0:0:
184,120,81487,1,2,2:0:0:0:
296,64,82724,5,2,2:0:0:0:
288,88,83961,1,2,2:0:0:0:
280,112,85198,1,2,2:0:0:0:
272,136,86435,1,2,2:0:0:0:
400,168,87672,6,0,L|344:176,1,47.125,2|0,2:3|2:0,2:0:0:0:
328,256,87981,2,0,L|272:248,1,47.125,8|2,2:3|2:3,2:0:0:0:
248,224,88213,2,0,L|192:232,1,47.125,8|8,2:3|2:3,2:0:0:0:
160,216,88445,2,0,P|120:256|64:256,1,94.2499999999999,8|2,2:3|2:3,2:0:0:0:
98,129,88909,6,0,L|92:176,1,47.125,2|0,2:3|2:0,2:0:0:0:
188,88,89219,2,0,L|181:134,1,47.125,2|0,2:3|2:0,2:0:0:0:
272,56,89528,2,0,L|320:48,1,47.125,2|8,2:3|2:3,2:0:0:0:
296,184,89837,2,0,L|249:191,1,47.125,2|0,2:3|2:0,2:0:0:0:
384,112,90146,6,0,P|384:176|416:208,1,94.2499999999999,2|8,2:3|2:3,2:0:0:0:
496,280,90610,1,2,2:3:0:0:
496,280,90688,1,8,2:3:0:0:
496,280,90765,2,0,L|448:272,1,47.125,2|10,2:3|2:3,2:0:0:0:
384,336,91074,2,0,L|392:376,2,23.5625,0|8|0,2:0|2:3|2:0,2:0:0:0:
264,280,91384,6,0,L|272:224,1,47.125,8|2,2:3|2:3,2:0:0:0:
352,200,91693,2,0,L|344:144,1,47.125,2|0,2:3|2:0,2:0:0:0:
328,40,92002,1,2,2:3:0:0:
248,16,92157,2,0,B|192:8|192:8|136:40,1,117.8125,8|0,2:3|2:0,2:0:0:0:
104,64,92621,6,0,P|112:104|104:136,1,54.3749999999997,2|0,2:3|2:0,2:0:0:0:
8,208,92930,2,0,P|38:181|70:172,1,54.3749999999997,8|2,2:3|2:3,2:0:0:0:
144,200,93239,1,2,2:3:0:0:
144,200,93317,1,2,2:3:0:0:
144,200,93394,2,0,B|216:208|216:208|248:184,1,108.749999999999,8|0,2:3|2:0,2:0:0:0:
320,96,93858,6,0,L|328:152,1,54.3749999999997,0|0,2:0|2:0,2:0:0:0:
400,240,94167,2,0,L|408:176,1,54.3749999999997,10|8,2:3|2:3,2:0:0:0:
264,272,94476,2,0,L|257:218,1,54.3749999999997,10|2,2:3|2:3,2:0:0:0:
384,328,94786,2,0,P|352:320|320:328,1,54.3749999999997,2|8,2:3|2:3,2:0:0:0:
168,368,95095,6,0,P|192:336|200:304,1,54.3749999999997,2|0,2:3|2:0,2:0:0:0:
216,208,95404,1,8,2:3:0:0:
104,272,95559,2,0,L|112:312,2,27.1874999999999,0|8|0,2:0|2:3|2:0,2:0:0:0:
24,232,95868,1,8,2:3:0:0:
24,232,96023,2,0,L|32:160,1,54.3749999999997,0|0,2:0|2:0,2:0:0:0:
56,64,96332,6,0,B|128:0|248:40|248:40|224:144|112:128,1,380.624999999998,8|0,2:3|2:0,2:0:0:0:
256,192,97569,12,0,99579,2:0:0:0:
136,256,99994,6,0,L|128:200,3,39.875,6|2|2|2,3:2|2:0|2:0|2:0,2:0:0:0:
144,344,100291,2,0,L|92:356,3,39.875,10|2|2|2,2:0|2:0|2:0|2:0,2:0:0:0:
232,336,100588,2,0,L|240:392,3,39.875,2|2|2|2,2:0|2:0|3:2|2:0,2:0:0:0:
224,248,100885,2,0,L|276:236,3,39.875,10|2|2|2,2:0|2:0|2:0|2:0,2:0:0:0:
136,256,101182,5,2,3:2:0:0:
132,232,101256,1,2,2:0:0:0:
129,208,101330,1,2,2:0:0:0:
126,184,101404,1,2,2:0:0:0:
124,160,101479,2,0,L|116:104,3,39.875,10|2|2|2,2:0|2:0|2:0|2:0,2:0:0:0:
40,168,101776,2,0,L|24:72,1,79.75,2|2,2:0|3:2,2:0:0:0:
184,0,102073,2,0,L|200:80,1,79.75,10|2,2:0|2:0,2:0:0:0:
224,208,102370,5,2,3:2:0:0:
247,203,102444,1,2,2:0:0:0:
271,199,102518,1,2,2:0:0:0:
294,195,102593,1,2,2:0:0:0:
320,192,102667,2,0,L|328:144,3,39.875,10|2|2|2,2:0|2:0|2:0|2:0,2:0:0:0:
400,232,102964,6,0,L|416:160,2,53.1666666666667,2|2|2,2:0|2:0|2:0,2:0:0:0:
384,320,103261,2,0,L|440:328,2,53.1666666666667,10|2|2,2:0|2:0|2:0,2:0:0:0:
304,280,103558,2,0,L|292:331,2,53.1666666666667,2|2|2,3:2|2:0|2:0,2:0:0:0:
320,192,103855,2,0,L|267:184,2,53.1666666666667,10|2|2,2:0|2:0|2:0,2:0:0:0:
344,104,104152,2,0,L|240:88,1,79.75,2|0,2:0|3:0,2:0:0:0:
168,24,104449,2,0,P|168:72|136:104,1,79.75,10|0,2:0|2:0,2:0:0:0:
24,176,104746,6,0,B|16:296|16:296|56:352,1,159.5,2|10,3:2|2:0,2:0:0:0:
192,264,105192,1,2,2:0:0:0:
192,264,105266,1,0,2:0:0:0:
192,264,105340,2,0,P|144:256|104:272,1,79.75,2|2,2:0|3:2,2:0:0:0:
157,353,105637,1,10,2:0:0:0:
232,176,105786,1,0,2:0:0:0:
264,344,105934,6,0,L|328:176,1,159.5,2|10,3:2|2:0,2:0:0:0:
392,72,106380,1,0,2:0:0:0:
392,72,106454,1,0,2:0:0:0:
392,72,106528,2,0,L|408:160,1,79.75,2|0,2:0|3:0,2:0:0:0:
448,288,106825,1,10,2:0:0:0:
496,136,106974,1,0,2:0:0:0:
440,312,107122,6,0,P|376:280|288:304,1,159.5,2|10,3:2|2:0,2:0:0:0:
184,368,107568,1,0,2:0:0:0:
184,368,107642,1,0,2:0:0:0:
184,368,107716,1,0,2:0:0:0:
256,216,107865,1,0,3:0:0:0:
128,288,108013,1,10,2:0:0:0:
293,299,108162,1,0,2:0:0:0:
168,192,108310,6,0,L|160:280,1,79.75,2|0,3:0|2:0,2:0:0:0:
176,104,108607,1,10,2:3:0:0:
256,216,108756,1,2,3:0:0:0:
335,67,108904,2,0,P|295:51|247:59,1,79.75,2|8,2:0|2:3,2:0:0:0:
144,192,109201,1,2,2:3:0:0:
284,135,109350,1,0,2:0:0:0:
120,32,109498,6,0,B|80:72|80:72|104:192,1,159.5,6|10,3:2|2:0,2:0:0:0:
64,328,109944,2,0,P|120:280|208:312,1,159.5,2|2,2:0|3:2,2:0:0:0:
320,376,110390,1,10,2:0:0:0:
322,352,110464,1,2,2:0:0:0:
325,328,110538,1,2,2:0:0:0:
328,304,110612,1,2,2:0:0:0:
331,279,110687,6,0,B|371:255|371:255|387:135,1,159.5,2|10,3:2|2:0,2:0:0:0:
488,40,111132,2,0,L|465:220,1,159.5,2|0,2:0|3:0,2:0:0:0:
402,292,111578,1,10,2:0:0:0:
378,288,111652,1,2,2:0:0:0:
355,284,111726,1,2,2:0:0:0:
331,279,111800,1,2,2:0:0:0:
309,275,111875,6,0,B|189:259|189:259|229:307,1,159.5,2|10,3:2|2:0,2:0:0:0:
96,344,112320,2,0,L|112:176,1,159.5,2|2,2:0|3:2,2:0:0:0:
80,80,112766,2,0,P|120:96|176:80,1,79.75,10|0,2:0|2:0,2:0:0:0:
240,24,113063,5,2,3:2:0:0:
263,26,113137,1,2,2:0:0:0:
287,28,113211,1,2,2:0:0:0:
311,31,113286,1,2,2:0:0:0:
336,35,113360,2,0,L|344:83,3,39.875,10|2|2|2,2:0|2:0|3:2|2:0,2:0:0:0:
432,48,113657,5,2,2:0:0:0:
430,71,113731,1,2,2:0:0:0:
428,95,113805,1,2,3:2:0:0:
425,119,113880,1,2,2:0:0:0:
421,144,113954,2,0,L|373:152,3,39.875,10|2|2|2,2:0|2:0|2:0|2:0,2:0:0:0:
496,192,114251,6,0,B|488:328|488:328|464:304,1,159.5,2|8,3:2|2:0,2:0:0:0:
360,176,114696,2,0,L|199:204,1,159.5,2|0,2:0|3:0,2:0:0:0:
80,272,115142,2,0,L|160:280,1,79.75,10|0,2:0|2:0,2:0:0:0:
228,339,115439,5,2,3:2:0:0:
243,320,115513,1,0,2:0:0:0:
250,298,115588,1,0,2:0:0:0:
249,274,115662,1,0,2:0:0:0:
240,256,115736,2,0,L|256:208,3,39.875,8|0|0|0,2:0|3:0|3:0|3:0,2:0:0:0:
332,256,116033,2,0,L|354:179,1,79.75,2|0,3:2|3:0,2:0:0:0:
424,72,116330,1,8,2:0:0:0:
405,87,116404,1,0,3:0:0:0:
382,93,116479,1,0,3:0:0:0:
359,89,116553,1,0,3:0:0:0:
336,80,116627,6,0,B|304:56|304:56|176:72,1,159.5,2|8,3:2|2:0,2:0:0:0:
80,40,117073,1,0,3:0:0:0:
80,40,117147,1,0,3:0:0:0:
80,40,117221,2,0,P|96:80|80:136,1,79.75,2|0,3:2|3:0,2:0:0:0:
20,184,117518,1,8,2:0:0:0:
42,189,117593,1,0,3:0:0:0:
59,204,117667,1,0,3:0:0:0:
65,227,117741,1,0,3:0:0:0:
64,248,117815,6,0,L|56:288,3,39.875,2|2|2|2,3:2|3:2|3:2|3:2,2:0:0:0:
156,236,118112,2,0,L|164:196,3,39.875,10|2|2|2,2:0|3:2|3:2|3:2,2:0:0:0:
140,324,118409,2,0,L|132:364,3,39.875,10|10|10|10,3:2|3:2|3:2|3:2,2:0:0:0:
232,296,118706,1,10,2:0:0:0:
255,298,118781,1,10,3:2:0:0:
275,311,118855,1,10,3:2:0:0:
287,332,118929,1,10,3:2:0:0:
296,352,119003,6,0,B|360:336|360:336|400:352|400:352|464:336,1,159.5,6|8,3:2|2:0,2:0:0:0:
504,264,119449,1,0,2:0:0:0:
408,176,119597,2,0,L|416:256,1,79.75,0|0,2:0|3:0,2:0:0:0:
496,176,119894,1,10,2:0:0:0:
493,152,119969,1,2,2:0:0:0:
490,128,120043,1,2,2:0:0:0:
487,104,120117,1,2,2:0:0:0:
484,76,120192,6,0,P|424:88|360:16,1,159.5,2|8,3:2|2:0,2:0:0:0:
328,136,120637,1,0,2:0:0:0:
328,136,120711,1,0,2:0:0:0:
328,136,120786,2,0,L|240:128,1,79.75,0|0,2:0|3:0,2:0:0:0:
160,120,121083,1,8,2:0:0:0:
272,224,121231,1,2,2:0:0:0:
272,40,121380,6,0,L|96:24,1,159.5,2|8,3:2|2:0,2:0:0:0:
32,16,121825,1,0,2:0:0:0:
128,112,121974,2,0,P|144:184|80:248,1,159.5,2|8,2:0|2:0,2:0:0:0:
240,144,122419,1,2,2:0:0:0:
206,327,122568,6,0,L|238:151,1,159.5,2|10,3:2|2:0,2:0:0:0:
360,48,123013,1,2,3:2:0:0:
400,200,123162,2,0,P|360:208|320:192,1,79.75,2|0,2:0|3:0,2:0:0:0:
424,112,123459,1,10,2:0:0:0:
426,135,123533,1,2,2:0:0:0:
429,159,123607,1,2,2:0:0:0:
431,183,123682,1,2,2:0:0:0:
435,206,123756,6,0,L|443:294,1,79.75,2|0,3:2|2:0,2:0:0:0:
400,360,124053,1,10,2:0:0:0:
378,349,124127,1,2,2:0:0:0:
355,345,124201,1,2,2:0:0:0:
331,347,124276,1,2,2:0:0:0:
312,352,124350,2,0,L|320:304,3,39.875,2|2|2|2,2:0|2:0|3:2|2:0,2:0:0:0:
232,336,124647,2,0,L|225:375,3,39.875,10|2|2|2,2:0|2:0|2:0|2:0,2:0:0:0:
152,312,124944,6,0,L|160:264,3,39.875,2|2|2|2,3:2|2:0|2:0|2:0,2:0:0:0:
72,296,125241,2,0,L|60:379,1,79.75,10|2,2:0|2:0,2:0:0:0:
162,248,125538,2,0,L|173:169,1,79.75,2|2,2:0|3:2,2:0:0:0:
184,88,125835,1,10,2:0:0:0:
80,216,125984,1,2,2:0:0:0:
104,48,126132,6,0,L|272:72,1,159.5,2|10,3:2|2:0,2:0:0:0:
336,24,126578,1,2,2:0:0:0:
400,120,126726,1,2,2:0:0:0:
403,143,126800,1,2,2:0:0:0:
406,167,126875,1,2,3:2:0:0:
409,191,126949,1,0,2:0:0:0:
412,216,127023,2,0,L|460:208,3,39.875,10|2|2|0,2:0|2:0|2:0|2:0,2:0:0:0:
456,296,127320,6,0,L|288:320,1,159.5,2|8,3:2|2:0,2:0:0:0:
136,344,127766,1,0,3:0:0:0:
208,280,127914,1,2,2:0:0:0:
216,257,127989,1,2,2:0:0:0:
217,233,128063,1,2,3:2:0:0:
212,210,128137,1,0,2:0:0:0:
200,192,128211,2,0,L|208:144,3,39.875,10|2|2|0,2:0|2:0|2:0|2:0,2:0:0:0:
112,192,128508,6,0,L|135:34,1,159.5,2|10,3:2|2:0,2:0:0:0:
216,64,128954,1,2,2:0:0:0:
328,16,129102,1,2,2:0:0:0:
351,13,129177,1,2,2:0:0:0:
373,22,129251,1,2,3:2:0:0:
389,39,129325,1,0,2:0:0:0:
400,56,129399,2,0,L|456:48,3,39.875,10|2|2|2,2:0|2:0|2:0|2:0,2:0:0:0:
416,136,129696,6,0,B|392:168|392:168|408:296,1,159.5,2|10,3:2|2:0,2:0:0:0:
480,336,130142,1,2,2:0:0:0:
320,264,130291,1,2,2:0:0:0:
298,254,130365,1,2,2:0:0:0:
274,253,130439,1,2,3:2:0:0:
251,260,130513,1,0,2:0:0:0:
232,272,130588,2,0,L|240:320,3,39.875,10|2|2|0,2:0|2:0|2:0|2:0,2:0:0:0:
152,336,130885,6,0,L|128:160,1,159.5,2|10,3:2|2:0,2:0:0:0:
112,96,131330,1,2,2:0:0:0:
40,208,131479,1,2,2:0:0:0:
43,231,131553,1,0,2:0:0:0:
46,255,131627,1,0,3:0:0:0:
49,279,131701,1,0,2:0:0:0:
52,304,131776,2,0,L|60:364,3,39.875,10|0|2|0,2:0|2:0|2:0|2:0,2:0:0:0:
152,336,132073,6,0,B|192:360|232:336|232:336|272:312|320:336,1,159.5,2|10,3:2|2:0,2:0:0:0:
392,360,132518,1,2,3:2:0:0:
292,228,132667,2,0,L|300:308,1,79.75,2|2,2:0|3:2,2:0:0:0:
388,272,132964,1,10,2:0:0:0:
385,247,133038,1,2,2:0:0:0:
383,223,133112,1,2,2:0:0:0:
381,199,133187,1,2,2:0:0:0:
379,179,133261,6,0,B|412:148|412:148|400:19,1,159.5,2|10,3:2|2:0,2:0:0:0:
320,112,133706,1,2,2:0:0:0:
248,16,133855,1,2,2:0:0:0:
224,18,133929,1,2,2:0:0:0:
200,20,134003,1,2,3:2:0:0:
176,23,134078,1,2,2:0:0:0:
152,24,134152,2,0,L|160:64,3,39.875,10|2|2|2,2:0|2:0|2:0|2:0,2:0:0:0:
64,32,134449,6,0,L|80:128,1,79.75,2|2,3:2|2:0,2:0:0:0:
72,264,134746,1,10,2:0:0:0:
160,144,134894,1,2,3:2:0:0:
24,184,135043,1,2,3:2:0:0:
168,240,135192,1,2,3:2:0:0:
176,112,135340,1,10,2:0:0:0:
199,117,135414,1,0,3:0:0:0:
222,122,135489,1,2,3:2:0:0:
245,128,135563,1,0,3:0:0:0:
268,132,135637,6,0,L|280:80,3,39.875,2|0|2|2,3:2|3:0|3:2|3:2,2:0:0:0:
352,152,135934,2,0,L|364:100,3,39.875,10|0|2|2,2:0|3:0|3:2|3:2,2:0:0:0:
434,184,136231,1,2,3:2:0:0:
428,202,136305,1,2,3:2:0:0:
423,221,136380,1,2,3:2:0:0:
419,240,136454,1,2,3:2:0:0:
414,259,136528,1,10,2:0:0:0:
410,279,136602,1,2,3:2:0:0:
406,297,136677,1,2,3:2:0:0:
402,316,136751,1,2,3:2:0:0:
400,333,136825,6,0,L|440:320,3,39.875,2|0|0|0,3:2|3:0|3:0|3:0,2:0:0:0:
312,304,137122,1,10,2:0:0:0:
224,352,137271,1,0,3:0:0:0:
56,304,137419,2,0,L|144:312,1,79.75,10|10,3:2|3:2,2:0:0:0:
44,204,137716,1,10,2:0:0:0:
83,208,137791,1,10,3:2:0:0:
123,212,137865,1,10,3:2:0:0:
162,217,137939,1,10,3:2:0:0:
200,224,138013,6,0,P|120:192|192:128,1,217.5,6|2,3:2|2:0,2:0:0:0:
224,56,140390,2,0,P|272:64|328:72,1,101.5,2|2,2:0|2:0,2:0:0:0:
368,152,141578,2,0,P|317:160|267:167,1,101.5,2|2,2:0|2:0,2:0:0:0:
224,264,142766,6,0,L|440:228,1,217.5,2|2,2:0|2:0,2:0:0:0:
392,144,145142,2,0,P|400:96|440:64,1,101.5,2|2,2:0|2:0,2:0:0:0:
352,16,146330,2,0,P|288:24|248:32,1,101.5,2|2,2:0|2:0,2:0:0:0:
216,128,147518,6,0,B|176:96|112:128|112:128|56:160|8:128,1,217.5,2|2,2:0|2:0,2:0:0:0:
62,62,149894,2,0,P|70:126|78:166,1,101.5,2|2,2:0|2:0,2:0:0:0:
144,224,151083,2,0,P|136:280|128:328,1,101.5,2|2,2:0|2:0,2:0:0:0:
208,376,152271,6,0,P|216:325|223:275,1,101.5,2|2,2:0|2:0,2:0:0:0:
240,192,153459,2,0,P|272:176|296:104,2,116,2|2|2,2:0|2:0|2:0,2:0:0:0:
180,104,157023,6,0,L|220:116,2,38.6666666666667,2|2|2,2:0|2:0|2:0,2:0:0:0:
256,192,157617,12,0,159399,2:0:0:0:
